osu file format v14

[General]
AudioFilename: audio.mp3
AudioLeadIn: 0
PreviewTime: 25480
Countdown: 1
SampleSet: Normal
StackLeniency: 0.7
Mode: 1
LetterboxInBreaks: 0
WidescreenStoryboard: 1

[Editor]
DistanceSpacing: 0.8
BeatDivisor: 4
GridSize: 16
TimelineZoom: 1

[Metadata]
Title:Vezde plyashu
TitleUnicode:Везде пляшу
Artist:Neuromonakh Feofan
ArtistUnicode:Нейромонах Феофан
Creator:Nepuri
Version:Trudnyy
Source:
Tags:Велики силы добра Veliki sily dobra Russian Folk Drum and Bass 'n' DnB Neurofeofan Greenshell
BeatmapID:1468656
BeatmapSetID:694154

[Difficulty]
HPDrainRate:5
CircleSize:5
OverallDifficulty:4.5
ApproachRate:5
SliderMultiplier:1.4
SliderTickRate:1

[Events]
//Background and Video events
0,0,"Neuromonakh.png",0,70
//Break Periods
//Storyboard Layer 0 (Background)
//Storyboard Layer 1 (Fail)
//Storyboard Layer 2 (Pass)
//Storyboard Layer 3 (Foreground)
//Storyboard Sound Samples

[TimingPoints]
3709,342.857142857143,4,1,0,100,1,0
25651,-100,4,1,0,100,0,1
64051,-100,4,1,0,100,0,0
84623,-100,4,1,0,100,0,1
121651,-100,4,1,0,100,0,0

[HitObjects]
208,208,5080,5,4,0:0:0:0:
208,208,5594,1,0,0:0:0:0:
208,208,5766,1,8,0:0:0:0:
208,208,6109,1,8,0:0:0:0:
208,176,6451,1,0,0:0:0:0:
208,176,6794,1,0,0:0:0:0:
208,176,6966,1,0,0:0:0:0:
208,176,7137,1,8,0:0:0:0:
208,176,7480,1,8,0:0:0:0:
96,48,7651,1,0,0:0:0:0:
208,176,7823,1,0,0:0:0:0:
208,176,8509,1,8,0:0:0:0:
208,176,8851,1,0,0:0:0:0:
208,176,9194,1,8,0:0:0:0:
208,176,9537,1,0,0:0:0:0:
208,176,9880,1,8,0:0:0:0:
208,176,10223,1,0,0:0:0:0:
208,176,10394,1,0,0:0:0:0:
208,176,10566,1,8,0:0:0:0:
208,176,11080,1,0,0:0:0:0:
192,176,11251,1,8,0:0:0:0:
192,176,11594,1,8,0:0:0:0:
192,176,11937,1,8,0:0:0:0:
192,176,12109,1,0,0:0:0:0:
192,176,12280,1,0,0:0:0:0:
192,176,12623,1,8,0:0:0:0:
192,176,12966,1,0,0:0:0:0:
192,176,13137,1,8,0:0:0:0:
192,176,13309,1,0,0:0:0:0:
160,112,13651,1,8,0:0:0:0:
128,64,13994,1,0,0:0:0:0:
192,176,14680,1,12,0:0:0:0:
288,192,15194,1,0,0:0:0:0:
288,208,15366,1,8,0:0:0:0:
272,224,15709,1,0,0:0:0:0:
208,80,15880,1,0,0:0:0:0:
272,224,16051,1,8,0:0:0:0:
272,208,16394,1,8,0:0:0:0:
272,208,16566,1,0,0:0:0:0:
272,224,16737,1,8,0:0:0:0:
256,224,17080,1,0,0:0:0:0:
256,224,17251,1,8,0:0:0:0:
256,224,17423,1,0,0:0:0:0:
192,128,18109,1,8,0:0:0:0:
208,112,18451,1,0,0:0:0:0:
208,112,18794,1,8,0:0:0:0:
192,144,19137,1,0,0:0:0:0:
192,128,19480,1,8,0:0:0:0:
192,128,19823,1,0,0:0:0:0:
192,128,19994,1,0,0:0:0:0:
192,128,20166,1,8,0:0:0:0:
192,128,20680,1,0,0:0:0:0:
192,128,20851,1,8,0:0:0:0:
192,128,21194,1,8,0:0:0:0:
192,128,21537,1,0,0:0:0:0:
192,128,21709,1,0,0:0:0:0:
192,128,21880,1,8,0:0:0:0:
224,144,22223,1,8,0:0:0:0:
192,128,22909,1,0,0:0:0:0:
224,144,23251,1,8,0:0:0:0:
192,112,23594,1,0,0:0:0:0:
192,112,23937,1,8,0:0:0:0:
192,112,24280,1,0,0:0:0:0:
192,112,24451,1,0,0:0:0:0:
192,112,24623,1,8,0:0:0:0:
192,112,24794,1,0,0:0:0:0:
256,128,24966,1,0,0:0:0:0:
256,128,25051,1,0,0:0:0:0:
256,128,25137,1,0,0:0:0:0:
256,128,25309,1,12,0:0:0:0:
160,272,25651,1,4,0:0:0:0:
224,256,25994,1,8,0:0:0:0:
224,240,26337,1,0,0:0:0:0:
224,240,26509,1,0,0:0:0:0:
224,240,26680,1,8,0:0:0:0:
208,192,27023,1,8,0:0:0:0:
208,192,27194,1,0,0:0:0:0:
208,192,27366,1,8,0:0:0:0:
208,192,27537,1,8,0:0:0:0:
208,192,27709,1,0,0:0:0:0:
64,192,28051,1,8,0:0:0:0:
64,192,28394,1,0,0:0:0:0:
64,208,28737,1,8,0:0:0:0:
64,208,28909,1,0,0:0:0:0:
64,208,29080,1,0,0:0:0:0:
64,208,29423,1,8,0:0:0:0:
64,208,29594,1,0,0:0:0:0:
64,208,29766,1,8,0:0:0:0:
64,208,30109,1,0,0:0:0:0:
64,208,30280,1,0,0:0:0:0:
64,224,30451,1,8,0:0:0:0:
176,240,30623,1,0,0:0:0:0:
64,224,30794,1,8,0:0:0:0:
64,224,30966,1,8,0:0:0:0:
64,224,31137,1,0,0:0:0:0:
64,208,31480,1,8,0:0:0:0:
80,192,31994,1,0,0:0:0:0:
176,272,32166,1,8,0:0:0:0:
208,288,32509,1,0,0:0:0:0:
208,288,32851,1,8,0:0:0:0:
208,288,33023,1,8,0:0:0:0:
208,288,33194,1,0,0:0:0:0:
128,208,33366,1,0,0:0:0:0:
208,288,33537,1,8,0:0:0:0:
208,288,33880,1,8,0:0:0:0:
208,192,33966,1,8,0:0:0:0:
208,288,34051,1,8,0:0:0:0:
208,288,34223,1,8,0:0:0:0:
160,192,34566,1,0,0:0:0:0:
160,208,35251,1,4,0:0:0:0:
240,192,35594,1,8,0:0:0:0:
240,160,35937,1,0,0:0:0:0:
240,160,36109,1,0,0:0:0:0:
240,160,36280,1,8,0:0:0:0:
160,176,36451,1,0,0:0:0:0:
192,176,36623,1,8,0:0:0:0:
192,176,36966,1,8,0:0:0:0:
192,176,37137,1,8,0:0:0:0:
192,176,37309,1,0,0:0:0:0:
192,176,37480,1,0,0:0:0:0:
192,176,37651,1,8,0:0:0:0:
192,176,37994,1,8,0:0:0:0:
192,176,38337,1,0,0:0:0:0:
192,176,38509,1,0,0:0:0:0:
192,192,38680,1,8,0:0:0:0:
176,176,39023,1,0,0:0:0:0:
176,176,39194,1,8,0:0:0:0:
176,176,39366,1,0,0:0:0:0:
176,176,39709,1,0,0:0:0:0:
176,176,39880,1,0,0:0:0:0:
176,176,40051,1,8,0:0:0:0:
176,176,40394,1,8,0:0:0:0:
176,48,40480,1,8,0:0:0:0:
176,176,40566,1,8,0:0:0:0:
176,176,40737,1,0,0:0:0:0:
272,96,41080,1,8,0:0:0:0:
272,96,41594,1,0,0:0:0:0:
272,96,41766,1,8,0:0:0:0:
272,96,42109,1,0,0:0:0:0:
240,160,42451,1,8,0:0:0:0:
240,160,42623,1,0,0:0:0:0:
240,160,42794,1,8,0:0:0:0:
240,160,42966,1,8,0:0:0:0:
240,160,43137,1,0,0:0:0:0:
240,160,43480,1,0,0:0:0:0:
240,192,43566,1,0,0:0:0:0:
240,192,43651,1,0,0:0:0:0:
240,192,43823,1,0,0:0:0:0:
256,176,44337,1,0,0:0:0:0:
256,176,44851,1,4,0:0:0:0:
240,144,45194,1,8,0:0:0:0:
240,144,45537,1,0,0:0:0:0:
240,144,45709,1,0,0:0:0:0:
240,160,45880,1,8,0:0:0:0:
240,160,46223,1,0,0:0:0:0:
240,160,46394,1,0,0:0:0:0:
240,160,46566,1,8,0:0:0:0:
240,160,46737,1,8,0:0:0:0:
240,160,46909,1,0,0:0:0:0:
240,160,47251,1,8,0:0:0:0:
240,112,47594,1,0,0:0:0:0:
240,112,47766,1,0,0:0:0:0:
240,112,47937,1,8,0:0:0:0:
240,112,48280,1,0,0:0:0:0:
240,112,48451,1,8,0:0:0:0:
240,112,48623,1,0,0:0:0:0:
240,112,48966,1,0,0:0:0:0:
240,112,49137,1,0,0:0:0:0:
240,112,49309,1,8,0:0:0:0:
176,96,49480,1,0,0:0:0:0:
240,112,49651,1,8,0:0:0:0:
240,112,49823,1,0,0:0:0:0:
240,112,49994,1,8,0:0:0:0:
240,112,50337,1,0,0:0:0:0:
240,112,50680,1,8,0:0:0:0:
176,160,51194,1,0,0:0:0:0:
176,160,51366,1,8,0:0:0:0:
176,160,51709,1,0,0:0:0:0:
176,160,52051,1,8,0:0:0:0:
176,160,52223,1,8,0:0:0:0:
176,176,52394,1,0,0:0:0:0:
176,160,52737,1,8,0:0:0:0:
176,160,53080,1,8,0:0:0:0:
176,80,53166,1,8,0:0:0:0:
176,160,53251,1,8,0:0:0:0:
176,160,53423,1,8,0:0:0:0:
176,176,53766,1,0,0:0:0:0:
176,160,54451,1,4,0:0:0:0:
224,224,54794,1,8,0:0:0:0:
224,224,55137,1,0,0:0:0:0:
224,224,55309,1,0,0:0:0:0:
224,224,55480,1,8,0:0:0:0:
224,224,55823,1,8,0:0:0:0:
224,224,55994,1,0,0:0:0:0:
224,224,56166,1,8,0:0:0:0:
160,128,56337,1,8,0:0:0:0:
144,64,56509,1,0,0:0:0:0:
224,224,56851,1,8,0:0:0:0:
224,224,57194,1,0,0:0:0:0:
224,224,57366,1,0,0:0:0:0:
224,224,57537,1,8,0:0:0:0:
224,224,57880,1,0,0:0:0:0:
224,224,58051,1,8,0:0:0:0:
224,224,58223,1,0,0:0:0:0:
224,224,58566,1,8,0:0:0:0:
224,224,58737,1,0,0:0:0:0:
224,224,58909,1,0,0:0:0:0:
224,224,59251,1,0,0:0:0:0:
208,80,59337,1,0,0:0:0:0:
224,224,59423,1,0,0:0:0:0:
224,224,59594,1,8,0:0:0:0:
224,224,59937,1,0,0:0:0:0:
224,224,60280,1,8,0:0:0:0:
144,128,60794,1,0,0:0:0:0:
144,128,60966,1,8,0:0:0:0:
144,128,61309,1,0,0:0:0:0:
144,128,61651,1,8,0:0:0:0:
144,128,61823,1,0,0:0:0:0:
144,128,61994,1,0,0:0:0:0:
144,128,62166,1,0,0:0:0:0:
144,128,62337,1,8,0:0:0:0:
144,128,62680,1,0,0:0:0:0:
144,128,62766,1,0,0:0:0:0:
144,128,62851,1,0,0:0:0:0:
144,128,63023,1,0,0:0:0:0:
192,80,64051,1,4,0:0:0:0:
208,208,64566,1,0,0:0:0:0:
208,208,64737,1,8,0:0:0:0:
208,208,65080,1,8,0:0:0:0:
208,176,65423,1,0,0:0:0:0:
208,176,65766,1,0,0:0:0:0:
208,176,65937,1,0,0:0:0:0:
208,176,66109,1,8,0:0:0:0:
208,176,66451,1,8,0:0:0:0:
96,48,66623,1,0,0:0:0:0:
208,176,66794,1,0,0:0:0:0:
208,176,67480,1,8,0:0:0:0:
208,176,67823,1,0,0:0:0:0:
224,176,67994,1,0,0:0:0:0:
208,176,68166,1,8,0:0:0:0:
208,176,68509,1,0,0:0:0:0:
240,176,68680,1,0,0:0:0:0:
208,176,68851,1,8,0:0:0:0:
208,176,69194,1,0,0:0:0:0:
208,176,69537,1,8,0:0:0:0:
208,176,70051,1,0,0:0:0:0:
192,176,70223,1,8,0:0:0:0:
192,176,70566,1,8,0:0:0:0:
192,176,70909,1,8,0:0:0:0:
192,176,71080,1,0,0:0:0:0:
192,176,71251,1,0,0:0:0:0:
192,176,71594,1,8,0:0:0:0:
192,176,71937,1,0,0:0:0:0:
192,176,72109,1,8,0:0:0:0:
192,176,72280,1,0,0:0:0:0:
160,112,72623,1,8,0:0:0:0:
128,64,72966,1,0,0:0:0:0:
192,176,73651,1,12,0:0:0:0:
288,192,74166,1,0,0:0:0:0:
288,208,74337,1,8,0:0:0:0:
272,224,74680,1,0,0:0:0:0:
208,80,74851,1,0,0:0:0:0:
272,224,75023,1,8,0:0:0:0:
272,208,75366,1,8,0:0:0:0:
272,208,75537,1,0,0:0:0:0:
272,224,75709,1,8,0:0:0:0:
256,224,76051,1,8,0:0:0:0:
256,224,76223,1,0,0:0:0:0:
256,224,76394,1,0,0:0:0:0:
192,128,77080,1,8,0:0:0:0:
208,112,77423,1,0,0:0:0:0:
128,160,77594,1,0,0:0:0:0:
208,112,77766,1,8,0:0:0:0:
192,144,78109,1,0,0:0:0:0:
128,160,78280,1,0,0:0:0:0:
192,128,78451,1,8,0:0:0:0:
192,128,78794,1,0,0:0:0:0:
192,128,78966,1,8,0:0:0:0:
192,128,79137,1,0,0:0:0:0:
192,128,79651,1,0,0:0:0:0:
192,128,79823,1,8,0:0:0:0:
192,128,80166,1,8,0:0:0:0:
192,128,80509,1,0,0:0:0:0:
192,128,80680,1,0,0:0:0:0:
192,128,80851,1,8,0:0:0:0:
224,144,81194,1,8,0:0:0:0:
192,128,81880,1,0,0:0:0:0:
224,144,82223,1,8,0:0:0:0:
192,112,82566,1,0,0:0:0:0:
192,112,82909,1,8,0:0:0:0:
192,112,83251,1,0,0:0:0:0:
192,112,83423,1,0,0:0:0:0:
192,112,83594,1,8,0:0:0:0:
192,112,83766,1,0,0:0:0:0:
256,128,83937,1,0,0:0:0:0:
256,128,84023,1,0,0:0:0:0:
256,128,84109,1,0,0:0:0:0:
256,128,84280,1,12,0:0:0:0:
160,272,84623,1,4,0:0:0:0:
224,256,84966,1,8,0:0:0:0:
224,240,85309,1,0,0:0:0:0:
224,240,85480,1,0,0:0:0:0:
224,240,85651,1,8,0:0:0:0:
208,192,85994,1,8,0:0:0:0:
208,192,86166,1,0,0:0:0:0:
208,192,86337,1,8,0:0:0:0:
208,192,86509,1,8,0:0:0:0:
208,192,86680,1,0,0:0:0:0:
160,240,86851,1,0,0:0:0:0:
64,192,87023,1,8,0:0:0:0:
64,192,87366,1,0,0:0:0:0:
64,208,87709,1,8,0:0:0:0:
64,208,87880,1,0,0:0:0:0:
64,208,88051,1,0,0:0:0:0:
64,208,88394,1,8,0:0:0:0:
64,208,88566,1,0,0:0:0:0:
64,208,88737,1,8,0:0:0:0:
64,208,89080,1,0,0:0:0:0:
64,208,89251,1,0,0:0:0:0:
64,224,89423,1,8,0:0:0:0:
112,144,89594,1,0,0:0:0:0:
64,224,89766,1,8,0:0:0:0:
64,224,89937,1,8,0:0:0:0:
64,224,90109,1,0,0:0:0:0:
64,208,90451,1,8,0:0:0:0:
80,192,90966,1,0,0:0:0:0:
176,272,91137,1,8,0:0:0:0:
208,288,91480,1,0,0:0:0:0:
208,288,91823,1,8,0:0:0:0:
208,288,91994,1,8,0:0:0:0:
208,288,92166,1,0,0:0:0:0:
128,208,92337,1,0,0:0:0:0:
208,288,92509,1,8,0:0:0:0:
208,288,92851,1,8,0:0:0:0:
208,192,92937,1,8,0:0:0:0:
208,288,93023,1,8,0:0:0:0:
208,288,93194,1,8,0:0:0:0:
160,192,93537,1,0,0:0:0:0:
160,208,94223,1,4,0:0:0:0:
240,192,94566,1,8,0:0:0:0:
240,160,94909,1,0,0:0:0:0:
240,160,95080,1,0,0:0:0:0:
240,160,95251,1,8,0:0:0:0:
240,128,95423,1,0,0:0:0:0:
192,176,95594,1,8,0:0:0:0:
192,176,95937,1,8,0:0:0:0:
192,176,96109,1,8,0:0:0:0:
192,176,96280,1,0,0:0:0:0:
192,176,96451,1,0,0:0:0:0:
192,176,96623,1,8,0:0:0:0:
240,176,96794,1,0,0:0:0:0:
192,176,96966,1,8,0:0:0:0:
192,176,97309,1,0,0:0:0:0:
192,176,97480,1,0,0:0:0:0:
192,192,97651,1,8,0:0:0:0:
176,176,97994,1,0,0:0:0:0:
176,176,98166,1,8,0:0:0:0:
176,176,98337,1,0,0:0:0:0:
176,176,98680,1,0,0:0:0:0:
176,176,98851,1,0,0:0:0:0:
176,176,99023,1,8,0:0:0:0:
176,176,99366,1,8,0:0:0:0:
224,112,99451,1,8,0:0:0:0:
176,176,99537,1,8,0:0:0:0:
176,176,99709,1,8,0:0:0:0:
272,96,100051,1,8,0:0:0:0:
272,96,100566,1,0,0:0:0:0:
272,96,100737,1,8,0:0:0:0:
272,96,101080,1,0,0:0:0:0:
240,160,101423,1,8,0:0:0:0:
240,160,101594,1,0,0:0:0:0:
240,160,101766,1,8,0:0:0:0:
240,160,101937,1,0,0:0:0:0:
240,160,102109,1,0,0:0:0:0:
240,160,102451,1,0,0:0:0:0:
240,192,102537,1,0,0:0:0:0:
240,192,102623,1,0,0:0:0:0:
240,192,102794,1,0,0:0:0:0:
256,176,103309,1,0,0:0:0:0:
256,176,103823,1,4,0:0:0:0:
240,144,104166,1,8,0:0:0:0:
240,144,104509,1,0,0:0:0:0:
240,144,104680,1,0,0:0:0:0:
240,160,104851,1,8,0:0:0:0:
240,160,105194,1,0,0:0:0:0:
240,160,105366,1,0,0:0:0:0:
240,160,105537,1,8,0:0:0:0:
240,160,105709,1,8,0:0:0:0:
240,160,105880,1,0,0:0:0:0:
176,80,106051,1,0,0:0:0:0:
240,160,106223,1,8,0:0:0:0:
240,112,106566,1,0,0:0:0:0:
240,112,106737,1,0,0:0:0:0:
240,112,106909,1,8,0:0:0:0:
240,112,107251,1,0,0:0:0:0:
240,112,107423,1,8,0:0:0:0:
240,112,107594,1,0,0:0:0:0:
240,112,107937,1,0,0:0:0:0:
240,112,108109,1,0,0:0:0:0:
240,112,108280,1,8,0:0:0:0:
240,112,108623,1,8,0:0:0:0:
240,112,108794,1,0,0:0:0:0:
240,112,108966,1,8,0:0:0:0:
96,160,109137,1,8,0:0:0:0:
240,112,109309,1,0,0:0:0:0:
240,112,109651,1,8,0:0:0:0:
176,160,110166,1,0,0:0:0:0:
176,160,110337,1,8,0:0:0:0:
176,160,110680,1,0,0:0:0:0:
176,160,111023,1,8,0:0:0:0:
176,160,111194,1,8,0:0:0:0:
176,176,111366,1,0,0:0:0:0:
176,80,111537,1,0,0:0:0:0:
176,160,111709,1,8,0:0:0:0:
176,160,112051,1,8,0:0:0:0:
176,80,112137,1,8,0:0:0:0:
176,160,112223,1,8,0:0:0:0:
176,160,112394,1,8,0:0:0:0:
176,176,112737,1,0,0:0:0:0:
176,160,113423,1,4,0:0:0:0:
224,224,113766,1,8,0:0:0:0:
224,224,114109,1,0,0:0:0:0:
224,224,114280,1,0,0:0:0:0:
224,224,114451,1,8,0:0:0:0:
224,224,114794,1,8,0:0:0:0:
224,224,114966,1,0,0:0:0:0:
224,224,115137,1,8,0:0:0:0:
160,128,115309,1,8,0:0:0:0:
144,64,115480,1,0,0:0:0:0:
224,224,115823,1,8,0:0:0:0:
224,224,116166,1,0,0:0:0:0:
224,224,116337,1,0,0:0:0:0:
224,224,116509,1,8,0:0:0:0:
224,224,116851,1,0,0:0:0:0:
224,224,117023,1,8,0:0:0:0:
224,224,117194,1,0,0:0:0:0:
224,224,117537,1,8,0:0:0:0:
224,224,117709,1,0,0:0:0:0:
224,224,117880,1,8,0:0:0:0:
224,224,118223,1,8,0:0:0:0:
272,96,118394,1,0,0:0:0:0:
224,224,118566,1,8,0:0:0:0:
176,64,118651,1,8,0:0:0:0:
144,128,118737,1,8,0:0:0:0:
224,224,118909,1,0,0:0:0:0:
224,224,119251,1,8,0:0:0:0:
144,128,119766,1,0,0:0:0:0:
144,128,119937,1,8,0:0:0:0:
144,128,120280,1,0,0:0:0:0:
144,128,120623,1,8,0:0:0:0:
144,128,120794,1,0,0:0:0:0:
144,128,120966,1,0,0:0:0:0:
144,128,121137,1,0,0:0:0:0:
144,128,121309,1,8,0:0:0:0:
144,128,121651,1,12,0:0:0:0:
