osu file format v14

[General]
AudioFilename: audio.mp3
AudioLeadIn: 0
PreviewTime: 25480
Countdown: 1
SampleSet: Normal
StackLeniency: 0.7
Mode: 1
LetterboxInBreaks: 0
WidescreenStoryboard: 1

[Editor]
DistanceSpacing: 0.8
BeatDivisor: 2
GridSize: 16
TimelineZoom: 0.8000001

[Metadata]
Title:Vezde plyashu
TitleUnicode:Везде пляшу
Artist:Neuromonakh Feofan
ArtistUnicode:Нейромонах Феофан
Creator:Nepuri
Version:Normalnyy
Source:
Tags:Велики силы добра Veliki sily dobra Russian Folk Drum and Bass 'n' DnB Neurofeofan Greenshell
BeatmapID:1468654
BeatmapSetID:694154

[Difficulty]
HPDrainRate:6
CircleSize:5
OverallDifficulty:4
ApproachRate:5
SliderMultiplier:1.4
SliderTickRate:1

[Events]
//Background and Video events
0,0,"Neuromonakh.png",0,70
//Break Periods
//Storyboard Layer 0 (Background)
//Storyboard Layer 1 (Fail)
//Storyboard Layer 2 (Pass)
//Storyboard Layer 3 (Foreground)
//Storyboard Sound Samples

[TimingPoints]
3709,342.857142857143,4,1,0,100,1,0
25651,-100,4,1,0,100,0,1
64051,-100,4,1,0,100,0,0
84623,-100,4,1,0,100,0,1
121651,-100,4,1,0,100,0,0

[HitObjects]
256,112,5080,5,12,0:0:0:0:
224,176,5594,1,0,0:0:0:0:
240,160,5766,1,8,0:0:0:0:
176,160,6109,1,0,0:0:0:0:
240,160,6451,1,0,0:0:0:0:
240,160,7137,1,8,0:0:0:0:
192,176,7480,1,8,0:0:0:0:
240,160,7823,1,0,0:0:0:0:
240,160,8509,1,8,0:0:0:0:
192,176,9194,1,0,0:0:0:0:
224,224,9537,1,0,0:0:0:0:
240,176,9880,1,8,0:0:0:0:
240,176,10566,1,0,0:0:0:0:
240,176,11080,1,0,0:0:0:0:
240,176,11251,1,8,0:0:0:0:
240,176,11594,1,0,0:0:0:0:
240,176,11937,1,0,0:0:0:0:
240,176,12623,1,8,0:0:0:0:
240,176,12966,1,0,0:0:0:0:
192,144,13137,1,0,0:0:0:0:
240,176,13309,1,0,0:0:0:0:
224,176,14680,1,12,0:0:0:0:
224,192,15194,1,0,0:0:0:0:
224,192,15366,1,8,0:0:0:0:
224,192,15709,1,0,0:0:0:0:
224,192,16051,1,0,0:0:0:0:
224,192,16737,1,8,0:0:0:0:
224,96,17080,1,8,0:0:0:0:
224,192,17423,1,0,0:0:0:0:
224,144,18109,1,8,0:0:0:0:
224,144,18794,1,0,0:0:0:0:
80,144,19137,5,0,0:0:0:0:
208,80,19480,1,8,0:0:0:0:
208,80,20166,1,0,0:0:0:0:
256,256,20680,1,0,0:0:0:0:
256,256,20851,1,8,0:0:0:0:
256,256,21194,1,0,0:0:0:0:
256,256,21537,1,0,0:0:0:0:
240,144,21880,1,0,0:0:0:0:
256,256,22223,1,8,0:0:0:0:
256,256,22909,1,0,0:0:0:0:
240,144,23251,1,8,0:0:0:0:
240,144,23594,1,0,0:0:0:0:
240,144,23937,1,8,0:0:0:0:
240,144,24280,1,0,0:0:0:0:
160,128,24451,1,0,0:0:0:0:
240,144,24623,1,8,0:0:0:0:
240,144,24794,1,0,0:0:0:0:
240,144,24966,1,0,0:0:0:0:
240,144,25309,1,8,0:0:0:0:
240,144,25651,1,12,0:0:0:0:
240,96,25994,1,8,0:0:0:0:
256,112,26509,1,0,0:0:0:0:
336,208,26680,1,8,0:0:0:0:
336,208,27023,1,0,0:0:0:0:
336,208,27366,1,8,0:0:0:0:
336,208,27709,1,0,0:0:0:0:
336,208,28051,1,8,0:0:0:0:
336,208,28223,1,0,0:0:0:0:
336,208,28394,1,0,0:0:0:0:
192,128,28737,1,8,0:0:0:0:
224,160,29080,1,0,0:0:0:0:
272,64,29766,1,0,0:0:0:0:
272,64,30109,1,8,0:0:0:0:
224,128,30451,1,0,0:0:0:0:
272,80,30794,1,8,0:0:0:0:
272,80,31137,1,0,0:0:0:0:
144,160,31480,1,8,0:0:0:0:
272,80,31994,1,0,0:0:0:0:
272,80,32166,1,8,0:0:0:0:
272,80,32509,1,0,0:0:0:0:
272,80,32851,1,8,0:0:0:0:
272,80,33537,1,8,0:0:0:0:
272,80,33880,1,0,0:0:0:0:
144,144,34051,1,0,0:0:0:0:
192,240,34223,1,8,0:0:0:0:
192,240,35251,1,12,0:0:0:0:
144,192,35594,1,8,0:0:0:0:
144,192,36109,1,0,0:0:0:0:
144,192,36280,1,8,0:0:0:0:
160,96,36623,1,0,0:0:0:0:
160,96,36966,1,8,0:0:0:0:
160,96,37137,1,0,0:0:0:0:
160,96,37309,1,0,0:0:0:0:
160,96,37651,1,8,0:0:0:0:
160,96,37994,1,0,0:0:0:0:
96,160,38337,1,8,0:0:0:0:
64,112,38680,1,0,0:0:0:0:
160,96,39366,1,0,0:0:0:0:
160,96,39709,1,8,0:0:0:0:
64,112,40051,1,0,0:0:0:0:
160,96,40394,1,8,0:0:0:0:
160,96,40737,1,0,0:0:0:0:
160,96,41080,1,8,0:0:0:0:
288,160,41594,1,0,0:0:0:0:
160,96,41766,1,8,0:0:0:0:
160,96,42109,1,0,0:0:0:0:
128,176,42451,1,8,0:0:0:0:
160,96,43137,1,8,0:0:0:0:
160,96,43480,1,0,0:0:0:0:
192,176,43823,1,8,0:0:0:0:
192,176,44851,1,12,0:0:0:0:
176,96,45194,1,8,0:0:0:0:
176,160,45709,1,0,0:0:0:0:
176,160,45880,1,8,0:0:0:0:
176,160,46223,1,0,0:0:0:0:
176,160,46566,1,8,0:0:0:0:
176,160,46909,1,0,0:0:0:0:
176,160,47080,1,0,0:0:0:0:
176,160,47251,1,8,0:0:0:0:
176,160,47594,1,0,0:0:0:0:
176,160,47937,1,8,0:0:0:0:
240,176,48280,1,0,0:0:0:0:
176,160,48966,1,0,0:0:0:0:
176,160,49309,1,8,0:0:0:0:
176,160,49651,1,8,0:0:0:0:
176,160,49994,1,8,0:0:0:0:
176,160,50337,1,0,0:0:0:0:
176,160,50680,1,8,0:0:0:0:
176,160,51194,1,0,0:0:0:0:
176,160,51366,1,8,0:0:0:0:
256,144,51709,1,0,0:0:0:0:
176,144,52051,1,8,0:0:0:0:
192,128,52737,1,8,0:0:0:0:
192,128,53080,1,0,0:0:0:0:
192,128,53251,1,0,0:0:0:0:
192,128,53423,1,8,0:0:0:0:
64,176,54451,1,12,0:0:0:0:
64,176,54794,1,8,0:0:0:0:
64,176,55309,1,0,0:0:0:0:
64,176,55480,1,8,0:0:0:0:
208,160,55823,1,0,0:0:0:0:
208,160,56166,1,8,0:0:0:0:
192,160,56509,1,0,0:0:0:0:
192,160,56851,1,8,0:0:0:0:
192,160,57023,1,0,0:0:0:0:
192,160,57194,1,0,0:0:0:0:
192,160,57537,1,8,0:0:0:0:
160,128,57880,1,0,0:0:0:0:
192,160,58566,1,0,0:0:0:0:
192,160,58909,1,8,0:0:0:0:
192,160,59251,1,8,0:0:0:0:
192,160,59594,1,8,0:0:0:0:
192,160,59937,1,0,0:0:0:0:
192,160,60280,1,8,0:0:0:0:
144,144,60794,1,0,0:0:0:0:
144,208,60966,1,8,0:0:0:0:
144,192,61309,1,0,0:0:0:0:
144,192,61651,1,8,0:0:0:0:
144,192,61994,1,0,0:0:0:0:
144,192,62166,1,0,0:0:0:0:
144,192,62337,1,8,0:0:0:0:
144,192,62680,1,0,0:0:0:0:
256,112,64051,1,12,0:0:0:0:
224,176,64566,1,0,0:0:0:0:
240,160,64737,1,8,0:0:0:0:
176,160,65080,1,0,0:0:0:0:
240,160,65423,1,0,0:0:0:0:
240,160,66109,1,8,0:0:0:0:
192,176,66451,1,8,0:0:0:0:
240,160,66794,1,0,0:0:0:0:
240,160,67480,1,8,0:0:0:0:
192,176,68166,1,0,0:0:0:0:
224,224,68509,1,0,0:0:0:0:
240,176,68851,1,8,0:0:0:0:
240,176,69537,1,0,0:0:0:0:
240,176,70051,1,0,0:0:0:0:
240,176,70223,1,8,0:0:0:0:
240,176,70566,1,0,0:0:0:0:
240,176,70909,1,0,0:0:0:0:
240,176,71594,1,8,0:0:0:0:
240,176,71937,1,8,0:0:0:0:
192,144,72109,1,0,0:0:0:0:
240,176,72280,1,0,0:0:0:0:
224,176,73651,1,12,0:0:0:0:
224,192,74166,1,0,0:0:0:0:
224,192,74337,1,8,0:0:0:0:
224,192,74680,1,0,0:0:0:0:
224,192,75023,1,0,0:0:0:0:
224,192,75709,1,8,0:0:0:0:
224,96,76051,1,8,0:0:0:0:
224,192,76394,1,0,0:0:0:0:
224,144,77080,1,8,0:0:0:0:
224,144,77766,1,0,0:0:0:0:
80,144,78109,5,0,0:0:0:0:
208,80,78451,1,8,0:0:0:0:
208,80,79137,1,0,0:0:0:0:
256,256,79651,1,0,0:0:0:0:
256,256,79823,1,8,0:0:0:0:
256,256,80166,1,0,0:0:0:0:
256,256,80509,1,0,0:0:0:0:
240,144,80851,1,0,0:0:0:0:
256,256,81194,1,8,0:0:0:0:
256,256,81880,1,0,0:0:0:0:
240,144,82223,1,8,0:0:0:0:
240,144,82566,1,0,0:0:0:0:
240,144,82909,1,8,0:0:0:0:
240,144,83251,1,0,0:0:0:0:
160,128,83423,1,0,0:0:0:0:
240,144,83594,1,8,0:0:0:0:
240,144,83766,1,0,0:0:0:0:
240,144,83937,1,0,0:0:0:0:
240,144,84280,1,8,0:0:0:0:
240,144,84623,1,12,0:0:0:0:
240,96,84966,1,8,0:0:0:0:
256,112,85480,1,0,0:0:0:0:
336,208,85651,1,8,0:0:0:0:
336,208,85994,1,0,0:0:0:0:
336,208,86337,1,8,0:0:0:0:
336,208,86680,1,0,0:0:0:0:
336,208,87023,1,8,0:0:0:0:
336,208,87194,1,0,0:0:0:0:
336,208,87366,1,0,0:0:0:0:
272,64,87709,1,8,0:0:0:0:
176,160,88051,1,0,0:0:0:0:
272,64,88737,1,0,0:0:0:0:
272,64,89080,1,8,0:0:0:0:
176,96,89423,1,0,0:0:0:0:
272,80,89766,1,8,0:0:0:0:
272,80,90109,1,0,0:0:0:0:
272,80,90451,1,8,0:0:0:0:
272,80,90966,1,0,0:0:0:0:
272,80,91137,1,8,0:0:0:0:
272,80,91480,1,0,0:0:0:0:
272,80,91823,1,8,0:0:0:0:
272,80,92509,1,8,0:0:0:0:
272,80,92851,1,0,0:0:0:0:
144,144,93023,1,0,0:0:0:0:
192,240,93194,1,8,0:0:0:0:
192,240,94223,1,12,0:0:0:0:
144,192,94566,1,8,0:0:0:0:
144,192,95080,1,0,0:0:0:0:
144,192,95251,1,8,0:0:0:0:
160,96,95594,1,0,0:0:0:0:
160,96,95937,1,8,0:0:0:0:
160,96,96109,1,0,0:0:0:0:
160,96,96280,1,0,0:0:0:0:
160,96,96623,1,8,0:0:0:0:
160,96,96966,1,0,0:0:0:0:
240,48,97309,1,8,0:0:0:0:
128,112,97651,1,0,0:0:0:0:
224,192,98337,1,0,0:0:0:0:
160,96,98680,1,8,0:0:0:0:
112,160,99023,1,0,0:0:0:0:
160,96,99366,1,8,0:0:0:0:
160,96,99709,1,0,0:0:0:0:
160,96,100051,1,8,0:0:0:0:
288,160,100566,1,0,0:0:0:0:
160,96,100737,1,8,0:0:0:0:
160,96,101080,1,0,0:0:0:0:
160,96,101423,1,8,0:0:0:0:
160,96,102109,1,8,0:0:0:0:
160,96,102451,1,0,0:0:0:0:
192,176,102794,1,8,0:0:0:0:
192,176,103823,1,12,0:0:0:0:
176,96,104166,1,8,0:0:0:0:
176,160,104680,1,0,0:0:0:0:
176,160,104851,1,8,0:0:0:0:
176,160,105194,1,0,0:0:0:0:
176,160,105537,1,8,0:0:0:0:
176,160,105880,1,0,0:0:0:0:
176,160,106051,1,0,0:0:0:0:
176,160,106223,1,8,0:0:0:0:
176,160,106566,1,0,0:0:0:0:
176,160,106909,1,8,0:0:0:0:
176,160,107251,1,0,0:0:0:0:
176,160,107937,1,0,0:0:0:0:
176,160,108280,1,8,0:0:0:0:
176,160,108623,1,0,0:0:0:0:
144,128,108794,1,0,0:0:0:0:
176,160,108966,1,8,0:0:0:0:
176,160,109309,1,0,0:0:0:0:
176,160,109651,1,8,0:0:0:0:
176,160,110166,1,0,0:0:0:0:
176,160,110337,1,8,0:0:0:0:
192,128,110680,1,0,0:0:0:0:
192,128,111023,1,8,0:0:0:0:
192,128,111709,1,8,0:0:0:0:
192,128,112051,1,0,0:0:0:0:
192,128,112223,1,0,0:0:0:0:
192,128,112394,1,8,0:0:0:0:
64,176,113423,1,12,0:0:0:0:
64,176,113766,1,8,0:0:0:0:
64,176,114280,1,0,0:0:0:0:
64,176,114451,1,8,0:0:0:0:
208,160,114794,1,0,0:0:0:0:
208,160,115137,1,8,0:0:0:0:
192,160,115480,1,0,0:0:0:0:
192,160,115823,1,8,0:0:0:0:
192,160,115994,1,0,0:0:0:0:
192,160,116166,1,0,0:0:0:0:
192,160,116509,1,8,0:0:0:0:
224,80,116851,1,0,0:0:0:0:
192,160,117537,1,0,0:0:0:0:
192,160,117880,1,8,0:0:0:0:
192,160,118223,1,0,0:0:0:0:
128,144,118394,1,0,0:0:0:0:
192,160,118566,1,8,0:0:0:0:
192,160,118909,1,0,0:0:0:0:
192,160,119251,1,8,0:0:0:0:
144,144,119766,1,0,0:0:0:0:
144,208,119937,1,8,0:0:0:0:
144,192,120280,1,0,0:0:0:0:
144,192,120623,1,8,0:0:0:0:
144,192,120966,1,0,0:0:0:0:
144,192,121137,1,0,0:0:0:0:
144,192,121309,1,8,0:0:0:0:
144,192,121651,1,12,0:0:0:0:
