osu file format v14

[General]
AudioFilename: audio.mp3
AudioLeadIn: 0
PreviewTime: 142571
Countdown: 1
SampleSet: Normal
StackLeniency: 0.7
Mode: 1
LetterboxInBreaks: 0
WidescreenStoryboard: 0

[Editor]
Bookmarks: 29,21971,32943,43914,54886,76829,87800,98771,109743,120714,142657,175571,186543,208486,219457
DistanceSpacing: 1
BeatDivisor: 4
GridSize: 32
TimelineZoom: 1.6

[Metadata]
Title:Lesnyye Zabavy
TitleUnicode:Лесные Забавы
Artist:Neuromonakh Feofan
ArtistUnicode:Нейромонах Феофан
Creator:Nepuri
Version:Bezumnyy
Source:
Tags:В душе драм, в сердце светлая русь! Russian Ruski Drum and Bass 'n' DnB Folk
BeatmapID:1700571
BeatmapSetID:810546

[Difficulty]
HPDrainRate:6
CircleSize:5
OverallDifficulty:6
ApproachRate:5
SliderMultiplier:1.4
SliderTickRate:1

[Events]
//Background and Video events
0,0,"maxresdefault.jpg",0,50
//Break Periods
//Storyboard Layer 0 (Background)
//Storyboard Layer 1 (Fail)
//Storyboard Layer 2 (Pass)
//Storyboard Layer 3 (Foreground)
//Storyboard Sound Samples

[TimingPoints]
45,342.857142857143,4,1,0,70,1,0
76845,-100,4,1,0,70,0,1
109759,-100,4,1,0,70,0,0
142673,-100,4,1,0,70,0,1
175587,-100,4,1,0,70,0,0

[HitObjects]
156,19,45,5,4,0:0:0:0:
169,103,387,1,8,0:0:0:0:
41,187,902,1,0,0:0:0:0:
41,187,1073,1,8,0:0:0:0:
252,171,1416,1,8,0:0:0:0:
252,171,1759,1,8,0:0:0:0:
252,171,2273,1,0,0:0:0:0:
252,171,2445,1,8,0:0:0:0:
252,171,2787,1,4,0:0:0:0:
252,171,3130,1,8,0:0:0:0:
252,171,3645,1,0,0:0:0:0:
252,171,3816,1,8,0:0:0:0:
252,171,4159,1,8,0:0:0:0:
252,171,4502,1,0,0:0:0:0:
252,171,4673,1,8,0:0:0:0:
252,171,5016,1,0,0:0:0:0:
252,171,5187,1,8,0:0:0:0:
104,126,5530,1,4,0:0:0:0:
170,188,5873,1,8,0:0:0:0:
170,188,6387,1,0,0:0:0:0:
170,188,6559,1,8,0:0:0:0:
170,188,6902,1,8,0:0:0:0:
170,188,7245,1,8,0:0:0:0:
223,141,7759,1,0,0:0:0:0:
223,141,7930,1,8,0:0:0:0:
223,141,8273,1,4,0:0:0:0:
223,141,8616,1,8,0:0:0:0:
223,141,9130,1,0,0:0:0:0:
223,141,9302,1,8,0:0:0:0:
223,141,9645,1,8,0:0:0:0:
170,155,9816,1,0,0:0:0:0:
223,141,9987,1,0,0:0:0:0:
223,141,10159,1,8,0:0:0:0:
170,155,10330,1,0,0:0:0:0:
170,155,10502,1,0,0:0:0:0:
170,155,10673,1,8,0:0:0:0:
156,19,11016,1,4,0:0:0:0:
169,103,11359,1,8,0:0:0:0:
41,187,11873,1,0,0:0:0:0:
41,187,12045,1,8,0:0:0:0:
252,171,12387,1,8,0:0:0:0:
252,171,12730,1,8,0:0:0:0:
252,171,13245,1,0,0:0:0:0:
252,171,13416,1,8,0:0:0:0:
252,171,13759,1,4,0:0:0:0:
252,171,14102,1,8,0:0:0:0:
252,171,14616,1,0,0:0:0:0:
252,171,14787,1,8,0:0:0:0:
252,171,15130,1,8,0:0:0:0:
252,171,15473,1,0,0:0:0:0:
252,171,15645,1,8,0:0:0:0:
252,171,15987,1,0,0:0:0:0:
252,171,16159,1,8,0:0:0:0:
104,126,16502,1,4,0:0:0:0:
170,188,16845,1,8,0:0:0:0:
170,188,17359,1,0,0:0:0:0:
170,188,17530,1,8,0:0:0:0:
170,188,17873,1,8,0:0:0:0:
170,188,18216,1,8,0:0:0:0:
223,141,18730,1,0,0:0:0:0:
223,141,18902,1,8,0:0:0:0:
223,141,19245,1,4,0:0:0:0:
223,141,19587,1,8,0:0:0:0:
223,141,20102,1,0,0:0:0:0:
223,141,20273,1,8,0:0:0:0:
223,141,20616,1,8,0:0:0:0:
170,155,20787,1,0,0:0:0:0:
223,141,20959,1,0,0:0:0:0:
223,141,21130,1,8,0:0:0:0:
170,155,21302,1,0,0:0:0:0:
170,155,21473,1,0,0:0:0:0:
170,155,21645,1,8,0:0:0:0:
113,75,21987,1,4,0:0:0:0:
215,99,22673,1,8,0:0:0:0:
148,182,23702,1,8,0:0:0:0:
215,99,24045,1,8,0:0:0:0:
215,99,24730,1,0,0:0:0:0:
215,99,25416,1,8,0:0:0:0:
128,132,26445,1,8,0:0:0:0:
215,99,26787,1,8,0:0:0:0:
191,138,27130,1,8,0:0:0:0:
215,99,27473,1,0,0:0:0:0:
215,99,28159,1,8,0:0:0:0:
103,66,29187,1,8,0:0:0:0:
163,137,29530,1,8,0:0:0:0:
163,137,30216,1,0,0:0:0:0:
163,137,30902,1,8,0:0:0:0:
138,154,31930,1,8,0:0:0:0:
138,154,32273,1,8,0:0:0:0:
138,154,32616,1,8,0:0:0:0:
138,154,32959,1,4,0:0:0:0:
156,192,33645,1,8,0:0:0:0:
174,146,33987,1,0,0:0:0:0:
174,146,34330,1,8,0:0:0:0:
174,146,35359,1,8,0:0:0:0:
174,146,35702,1,0,0:0:0:0:
154,132,36387,1,8,0:0:0:0:
177,87,37073,1,0,0:0:0:0:
177,87,37759,1,8,0:0:0:0:
177,87,38102,1,8,0:0:0:0:
177,87,38445,1,0,0:0:0:0:
221,131,39130,1,8,0:0:0:0:
221,131,39473,1,0,0:0:0:0:
221,131,39816,1,8,0:0:0:0:
268,104,40159,1,8,0:0:0:0:
268,104,40502,1,0,0:0:0:0:
268,104,40845,1,0,0:0:0:0:
268,104,41187,1,8,0:0:0:0:
268,104,41530,1,0,0:0:0:0:
268,104,41873,1,8,0:0:0:0:
268,104,42216,1,0,0:0:0:0:
268,104,42559,1,8,0:0:0:0:
268,104,43245,1,0,0:0:0:0:
268,104,43587,1,0,0:0:0:0:
268,104,43930,1,8,0:0:0:0:
183,166,44273,1,8,0:0:0:0:
325,251,44616,1,0,0:0:0:0:
325,251,44787,1,0,0:0:0:0:
214,120,44959,1,8,0:0:0:0:
214,120,45302,1,0,0:0:0:0:
214,120,45645,1,8,0:0:0:0:
214,120,45816,1,8,0:0:0:0:
214,120,45987,1,0,0:0:0:0:
214,120,46330,1,8,0:0:0:0:
214,120,46673,1,8,0:0:0:0:
187,137,47016,1,0,0:0:0:0:
187,137,47187,1,0,0:0:0:0:
214,120,47359,1,8,0:0:0:0:
187,137,47702,1,0,0:0:0:0:
187,137,48045,1,8,0:0:0:0:
187,137,48387,1,0,0:0:0:0:
187,137,48730,1,8,0:0:0:0:
143,149,48902,5,0,0:0:0:0:
187,137,49073,1,8,0:0:0:0:
187,137,49245,1,8,0:0:0:0:
187,137,49416,1,0,0:0:0:0:
111,150,49759,1,8,0:0:0:0:
111,150,50102,1,8,0:0:0:0:
111,150,50273,1,0,0:0:0:0:
111,150,50445,1,8,0:0:0:0:
111,150,50787,1,8,0:0:0:0:
111,150,51130,1,0,0:0:0:0:
111,150,51302,1,0,0:0:0:0:
111,150,51473,1,8,0:0:0:0:
111,150,51816,1,0,0:0:0:0:
111,150,52159,1,8,0:0:0:0:
111,150,52502,1,0,0:0:0:0:
111,150,52845,1,8,0:0:0:0:
111,150,53016,1,0,0:0:0:0:
111,150,53187,1,8,0:0:0:0:
111,150,53530,1,8,0:0:0:0:
111,150,53873,1,0,0:0:0:0:
111,150,54045,1,0,0:0:0:0:
111,150,54216,1,8,0:0:0:0:
111,150,54559,1,8,0:0:0:0:
111,150,54902,1,4,0:0:0:0:
241,160,55245,1,8,0:0:0:0:
241,160,55587,1,8,0:0:0:0:
155,196,55673,1,0,0:0:0:0:
241,160,55759,1,0,0:0:0:0:
241,160,55930,1,8,0:0:0:0:
241,160,56273,1,8,0:0:0:0:
394,229,56445,1,0,0:0:0:0:
241,160,56616,1,8,0:0:0:0:
394,229,56787,1,8,0:0:0:0:
394,229,56959,1,0,0:0:0:0:
146,165,57045,1,0,0:0:0:0:
394,229,57130,1,0,0:0:0:0:
394,229,57302,1,8,0:0:0:0:
394,229,57473,1,8,0:0:0:0:
394,229,57645,1,0,0:0:0:0:
217,193,57987,1,8,0:0:0:0:
134,142,58330,1,8,0:0:0:0:
217,193,58502,1,0,0:0:0:0:
217,193,58673,1,8,0:0:0:0:
217,193,59016,1,0,0:0:0:0:
174,77,59187,1,0,0:0:0:0:
174,77,59359,1,8,0:0:0:0:
229,120,59702,1,0,0:0:0:0:
195,116,59787,1,8,0:0:0:0:
229,120,59873,1,0,0:0:0:0:
229,120,60045,1,8,0:0:0:0:
166,201,60387,1,0,0:0:0:0:
241,160,60730,1,8,0:0:0:0:
241,160,61073,1,8,0:0:0:0:
241,160,61245,1,0,0:0:0:0:
241,160,61416,1,8,0:0:0:0:
241,160,61759,1,8,0:0:0:0:
394,229,61930,1,0,0:0:0:0:
148,139,62016,1,0,0:0:0:0:
241,160,62102,1,8,0:0:0:0:
394,229,62273,1,0,0:0:0:0:
394,229,62445,1,8,0:0:0:0:
394,229,62616,1,0,0:0:0:0:
394,229,62787,1,8,0:0:0:0:
394,229,62959,1,8,0:0:0:0:
394,229,63130,1,0,0:0:0:0:
217,193,63473,1,8,0:0:0:0:
134,142,63816,1,8,0:0:0:0:
217,193,63987,1,0,0:0:0:0:
217,193,64159,1,8,0:0:0:0:
217,193,64502,1,0,0:0:0:0:
150,190,64587,1,0,0:0:0:0:
174,77,64673,1,0,0:0:0:0:
174,77,64845,1,8,0:0:0:0:
229,120,65187,1,8,0:0:0:0:
195,116,65273,1,0,0:0:0:0:
229,120,65359,1,0,0:0:0:0:
229,120,65530,1,8,0:0:0:0:
231,193,65702,1,8,0:0:0:0:
231,193,65787,1,8,0:0:0:0:
244,167,65873,1,4,0:0:0:0:
241,160,66216,1,8,0:0:0:0:
241,160,66559,1,0,0:0:0:0:
155,196,66645,1,8,0:0:0:0:
241,160,66730,1,0,0:0:0:0:
241,160,66902,1,8,0:0:0:0:
241,160,67245,1,8,0:0:0:0:
394,229,67416,1,8,0:0:0:0:
241,160,67587,1,8,0:0:0:0:
394,229,67759,1,0,0:0:0:0:
394,229,67930,1,8,0:0:0:0:
146,165,68016,1,0,0:0:0:0:
394,229,68102,1,0,0:0:0:0:
394,229,68273,1,8,0:0:0:0:
394,229,68445,1,8,0:0:0:0:
394,229,68616,1,0,0:0:0:0:
217,193,68959,1,8,0:0:0:0:
134,142,69302,1,8,0:0:0:0:
217,193,69473,1,0,0:0:0:0:
217,193,69645,1,8,0:0:0:0:
217,193,69987,1,0,0:0:0:0:
174,77,70159,1,0,0:0:0:0:
103,149,70245,1,0,0:0:0:0:
174,77,70330,1,8,0:0:0:0:
229,120,70673,1,0,0:0:0:0:
195,116,70759,1,8,0:0:0:0:
229,120,70845,1,0,0:0:0:0:
229,120,71016,1,8,0:0:0:0:
166,201,71359,1,0,0:0:0:0:
241,160,71702,1,8,0:0:0:0:
241,160,72045,1,8,0:0:0:0:
241,160,72216,1,0,0:0:0:0:
241,160,72387,1,8,0:0:0:0:
241,160,72730,1,8,0:0:0:0:
394,229,72902,1,0,0:0:0:0:
148,139,72987,1,0,0:0:0:0:
241,160,73073,1,8,0:0:0:0:
394,229,73245,1,8,0:0:0:0:
394,229,73416,1,0,0:0:0:0:
394,229,73587,1,0,0:0:0:0:
394,229,73759,1,8,0:0:0:0:
394,229,73930,1,8,0:0:0:0:
394,229,74102,1,0,0:0:0:0:
217,193,74445,1,8,0:0:0:0:
134,142,74787,1,8,0:0:0:0:
217,193,74959,1,0,0:0:0:0:
217,193,75130,1,8,0:0:0:0:
217,193,75473,1,0,0:0:0:0:
150,190,75559,1,0,0:0:0:0:
174,77,75645,1,0,0:0:0:0:
174,77,75816,1,8,0:0:0:0:
229,120,76159,1,8,0:0:0:0:
195,116,76245,1,0,0:0:0:0:
229,120,76330,1,0,0:0:0:0:
229,120,76502,1,8,0:0:0:0:
169,144,76673,5,8,0:0:0:0:
169,144,76759,1,8,0:0:0:0:
125,185,76845,1,4,0:0:0:0:
331,192,77016,1,0,0:0:0:0:
331,192,77187,1,8,0:0:0:0:
331,192,77530,1,0,0:0:0:0:
331,192,77702,1,0,0:0:0:0:
331,192,77873,1,8,0:0:0:0:
153,60,77959,1,8,0:0:0:0:
155,197,78045,1,0,0:0:0:0:
153,60,78216,1,8,0:0:0:0:
151,135,78387,1,0,0:0:0:0:
151,135,78473,1,0,0:0:0:0:
151,135,78559,1,8,0:0:0:0:
151,135,78730,1,0,0:0:0:0:
151,135,78902,1,8,0:0:0:0:
157,126,78987,1,8,0:0:0:0:
158,127,79073,1,0,0:0:0:0:
159,127,79245,1,8,0:0:0:0:
159,127,79416,1,8,0:0:0:0:
159,127,79587,1,0,0:0:0:0:
149,142,79759,1,0,0:0:0:0:
149,142,79845,1,0,0:0:0:0:
149,142,79930,1,8,0:0:0:0:
149,142,80273,1,0,0:0:0:0:
128,133,80359,1,8,0:0:0:0:
149,142,80445,1,0,0:0:0:0:
149,142,80616,1,8,0:0:0:0:
296,137,80959,1,0,0:0:0:0:
296,137,81045,1,0,0:0:0:0:
296,137,81130,1,0,0:0:0:0:
296,137,81302,1,8,0:0:0:0:
296,137,81473,1,0,0:0:0:0:
296,137,81559,1,8,0:0:0:0:
296,137,81645,1,0,0:0:0:0:
296,137,81730,1,0,0:0:0:0:
296,137,81816,1,0,0:0:0:0:
296,137,81987,1,8,0:0:0:0:
296,137,82159,1,8,0:0:0:0:
296,137,82245,1,8,0:0:0:0:
296,137,82330,1,0,0:0:0:0:
319,142,82502,1,0,0:0:0:0:
319,142,82673,1,8,0:0:0:0:
341,167,83016,1,0,0:0:0:0:
341,167,83187,1,0,0:0:0:0:
341,167,83273,1,0,0:0:0:0:
341,167,83359,1,8,0:0:0:0:
277,146,83530,1,0,0:0:0:0:
277,146,83702,1,8,0:0:0:0:
277,146,83873,1,0,0:0:0:0:
277,146,83959,1,0,0:0:0:0:
277,146,84045,1,8,0:0:0:0:
277,146,84216,1,8,0:0:0:0:
277,146,84387,1,8,0:0:0:0:
277,146,84473,1,8,0:0:0:0:
277,146,84559,1,0,0:0:0:0:
277,146,84730,1,8,0:0:0:0:
277,146,84902,1,8,0:0:0:0:
277,146,85073,1,0,0:0:0:0:
269,246,85245,1,0,0:0:0:0:
269,246,85330,1,0,0:0:0:0:
269,246,85416,1,8,0:0:0:0:
269,246,85759,1,8,0:0:0:0:
269,246,85845,1,0,0:0:0:0:
269,246,85930,1,0,0:0:0:0:
269,246,86102,1,8,0:0:0:0:
269,246,86273,1,8,0:0:0:0:
269,246,86445,1,0,0:0:0:0:
226,199,86702,1,0,0:0:0:0:
226,199,86787,1,8,0:0:0:0:
226,199,86959,1,0,0:0:0:0:
132,132,87045,1,8,0:0:0:0:
195,133,87130,1,0,0:0:0:0:
226,199,87302,1,0,0:0:0:0:
226,199,87473,1,8,0:0:0:0:
226,199,87645,1,8,0:0:0:0:
226,199,87730,1,8,0:0:0:0:
226,199,87816,1,4,0:0:0:0:
331,192,87987,1,0,0:0:0:0:
331,192,88159,1,8,0:0:0:0:
331,192,88502,1,0,0:0:0:0:
331,192,88673,1,0,0:0:0:0:
331,192,88845,1,8,0:0:0:0:
63,142,88930,1,8,0:0:0:0:
155,197,89016,1,0,0:0:0:0:
153,60,89187,1,8,0:0:0:0:
151,135,89359,1,0,0:0:0:0:
151,135,89445,1,0,0:0:0:0:
151,135,89530,1,8,0:0:0:0:
151,135,89702,1,8,0:0:0:0:
151,135,89873,1,8,0:0:0:0:
158,127,90045,1,0,0:0:0:0:
85,89,90130,5,0,0:0:0:0:
159,127,90216,1,8,0:0:0:0:
159,127,90387,1,8,0:0:0:0:
159,127,90559,1,0,0:0:0:0:
149,142,90730,1,0,0:0:0:0:
149,142,90902,1,8,0:0:0:0:
149,142,91245,1,8,0:0:0:0:
128,133,91330,1,0,0:0:0:0:
149,142,91416,1,0,0:0:0:0:
149,142,91587,1,8,0:0:0:0:
296,137,91930,1,0,0:0:0:0:
171,2,92016,1,8,0:0:0:0:
296,137,92102,1,0,0:0:0:0:
296,137,92273,1,8,0:0:0:0:
296,137,92445,1,0,0:0:0:0:
296,137,92530,1,0,0:0:0:0:
296,137,92616,1,0,0:0:0:0:
296,137,92702,1,8,0:0:0:0:
296,137,92787,1,0,0:0:0:0:
296,137,92959,1,8,0:0:0:0:
296,137,93130,1,8,0:0:0:0:
296,137,93216,1,8,0:0:0:0:
296,137,93302,1,0,0:0:0:0:
319,142,93473,1,0,0:0:0:0:
319,142,93645,1,8,0:0:0:0:
341,167,93987,1,8,0:0:0:0:
341,167,94159,1,0,0:0:0:0:
377,244,94245,1,0,0:0:0:0:
341,167,94330,1,8,0:0:0:0:
277,146,94502,1,0,0:0:0:0:
277,146,94673,1,8,0:0:0:0:
277,146,94845,1,0,0:0:0:0:
277,146,94930,1,0,0:0:0:0:
277,146,95016,1,8,0:0:0:0:
277,146,95187,1,8,0:0:0:0:
277,146,95359,1,8,0:0:0:0:
277,146,95445,1,8,0:0:0:0:
277,146,95530,1,0,0:0:0:0:
277,146,95702,1,8,0:0:0:0:
277,146,95873,1,8,0:0:0:0:
277,146,96045,1,0,0:0:0:0:
269,246,96216,1,0,0:0:0:0:
269,246,96302,1,0,0:0:0:0:
269,246,96387,1,8,0:0:0:0:
269,246,96730,1,0,0:0:0:0:
269,246,96816,1,8,0:0:0:0:
269,246,96902,1,0,0:0:0:0:
269,246,97073,1,8,0:0:0:0:
269,246,97245,1,8,0:0:0:0:
269,246,97416,1,0,0:0:0:0:
226,199,97673,1,0,0:0:0:0:
226,199,97759,1,8,0:0:0:0:
226,199,97930,1,8,0:0:0:0:
110,129,98016,1,0,0:0:0:0:
195,133,98102,1,0,0:0:0:0:
226,199,98273,1,0,0:0:0:0:
226,199,98445,1,8,0:0:0:0:
226,199,98616,1,8,0:0:0:0:
226,199,98702,1,8,0:0:0:0:
226,199,98787,1,4,0:0:0:0:
331,192,98959,1,0,0:0:0:0:
331,192,99130,1,8,0:0:0:0:
331,192,99473,1,0,0:0:0:0:
331,192,99645,1,0,0:0:0:0:
331,192,99816,1,8,0:0:0:0:
153,60,99902,1,8,0:0:0:0:
155,197,99987,1,0,0:0:0:0:
153,60,100159,1,8,0:0:0:0:
151,135,100330,1,0,0:0:0:0:
151,135,100416,1,0,0:0:0:0:
151,135,100502,1,8,0:0:0:0:
151,135,100673,1,0,0:0:0:0:
151,135,100845,1,8,0:0:0:0:
157,126,100930,1,8,0:0:0:0:
158,127,101016,1,0,0:0:0:0:
159,127,101187,1,8,0:0:0:0:
159,127,101359,1,8,0:0:0:0:
159,127,101530,1,0,0:0:0:0:
149,142,101702,1,0,0:0:0:0:
149,142,101787,1,0,0:0:0:0:
149,142,101873,1,8,0:0:0:0:
237,142,102045,1,8,0:0:0:0:
149,142,102216,1,0,0:0:0:0:
128,133,102302,1,8,0:0:0:0:
149,142,102387,1,0,0:0:0:0:
149,142,102559,1,8,0:0:0:0:
296,137,102902,1,0,0:0:0:0:
296,137,102987,1,0,0:0:0:0:
296,137,103073,1,0,0:0:0:0:
296,137,103245,1,8,0:0:0:0:
296,137,103416,1,0,0:0:0:0:
296,137,103502,1,8,0:0:0:0:
296,137,103587,1,0,0:0:0:0:
296,137,103673,1,0,0:0:0:0:
296,137,103759,1,0,0:0:0:0:
296,137,103930,1,8,0:0:0:0:
296,137,104102,1,8,0:0:0:0:
296,137,104187,1,8,0:0:0:0:
296,137,104273,1,0,0:0:0:0:
319,142,104445,1,0,0:0:0:0:
319,142,104616,1,8,0:0:0:0:
341,167,104959,1,0,0:0:0:0:
341,167,105130,1,0,0:0:0:0:
341,167,105216,1,0,0:0:0:0:
341,167,105302,1,8,0:0:0:0:
277,146,105473,1,0,0:0:0:0:
277,146,105645,1,8,0:0:0:0:
277,146,105816,1,0,0:0:0:0:
277,146,105902,1,0,0:0:0:0:
277,146,105987,1,8,0:0:0:0:
277,146,106159,1,8,0:0:0:0:
277,146,106330,1,8,0:0:0:0:
277,146,106416,1,8,0:0:0:0:
277,146,106502,1,0,0:0:0:0:
277,146,106673,1,8,0:0:0:0:
277,146,106845,1,8,0:0:0:0:
277,146,107016,1,0,0:0:0:0:
269,246,107187,1,0,0:0:0:0:
269,246,107273,1,0,0:0:0:0:
269,246,107359,1,8,0:0:0:0:
269,246,107702,1,8,0:0:0:0:
269,246,107787,1,0,0:0:0:0:
269,246,107873,1,0,0:0:0:0:
269,246,108045,1,8,0:0:0:0:
269,246,108216,1,8,0:0:0:0:
269,246,108387,1,0,0:0:0:0:
226,199,108645,1,0,0:0:0:0:
226,199,108730,1,8,0:0:0:0:
226,199,108902,1,0,0:0:0:0:
132,132,108987,1,8,0:0:0:0:
195,133,109073,1,0,0:0:0:0:
226,199,109245,1,0,0:0:0:0:
226,199,109416,1,8,0:0:0:0:
226,199,109587,1,8,0:0:0:0:
226,199,109673,1,8,0:0:0:0:
226,199,109759,1,4,0:0:0:0:
274,237,110102,1,0,0:0:0:0:
274,237,110273,1,0,0:0:0:0:
412,216,110359,1,0,0:0:0:0:
274,237,110445,1,8,0:0:0:0:
274,237,110616,1,0,0:0:0:0:
274,237,110959,1,0,0:0:0:0:
274,237,111302,1,8,0:0:0:0:
310,90,111473,1,0,0:0:0:0:
310,90,111559,1,0,0:0:0:0:
303,78,111645,1,0,0:0:0:0:
338,156,111816,1,8,0:0:0:0:
177,134,111987,1,0,0:0:0:0:
177,134,112330,1,0,0:0:0:0:
169,149,112502,1,0,0:0:0:0:
261,208,112845,1,0,0:0:0:0:
159,67,112930,1,0,0:0:0:0:
261,208,113016,1,0,0:0:0:0:
261,208,113187,1,8,0:0:0:0:
261,208,113359,1,0,0:0:0:0:
261,208,113702,1,0,0:0:0:0:
290,202,114045,1,0,0:0:0:0:
336,217,114387,1,0,0:0:0:0:
404,200,114473,1,0,0:0:0:0:
213,122,114559,1,8,0:0:0:0:
213,122,114730,1,0,0:0:0:0:
213,122,115073,1,0,0:0:0:0:
222,118,115245,1,4,0:0:0:0:
274,237,115587,1,0,0:0:0:0:
274,237,115759,1,0,0:0:0:0:
412,216,115845,1,0,0:0:0:0:
274,237,115930,1,8,0:0:0:0:
274,237,116102,1,0,0:0:0:0:
274,237,116445,1,0,0:0:0:0:
274,237,116787,1,8,0:0:0:0:
310,90,116959,1,0,0:0:0:0:
310,90,117045,1,0,0:0:0:0:
303,78,117130,1,0,0:0:0:0:
338,156,117302,1,8,0:0:0:0:
177,134,117473,1,0,0:0:0:0:
177,134,117816,1,0,0:0:0:0:
169,149,117987,1,0,0:0:0:0:
261,208,118330,1,0,0:0:0:0:
193,75,118416,1,0,0:0:0:0:
133,123,118502,1,0,0:0:0:0:
261,208,118673,1,8,0:0:0:0:
261,208,118845,1,0,0:0:0:0:
261,208,119187,1,0,0:0:0:0:
290,202,119530,1,0,0:0:0:0:
336,217,119873,1,0,0:0:0:0:
404,200,119959,1,0,0:0:0:0:
213,122,120045,1,8,0:0:0:0:
213,122,120216,1,8,0:0:0:0:
108,146,120387,1,8,0:0:0:0:
213,122,120559,1,8,0:0:0:0:
207,92,120645,1,8,0:0:0:0:
165,143,120730,1,4,0:0:0:0:
240,159,121073,1,8,0:0:0:0:
240,159,121416,1,8,0:0:0:0:
154,195,121502,1,0,0:0:0:0:
240,159,121587,1,0,0:0:0:0:
240,159,121759,1,8,0:0:0:0:
240,159,122102,1,8,0:0:0:0:
178,104,122187,1,0,0:0:0:0:
393,228,122273,1,0,0:0:0:0:
240,159,122445,1,8,0:0:0:0:
393,228,122616,1,0,0:0:0:0:
393,228,122787,1,8,0:0:0:0:
145,164,122873,1,0,0:0:0:0:
393,228,122959,1,0,0:0:0:0:
393,228,123130,1,8,0:0:0:0:
393,228,123302,1,0,0:0:0:0:
393,228,123473,1,0,0:0:0:0:
216,192,123816,1,8,0:0:0:0:
133,141,124159,1,8,0:0:0:0:
216,192,124330,1,0,0:0:0:0:
216,192,124502,1,8,0:0:0:0:
216,192,124845,1,8,0:0:0:0:
173,76,125016,1,0,0:0:0:0:
159,160,125102,1,0,0:0:0:0:
173,76,125187,1,0,0:0:0:0:
190,172,125359,1,8,0:0:0:0:
228,119,125530,1,0,0:0:0:0:
194,115,125616,1,8,0:0:0:0:
228,119,125702,1,0,0:0:0:0:
228,119,125873,1,8,0:0:0:0:
190,172,126045,1,0,0:0:0:0:
165,200,126216,1,8,0:0:0:0:
240,159,126559,1,8,0:0:0:0:
240,159,126902,1,8,0:0:0:0:
240,159,127073,1,0,0:0:0:0:
240,159,127245,1,8,0:0:0:0:
240,159,127587,1,8,0:0:0:0:
393,228,127759,1,0,0:0:0:0:
147,138,127845,1,0,0:0:0:0:
240,159,127930,1,8,0:0:0:0:
393,228,128102,1,0,0:0:0:0:
393,228,128273,1,8,0:0:0:0:
393,228,128445,1,0,0:0:0:0:
146,132,128530,1,0,0:0:0:0:
393,228,128616,1,8,0:0:0:0:
393,228,128787,1,0,0:0:0:0:
393,228,128959,1,0,0:0:0:0:
216,192,129302,1,8,0:0:0:0:
133,141,129645,1,8,0:0:0:0:
216,192,129816,1,0,0:0:0:0:
216,192,129987,1,8,0:0:0:0:
216,192,130330,1,8,0:0:0:0:
149,189,130416,1,0,0:0:0:0:
173,76,130502,1,0,0:0:0:0:
173,76,130673,1,8,0:0:0:0:
110,168,130845,1,0,0:0:0:0:
228,119,131016,1,0,0:0:0:0:
114,78,131102,1,8,0:0:0:0:
228,119,131187,1,0,0:0:0:0:
228,119,131359,1,8,0:0:0:0:
230,192,131530,1,8,0:0:0:0:
230,192,131616,1,8,0:0:0:0:
243,166,131702,1,4,0:0:0:0:
240,159,132045,1,8,0:0:0:0:
240,159,132387,1,0,0:0:0:0:
154,195,132473,1,8,0:0:0:0:
240,159,132559,1,0,0:0:0:0:
240,159,132730,1,8,0:0:0:0:
240,159,133073,1,8,0:0:0:0:
393,228,133245,1,8,0:0:0:0:
240,159,133416,1,8,0:0:0:0:
232,97,133502,1,0,0:0:0:0:
393,228,133587,1,0,0:0:0:0:
393,228,133759,1,8,0:0:0:0:
393,228,133930,1,8,0:0:0:0:
393,228,134102,1,8,0:0:0:0:
232,97,134187,1,0,0:0:0:0:
393,228,134273,1,0,0:0:0:0:
393,228,134445,1,0,0:0:0:0:
216,192,134787,1,8,0:0:0:0:
133,141,135130,1,8,0:0:0:0:
216,192,135302,1,0,0:0:0:0:
216,192,135473,1,8,0:0:0:0:
216,192,135816,1,8,0:0:0:0:
173,76,135987,1,0,0:0:0:0:
102,148,136073,1,0,0:0:0:0:
173,76,136159,1,0,0:0:0:0:
190,172,136330,1,8,0:0:0:0:
228,119,136502,1,0,0:0:0:0:
194,115,136587,1,8,0:0:0:0:
228,119,136673,1,0,0:0:0:0:
228,119,136845,1,8,0:0:0:0:
190,172,137016,1,0,0:0:0:0:
165,200,137187,1,8,0:0:0:0:
240,159,137530,1,8,0:0:0:0:
240,159,137873,1,8,0:0:0:0:
240,159,138045,1,0,0:0:0:0:
240,159,138216,1,8,0:0:0:0:
240,159,138559,1,8,0:0:0:0:
393,228,138730,1,0,0:0:0:0:
147,138,138816,1,0,0:0:0:0:
240,159,138902,1,8,0:0:0:0:
393,228,139073,1,0,0:0:0:0:
393,228,139245,1,8,0:0:0:0:
393,228,139416,1,0,0:0:0:0:
239,77,139502,1,0,0:0:0:0:
393,228,139587,1,8,0:0:0:0:
393,228,139759,1,0,0:0:0:0:
393,228,139930,1,0,0:0:0:0:
216,192,140273,1,8,0:0:0:0:
133,141,140616,1,8,0:0:0:0:
216,192,140787,1,0,0:0:0:0:
216,192,140959,1,8,0:0:0:0:
216,192,141302,1,0,0:0:0:0:
149,189,141387,1,0,0:0:0:0:
173,76,141473,1,0,0:0:0:0:
173,76,141645,1,8,0:0:0:0:
228,119,141987,1,0,0:0:0:0:
194,115,142073,1,8,0:0:0:0:
228,119,142159,1,0,0:0:0:0:
228,119,142330,1,8,0:0:0:0:
168,143,142502,5,8,0:0:0:0:
168,143,142587,1,8,0:0:0:0:
71,126,142673,1,4,0:0:0:0:
331,192,142845,1,0,0:0:0:0:
331,192,143016,1,8,0:0:0:0:
331,192,143359,1,0,0:0:0:0:
331,192,143530,1,0,0:0:0:0:
331,192,143702,1,8,0:0:0:0:
153,60,143787,1,8,0:0:0:0:
155,197,143873,1,0,0:0:0:0:
153,60,144045,1,8,0:0:0:0:
151,135,144216,1,0,0:0:0:0:
151,135,144302,1,0,0:0:0:0:
151,135,144387,1,8,0:0:0:0:
151,135,144559,1,0,0:0:0:0:
151,135,144730,1,8,0:0:0:0:
157,126,144816,1,8,0:0:0:0:
158,127,144902,1,0,0:0:0:0:
159,127,145073,1,8,0:0:0:0:
159,127,145245,1,8,0:0:0:0:
159,127,145416,1,0,0:0:0:0:
149,142,145587,1,0,0:0:0:0:
149,142,145673,1,0,0:0:0:0:
149,142,145759,1,8,0:0:0:0:
149,142,146102,1,0,0:0:0:0:
128,133,146187,1,8,0:0:0:0:
149,142,146273,1,0,0:0:0:0:
149,142,146445,1,8,0:0:0:0:
296,137,146787,1,0,0:0:0:0:
296,137,147045,1,0,0:0:0:0:
296,137,147130,1,8,0:0:0:0:
296,137,147302,1,0,0:0:0:0:
296,137,147387,1,8,0:0:0:0:
296,137,147473,1,0,0:0:0:0:
135,176,147559,1,0,0:0:0:0:
296,137,147645,1,0,0:0:0:0:
296,137,147816,1,8,0:0:0:0:
296,137,147987,1,8,0:0:0:0:
296,137,148073,1,8,0:0:0:0:
296,137,148159,1,0,0:0:0:0:
319,142,148330,1,0,0:0:0:0:
319,142,148502,1,8,0:0:0:0:
341,167,148845,1,0,0:0:0:0:
341,167,149016,1,0,0:0:0:0:
341,167,149102,1,0,0:0:0:0:
341,167,149187,1,8,0:0:0:0:
277,146,149359,1,0,0:0:0:0:
277,146,149530,1,8,0:0:0:0:
277,146,149702,1,0,0:0:0:0:
277,146,149787,1,0,0:0:0:0:
277,146,149873,1,8,0:0:0:0:
277,146,150045,1,8,0:0:0:0:
277,146,150216,1,8,0:0:0:0:
277,146,150302,1,8,0:0:0:0:
277,146,150387,1,0,0:0:0:0:
277,146,150559,1,8,0:0:0:0:
277,146,150730,1,8,0:0:0:0:
277,146,150902,1,0,0:0:0:0:
269,246,151073,1,0,0:0:0:0:
269,246,151159,1,0,0:0:0:0:
269,246,151245,1,8,0:0:0:0:
269,246,151587,1,8,0:0:0:0:
269,246,151673,1,0,0:0:0:0:
269,246,151759,1,0,0:0:0:0:
269,246,151930,1,8,0:0:0:0:
269,246,152102,1,8,0:0:0:0:
269,246,152273,1,0,0:0:0:0:
226,199,152445,1,0,0:0:0:0:
298,102,152530,1,0,0:0:0:0:
226,199,152616,1,8,0:0:0:0:
226,199,152787,1,0,0:0:0:0:
132,132,152873,1,8,0:0:0:0:
195,133,152959,1,0,0:0:0:0:
226,199,153130,1,0,0:0:0:0:
206,33,153216,1,0,0:0:0:0:
226,199,153302,1,8,0:0:0:0:
226,199,153473,1,8,0:0:0:0:
226,199,153559,1,8,0:0:0:0:
226,199,153645,1,4,0:0:0:0:
331,192,153816,1,0,0:0:0:0:
331,192,153987,1,8,0:0:0:0:
331,192,154330,1,0,0:0:0:0:
331,192,154502,1,0,0:0:0:0:
331,192,154673,1,8,0:0:0:0:
63,142,154759,1,8,0:0:0:0:
155,197,154845,1,0,0:0:0:0:
153,60,155016,1,8,0:0:0:0:
151,135,155187,1,0,0:0:0:0:
151,135,155273,1,0,0:0:0:0:
151,135,155359,1,8,0:0:0:0:
151,135,155530,1,8,0:0:0:0:
151,135,155702,1,8,0:0:0:0:
158,127,155873,1,0,0:0:0:0:
85,89,155959,5,0,0:0:0:0:
159,127,156045,1,8,0:0:0:0:
159,127,156216,1,8,0:0:0:0:
159,127,156387,1,0,0:0:0:0:
149,142,156559,1,0,0:0:0:0:
149,142,156730,1,8,0:0:0:0:
149,142,157073,1,8,0:0:0:0:
128,133,157159,1,0,0:0:0:0:
149,142,157245,1,0,0:0:0:0:
149,142,157416,1,8,0:0:0:0:
296,137,157759,1,0,0:0:0:0:
296,137,158016,1,0,0:0:0:0:
296,137,158102,1,8,0:0:0:0:
296,137,158273,1,0,0:0:0:0:
296,137,158359,1,0,0:0:0:0:
296,137,158445,1,0,0:0:0:0:
231,116,158530,1,8,0:0:0:0:
296,137,158616,1,0,0:0:0:0:
296,137,158787,1,8,0:0:0:0:
296,137,158959,1,8,0:0:0:0:
296,137,159045,1,8,0:0:0:0:
296,137,159130,1,0,0:0:0:0:
319,142,159302,1,0,0:0:0:0:
319,142,159473,1,8,0:0:0:0:
341,167,159816,1,8,0:0:0:0:
341,167,159987,1,0,0:0:0:0:
377,244,160073,1,0,0:0:0:0:
341,167,160159,1,8,0:0:0:0:
277,146,160330,1,0,0:0:0:0:
277,146,160502,1,8,0:0:0:0:
277,146,160673,1,0,0:0:0:0:
277,146,160759,1,0,0:0:0:0:
277,146,160845,1,8,0:0:0:0:
277,146,161016,1,8,0:0:0:0:
277,146,161187,1,8,0:0:0:0:
277,146,161273,1,8,0:0:0:0:
277,146,161359,1,0,0:0:0:0:
277,146,161530,1,8,0:0:0:0:
277,146,161702,1,8,0:0:0:0:
277,146,161873,1,0,0:0:0:0:
269,246,162045,1,0,0:0:0:0:
269,246,162130,1,0,0:0:0:0:
269,246,162216,1,8,0:0:0:0:
269,246,162559,1,0,0:0:0:0:
269,246,162645,1,8,0:0:0:0:
269,246,162730,1,0,0:0:0:0:
269,246,162902,1,8,0:0:0:0:
269,246,163073,1,8,0:0:0:0:
269,246,163245,1,0,0:0:0:0:
300,145,163416,1,0,0:0:0:0:
226,199,163502,1,0,0:0:0:0:
226,199,163587,1,8,0:0:0:0:
226,199,163759,1,0,0:0:0:0:
110,129,163845,1,8,0:0:0:0:
195,133,163930,1,0,0:0:0:0:
226,199,164102,1,0,0:0:0:0:
350,240,164187,1,0,0:0:0:0:
226,199,164273,1,8,0:0:0:0:
226,199,164445,1,8,0:0:0:0:
226,199,164530,1,8,0:0:0:0:
226,199,164616,1,4,0:0:0:0:
331,192,164787,1,0,0:0:0:0:
331,192,164959,1,8,0:0:0:0:
331,192,165302,1,0,0:0:0:0:
331,192,165473,1,0,0:0:0:0:
331,192,165645,1,8,0:0:0:0:
153,60,165730,1,8,0:0:0:0:
155,197,165816,1,0,0:0:0:0:
153,60,165987,1,8,0:0:0:0:
151,135,166159,1,0,0:0:0:0:
151,135,166245,1,0,0:0:0:0:
151,135,166330,1,8,0:0:0:0:
151,135,166502,1,0,0:0:0:0:
151,135,166673,1,8,0:0:0:0:
157,126,166759,1,8,0:0:0:0:
158,127,166845,1,0,0:0:0:0:
159,127,167016,1,8,0:0:0:0:
159,127,167187,1,8,0:0:0:0:
159,127,167359,1,0,0:0:0:0:
149,142,167530,1,0,0:0:0:0:
149,142,167616,1,0,0:0:0:0:
149,142,167702,1,8,0:0:0:0:
251,105,167873,1,8,0:0:0:0:
149,142,168045,1,0,0:0:0:0:
128,133,168130,1,8,0:0:0:0:
149,142,168216,1,0,0:0:0:0:
149,142,168387,1,8,0:0:0:0:
296,137,168730,1,0,0:0:0:0:
296,137,168987,1,0,0:0:0:0:
296,137,169073,1,8,0:0:0:0:
296,137,169245,1,0,0:0:0:0:
296,137,169330,1,8,0:0:0:0:
296,137,169416,1,0,0:0:0:0:
296,137,169502,1,0,0:0:0:0:
296,137,169587,1,0,0:0:0:0:
296,137,169759,1,8,0:0:0:0:
296,137,169930,1,8,0:0:0:0:
296,137,170016,1,8,0:0:0:0:
296,137,170102,1,0,0:0:0:0:
319,142,170273,1,0,0:0:0:0:
319,142,170445,1,8,0:0:0:0:
341,167,170787,1,0,0:0:0:0:
341,167,170959,1,0,0:0:0:0:
341,167,171045,1,0,0:0:0:0:
341,167,171130,1,8,0:0:0:0:
277,146,171302,1,0,0:0:0:0:
277,146,171473,1,8,0:0:0:0:
277,146,171645,1,0,0:0:0:0:
277,146,171730,1,0,0:0:0:0:
277,146,171816,1,8,0:0:0:0:
277,146,171987,1,8,0:0:0:0:
277,146,172159,1,8,0:0:0:0:
277,146,172245,1,8,0:0:0:0:
277,146,172330,1,0,0:0:0:0:
277,146,172502,1,8,0:0:0:0:
277,146,172673,1,8,0:0:0:0:
277,146,172845,1,0,0:0:0:0:
269,246,173016,1,0,0:0:0:0:
269,246,173102,1,0,0:0:0:0:
269,246,173187,1,8,0:0:0:0:
269,246,173530,1,8,0:0:0:0:
269,246,173616,1,0,0:0:0:0:
269,246,173702,1,0,0:0:0:0:
269,246,173873,1,8,0:0:0:0:
269,246,174045,1,8,0:0:0:0:
269,246,174216,1,0,0:0:0:0:
135,56,174387,1,0,0:0:0:0:
226,199,174473,1,0,0:0:0:0:
226,199,174559,1,8,0:0:0:0:
226,199,174730,1,0,0:0:0:0:
132,132,174816,1,8,0:0:0:0:
195,133,174902,1,0,0:0:0:0:
226,199,175073,1,0,0:0:0:0:
109,41,175159,1,0,0:0:0:0:
226,199,175245,1,8,0:0:0:0:
226,199,175416,1,8,0:0:0:0:
226,199,175502,1,8,0:0:0:0:
212,17,175587,1,4,0:0:0:0:
274,237,175930,1,0,0:0:0:0:
274,237,176102,1,0,0:0:0:0:
412,216,176187,1,0,0:0:0:0:
274,237,176273,1,8,0:0:0:0:
274,237,176445,1,0,0:0:0:0:
274,237,176787,1,0,0:0:0:0:
274,237,177130,1,8,0:0:0:0:
310,90,177302,1,0,0:0:0:0:
310,90,177387,1,0,0:0:0:0:
303,78,177473,1,0,0:0:0:0:
338,156,177645,1,8,0:0:0:0:
177,134,177816,1,0,0:0:0:0:
177,134,178159,1,0,0:0:0:0:
169,149,178330,1,0,0:0:0:0:
261,208,178673,1,0,0:0:0:0:
159,67,178759,1,0,0:0:0:0:
261,208,178845,1,0,0:0:0:0:
261,208,179016,1,8,0:0:0:0:
261,208,179187,1,0,0:0:0:0:
261,208,179530,1,0,0:0:0:0:
290,202,179873,1,0,0:0:0:0:
336,217,180216,1,0,0:0:0:0:
404,200,180302,1,0,0:0:0:0:
213,122,180387,1,8,0:0:0:0:
213,122,180559,1,0,0:0:0:0:
213,122,180902,1,0,0:0:0:0:
222,118,181073,1,4,0:0:0:0:
274,237,181416,1,0,0:0:0:0:
274,237,181587,1,0,0:0:0:0:
412,216,181673,1,0,0:0:0:0:
274,237,181759,1,8,0:0:0:0:
274,237,181930,1,0,0:0:0:0:
274,237,182273,1,0,0:0:0:0:
274,237,182616,1,8,0:0:0:0:
310,90,182787,1,0,0:0:0:0:
310,90,182873,1,0,0:0:0:0:
303,78,182959,1,0,0:0:0:0:
338,156,183130,1,8,0:0:0:0:
177,134,183302,1,0,0:0:0:0:
177,134,183645,1,0,0:0:0:0:
169,149,183816,1,0,0:0:0:0:
261,208,184159,1,0,0:0:0:0:
193,75,184245,1,0,0:0:0:0:
133,123,184330,1,0,0:0:0:0:
261,208,184502,1,8,0:0:0:0:
261,208,184673,1,0,0:0:0:0:
261,208,185016,1,0,0:0:0:0:
290,202,185359,1,0,0:0:0:0:
336,217,185702,1,0,0:0:0:0:
404,200,185787,1,0,0:0:0:0:
213,122,185873,1,8,0:0:0:0:
213,122,186045,1,8,0:0:0:0:
108,146,186216,1,8,0:0:0:0:
213,122,186387,1,8,0:0:0:0:
207,92,186473,1,8,0:0:0:0:
165,143,186559,1,4,0:0:0:0:
169,103,186902,1,8,0:0:0:0:
41,187,187416,1,0,0:0:0:0:
41,187,187587,1,8,0:0:0:0:
252,171,187930,1,8,0:0:0:0:
252,171,188273,1,8,0:0:0:0:
252,171,188787,1,0,0:0:0:0:
252,171,188959,1,8,0:0:0:0:
252,171,189302,1,4,0:0:0:0:
252,171,189645,1,8,0:0:0:0:
252,171,190159,1,0,0:0:0:0:
252,171,190330,1,8,0:0:0:0:
252,171,190673,1,8,0:0:0:0:
252,171,191016,1,0,0:0:0:0:
252,171,191187,1,8,0:0:0:0:
252,171,191530,1,0,0:0:0:0:
252,171,191702,1,8,0:0:0:0:
104,126,192045,1,4,0:0:0:0:
170,188,192387,1,8,0:0:0:0:
170,188,192902,1,0,0:0:0:0:
170,188,193073,1,8,0:0:0:0:
170,188,193416,1,8,0:0:0:0:
170,188,193759,1,8,0:0:0:0:
223,141,194273,1,0,0:0:0:0:
223,141,194445,1,8,0:0:0:0:
223,141,194787,1,4,0:0:0:0:
223,141,195130,1,8,0:0:0:0:
223,141,195645,1,0,0:0:0:0:
223,141,195816,1,8,0:0:0:0:
223,141,196159,1,8,0:0:0:0:
223,141,196502,1,0,0:0:0:0:
223,141,196673,1,8,0:0:0:0:
241,185,196845,1,0,0:0:0:0:
170,155,197016,1,0,0:0:0:0:
170,155,197187,1,8,0:0:0:0:
281,134,197359,1,8,0:0:0:0:
281,134,197445,1,8,0:0:0:0:
156,19,197530,1,4,0:0:0:0:
169,103,197873,1,8,0:0:0:0:
41,187,198387,1,0,0:0:0:0:
41,187,198559,1,8,0:0:0:0:
252,171,198902,1,8,0:0:0:0:
252,171,199245,1,8,0:0:0:0:
252,171,199759,1,0,0:0:0:0:
252,171,199930,1,8,0:0:0:0:
252,171,200273,1,4,0:0:0:0:
252,171,200616,1,8,0:0:0:0:
252,171,201130,1,0,0:0:0:0:
252,171,201302,1,8,0:0:0:0:
252,171,201645,1,8,0:0:0:0:
252,171,201987,1,0,0:0:0:0:
252,171,202159,1,8,0:0:0:0:
252,171,202502,1,0,0:0:0:0:
252,171,202673,1,8,0:0:0:0:
104,126,203016,1,4,0:0:0:0:
170,188,203359,1,8,0:0:0:0:
170,188,203873,1,0,0:0:0:0:
170,188,204045,1,8,0:0:0:0:
170,188,204387,1,8,0:0:0:0:
170,188,204730,1,8,0:0:0:0:
223,141,205245,1,0,0:0:0:0:
223,141,205416,1,8,0:0:0:0:
223,141,205759,1,4,0:0:0:0:
223,141,206102,1,8,0:0:0:0:
223,141,206616,1,0,0:0:0:0:
223,141,206787,1,8,0:0:0:0:
223,141,207130,1,8,0:0:0:0:
223,141,207473,1,0,0:0:0:0:
223,141,207645,1,8,0:0:0:0:
216,24,207816,1,0,0:0:0:0:
170,155,207987,1,0,0:0:0:0:
170,155,208159,1,8,0:0:0:0:
216,24,208330,1,8,0:0:0:0:
70,41,208416,1,8,0:0:0:0:
113,75,208502,1,4,0:0:0:0:
189,192,209873,1,8,0:0:0:0:
258,120,211245,1,0,0:0:0:0:
164,129,212616,1,8,0:0:0:0:
164,129,213130,1,8,0:0:0:0:
164,129,213645,1,8,0:0:0:0:
132,66,213987,1,0,0:0:0:0:
125,157,215359,1,8,0:0:0:0:
132,136,216730,1,0,0:0:0:0:
156,152,218102,1,8,0:0:0:0:
156,152,218616,1,8,0:0:0:0:
156,152,219130,1,8,0:0:0:0:
156,152,219473,1,4,0:0:0:0:
