osu file format v14

[General]
AudioFilename: Netral - Garuda Di Dadaku_2.mp3
AudioLeadIn: 0
PreviewTime: 103376
Countdown: 0
SampleSet: Soft
StackLeniency: 0.7
Mode: 0
LetterboxInBreaks: 1
WidescreenStoryboard: 1

[Editor]
Bookmarks: -41,18809,44485,144661,156711
DistanceSpacing: 1.1
BeatDivisor: 4
GridSize: 4
TimelineZoom: 3.999998

[Metadata]
Title:Garuda di Dadaku
TitleUnicode:Garuda di Dadaku
Artist:Netral
ArtistUnicode:Netral
Creator:Shurelia
Version:Indonesia
Source:
Tags:Indonesia
BeatmapID:712578
BeatmapSetID:320219

[Difficulty]
HPDrainRate:4
CircleSize:4.5
OverallDifficulty:5
ApproachRate:9.3
SliderMultiplier:2.5
SliderTickRate:1

[Events]
//Background and Video events
0,0,"bgaruda.jpg",0,0
//Break Periods
2,67174,72297
2,96691,102822
//Storyboard Layer 0 (Background)
//Storyboard Layer 1 (Fail)
//Storyboard Layer 2 (Pass)
//Storyboard Layer 3 (Foreground)
//Storyboard Sound Samples

[TimingPoints]
2049,491.803278688525,4,2,1,45,1,0
33524,483.870967741935,4,2,1,45,1,0
37394,504.201680672269,4,2,1,45,1,0
39410,487.80487804878,4,2,1,45,1,0
41361,491.803278688525,4,2,1,45,1,0
47262,504.201680672269,4,2,1,45,1,0
49278,491.803278688525,4,2,1,45,1,0
55179,489.795918367347,4,2,1,45,1,0
64974,500,4,2,1,45,1,0
66974,493.827160493827,4,2,1,45,1,0
68949,487.80487804878,4,2,1,45,1,0
72851,493.827160493827,4,2,1,45,1,1
80754,489.795918367347,4,2,1,45,1,1
88590,493.827160493827,4,2,1,45,1,1
96491,491.803278688525,4,2,1,45,1,0
116163,490.79754601227,4,2,1,45,1,0
131868,500,4,2,1,45,1,0
135830,489.795918367347,4,2,1,45,1,0
143666,491.803278688525,4,2,1,45,1,0
151534,491.803278688525,4,2,1,45,1,0
167273,508.474576271186,4,2,1,45,1,0
169306,489.795918367347,4,2,1,45,1,0
171265,487.80487804878,4,2,1,45,1,0
175167,500,4,2,1,45,1,0
177167,483.870967741935,4,2,1,45,1,0
179102,495.867768595041,4,2,1,45,1,0
181085,491.803278688525,4,2,1,45,1,0
183052,490.79754601227,4,2,1,45,1,0

[Colours]
Combo1 : 235,235,235
Combo2 : 255,0,0

[HitObjects]
379,229,2049,6,0,P|399:288|384:348,1,125,6|0,0:0|0:0,0:0:0:0:
379,229,2786,1,0,0:0:0:0:
272,294,3032,6,0,P|213:313|153:298,1,125
272,294,3524,1,0,0:0:0:0:
206,81,4016,6,0,P|188:140|207:199,1,125,6|0,0:0|0:0,0:0:0:0:
205,80,4753,1,0,0:0:0:0:
320,134,4999,6,0,P|380:147|439:129,1,125
320,134,5491,1,0,0:0:0:0:
117,364,5983,6,0,P|87:309|89:247,1,125,6|0,0:0|0:0,0:0:0:0:
117,364,6721,1,0,0:0:0:0:
214,286,6967,6,0,P|275:288|330:258,1,125
214,286,7458,1,0,0:0:0:0:
422,136,7950,6,0,P|424:74|395:20,1,125,6|0,0:0|0:0,0:0:0:0:
422,136,8688,1,0,0:0:0:0:
298,98,8934,6,0,P|236:95|181:125,1,125
298,98,9426,1,0,0:0:0:0:
511,273,9917,6,0,B|430:274|430:274|389:256,2,125,6|0|10,0:0|0:0|0:0,0:0:0:0:
288,208,10901,5,10,0:0:0:0:
365,320,11024,1,8,0:0:0:0:
321,196,11270,5,8,0:0:0:0:
331,331,11393,1,10,0:0:0:0:
355,202,11639,5,8,0:0:0:0:
297,325,11762,1,8,0:0:0:0:
182,241,11885,6,0,B|164:200|164:200|165:119,2,125,6|0|10,0:0|0:0|0:0,0:0:0:0:
229,77,12868,5,10,0:0:0:0:
117,0,12991,1,8,0:0:0:0:
241,44,13237,5,8,0:0:0:0:
106,34,13360,1,10,0:0:0:0:
235,10,13606,5,8,0:0:0:0:
112,68,13729,1,8,0:0:0:0:
362,55,13852,6,0,B|380:96|380:96|379:177,2,125,6|0|10,0:0|0:0|0:0,0:0:0:0:
323,241,14835,5,10,0:0:0:0:
435,318,14958,1,8,0:0:0:0:
311,274,15204,5,8,0:0:0:0:
446,284,15327,1,10,0:0:0:0:
317,308,15573,5,8,0:0:0:0:
440,250,15696,1,8,0:0:0:0:
231,219,15819,6,0,B|216:183|216:183|215:159,1,62.5,10|8,0:0|0:0,0:0:0:0:
301,248,16065,2,0,B|316:284|316:284|316:307,1,62.5,8|8,0:0|0:0,0:0:0:0:
455,309,16311,6,0,B|455:286|455:286|440:250,1,62.5,10|8,0:0|0:0,0:0:0:0:
354,161,16557,2,0,B|355:185|355:185|370:221,1,62.5,8|8,0:0|0:0,0:0:0:0:
490,146,16803,5,2,0:0:0:0:
490,146,16885,1,8,0:0:0:0:
490,146,16967,1,8,0:0:0:0:
490,146,17049,1,8,0:0:0:0:
385,51,17171,1,8,0:0:0:0:
296,141,17294,5,8,0:0:0:0:
264,141,17417,1,8,0:0:0:0:
232,141,17540,2,0,L|231:172,1,31.25,2|2,0:0|0:0,0:0:0:0:
198,140,17663,2,0,L|197:171,1,31.25,2|2,0:0|0:0,0:0:0:0:
97,166,17786,6,0,B|113:102|113:102|150:55,1,125,6|0,0:0|0:0,0:0:0:0:
177,261,18278,2,0,B|175:195|175:195|199:140,1,125,2|0,0:0|0:0,0:0:0:0:
259,331,18770,2,0,B|325:329|325:329|380:353,1,125,2|0,0:0|0:0,0:0:0:0:
454,294,19139,1,0,0:0:0:0:
454,294,19262,2,0,B|452:228|452:228|476:173,1,125,2|0,0:0|0:0,0:0:0:0:
311,26,19753,6,0,B|375:42|375:42|422:79,1,125,2|0,0:0|0:0,0:0:0:0:
216,106,20245,2,0,B|282:104|282:104|337:128,1,125,2|0,0:0|0:0,0:0:0:0:
140,187,20737,2,0,B|142:253|142:253|118:308,1,125,2|0,0:0|0:0,0:0:0:0:
50,353,21106,1,0,0:0:0:0:
50,353,21229,2,0,B|116:351|116:351|171:375,1,125,2|0,0:0|0:0,0:0:0:0:
300,349,21598,1,0,0:0:0:0:
300,349,21721,6,0,B|312:293|312:293|301:227,1,125,6|0,0:0|0:0,0:0:0:0:
223,57,22212,2,0,B|211:113|211:113|222:179,1,125,2|0,0:0|0:0,0:0:0:0:
342,50,22704,2,0,P|281:37|222:56,1,125,2|0,0:0|0:0,0:0:0:0:
288,127,23073,1,0,0:0:0:0:
288,127,23196,2,0,P|348:141|408:127,1,125,2|0,0:0|0:0,0:0:0:0:
221,268,23688,6,0,P|160:282|100:267,1,125,2|0,0:0|0:0,0:0:0:0:
254,158,24180,2,0,P|314:172|374:158,1,125,2|0,0:0|0:0,0:0:0:0:
222,56,24671,2,0,P|161:70|101:55,1,125,2|0,0:0|0:0,0:0:0:0:
31,10,25040,1,8,0:0:0:0:
40,163,25163,1,10,0:0:0:0:
40,193,25409,2,0,L|42:255,1,62.5
164,133,25655,6,0,P|224:116|286:124,1,125,6|0,0:0|0:0,0:0:0:0:
240,330,26147,2,0,L|226:205,1,125,2|0,0:0|0:0,0:0:0:0:
370,30,26639,2,0,L|383:154,1,125,2|0,0:0|0:0,0:0:0:0:
454,212,27008,1,0,0:0:0:0:
454,212,27130,2,0,P|392:204|332:221,1,125,2|0,0:0|0:0,0:0:0:0:
119,336,27622,6,0,P|180:344|240:327,1,125,2|0,0:0|0:0,0:0:0:0:
157,130,28114,2,0,L|170:254,1,125,2|0,0:0|0:0,0:0:0:0:
266,101,28606,6,0,P|236:48|182:17,1,125,2|0,0:0|0:0,0:0:0:0:
76,41,28975,2,0,P|44:94|45:156,1,125
136,208,29344,2,0,P|167:206|198:201,1,62.5
361,170,29589,6,0,B|418:167|458:126|458:126|442:122,1,125,6|0,0:0|0:0,0:0:0:0:
266,99,30081,1,2,0:0:0:0:
266,99,30327,1,0,0:0:0:0:
296,280,30573,2,0,B|298:337|339:377|339:377|343:361,1,125,6|0,0:0|0:0,0:0:0:0:
346,169,31065,1,2,0:0:0:0:
346,169,31311,1,0,0:0:0:0:
196,92,31557,6,0,B|130:79|130:79|73:93,1,125,2|0,0:0|0:0,0:0:0:0:
346,169,32049,2,0,B|412:156|412:156|468:170,1,125,2|0,0:0|0:0,0:0:0:0:
212,334,32540,1,6,0:0:0:0:
212,334,32622,1,8,0:0:0:0:
212,334,32704,1,8,0:0:0:0:
212,334,32786,6,0,L|149:341,1,62.5,8|8,0:0|0:0,0:0:0:0:
331,216,33032,2,0,L|268:223,1,62.5,8|8,0:0|0:0,0:0:0:0:
448,92,33278,2,0,L|385:98,1,62.5,8|8,0:0|0:0,0:0:0:0:
191,117,33524,6,0,P|173:142|166:172,1,62.5,6|0,0:0|0:0,0:0:0:0:
171,266,33765,1,8,0:0:0:0:
268,222,33886,2,0,P|285:196|292:166,1,62.5,2|0,0:0|0:0,0:0:0:0:
276,72,34128,1,2,0:0:0:0:
423,114,34249,6,0,P|391:114|362:104,1,62.5,8|0,0:0|0:0,0:0:0:0:
276,72,34491,1,2,0:0:0:0:
166,171,34612,2,0,P|107:191|47:178,1,125,2|0,0:0|0:0,0:0:0:0:
100,70,34975,5,2,0:0:0:0:
166,171,35096,1,2,0:0:0:0:
106,274,35217,1,8,0:0:0:0:
105,273,35459,6,0,P|133:289|163:293,1,62.5,6|0,0:0|0:0,0:0:0:0:
257,282,35701,1,8,0:0:0:0:
401,352,35822,2,0,P|396:321|381:294,1,62.5,2|0,0:0|0:0,0:0:0:0:
321,220,36064,1,0,0:0:0:0:
162,292,36185,2,0,P|167:261|182:234,1,62.5,8|0,0:0|0:0,0:0:0:0:
247,165,36427,1,2,0:0:0:0:
332,125,36548,1,2,0:0:0:0:
443,81,36669,6,0,P|417:62|387:54,1,62.5,8|0,0:0|0:0,0:0:0:0:
294,51,36911,1,2,0:0:0:0:
205,83,37032,1,2,0:0:0:0:
119,44,37153,1,8,0:0:0:0:
48,104,37273,1,6,0:0:0:0:
85,266,37394,6,0,P|83:297|88:327,1,62.5
173,366,37646,1,8,0:0:0:0:
243,230,37772,2,0,P|211:228|181:233,1,62.5,2|0,0:0|0:0,0:0:0:0:
105,177,38024,1,2,0:0:0:0:
220,304,38150,6,0,P|280:302|319:255,1,125,8|0,0:0|0:0,0:0:0:0:
247,121,38528,2,0,P|273:139|291:165,1,62.5,2|8,0:0|0:0,0:0:0:0:
382,186,38780,1,0,0:0:0:0:
451,281,38906,5,2,0:0:0:0:
506,176,39032,1,2,0:0:0:0:
434,81,39158,1,8,0:0:0:0:
434,81,39410,6,0,P|403:74|372:74,1,62.5,0|2,0:0|0:0,0:0:0:0:
291,165,39653,1,8,0:0:0:0:
291,165,39775,2,0,P|260:171|229:171,1,62.5,2|0,0:0|0:0,0:0:0:0:
161,105,40019,1,2,0:0:0:0:
161,105,40141,2,0,L|155:229,1,125,8|8,0:0|0:0,0:0:0:0:
153,339,40466,5,8,0:0:0:0:
153,339,40548,1,8,0:0:0:0:
153,339,40629,1,8,0:0:0:0:
280,286,40751,1,8,0:0:0:0:
280,286,40995,5,8,0:0:0:0:
59,264,41117,1,8,0:0:0:0:
59,264,41361,6,0,L|60:201,1,62.5,6|0,0:0|0:0,0:0:0:0:
67,108,41606,1,8,0:0:0:0:
55,14,41729,2,0,P|86:21|112:38,1,62.5,2|0,0:0|0:0,0:0:0:0:
205,54,41975,1,2,0:0:0:0:
300,151,42098,6,0,P|300:120|291:91,1,62.5,8|0,0:0|0:0,0:0:0:0:
205,54,42344,1,2,0:0:0:0:
246,228,42467,2,0,P|306:240|364:220,1,125,2|0,0:0|0:0,0:0:0:0:
414,140,42836,5,2,0:0:0:0:
295,153,42959,1,2,0:0:0:0:
176,164,43082,1,8,0:0:0:0:
176,164,43328,6,0,P|160:192|156:222,1,62.5,6|0,0:0|0:0,0:0:0:0:
182,312,43574,1,8,0:0:0:0:
294,373,43697,2,0,P|290:343|275:316,1,62.5,2|0,0:0|0:0,0:0:0:0:
181,309,43942,1,2,0:0:0:0:
338,246,44065,2,0,P|353:218|357:188,1,62.5,8|0,0:0|0:0,0:0:0:0:
336,96,44311,1,2,0:0:0:0:
242,85,44434,1,2,0:0:0:0:
276,199,44557,6,0,P|250:180|220:172,1,62.5,10|0,0:0|0:0,0:0:0:0:
127,188,44803,1,2,0:0:0:0:
87,272,44926,1,2,0:0:0:0:
142,347,45049,1,8,0:0:0:0:
233,327,45172,1,6,0:0:0:0:
127,188,45295,6,0,P|121:157|123:126,1,62.5,4|0,0:0|0:0,0:0:0:0:
180,50,45541,1,8,0:0:0:0:
296,129,45664,2,0,P|265:134|234:131,1,62.5,2|0,0:0|0:0,0:0:0:0:
180,50,45910,1,2,0:0:0:0:
355,79,46033,6,0,P|376:135|348:189,1,125,8|0,0:0|0:0,0:0:0:0:
256,304,46401,2,0,P|259:273|273:245,1,62.5,2|8,0:0|0:0,0:0:0:0:
348,189,46647,1,0,0:0:0:0:
373,279,46770,5,2,0:0:0:0:
256,304,46893,1,2,0:0:0:0:
137,291,47016,1,8,0:0:0:0:
137,291,47262,6,0,P|106:284|75:284,1,62.5,0|2,0:0|0:0,0:0:0:0:
94,375,47514,1,8,0:0:0:0:
256,304,47640,2,0,P|255:272|249:242,1,62.5,2|0,0:0|0:0,0:0:0:0:
169,79,47892,1,2,0:0:0:0:
169,79,48018,2,0,B|152:121|182:158|163:203,1,125,8|8,0:0|0:0,0:0:0:0:
137,291,48354,5,8,0:0:0:0:
137,291,48438,1,8,0:0:0:0:
137,291,48522,1,8,0:0:0:0:
83,163,48648,1,8,0:0:0:0:
280,286,48774,1,8,0:0:0:0:
256,127,48900,5,8,0:0:0:0:
211,343,49026,1,8,0:0:0:0:
178,213,49152,1,8,0:0:0:0:
363,330,49278,6,0,P|376:301|376:270,1,62.5,2|2,0:0|0:0,0:0:0:0:
369,221,49523,1,2,0:0:0:0:
357,172,49646,1,2,0:0:0:0:
283,88,49769,5,8,0:0:0:0:
236,105,49892,1,2,0:0:0:0:
186,110,50015,1,2,0:0:0:0:
137,103,50138,1,2,0:0:0:0:
153,150,50261,5,2,0:0:0:0:
162,199,50384,1,2,0:0:0:0:
172,248,50507,1,2,0:0:0:0:
184,297,50630,1,2,0:0:0:0:
268,355,50753,6,0,P|298:360|329:356,1,62.5,8|2,0:0|0:0,0:0:0:0:
386,273,50999,1,8,0:0:0:0:
283,259,51122,1,8,0:0:0:0:
119,367,51245,6,0,P|93:348|76:322,1,62.5,6|2,0:0|0:0,0:0:0:0:
48,273,51491,1,2,0:0:0:0:
39,217,51614,1,2,0:0:0:0:
48,91,51737,5,8,0:0:0:0:
101,112,51859,1,2,0:0:0:0:
157,115,51982,1,2,0:0:0:0:
211,100,52105,1,2,0:0:0:0:
253,63,52228,5,2,0:0:0:0:
272,115,52351,1,2,0:0:0:0:
291,168,52474,1,2,0:0:0:0:
311,221,52597,1,2,0:0:0:0:
390,311,52720,6,0,P|407:285|414:255,1,62.5,8|2,0:0|0:0,0:0:0:0:
392,156,52966,1,8,0:0:0:0:
328,78,53089,1,8,0:0:0:0:
233,40,53212,6,0,P|202:39|171:41,1,62.5,4|2,0:0|0:0,0:0:0:0:
110,58,53458,1,2,0:0:0:0:
57,91,53581,1,2,0:0:0:0:
18,186,53704,5,8,0:0:0:0:
49,240,53827,1,2,0:0:0:0:
52,302,53950,1,2,0:0:0:0:
26,358,54073,1,2,0:0:0:0:
89,353,54196,5,2,0:0:0:0:
150,343,54318,1,2,0:0:0:0:
212,333,54441,1,2,0:0:0:0:
274,323,54564,1,2,0:0:0:0:
393,262,54687,6,0,P|406:290|412:320,1,62.5,8|2,0:0|0:0,0:0:0:0:
348,370,54933,1,8,0:0:0:0:
323,269,55056,1,8,0:0:0:0:
356,126,55179,6,0,P|324:122|293:125,1,62.5,6|0,0:0|0:0,0:0:0:0:
225,127,55423,1,2,0:0:0:0:
155,128,55546,1,2,0:0:0:0:
153,200,55668,6,0,P|184:203|215:200,1,62.5,8|2,0:0|0:0,0:0:0:0:
284,199,55913,1,2,0:0:0:0:
354,198,56036,1,2,0:0:0:0:
356,126,56158,6,0,P|324:122|293:125,1,62.5,2|2,0:0|0:0,0:0:0:0:
225,127,56403,1,2,0:0:0:0:
155,128,56525,1,2,0:0:0:0:
320,198,56648,5,10,0:0:0:0:
192,198,56770,1,10,0:0:0:0:
320,198,56893,1,10,0:0:0:0:
192,198,57015,1,10,0:0:0:0:
364,330,57138,6,0,P|377:301|377:270,1,62.5,4|2,0:0|0:0,0:0:0:0:
370,221,57383,1,2,0:0:0:0:
358,172,57505,1,2,0:0:0:0:
284,88,57627,5,8,0:0:0:0:
237,105,57750,1,2,0:0:0:0:
187,110,57872,1,2,0:0:0:0:
138,103,57995,1,2,0:0:0:0:
154,150,58117,5,2,0:0:0:0:
163,199,58240,1,2,0:0:0:0:
173,248,58362,1,2,0:0:0:0:
185,297,58485,1,2,0:0:0:0:
269,354,58607,6,0,P|299:359|330:355,1,62.5,8|2,0:0|0:0,0:0:0:0:
387,273,58852,1,8,0:0:0:0:
284,259,58974,1,8,0:0:0:0:
120,367,59097,6,0,P|94:348|77:322,1,62.5,6|2,0:0|0:0,0:0:0:0:
49,273,59342,1,2,0:0:0:0:
40,217,59464,1,2,0:0:0:0:
49,91,59587,5,8,0:0:0:0:
102,112,59709,1,2,0:0:0:0:
158,115,59832,1,2,0:0:0:0:
212,100,59954,1,2,0:0:0:0:
254,63,60076,5,2,0:0:0:0:
273,115,60199,1,2,0:0:0:0:
292,168,60321,1,2,0:0:0:0:
312,221,60444,5,2,0:0:0:0:
391,311,60566,6,0,P|408:285|415:255,1,62.5,8|2,0:0|0:0,0:0:0:0:
393,156,60811,1,8,0:0:0:0:
329,78,60934,1,8,0:0:0:0:
234,40,61056,6,0,P|203:39|172:41,1,62.5,4|2,0:0|0:0,0:0:0:0:
111,58,61301,1,2,0:0:0:0:
58,91,61423,1,2,0:0:0:0:
19,186,61546,5,8,0:0:0:0:
50,240,61668,1,2,0:0:0:0:
53,302,61791,1,2,0:0:0:0:
27,358,61913,1,2,0:0:0:0:
90,353,62036,5,2,0:0:0:0:
151,343,62158,1,2,0:0:0:0:
213,333,62281,1,2,0:0:0:0:
275,323,62403,1,2,0:0:0:0:
394,262,62525,6,0,P|407:290|413:320,1,62.5,8|2,0:0|0:0,0:0:0:0:
349,370,62770,1,8,0:0:0:0:
324,269,62893,1,8,0:0:0:0:
357,126,63015,6,0,P|325:122|294:125,1,62.5,6|0,0:0|0:0,0:0:0:0:
226,127,63260,1,2,0:0:0:0:
156,128,63383,1,2,0:0:0:0:
154,200,63505,6,0,P|185:203|216:200,1,62.5,8|2,0:0|0:0,0:0:0:0:
285,199,63750,1,2,0:0:0:0:
355,198,63872,1,2,0:0:0:0:
357,126,63995,6,0,P|325:122|294:125,1,62.5,2|2,0:0|0:0,0:0:0:0:
226,127,64240,1,2,0:0:0:0:
156,128,64362,1,2,0:0:0:0:
321,198,64485,5,10,0:0:0:0:
193,198,64607,5,10,0:0:0:0:
321,198,64730,1,10,0:0:0:0:
193,198,64852,1,10,0:0:0:0:
256,192,64974,12,0,66974,0:0:0:0:
128,200,72851,5,0,0:0:0:0:
220,152,72974,1,0,0:0:0:0:
312,132,73097,1,0,0:0:0:0:
408,140,73221,1,0,0:0:0:0:
32,192,73591,5,0,0:0:0:0:
124,144,73715,1,0,0:0:0:0:
216,124,73838,1,0,0:0:0:0:
312,132,73962,1,0,0:0:0:0:
32,192,74332,5,0,0:0:0:0:
312,132,74455,1,0,0:0:0:0:
312,132,74826,5,0,0:0:0:0:
220,84,74949,1,0,0:0:0:0:
128,64,75073,1,0,0:0:0:0:
32,72,75196,1,0,0:0:0:0:
408,72,75567,5,0,0:0:0:0:
312,64,75690,1,0,0:0:0:0:
220,84,75813,1,0,0:0:0:0:
128,132,75937,1,0,0:0:0:0:
408,72,76307,1,0,0:0:0:0:
128,132,76431,1,0,0:0:0:0:
408,72,76801,5,0,0:0:0:0:
296,84,76925,1,0,0:0:0:0:
188,112,77048,1,0,0:0:0:0:
88,160,77171,1,0,0:0:0:0:
492,132,77542,5,0,0:0:0:0:
380,144,77665,1,0,0:0:0:0:
272,172,77789,1,0,0:0:0:0:
172,220,77912,1,0,0:0:0:0:
492,132,78283,1,0,0:0:0:0:
172,220,78406,1,0,0:0:0:0:
172,220,78776,5,0,0:0:0:0:
272,172,78900,1,0,0:0:0:0:
380,144,79023,1,0,0:0:0:0:
492,132,79147,1,0,0:0:0:0:
60,232,79517,5,0,0:0:0:0:
160,184,79641,1,0,0:0:0:0:
268,156,79764,1,0,0:0:0:0:
380,144,79888,1,0,0:0:0:0:
60,232,80258,1,0,0:0:0:0:
380,144,80381,1,0,0:0:0:0:
380,144,80752,5,0,0:0:0:0:
292,208,80876,1,0,0:0:0:0:
300,312,80998,1,0,0:0:0:0:
380,368,81121,1,0,0:0:0:0:
176,92,81243,1,0,0:0:0:0:
196,188,81366,5,0,0:0:0:0:
164,284,81488,1,0,0:0:0:0:
76,328,81611,1,0,0:0:0:0:
12,252,81733,1,0,0:0:0:0:
100,208,81856,5,0,0:0:0:0:
196,188,81978,1,0,0:0:0:0:
132,112,82100,1,0,0:0:0:0:
400,200,82223,1,0,0:0:0:0:
106,136,82713,5,0,0:0:0:0:
194,200,82835,1,0,0:0:0:0:
186,304,82958,1,0,0:0:0:0:
104,364,83080,1,0,0:0:0:0:
310,84,83202,1,0,0:0:0:0:
290,180,83325,5,0,0:0:0:0:
322,276,83447,1,0,0:0:0:0:
410,320,83570,1,0,0:0:0:0:
474,244,83692,1,0,0:0:0:0:
386,200,83815,5,0,0:0:0:0:
290,180,83937,1,0,0:0:0:0:
354,104,84060,1,0,0:0:0:0:
86,192,84182,1,0,0:0:0:0:
324,200,84672,6,0,L|386:200,1,62.5
204,196,84917,6,0,L|141:196,1,62.5
408,200,85407,6,0,L|470:200,1,62.5
120,196,85651,6,0,L|57:196,1,62.5
408,200,86141,1,0,0:0:0:0:
120,196,86264,1,0,0:0:0:0:
64,200,86631,6,0,L|127:200,1,62.5
477,204,86876,6,0,L|415:204,1,62.5
148,200,87366,6,0,L|211:200,1,62.5
393,204,87611,6,0,L|331:204,1,62.5
268,120,88100,6,0,L|278:90,1,31.25
232,116,88223,2,0,L|242:86,1,31.25
196,116,88345,2,0,L|206:86,1,31.25
160,112,88468,2,0,L|170:82,1,31.25
472,288,88590,6,0,L|472:224,1,62.5
200,276,88836,6,0,L|200:212,1,62.5
440,288,89330,6,0,L|440:224,1,62.5
156,280,89577,6,0,L|156:216,1,62.5
400,288,90071,1,0,0:0:0:0:
112,284,90194,1,0,0:0:0:0:
44,72,90565,6,0,L|124:72,1,62.5
468,72,90812,6,0,L|388:72,1,62.5
468,72,91306,6,0,L|388:72,1,62.5
44,72,91552,6,0,L|124:72,1,62.5
405,72,92046,2,0,P|391:156|305:149,1,187.5
92,228,92540,6,0,L|220:228,3,125
464,228,93281,6,0,L|339:228,3,125
460,132,94022,1,0,0:0:0:0:
184,136,94145,1,0,0:0:0:0:
184,136,94515,6,0,L|309:136,3,125
434,136,95256,6,0,L|309:136,2,125
168,304,95627,1,0,0:0:0:0:
115,242,95750,1,0,0:0:0:0:
129,163,95873,1,0,0:0:0:0:
343,304,95873,1,0,0:0:0:0:
396,242,95997,1,0,0:0:0:0:
382,163,96120,1,0,0:0:0:0:
112,304,96120,1,0,0:0:0:0:
59,242,96244,1,0,0:0:0:0:
73,163,96367,1,0,0:0:0:0:
384,308,96367,1,0,0:0:0:0:
436,246,96491,1,0,0:0:0:0:
196,264,103376,5,0,0:0:0:0:
308,264,103868,1,0,0:0:0:0:
64,264,104359,5,0,0:0:0:0:
168,264,104851,1,0,0:0:0:0:
432,264,105343,5,0,0:0:0:0:
320,264,105712,1,0,0:0:0:0:
204,264,106081,1,0,0:0:0:0:
432,264,106327,5,0,0:0:0:0:
320,264,106818,1,0,0:0:0:0:
68,268,107310,5,0,0:0:0:0:
180,268,107802,1,0,0:0:0:0:
432,164,108294,5,0,0:0:0:0:
308,164,108786,1,0,0:0:0:0:
80,160,109277,5,0,0:0:0:0:
172,160,109523,1,0,0:0:0:0:
284,160,109769,1,0,0:0:0:0:
392,160,110015,1,0,0:0:0:0:
172,160,110261,1,0,0:0:0:0:
428,168,110753,5,0,0:0:0:0:
316,168,111245,1,0,0:0:0:0:
196,168,111736,5,0,0:0:0:0:
48,280,112228,1,0,0:0:0:0:
156,280,112720,5,0,0:0:0:0:
420,284,113212,1,0,0:0:0:0:
204,280,113581,5,0,0:0:0:0:
316,272,113950,1,0,0:0:0:0:
476,284,114195,1,0,0:0:0:0:
136,284,114687,5,0,0:0:0:0:
392,188,115179,1,0,0:0:0:0:
256,152,115548,5,0,0:0:0:0:
368,92,115917,1,0,0:0:0:0:
144,88,116163,1,0,0:0:0:0:
256,92,116653,5,0,0:0:0:0:
64,148,117144,1,0,0:0:0:0:
264,128,117635,5,0,0:0:0:0:
76,180,118126,1,0,0:0:0:0:
272,152,118616,5,0,0:0:0:0:
96,208,119107,1,0,0:0:0:0:
252,244,119598,5,0,0:0:0:0:
440,256,120089,2,0,P|471:170|435:86,1,187.5
212,68,120580,1,0,0:0:0:0:
212,67,121070,6,0,P|257:148|247:240,1,187.5
40,240,121561,1,0,0:0:0:0:
40,240,122052,6,0,P|94:313|184:329,1,187.5
404,240,122543,1,0,0:0:0:0:
403,239,123034,6,0,P|344:169|256:140,1,187.5
64,144,123524,1,0,0:0:0:0:
64,144,124015,6,0,P|17:221|47:307,1,187.5
296,308,124506,1,0,0:0:0:0:
295,307,124997,6,0,P|266:222|314:145,1,187.5
104,64,125488,1,0,0:0:0:0:
104,64,125978,6,0,L|296:64,1,187.5
476,248,126469,1,0,0:0:0:0:
476,248,126960,6,0,L|284:248,1,187.5
104,328,127451,1,0,0:0:0:0:
104,328,127942,6,0,P|227:319|329:249,2,250
399,336,129414,6,0,P|276:329|177:257,2,250
119,100,130886,6,0,P|299:102|386:258,2,375.000014305115
392,100,132368,6,0,P|212:102|125:258,2,375.000014305115
260,184,133868,5,0,0:0:0:0:
368,188,133993,1,0,0:0:0:0:
476,188,134118,1,0,0:0:0:0:
480,104,134243,5,0,0:0:0:0:
372,104,134368,1,0,0:0:0:0:
264,100,134493,1,0,0:0:0:0:
260,184,134618,5,0,0:0:0:0:
368,188,134743,1,0,0:0:0:0:
452,204,134868,5,0,0:0:0:0:
476,188,134868,1,4,0:0:0:0:
404,228,134993,2,0,L|404:280,1,46.8750017881394
360,288,135118,2,0,L|360:340,1,46.8750017881394
320,236,135243,2,0,L|320:288,1,46.8750017881394
280,192,135368,2,0,L|280:244,1,46.8750017881394
64,196,135493,6,0,L|76:248,1,46.8750017881394
276,200,135618,2,0,L|264:252,1,46.8750017881394
64,196,135743,2,0,L|76:248,1,46.8750017881394
480,272,135868,5,0,0:0:0:0:
360,128,136074,2,0,L|297:128,1,62.5
120,64,136319,1,0,0:0:0:0:
8,152,136564,2,0,L|70:152,1,62.5
276,156,136809,1,0,0:0:0:0:
512,280,137054,6,0,L|449:277,1,62.5
244,284,137299,1,0,0:0:0:0:
64,72,137544,2,0,L|126:74,1,62.5
424,72,137789,1,0,0:0:0:0:
440,324,138034,6,0,L|377:324,1,62.5
88,324,138278,1,0,0:0:0:0:
228,224,138523,1,0,0:0:0:0:
80,220,138768,1,0,0:0:0:0:
400,132,139013,6,0,L|337:132,1,62.5
128,76,139258,1,0,0:0:0:0:
8,152,139503,2,0,L|70:152,1,62.5
356,148,139748,1,0,0:0:0:0:
512,280,139993,6,0,L|449:277,1,62.5
152,288,140238,1,0,0:0:0:0:
64,72,140483,2,0,L|126:74,1,62.5
452,76,140727,1,0,0:0:0:0:
440,324,140972,6,0,L|377:324,1,62.5
88,324,141217,1,0,0:0:0:0:
96,168,141462,1,0,0:0:0:0:
368,68,141585,6,0,L|460:72,1,62.5
148,304,141952,6,0,L|56:304,2,62.5
338,299,142442,6,0,B|416:276|484:200,1,125
268,76,142809,6,0,L|330:76,1,62.5
120,152,143054,6,0,L|57:152,1,62.5
284,316,143299,6,0,L|192:316,1,62.5
388,240,143544,1,0,0:0:0:0:
88,212,143666,5,0,0:0:0:0:
88,212,143911,2,0,P|104:136|112:116,1,62.5
312,40,144280,6,0,P|296:116|288:136,1,62.5
256,212,144649,1,0,0:0:0:0:
424,212,144895,6,0,P|408:136|400:116,1,62.5
200,40,145264,6,0,P|216:116|224:136,1,62.5
256,212,145633,1,0,0:0:0:0:
368,312,145879,6,0,L|440:312,1,62.5
144,312,146247,6,0,L|72:312,1,62.5
260,112,146616,1,0,0:0:0:0:
136,44,146862,6,0,L|64:44,1,62.5
360,44,147231,6,0,L|432:44,1,62.5
256,220,147600,1,4,0:0:0:0:
256,192,147723,12,0,149567,0:0:0:0:
136,188,150059,5,0,0:0:0:0:
32,184,150305,1,0,0:0:0:0:
252,188,150551,1,0,0:0:0:0:
384,204,151043,2,0,L|420:204,12,20.8333333333333
36,216,151779,6,0,P|66:181|70:135,1,93.7500035762788
312,39,152148,6,0,P|283:75|282:121,1,93.7500035762788
256,212,152517,1,0,0:0:0:0:
460,216,152763,6,0,P|427:183|421:138,1,93.7500035762788
192,40,153132,6,0,P|225:71|234:117,1,93.7500035762788
256,212,153501,1,0,0:0:0:0:
368,312,153747,6,0,L|472:312,1,93.7500035762788
144,312,154115,6,0,L|28:312,1,93.7500035762788
260,112,154484,1,0,0:0:0:0:
136,44,154730,6,0,L|24:44,1,93.7500035762788
360,44,155099,6,0,L|456:44,1,93.7500035762788
256,220,155468,1,0,0:0:0:0:
72,216,155714,5,0,0:0:0:0:
360,224,155837,1,0,0:0:0:0:
440,216,156083,5,0,0:0:0:0:
152,224,156206,1,0,0:0:0:0:
24,216,156452,1,0,0:0:0:0:
440,216,156697,5,0,0:0:0:0:
152,224,156820,1,0,0:0:0:0:
72,216,157066,5,0,0:0:0:0:
360,224,157189,1,0,0:0:0:0:
488,216,157435,1,0,0:0:0:0:
400,44,157681,6,0,L|264:44,1,93.7500035762788
80,48,158050,6,0,L|212:48,1,93.7500035762788
36,288,158419,1,0,0:0:0:0:
144,344,158542,6,0,L|252:344,1,93.7500035762788
464,296,158788,6,0,L|356:296,1,93.7500035762788
128,240,159034,6,0,L|236:240,1,93.7500035762788
464,184,159279,6,0,L|370:184,1,93.7500035762788
28,96,159648,6,0,L|132:96,1,93.7500035762788
484,96,160017,6,0,L|380:96,1,93.7500035762788
484,96,160386,1,0,0:0:0:0:
484,96,160632,6,0,L|380:96,1,93.7500035762788
28,96,161001,6,0,L|132:96,1,93.7500035762788
28,96,161370,1,0,0:0:0:0:
28,96,161615,6,0,L|132:96,1,93.7500035762788
484,96,161984,6,0,L|380:96,1,93.7500035762788
484,96,162353,1,0,0:0:0:0:
148,96,162599,6,0,L|252:96,1,93.7500035762788
360,96,162968,6,0,L|256:96,1,93.7500035762788
260,224,163337,1,0,0:0:0:0:
256,192,163460,12,0,165304,0:0:0:0:
332,208,165550,6,0,L|408:208,1,41.6666666666667
160,148,165796,6,0,L|104:144,2,41.6666666666667
312,292,166042,6,0,L|368:288,2,41.6666666666667
60,152,166288,6,0,L|4:148,2,41.6666666666667
428,292,166534,6,0,L|484:288,2,41.6666666666667
136,260,166779,6,0,L|94:257,1,41.6666666666667
336,152,166902,6,0,L|377:154,1,41.6666666666667
196,336,167148,6,0,L|154:333,1,41.6666666666667
484,32,167273,1,0,0:0:0:0:
