osu file format v14

[General]
AudioFilename: audio.mp3
AudioLeadIn: 0
PreviewTime: -1
Countdown: 1
SampleSet: Soft
StackLeniency: 0.7
Mode: 3
LetterboxInBreaks: 0
SpecialStyle: 0
WidescreenStoryboard: 0

[Editor]
DistanceSpacing: 2
BeatDivisor: 1
GridSize: 4
TimelineZoom: 0.7000009

[Metadata]
Title:Shine
TitleUnicode:Shine
Artist:NetNobody feat. Prod Cashio + Konus
ArtistUnicode:NetNobody feat. Prod Cashio + Konus
Creator:Stats-Kun
Version:Flame
Source:
Tags:
BeatmapID:1561253
BeatmapSetID:740009

[Difficulty]
HPDrainRate:10
CircleSize:4
OverallDifficulty:4
ApproachRate:5
SliderMultiplier:1.4
SliderTickRate:1

[Events]
//Background and Video events
0,0,"Netnobody (Skydoesthings) - Shine.png",0,0
//Break Periods
2,114675,139675
//Storyboard Layer 0 (Background)
//Storyboard Layer 1 (Fail)
//Storyboard Layer 2 (Pass)
//Storyboard Layer 3 (Foreground)
//Storyboard Sound Samples

[TimingPoints]
75,400,4,2,0,25,1,0
12875,400,4,1,0,75,1,1
38475,-100,4,1,0,50,0,0
64875,400,4,1,0,50,1,0
89675,400,4,1,0,50,1,0
89675,-100,4,1,0,75,0,1
115275,400,4,2,0,25,1,0
140875,400,4,1,0,75,1,0
140875,-100,4,1,0,100,0,1
166475,400,4,1,0,50,1,0

[HitObjects]
320,192,75,5,0,0:0:0:0:
192,192,75,1,0,0:0:0:0:
64,192,2075,1,0,0:0:0:0:
192,192,2475,1,0,0:0:0:0:
320,192,2875,1,0,0:0:0:0:
192,192,3275,1,0,0:0:0:0:
320,192,3275,1,0,0:0:0:0:
320,192,4675,1,0,0:0:0:0:
192,192,4875,1,0,0:0:0:0:
320,192,4875,1,0,0:0:0:0:
192,192,7275,1,0,0:0:0:0:
320,192,7275,1,0,0:0:0:0:
64,192,9675,1,0,0:0:0:0:
192,192,9675,1,0,0:0:0:0:
320,192,12875,128,0,14475:0:0:0:0:
448,192,12875,128,0,14475:0:0:0:0:
192,192,13275,1,0,0:0:0:0:
64,192,13675,1,0,0:0:0:0:
192,192,14075,1,0,0:0:0:0:
64,192,14475,128,0,14875:0:0:0:0:
192,192,14875,1,0,0:0:0:0:
320,192,15275,1,0,0:0:0:0:
448,192,15675,1,0,0:0:0:0:
64,192,16075,128,0,17675:0:0:0:0:
192,192,16075,1,0,0:0:0:0:
320,192,16075,1,0,0:0:0:0:
448,192,16475,1,0,0:0:0:0:
320,192,16875,1,0,0:0:0:0:
448,192,17275,1,0,0:0:0:0:
192,192,17675,1,0,0:0:0:0:
320,192,17675,1,0,0:0:0:0:
448,192,17675,128,0,19275:0:0:0:0:
64,192,18075,1,0,0:0:0:0:
192,192,18075,1,0,0:0:0:0:
192,192,18475,1,0,0:0:0:0:
320,192,18475,1,0,0:0:0:0:
64,192,18875,1,0,0:0:0:0:
192,192,18875,1,0,0:0:0:0:
64,192,19275,128,0,20875:0:0:0:0:
192,192,19275,128,0,20875:0:0:0:0:
320,192,19275,1,0,0:0:0:0:
320,192,20875,1,0,0:0:0:0:
448,192,20875,1,0,0:0:0:0:
192,192,21275,1,0,0:0:0:0:
320,192,21675,1,0,0:0:0:0:
192,192,22075,1,0,0:0:0:0:
320,192,22475,128,0,24075:0:0:0:0:
448,192,22475,128,0,24075:0:0:0:0:
64,192,22475,1,0,0:0:0:0:
192,192,22475,1,0,0:0:0:0:
192,192,23675,1,0,0:0:0:0:
192,192,24075,1,0,0:0:0:0:
64,192,24075,128,0,24875:0:0:0:0:
320,192,25675,128,0,27275:0:0:0:0:
448,192,25675,128,0,27275:0:0:0:0:
192,192,26075,1,0,0:0:0:0:
64,192,26475,1,0,0:0:0:0:
192,192,26875,1,0,0:0:0:0:
64,192,27275,128,0,27675:0:0:0:0:
192,192,27675,1,0,0:0:0:0:
320,192,28075,1,0,0:0:0:0:
448,192,28475,1,0,0:0:0:0:
64,192,28875,128,0,30475:0:0:0:0:
192,192,28875,1,0,0:0:0:0:
320,192,28875,1,0,0:0:0:0:
448,192,29275,1,0,0:0:0:0:
320,192,29675,1,0,0:0:0:0:
448,192,30075,1,0,0:0:0:0:
192,192,30475,1,0,0:0:0:0:
320,192,30475,1,0,0:0:0:0:
448,192,30475,128,0,32075:0:0:0:0:
64,192,30875,1,0,0:0:0:0:
192,192,30875,1,0,0:0:0:0:
192,192,31275,1,0,0:0:0:0:
320,192,31275,1,0,0:0:0:0:
64,192,31675,1,0,0:0:0:0:
192,192,31675,1,0,0:0:0:0:
64,192,32075,128,0,33675:0:0:0:0:
192,192,32075,128,0,33675:0:0:0:0:
320,192,32075,1,0,0:0:0:0:
320,192,33675,1,0,0:0:0:0:
448,192,33675,1,0,0:0:0:0:
192,192,34075,1,0,0:0:0:0:
320,192,34475,1,0,0:0:0:0:
192,192,34875,1,0,0:0:0:0:
320,192,35275,128,0,36875:0:0:0:0:
448,192,35275,128,0,36875:0:0:0:0:
64,192,35275,1,0,0:0:0:0:
192,192,35275,1,0,0:0:0:0:
192,192,36475,1,0,0:0:0:0:
192,192,36875,1,0,0:0:0:0:
64,192,36875,128,0,37675:0:0:0:0:
64,192,38475,128,0,40075:0:0:0:0:
192,192,38475,1,0,0:0:0:0:
448,192,38875,1,0,0:0:0:0:
192,192,39275,1,0,0:0:0:0:
320,192,39275,1,0,0:0:0:0:
448,192,39675,1,0,0:0:0:0:
320,192,40075,1,0,0:0:0:0:
448,192,40075,1,0,0:0:0:0:
192,192,40075,128,0,41675:0:0:0:0:
64,192,40475,1,0,0:0:0:0:
64,192,40875,1,0,0:0:0:0:
320,192,40875,1,0,0:0:0:0:
64,192,41275,1,0,0:0:0:0:
448,192,41275,1,0,0:0:0:0:
64,192,41675,1,0,0:0:0:0:
320,192,41675,1,0,0:0:0:0:
448,192,41675,128,0,42475:0:0:0:0:
192,192,42075,1,0,0:0:0:0:
320,192,42075,1,0,0:0:0:0:
320,192,42475,1,0,0:0:0:0:
64,192,42475,128,0,43275:0:0:0:0:
192,192,42875,1,0,0:0:0:0:
320,192,42875,1,0,0:0:0:0:
192,192,43275,1,0,0:0:0:0:
320,192,43275,1,0,0:0:0:0:
448,192,43275,128,0,43675:0:0:0:0:
320,192,43675,128,0,44075:0:0:0:0:
192,192,44075,1,0,0:0:0:0:
64,192,44475,1,0,0:0:0:0:
192,192,44475,1,0,0:0:0:0:
320,192,44875,1,0,0:0:0:0:
448,192,44875,1,0,0:0:0:0:
64,192,45275,128,0,46475:0:0:0:0:
192,192,45275,128,0,46475:0:0:0:0:
64,192,47275,1,0,0:0:0:0:
192,192,47275,1,0,0:0:0:0:
192,192,47675,1,0,0:0:0:0:
320,192,47675,1,0,0:0:0:0:
320,192,48075,128,0,49675:0:0:0:0:
448,192,48075,128,0,49675:0:0:0:0:
64,192,49275,128,0,50075:0:0:0:0:
192,192,49275,128,0,50075:0:0:0:0:
320,192,50075,1,0,0:0:0:0:
448,192,50075,1,0,0:0:0:0:
192,192,50475,1,0,0:0:0:0:
320,192,50475,1,0,0:0:0:0:
320,192,51275,1,0,0:0:0:0:
448,192,51275,1,0,0:0:0:0:
320,192,51675,1,0,0:0:0:0:
192,192,52075,1,0,0:0:0:0:
320,192,52475,1,0,0:0:0:0:
64,192,52875,1,0,0:0:0:0:
192,192,52875,1,0,0:0:0:0:
320,192,53275,1,0,0:0:0:0:
448,192,53675,1,0,0:0:0:0:
320,192,54075,1,0,0:0:0:0:
320,192,54475,1,0,0:0:0:0:
448,192,54475,1,0,0:0:0:0:
192,192,54875,1,0,0:0:0:0:
64,192,55275,1,0,0:0:0:0:
192,192,55675,1,0,0:0:0:0:
192,192,56075,1,0,0:0:0:0:
64,192,56075,1,0,0:0:0:0:
320,192,56475,1,0,0:0:0:0:
448,192,56875,1,0,0:0:0:0:
320,192,57275,1,0,0:0:0:0:
64,192,57675,128,0,58475:0:0:0:0:
192,192,57675,128,0,58475:0:0:0:0:
320,192,58475,128,0,59275:0:0:0:0:
448,192,58475,128,0,59275:0:0:0:0:
192,192,58875,1,0,0:0:0:0:
64,192,59275,1,0,0:0:0:0:
192,192,59275,1,0,0:0:0:0:
448,192,60075,1,0,0:0:0:0:
320,192,60475,1,0,0:0:0:0:
192,192,60875,128,0,61675:0:0:0:0:
320,192,60875,128,0,61675:0:0:0:0:
448,192,61675,1,0,0:0:0:0:
64,192,61675,1,0,0:0:0:0:
192,192,62075,1,0,0:0:0:0:
320,192,62075,1,0,0:0:0:0:
64,192,62075,128,0,64075:0:0:0:0:
448,192,62075,128,0,64075:0:0:0:0:
192,192,62875,128,0,64075:0:0:0:0:
320,192,62875,128,0,64075:0:0:0:0:
448,192,64875,128,0,65275:0:0:0:0:
320,192,65275,128,0,65675:0:0:0:0:
192,192,65675,128,0,66075:0:0:0:0:
320,192,66075,1,0,0:0:0:0:
448,192,66075,1,0,0:0:0:0:
64,192,66475,128,0,67275:0:0:0:0:
192,192,66475,128,0,67275:0:0:0:0:
448,192,67275,1,0,0:0:0:0:
320,192,67275,1,0,0:0:0:0:
320,192,67675,1,0,0:0:0:0:
192,192,67675,1,0,0:0:0:0:
64,192,68075,1,0,0:0:0:0:
192,192,68075,1,0,0:0:0:0:
192,192,68475,1,0,0:0:0:0:
320,192,68475,1,0,0:0:0:0:
192,192,68875,128,0,69675:0:0:0:0:
320,192,68875,128,0,69675:0:0:0:0:
192,192,70075,1,0,0:0:0:0:
320,192,70075,1,0,0:0:0:0:
192,192,70475,1,0,0:0:0:0:
320,192,70475,1,0,0:0:0:0:
64,192,70475,128,0,71275:0:0:0:0:
448,192,70475,128,0,71275:0:0:0:0:
192,192,71275,1,0,0:0:0:0:
320,192,71275,1,0,0:0:0:0:
64,192,71675,1,0,0:0:0:0:
448,192,71675,1,0,0:0:0:0:
192,192,72075,1,0,0:0:0:0:
320,192,72075,1,0,0:0:0:0:
64,192,72475,1,0,0:0:0:0:
448,192,72475,1,0,0:0:0:0:
64,192,72875,1,0,0:0:0:0:
192,192,73275,128,0,73675:0:0:0:0:
320,192,73675,128,0,74475:0:0:0:0:
448,192,73675,128,0,74475:0:0:0:0:
192,192,74475,1,0,0:0:0:0:
64,192,74875,128,0,76075:0:0:0:0:
192,192,74875,128,0,76075:0:0:0:0:
320,192,74875,1,0,0:0:0:0:
320,192,76075,1,0,0:0:0:0:
448,192,76075,1,0,0:0:0:0:
448,192,77675,128,0,78075:0:0:0:0:
320,192,78075,128,0,78475:0:0:0:0:
192,192,78475,128,0,78875:0:0:0:0:
448,192,78875,1,0,0:0:0:0:
320,192,78875,1,0,0:0:0:0:
192,192,79275,128,0,80075:0:0:0:0:
64,192,79275,128,0,80075:0:0:0:0:
320,192,80075,1,0,0:0:0:0:
448,192,80075,1,0,0:0:0:0:
192,192,80475,1,0,0:0:0:0:
320,192,80475,1,0,0:0:0:0:
192,192,80875,1,0,0:0:0:0:
64,192,80875,1,0,0:0:0:0:
320,192,81275,1,0,0:0:0:0:
192,192,81275,1,0,0:0:0:0:
320,192,81675,128,0,82475:0:0:0:0:
192,192,81675,128,0,82475:0:0:0:0:
320,192,82875,1,0,0:0:0:0:
192,192,82875,1,0,0:0:0:0:
64,192,83275,128,0,84075:0:0:0:0:
448,192,83275,128,0,84075:0:0:0:0:
192,192,83275,1,0,0:0:0:0:
320,192,83275,1,0,0:0:0:0:
320,192,84075,1,0,0:0:0:0:
192,192,84075,1,0,0:0:0:0:
448,192,84475,1,0,0:0:0:0:
64,192,84475,1,0,0:0:0:0:
320,192,84875,1,0,0:0:0:0:
192,192,84875,1,0,0:0:0:0:
448,192,85275,1,0,0:0:0:0:
64,192,85275,1,0,0:0:0:0:
64,192,85675,1,0,0:0:0:0:
192,192,86075,128,0,86475:0:0:0:0:
448,192,86475,128,0,87275:0:0:0:0:
320,192,86475,128,0,87275:0:0:0:0:
192,192,87275,1,0,0:0:0:0:
320,192,87675,1,0,0:0:0:0:
192,192,87675,128,0,88875:0:0:0:0:
64,192,87675,128,0,88875:0:0:0:0:
448,192,88875,1,0,0:0:0:0:
320,192,88875,1,0,0:0:0:0:
448,192,89675,128,0,91275:0:0:0:0:
320,192,89675,128,0,91275:0:0:0:0:
192,192,90075,1,0,0:0:0:0:
64,192,90475,1,0,0:0:0:0:
192,192,90875,1,0,0:0:0:0:
64,192,91275,128,0,91675:0:0:0:0:
192,192,91675,1,0,0:0:0:0:
320,192,92075,1,0,0:0:0:0:
448,192,92475,1,0,0:0:0:0:
320,192,92875,1,0,0:0:0:0:
192,192,92875,1,0,0:0:0:0:
64,192,92875,128,0,94475:0:0:0:0:
448,192,93275,1,0,0:0:0:0:
320,192,93675,1,0,0:0:0:0:
448,192,94075,1,0,0:0:0:0:
448,192,94475,128,0,96075:0:0:0:0:
320,192,94475,1,0,0:0:0:0:
192,192,94475,1,0,0:0:0:0:
192,192,94875,1,0,0:0:0:0:
64,192,94875,1,0,0:0:0:0:
320,192,95275,1,0,0:0:0:0:
192,192,95275,1,0,0:0:0:0:
192,192,95675,1,0,0:0:0:0:
64,192,95675,1,0,0:0:0:0:
320,192,96075,1,0,0:0:0:0:
192,192,96075,128,0,97675:0:0:0:0:
64,192,96075,128,0,97675:0:0:0:0:
448,192,97675,1,0,0:0:0:0:
320,192,97675,1,0,0:0:0:0:
192,192,98075,1,0,0:0:0:0:
320,192,98475,1,0,0:0:0:0:
192,192,98875,1,0,0:0:0:0:
64,192,99275,1,0,0:0:0:0:
192,192,99275,1,0,0:0:0:0:
320,192,99275,128,0,100875:0:0:0:0:
448,192,99275,128,0,100875:0:0:0:0:
192,192,100475,1,0,0:0:0:0:
64,192,100875,128,0,101675:0:0:0:0:
192,192,100875,1,0,0:0:0:0:
448,192,102475,128,0,104075:0:0:0:0:
320,192,102475,128,0,104075:0:0:0:0:
192,192,102875,1,0,0:0:0:0:
64,192,103275,1,0,0:0:0:0:
192,192,103675,1,0,0:0:0:0:
64,192,104075,128,0,104475:0:0:0:0:
192,192,104475,1,0,0:0:0:0:
320,192,104875,1,0,0:0:0:0:
448,192,105275,1,0,0:0:0:0:
320,192,105675,1,0,0:0:0:0:
192,192,105675,1,0,0:0:0:0:
64,192,105675,128,0,107275:0:0:0:0:
448,192,106075,1,0,0:0:0:0:
320,192,106475,1,0,0:0:0:0:
448,192,106875,1,0,0:0:0:0:
448,192,107275,128,0,108875:0:0:0:0:
320,192,107275,1,0,0:0:0:0:
192,192,107275,1,0,0:0:0:0:
192,192,107675,1,0,0:0:0:0:
64,192,107675,1,0,0:0:0:0:
320,192,108075,1,0,0:0:0:0:
192,192,108075,1,0,0:0:0:0:
192,192,108475,1,0,0:0:0:0:
64,192,108475,1,0,0:0:0:0:
320,192,108875,1,0,0:0:0:0:
192,192,108875,128,0,110475:0:0:0:0:
64,192,108875,128,0,110475:0:0:0:0:
448,192,110475,1,0,0:0:0:0:
320,192,110475,1,0,0:0:0:0:
192,192,110875,1,0,0:0:0:0:
320,192,111275,1,0,0:0:0:0:
192,192,111675,1,0,0:0:0:0:
64,192,112075,1,0,0:0:0:0:
192,192,112075,1,0,0:0:0:0:
320,192,112075,128,0,113675:0:0:0:0:
448,192,112075,128,0,113675:0:0:0:0:
192,192,113275,1,0,0:0:0:0:
64,192,113675,128,0,114475:0:0:0:0:
192,192,113675,1,0,0:0:0:0:
320,192,140875,132,0,142475:0:0:0:0:
448,192,140875,128,0,142475:0:0:0:0:
64,192,140875,1,0,0:0:0:0:
192,192,140875,1,0,0:0:0:0:
192,192,141275,1,0,0:0:0:0:
64,192,141675,1,0,0:0:0:0:
192,192,141675,1,0,0:0:0:0:
192,192,142075,1,0,0:0:0:0:
64,192,142475,128,0,142875:0:0:0:0:
192,192,142475,1,0,0:0:0:0:
192,192,142875,1,0,0:0:0:0:
320,192,142875,1,0,0:0:0:0:
320,192,143275,1,0,0:0:0:0:
192,192,143275,1,0,0:0:0:0:
448,192,143675,1,0,0:0:0:0:
64,192,143675,1,0,0:0:0:0:
64,192,144075,128,0,145675:0:0:0:0:
192,192,144075,1,0,0:0:0:0:
320,192,144075,1,0,0:0:0:0:
448,192,144075,1,0,0:0:0:0:
448,192,144475,1,0,0:0:0:0:
192,192,144475,1,0,0:0:0:0:
320,192,144875,1,0,0:0:0:0:
448,192,144875,1,0,0:0:0:0:
448,192,145275,1,0,0:0:0:0:
192,192,145275,1,0,0:0:0:0:
192,192,145675,1,0,0:0:0:0:
320,192,145675,1,0,0:0:0:0:
448,192,145675,128,0,147275:0:0:0:0:
64,192,146075,1,0,0:0:0:0:
192,192,146075,1,0,0:0:0:0:
192,192,146475,1,0,0:0:0:0:
320,192,146475,1,0,0:0:0:0:
64,192,146875,1,0,0:0:0:0:
192,192,146875,1,0,0:0:0:0:
64,192,147275,128,0,148875:0:0:0:0:
192,192,147275,128,0,148875:0:0:0:0:
320,192,147275,1,0,0:0:0:0:
320,192,147675,1,0,0:0:0:0:
320,192,148075,1,0,0:0:0:0:
448,192,148075,1,0,0:0:0:0:
448,192,148475,1,0,0:0:0:0:
320,192,148875,1,0,0:0:0:0:
448,192,148875,1,0,0:0:0:0:
192,192,149275,1,0,0:0:0:0:
64,192,149275,1,0,0:0:0:0:
320,192,149675,1,0,0:0:0:0:
448,192,149675,1,0,0:0:0:0:
192,192,150075,1,0,0:0:0:0:
64,192,150075,1,0,0:0:0:0:
320,192,150475,128,0,152075:0:0:0:0:
448,192,150475,128,0,152075:0:0:0:0:
64,192,150475,1,0,0:0:0:0:
192,192,150475,1,0,0:0:0:0:
192,192,150875,1,0,0:0:0:0:
64,192,151275,1,0,0:0:0:0:
192,192,151675,1,0,0:0:0:0:
64,192,151675,1,0,0:0:0:0:
192,192,152075,1,0,0:0:0:0:
64,192,152075,128,0,153675:0:0:0:0:
320,192,152475,1,0,0:0:0:0:
448,192,152475,1,0,0:0:0:0:
192,192,152875,128,0,153675:0:0:0:0:
320,192,152875,1,0,0:0:0:0:
448,192,152875,1,0,0:0:0:0:
320,192,153275,1,0,0:0:0:0:
448,192,153275,1,0,0:0:0:0:
448,192,153675,128,0,155275:0:0:0:0:
320,192,153675,128,0,155275:0:0:0:0:
192,192,154075,1,0,0:0:0:0:
64,192,154475,1,0,0:0:0:0:
192,192,154475,1,0,0:0:0:0:
192,192,154875,1,0,0:0:0:0:
64,192,155275,128,0,155675:0:0:0:0:
192,192,155275,1,0,0:0:0:0:
192,192,155675,1,0,0:0:0:0:
320,192,155675,1,0,0:0:0:0:
320,192,156075,1,0,0:0:0:0:
192,192,156075,1,0,0:0:0:0:
448,192,156475,1,0,0:0:0:0:
64,192,156475,1,0,0:0:0:0:
64,192,156875,128,0,158475:0:0:0:0:
192,192,156875,1,0,0:0:0:0:
320,192,156875,1,0,0:0:0:0:
448,192,156875,1,0,0:0:0:0:
448,192,157275,1,0,0:0:0:0:
192,192,157275,1,0,0:0:0:0:
320,192,157675,1,0,0:0:0:0:
448,192,157675,1,0,0:0:0:0:
448,192,158075,1,0,0:0:0:0:
192,192,158075,1,0,0:0:0:0:
192,192,158475,1,0,0:0:0:0:
320,192,158475,1,0,0:0:0:0:
448,192,158475,128,0,160075:0:0:0:0:
64,192,158875,1,0,0:0:0:0:
192,192,158875,1,0,0:0:0:0:
192,192,159275,1,0,0:0:0:0:
320,192,159275,1,0,0:0:0:0:
64,192,159675,1,0,0:0:0:0:
192,192,159675,1,0,0:0:0:0:
64,192,160075,128,0,161675:0:0:0:0:
192,192,160075,128,0,161675:0:0:0:0:
320,192,160075,1,0,0:0:0:0:
320,192,160475,1,0,0:0:0:0:
320,192,160875,1,0,0:0:0:0:
448,192,160875,1,0,0:0:0:0:
448,192,161275,1,0,0:0:0:0:
320,192,161675,1,0,0:0:0:0:
448,192,161675,1,0,0:0:0:0:
192,192,162075,1,0,0:0:0:0:
64,192,162075,1,0,0:0:0:0:
320,192,162475,1,0,0:0:0:0:
448,192,162475,1,0,0:0:0:0:
192,192,162875,1,0,0:0:0:0:
64,192,162875,1,0,0:0:0:0:
320,192,163275,128,0,164875:0:0:0:0:
448,192,163275,128,0,164875:0:0:0:0:
64,192,163275,1,0,0:0:0:0:
192,192,163275,1,0,0:0:0:0:
192,192,163675,1,0,0:0:0:0:
64,192,164075,1,0,0:0:0:0:
192,192,164475,1,0,0:0:0:0:
64,192,164475,1,0,0:0:0:0:
192,192,164875,1,0,0:0:0:0:
64,192,164875,128,0,166475:0:0:0:0:
320,192,165275,1,0,0:0:0:0:
448,192,165275,1,0,0:0:0:0:
192,192,165675,128,0,166475:0:0:0:0:
320,192,165675,1,0,0:0:0:0:
448,192,165675,1,0,0:0:0:0:
320,192,166075,1,0,0:0:0:0:
448,192,166075,1,0,0:0:0:0:
320,192,166475,1,0,0:0:0:0:
448,192,166475,1,0,0:0:0:0:
448,192,167275,1,0,0:0:0:0:
320,192,167275,128,0,192075:0:0:0:0:
448,192,168075,1,0,0:0:0:0:
448,192,168875,1,0,0:0:0:0:
448,192,169675,1,0,0:0:0:0:
448,192,170475,1,0,0:0:0:0:
448,192,171275,1,0,0:0:0:0:
448,192,172075,1,0,0:0:0:0:
448,192,172875,1,0,0:0:0:0:
448,192,173675,1,0,0:0:0:0:
448,192,174475,1,0,0:0:0:0:
448,192,175275,1,0,0:0:0:0:
448,192,176075,1,0,0:0:0:0:
448,192,176875,1,0,0:0:0:0:
448,192,177675,1,0,0:0:0:0:
448,192,178475,1,0,0:0:0:0:
448,192,179275,1,0,0:0:0:0:
448,192,180075,1,0,0:0:0:0:
448,192,180875,1,0,0:0:0:0:
448,192,181675,1,0,0:0:0:0:
448,192,182475,1,0,0:0:0:0:
448,192,183275,1,0,0:0:0:0:
448,192,184075,1,0,0:0:0:0:
448,192,184875,1,0,0:0:0:0:
448,192,185675,1,0,0:0:0:0:
448,192,186475,1,0,0:0:0:0:
448,192,187275,1,0,0:0:0:0:
448,192,188075,1,0,0:0:0:0:
448,192,188875,1,0,0:0:0:0:
448,192,189675,1,0,0:0:0:0:
448,192,190475,1,0,0:0:0:0:
448,192,191275,1,0,0:0:0:0:
448,192,192075,1,0,0:0:0:0:
