osu file format v14

[General]
AudioFilename: audio.mp3
AudioLeadIn: 0
PreviewTime: 110317
Countdown: 0
SampleSet: Soft
StackLeniency: 1
Mode: 0
LetterboxInBreaks: 0
WidescreenStoryboard: 1

[Editor]
Bookmarks: 67045,111696,167510,178673,198208,252278
DistanceSpacing: 1.7
BeatDivisor: 4
GridSize: 4
TimelineZoom: 2.999999

[Metadata]
Title:Stay (Soular Order Remix)
TitleUnicode:Stay (Soular Order Remix)
Artist:Nesta Rae
ArtistUnicode:Nesta Rae
Creator:semaphore
Version:Myxo's Hard
Source:
Tags:rue myxo myxomatosis liquid dnb drum and bass electronic downtempo chill english
BeatmapID:3290511
BeatmapSetID:1560053

[Difficulty]
HPDrainRate:5
CircleSize:3.8
OverallDifficulty:6
ApproachRate:8
SliderMultiplier:1.4
SliderTickRate:1

[Events]
//Background and Video events
0,0,"new3067.jpg",0,0
//Break Periods
2,68292,69086
2,71082,71877
2,73873,74667
2,76664,77458
2,79455,80249
2,82245,83039
2,85036,85830
2,87827,88621
2,167710,177923
//Storyboard Layer 0 (Background)
//Storyboard Layer 1 (Fail)
//Storyboard Layer 2 (Pass)
//Storyboard Layer 3 (Foreground)
//Storyboard Layer 4 (Overlay)
//Storyboard Sound Samples

[TimingPoints]
69,348.837209302326,4,2,0,20,1,0
67045,-142.857142857143,4,2,1,40,0,0
68092,-142.857142857143,4,2,2,40,0,0
68179,-142.857142857143,4,2,1,40,0,0
73673,-142.857142857143,4,2,2,40,0,0
73760,-142.857142857143,4,2,1,40,0,0
79255,-142.857142857143,4,2,2,40,0,0
79342,-142.857142857143,4,2,1,40,0,0
84836,-142.857142857143,4,2,2,40,0,0
84923,-142.857142857143,4,2,1,40,0,0
86580,-142.857142857143,4,2,1,20,0,0
86667,-142.857142857143,4,2,1,40,0,0
90505,-142.857142857143,4,2,2,40,0,0
92162,-142.857142857143,4,2,1,30,0,0
92249,-142.857142857143,4,2,1,40,0,0
95999,-142.857142857143,4,2,2,40,0,0
96086,-142.857142857143,4,2,1,40,0,0
101580,-142.857142857143,4,2,2,40,0,0
101667,-142.857142857143,4,2,1,40,0,0
107162,-142.857142857143,4,2,2,40,0,0
107249,-142.857142857143,4,2,1,40,0,0
111696,-100,4,2,1,60,0,0
112743,-100,4,2,2,60,0,0
112830,-100,4,2,1,60,0,0
113441,-100,4,2,1,40,0,0
113789,-100,4,2,2,40,0,0
113877,-100,4,2,1,40,0,0
114400,-100,4,2,1,60,0,0
115534,-100,4,2,2,60,0,0
115621,-100,4,2,1,60,0,0
116493,-100,4,2,2,60,0,0
116667,-100,4,2,1,60,0,0
118324,-100,4,2,2,60,0,0
118412,-100,4,2,1,60,0,0
119022,-100,4,2,1,40,0,0
119371,-100,4,2,2,60,0,0
119458,-100,4,2,1,60,0,0
121115,-100,4,2,2,60,0,0
121202,-100,4,2,1,60,0,0
122162,-100,4,2,2,60,0,0
122249,-100,4,2,1,60,0,0
123906,-100,4,2,2,60,0,0
123993,-100,4,2,1,60,0,0
124865,-100,4,2,2,60,0,0
125039,-100,4,2,1,60,0,0
126696,-100,4,2,2,60,0,0
126784,-100,4,2,1,60,0,0
127743,-100,4,2,2,60,0,0
127830,-100,4,2,1,60,0,0
129487,-100,4,2,2,60,0,0
129574,-100,4,2,1,60,0,0
130534,-100,4,2,2,60,0,0
130621,-100,4,2,1,60,0,0
132278,-100,4,2,2,60,0,0
132365,-100,4,2,1,60,0,0
133324,-100,4,2,2,60,0,0
133412,-100,4,2,1,60,0,0
135069,-100,4,2,2,60,0,0
135156,-100,4,2,1,60,0,0
136115,-100,4,2,2,60,0,0
136202,-100,4,2,1,60,0,0
137859,-100,4,2,2,60,0,0
137946,-100,4,2,1,60,0,0
138819,-100,4,2,2,60,0,0
138993,-100,4,2,1,60,0,0
140563,-100,4,2,2,60,0,0
140737,-100,4,2,1,60,0,0
141696,-100,4,2,2,60,0,0
141784,-100,4,2,1,60,0,0
143441,-100,4,2,2,60,0,0
143528,-100,4,2,1,60,0,0
144487,-100,4,2,2,60,0,0
144574,-100,4,2,1,60,0,0
146231,-100,4,2,2,60,0,0
146319,-100,4,2,1,60,0,0
147278,-100,4,2,2,60,0,0
147365,-100,4,2,1,60,0,0
149022,-100,4,2,2,60,0,0
149109,-100,4,2,1,60,0,0
149981,-100,4,2,2,60,0,0
150156,-100,4,2,1,60,0,0
151813,-100,4,2,2,60,0,0
151900,-100,4,2,1,60,0,0
152510,-100,4,2,1,40,0,0
153557,-100,4,2,1,60,0,0
154603,-100,4,2,2,60,0,0
154691,-100,4,2,1,60,0,0
155650,-100,4,2,2,60,0,0
155737,-100,4,2,1,60,0,0
157394,-100,4,2,2,60,0,0
157481,-100,4,2,1,60,0,0
158353,-100,4,2,2,60,0,0
158528,-100,4,2,1,60,0,0
160185,-100,4,2,2,60,0,0
160272,-100,4,2,1,60,0,0
161231,-100,4,2,2,60,0,0
161319,-100,4,2,1,60,0,0
162975,-100,4,2,2,60,0,0
163063,-100,4,2,1,60,0,0
163935,-100,4,2,2,60,0,0
164109,-100,4,2,1,60,0,0
165766,-100,4,2,2,60,0,0
165853,-100,4,2,1,60,0,0
167423,-100,4,2,1,40,0,0
178673,-142.857142857143,4,2,1,40,0,0
189836,-200,4,2,1,40,0,0
190882,-166.666666666667,4,2,1,40,0,0
192278,-142.857142857143,4,2,1,40,0,0
193673,-125,4,2,1,40,0,0
195069,-100,4,2,1,40,0,0
198121,-100,4,2,1,60,0,0
199167,-100,4,2,2,60,0,0
199342,-100,4,2,1,60,0,0
199952,-100,4,2,1,40,0,0
200301,-100,4,2,2,40,0,0
200388,-100,4,2,1,40,0,0
200999,-100,4,2,1,60,0,0
201958,-100,4,2,2,60,0,0
202132,-100,4,2,1,60,0,0
203005,-100,4,2,2,60,0,0
203179,-100,4,2,1,60,0,0
204749,-100,4,2,2,60,0,0
204923,-100,4,2,1,60,0,0
205534,-100,4,2,1,40,0,0
205882,-100,4,2,2,60,0,0
205970,-100,4,2,1,60,0,0
207539,-100,4,2,2,60,0,0
207714,-100,4,2,1,60,0,0
208586,-100,4,2,2,60,0,0
208760,-100,4,2,1,60,0,0
210330,-100,4,2,2,60,0,0
210505,-100,4,2,1,60,0,0
211377,-100,4,2,2,60,0,0
211551,-100,4,2,1,60,0,0
213121,-100,4,2,2,60,0,0
213295,-100,4,2,1,60,0,0
214167,-100,4,2,2,60,0,0
214342,-100,4,2,1,60,0,0
215912,-100,4,2,2,60,0,0
216086,-100,4,2,1,60,0,0
216958,-100,4,2,2,60,0,0
217132,-100,4,2,1,60,0,0
217307,-100,4,2,1,40,0,0
217481,-100,4,2,1,60,0,0
218702,-100,4,2,2,60,0,0
218877,-100,4,2,1,60,0,0
219749,-100,4,2,2,60,0,0
219923,-100,4,2,1,60,0,0
221493,-100,4,2,2,60,0,0
221667,-100,4,2,1,60,0,0
222539,-100,4,2,2,60,0,0
222714,-100,4,2,1,60,0,0
224284,-100,4,2,2,60,0,0
224458,-100,4,2,1,60,0,0
225330,-100,4,2,2,60,0,0
225505,-100,4,2,1,60,0,0
227074,-100,4,2,2,60,0,0
227249,-100,4,2,1,60,0,0
228208,-100,4,2,2,60,0,0
228295,-100,4,2,1,60,0,0
229865,-100,4,2,2,60,0,0
230039,-100,4,2,1,60,0,0
230912,-100,4,2,2,60,0,0
231086,-100,4,2,1,60,0,0
232656,-100,4,2,2,60,0,0
232830,-100,4,2,1,60,0,0
233441,-100,4,2,1,50,0,0
233789,-100,4,2,2,50,0,0
233877,-100,4,2,1,50,0,0
234487,-100,4,2,1,60,0,0
235446,-100,4,2,2,60,0,0
235621,-100,4,2,1,60,0,0
236493,-100,4,2,2,60,0,0
236667,-100,4,2,1,50,0,0
237278,-100,4,2,1,60,0,0
238237,-100,4,2,2,60,0,0
238412,-100,4,2,1,60,0,0
239284,-100,4,2,2,60,0,0
239458,-100,4,2,1,60,0,0
241028,-100,4,2,2,60,0,0
241202,-100,4,2,1,60,0,0
242074,-100,4,2,2,60,0,0
242249,-100,4,2,1,60,0,0
243819,-100,4,2,2,60,0,0
243993,-100,4,2,1,60,0,0
244865,-100,4,2,2,60,0,0
245039,-100,4,2,1,60,0,0
246609,-100,4,2,2,60,0,0
246784,-100,4,2,1,60,0,0
247656,-100,4,2,2,60,0,0
247830,-100,4,2,1,60,0,0
249487,-100,4,2,2,60,0,0
249574,-100,4,2,1,60,0,0
250446,-100,4,2,2,60,0,0
250621,-100,4,2,1,60,0,0
252278,-100,4,2,2,60,0,0
252365,-100,4,2,1,60,0,0
253935,-100,4,2,1,20,0,0

[Colours]
Combo1 : 255,255,255
Combo2 : 173,255,95
Combo3 : 255,88,100
Combo4 : 255,94,55
Combo5 : 17,254,176

[HitObjects]
50,64,67045,6,0,P|98:62|147:58,1,97.9999970092774,0|2,1:0|0:0,0:0:0:0:
230,104,67569,2,0,P|255:102|291:101,2,48.9999985046387,0|0|0,1:0|0:0|0:0,0:0:0:0:
147,57,68092,1,10,0:2:0:0:
78,340,69836,6,0,P|74:291|73:242,1,97.9999970092774,0|2,1:0|0:0,0:0:0:0:
158,186,70359,2,0,P|161:234|162:283,1,97.9999970092774,0|0,1:0|1:2,0:0:0:0:
162,283,70882,1,8,1:2:0:0:
459,330,72627,6,0,P|411:332|362:336,1,97.9999970092774,0|8,1:0|0:0,0:0:0:0:
272,298,73150,1,0,1:0:0:0:
272,298,73324,2,0,P|270:266|270:231,1,48.9999985046387
360,216,73673,1,10,1:2:0:0:
263,57,75417,6,0,P|311:55|360:51,1,97.9999970092774,0|0,1:2|0:0,0:0:0:0:
456,31,75941,2,0,P|460:79|462:128,1,97.9999970092774,8|0,1:2|0:0,0:0:0:0:
462,128,76464,1,8,1:2:0:0:
216,355,78208,22,0,P|211:306|209:257,1,97.9999970092774,0|2,1:0|0:0,0:0:0:0:
275,190,78731,2,0,P|274:161|274:129,2,48.9999985046387,8|0|8,1:2|0:0|0:2,0:0:0:0:
301,278,79255,1,10,1:2:0:0:
32,71,80999,6,0,P|77:71|131:67,1,97.9999970092774,0|2,1:0|0:0,0:0:0:0:
181,154,81522,2,0,P|136:154|82:158,1,97.9999970092774,0|0,1:0|0:0,0:0:0:0:
83,157,82045,1,8,1:2:0:0:
450,347,83789,6,0,P|450:305|452:245,1,97.9999970092774,0|0,1:0|0:0,0:0:0:0:
385,184,84313,2,0,P|360:184|333:186,1,48.9999985046387,0|0,1:0|0:0,0:0:0:0:
283,261,84662,1,8,0:2:0:0:
356,316,84836,1,10,1:2:0:0:
61,180,86580,6,0,P|61:226|57:281,1,97.9999970092774,4|0,1:0|0:0,0:0:0:0:
33,371,87103,2,0,P|81:367|130:367,1,97.9999970092774,0|8,1:0|1:2,0:0:0:0:
130,367,87627,1,0,1:0:0:0:
153,68,89371,22,0,P|194:66|254:67,1,97.9999970092774,0|8,1:0|0:0,0:0:0:0:
347,89,89894,2,0,P|347:61|347:38,2,48.9999985046387,0|0|8,1:0|0:0|0:2,0:0:0:0:
372,181,90417,1,10,1:2:0:0:
206,162,90766,1,4,0:0:0:0:
281,314,91115,2,0,P|280:265|282:216,1,97.9999970092774,0|2,0:2|0:0,0:0:0:0:
282,216,91813,1,0,0:2:0:0:
28,369,92162,6,0,P|76:366|125:367,1,97.9999970092774,4|0,1:0|0:0,0:0:0:0:
171,275,92685,2,0,P|122:277|73:276,1,97.9999970092774,8|8,1:2|1:2,0:0:0:0:
11,196,93208,1,12,1:2:0:0:
16,199,93906,1,2,0:0:0:0:
88,84,94255,1,2,0:0:0:0:
194,167,94603,1,0,1:0:0:0:
371,27,94952,6,0,P|370:75|372:124,1,97.9999970092774,0|0,1:0|0:0,0:0:0:0:
456,175,95475,2,0,P|488:173|519:173,1,48.9999985046387,0|0,1:0|0:0,0:0:0:0:
395,246,95824,1,0,0:0:0:0:
314,204,95999,1,10,1:2:0:0:
314,204,96348,1,0,0:0:0:0:
454,345,96696,2,0,P|380:346|250:360,1,195.999994018555,2|2,0:0|0:0,0:0:0:0:
46,285,97743,6,0,P|94:284|143:286,1,97.9999970092774,0|0,1:0|0:0,0:0:0:0:
222,227,98266,2,0,P|224:178|223:129,1,97.9999970092774,0|8,1:0|0:0,0:0:0:0:
223,129,98789,1,8,1:2:0:0:
102,184,99138,1,10,1:2:0:0:
102,184,99487,1,0,0:0:0:0:
51,62,99836,1,4,0:0:0:0:
51,62,100185,1,2,0:0:0:0:
316,0,100534,22,0,P|313:48|314:97,1,97.9999970092774,4|8,1:1|0:0,0:0:0:0:
392,152,101057,2,0,P|420:150|456:150,2,48.9999985046387,0|0|8,1:0|0:0|0:2,0:0:0:0:
310,202,101580,1,10,1:2:0:0:
310,202,102278,1,2,0:0:0:0:
310,202,102975,1,0,1:0:0:0:
102,61,103324,6,0,P|104:109|103:158,1,97.9999970092774,0|8,1:0|0:0,0:0:0:0:
133,256,103848,2,0,P|84:255|35:257,1,97.9999970092774,0|8,1:0|0:0,0:0:0:0:
35,257,104371,1,0,1:0:0:0:
166,359,104720,2,0,P|214:359|263:357,2,97.9999970092774,2|0|4,0:0|0:0|0:0,0:0:0:0:
370,333,105766,1,2,0:0:0:0:
250,217,106115,6,0,P|247:168|248:119,1,97.9999970092774,4|8,1:0|0:0,0:0:0:0:
307,46,106638,2,0,P|341:45|373:48,1,48.9999985046387,0|0,1:0|0:0,0:0:0:0:
443,91,106987,1,10,0:2:0:0:
374,162,107162,2,0,P|326:184|168:47,1,293.999991027832,8|2,1:2|0:0,0:0:0:0:
167,49,108557,1,0,1:0:0:0:
15,325,108906,6,0,P|15:276|13:227,1,97.9999970092774,0|8,1:0|0:0,0:0:0:0:
105,181,109429,2,0,P|104:229|106:278,1,97.9999970092774,0|8,1:0|0:0,0:0:0:0:
106,278,109952,1,8,1:2:0:0:
221,363,110301,2,0,P|295:357|424:357,1,195.999994018555,2|4,0:0|0:0,0:0:0:0:
420,360,111696,6,0,P|380:347|354:252,1,140,4|0,1:0|1:2,0:0:0:0:
438,206,112220,2,0,P|433:250|435:302,1,70,0|0,1:0|0:0,0:0:0:0:
267,338,112569,2,0,P|256:301|241:265,1,70,2|10,1:2|1:2,0:0:0:0:
313,188,112917,2,0,P|312:125|315:46,1,140,0|0,1:0|0:0,0:0:0:0:
404,118,113441,2,0,P|453:104|477:19,2,140,0|10|0,1:0|1:2|1:0,0:0:0:0:
314,48,114313,1,0,1:0:0:0:
314,48,114400,1,0,1:0:0:0:
314,48,114487,38,0,P|271:48|226:52,1,70,4|0,1:0|0:0,0:0:0:0:
171,114,114836,1,14,0:0:0:0:
82,70,115010,2,0,P|56:42|34:14,1,70,0|2,1:0|0:0,0:0:0:0:
171,114,115359,1,2,0:0:0:0:
124,198,115534,22,0,P|83:208|11:140,1,140,8|0,1:2|1:0,0:0:0:0:
62,313,116057,1,2,0:0:0:0:
62,313,116144,1,0,0:0:0:0:
62,313,116231,2,0,P|108:307|203:306,1,140,4|10,1:0|1:2,0:0:0:0:
306,341,116755,1,0,0:0:0:0:
306,341,116842,1,0,0:0:0:0:
306,341,116929,2,0,P|305:257|308:178,1,140,2|4,0:0|1:0,0:0:0:0:
306,201,117627,38,0,P|267:201|221:206,1,70,4|4,0:0|1:0,0:0:0:0:
150,117,117975,2,0,P|189:117|235:112,1,70,4|0,1:2|0:0,0:0:0:0:
295,40,118324,2,0,P|312:77|323:115,1,70,10|2,1:2|0:0,0:0:0:0:
358,260,118673,2,0,P|359:212|438:168,1,140,0|4,1:0|1:0,0:0:0:0:
478,80,119196,1,0,1:0:0:0:
478,80,119284,1,0,0:0:0:0:
478,80,119371,2,0,P|437:72|390:58,1,70,8|2,1:2|0:0,0:0:0:0:
512,217,119720,22,0,P|497:282|485:372,2,140,0|4|4,1:0|1:0|1:2,0:0:0:0:
431,167,120592,1,0,0:0:0:0:
394,258,120766,2,0,P|355:262|309:263,2,70,4|0|10,1:2|0:0|1:2,0:0:0:0:
339,354,121289,1,0,0:0:0:0:
239,318,121464,38,0,P|218:280|253:195,1,140,10|4,1:2|1:0,0:0:0:0:
332,135,121987,1,0,0:0:0:0:
332,135,122074,1,0,0:0:0:0:
332,135,122162,1,10,1:2:0:0:
332,135,122510,1,4,0:2:0:0:
91,21,122859,22,0,P|95:93|95:168,1,140,4|4,1:0|0:0,0:0:0:0:
78,258,123382,2,0,P|40:259|2:257,1,70,4|2,1:0|0:0,0:0:0:0:
198,155,123731,2,0,P|198:203|200:231,1,70,2|8,1:2|1:2,0:0:0:0:
230,330,124080,2,0,P|185:319|111:383,1,140,0|0,1:0|0:0,0:0:0:0:
78,258,124603,2,0,P|44:197|1:132,2,140,4|10|4,1:0|1:2|0:0,0:0:0:0:
165,189,125475,1,0,0:0:0:0:
165,189,125563,1,2,0:2:0:0:
165,189,125650,38,0,P|201:189|240:193,1,70,4|0,1:0|0:0,0:0:0:0:
312,257,125999,1,6,0:2:0:0:
235,316,126173,2,0,P|207:341|183:367,1,70,4|2,1:0|0:0,0:0:0:0:
312,257,126522,1,2,0:0:0:0:
370,337,126696,22,0,P|410:352|492:299,1,140,10|4,1:2|1:0,0:0:0:0:
417,126,127220,1,2,0:0:0:0:
417,126,127307,1,0,0:0:0:0:
417,126,127394,2,0,P|414:185|415:267,1,140,4|10,1:0|1:2,0:0:0:0:
326,169,127917,1,0,0:0:0:0:
326,169,128005,1,0,0:0:0:0:
326,169,128092,2,0,P|311:126|361:47,1,140,4|4,0:0|1:0,0:0:0:0:
355,49,128789,38,0,P|321:52|274:53,1,70,4|0,0:0|1:0,0:0:0:0:
208,121,129138,2,0,P|174:118|127:117,1,70,4|0,0:0|0:0,0:0:0:0:
41,61,129487,2,0,P|74:46|104:26,1,70,10|2,1:2|0:0,0:0:0:0:
213,125,129836,2,0,P|163:154|88:205,1,140,0|0,0:0|1:0,0:0:0:0:
28,276,130359,1,2,0:0:0:0:
28,276,130446,1,0,0:0:0:0:
28,276,130534,2,0,P|28:321|26:359,1,70,10|0,1:2|0:0,0:0:0:0:
177,299,130882,22,0,P|161:233|100:204,2,140,0|4|4,1:0|1:0|0:2,0:0:0:0:
121,379,131755,1,4,1:0:0:0:
220,384,131929,2,0,P|258:384|294:381,2,70,4|0|10,0:2|1:0|1:2,0:0:0:0:
281,289,132452,1,0,0:0:0:0:
381,344,132627,38,0,P|413:320|411:222,1,140,2|4,0:0|1:0,0:0:0:0:
318,186,133150,2,0,P|315:150|315:107,1,70,0|10,1:0|1:2,0:0:0:0:
432,43,133499,2,0,P|435:79|435:122,1,70,0|4,0:0|0:0,0:0:0:0:
435,112,133760,1,0,0:0:0:0:
435,112,133848,1,2,0:0:0:0:
305,20,134022,22,0,P|264:5|174:65,1,140,4|4,1:0|0:0,0:0:0:0:
105,107,134545,2,0,P|70:110|32:110,1,70,0|4,1:0|0:0,0:0:0:0:
223,139,134894,2,0,P|258:136|296:136,1,70,0|10,1:0|1:2,0:0:0:0:
255,237,135243,2,0,P|188:245|142:196,1,140,2|0,1:2|0:0,0:0:0:0:
43,249,135766,2,0,P|43:186|34:107,2,140,4|10|2,1:0|1:2|0:0,0:0:0:0:
120,348,136638,1,2,0:0:0:0:
120,348,136725,1,0,0:0:0:0:
120,348,136813,38,0,P|83:347|48:354,1,70,4|4,1:0|0:0,0:0:0:0:
192,278,137162,1,0,0:0:0:0:
251,355,137336,2,0,P|288:356|323:349,1,70,4|0,1:0|0:0,0:0:0:0:
465,354,137685,1,6,0:2:0:0:
397,274,137859,22,0,P|386:233|443:154,1,140,10|0,1:2|0:0,0:0:0:0:
285,240,138382,1,2,0:0:0:0:
285,240,138470,1,0,0:0:0:0:
285,240,138557,2,0,P|232:241|134:232,1,140,4|10,1:0|1:2,0:0:0:0:
204,148,139080,1,0,0:0:0:0:
204,148,139167,1,0,0:0:0:0:
204,148,139255,2,0,P|203:82|214:0,1,140,2|4,0:0|1:0,0:0:0:0:
212,8,139952,38,0,P|250:7|290:12,1,70,4|4,0:0|1:0,0:0:0:0:
372,61,140301,2,0,P|410:62|450:57,1,70,4|0,0:0|0:0,0:0:0:0:
284,109,140650,2,0,P|301:142|333:183,1,70,10|2,1:2|0:0,0:0:0:0:
445,162,140999,2,0,P|462:206|405:282,1,140,2|4,0:0|1:0,0:0:0:0:
338,382,141522,1,0,0:0:0:0:
338,382,141609,1,0,0:0:0:0:
338,382,141696,2,0,P|374:381|413:384,1,70,10|0,1:2|0:0,0:0:0:0:
313,276,142045,22,0,P|245:275|200:347,2,140,4|4|12,1:0|1:0|1:2,0:0:0:0:
415,279,142917,1,4,1:0:0:0:
421,180,143092,2,0,P|421:142|424:106,2,70,4|0|10,1:2|0:0|1:2,0:0:0:0:
415,279,143615,1,0,0:0:0:0:
322,183,143789,38,0,P|279:134|230:69,1,140,4|0,1:2|1:0,0:0:0:0:
313,19,144313,1,2,0:0:0:0:
313,19,144400,1,0,0:0:0:0:
313,19,144487,1,10,1:2:0:0:
313,19,144836,1,4,0:0:0:0:
46,74,145185,22,0,P|91:81|121:175,1,140,4|4,1:0|0:0,0:0:0:0:
225,221,145708,2,0,P|224:179|226:146,1,70,4|2,1:0|0:2,0:0:0:0:
98,257,146057,2,0,P|60:256|21:254,1,70,2|10,1:2|1:2,0:0:0:0:
1,362,146406,2,0,P|68:355|140:352,1,140,0|2,1:0|0:0,0:0:0:0:
273,332,146929,2,0,P|221:288|225:221,2,140,4|10|2,1:0|1:2|0:0,0:0:0:0:
380,286,147801,1,0,0:0:0:0:
380,286,147888,1,0,0:0:0:0:
380,286,147975,38,0,P|377:322|377:360,1,70,0|2,1:0|0:0,0:0:0:0:
478,242,148324,1,2,0:0:0:0:
385,183,148499,2,0,P|350:182|311:186,1,70,4|0,1:0|0:0,0:0:0:0:
478,242,148848,1,0,0:0:0:0:
462,117,149022,22,0,P|441:83|345:79,1,140,10|4,1:2|1:0,0:0:0:0:
315,185,149545,1,0,0:0:0:0:
315,185,149632,1,0,0:0:0:0:
315,185,149720,2,0,P|265:190|168:191,1,140,4|10,1:0|1:2,0:0:0:0:
287,296,150243,1,0,0:0:0:0:
287,296,150330,1,0,0:0:0:0:
287,296,150417,2,0,P|337:291|434:290,1,140,6|4,0:0|1:0,0:0:0:0:
426,289,151115,38,0,P|424:327|424:362,1,70,4|4,0:0|1:0,0:0:0:0:
459,193,151464,2,0,P|461:155|461:120,1,70,4|2,0:0|0:0,0:0:0:0:
356,206,151813,2,0,P|340:240|327:280,1,70,10|0,1:2|0:0,0:0:0:0:
363,105,152162,2,0,P|346:65|242:53,1,140,4|0,1:0|1:0,0:0:0:0:
207,139,152685,1,0,1:0:0:0:
207,139,152772,1,0,1:0:0:0:
207,139,152859,2,0,P|244:136|290:136,1,70,0|0,1:0|2:0,0:0:0:0:
150,229,153208,22,0,P|106:232|9:232,2,140,0|4|4,1:0|1:0|0:0,0:0:0:0:
237,286,154080,1,4,1:0:0:0:
169,361,154255,2,0,P|131:348|85:325,2,70,4|2|10,0:0|0:0|1:2,0:0:0:0:
237,286,154778,1,0,0:0:0:0:
321,344,154952,38,0,P|360:319|357:220,1,140,4|4,0:0|1:0,0:0:0:0:
280,182,155475,2,0,P|277:144|277:111,1,70,8|10,0:0|1:2,0:0:0:0:
421,47,155824,2,0,P|439:45|457:45,2,35,0|0|4,1:0|0:0|0:0,0:0:0:0:
378,136,156173,1,2,0:0:0:0:
248,32,156348,22,0,P|212:24|132:82,1,140,4|2,1:0|0:0,0:0:0:0:
35,143,156871,2,0,P|33:102|29:71,1,70,4|2,1:0|0:0,0:0:0:0:
132,79,157220,1,2,0:0:0:0:
190,169,157394,2,0,P|186:237|190:312,1,140,10|0,1:2|1:0,0:0:0:0:
98,358,157917,1,0,0:0:0:0:
0,279,158092,2,0,P|38:282|95:209,1,140,4|10,1:0|1:2,0:0:0:0:
190,169,158615,37,0,0:0:0:0:
264,239,158789,1,4,0:0:0:0:
189,308,158964,1,2,0:0:0:0:
189,308,159051,1,0,0:0:0:0:
189,308,159138,2,0,P|224:340|245:363,1,70,4|2,1:0|0:0,0:0:0:0:
343,364,159487,2,0,P|379:362|415:363,1,70,4|4,0:0|1:0,0:0:0:0:
465,261,159836,2,0,P|429:263|393:262,1,70,4|0,0:0|0:0,0:0:0:0:
288,203,160185,2,0,P|291:241|291:282,1,70,10|0,1:2|0:0,0:0:0:0:
389,154,160534,22,0,P|365:117|403:17,1,140,0|0,1:0|1:0,0:0:0:0:
479,100,161057,1,0,1:0:0:0:
479,100,161144,1,0,0:0:0:0:
479,100,161231,1,10,1:2:0:0:
479,100,161580,1,4,0:0:0:0:
212,54,161929,38,0,P|165:54|65:62,1,140,4|4,1:0|0:0,0:0:0:0:
16,150,162452,2,0,P|49:169|78:190,1,70,0|4,1:0|0:0,0:0:0:0:
167,146,162801,1,0,0:0:0:0:
151,272,162975,22,0,P|110:299|20:271,1,140,10|2,1:2|0:0,0:0:0:0:
74,187,163499,1,0,0:0:0:0:
74,187,163586,1,0,0:0:0:0:
74,187,163673,2,0,P|77:151|76:113,1,70,4|0,1:0|0:0,0:0:0:0:
190,21,164022,2,0,P|186:70|187:163,1,140,10|4,1:2|0:0,0:0:0:0:
271,235,164545,1,2,0:0:0:0:
271,235,164632,1,0,0:0:0:0:
271,235,164720,38,0,P|312:232|343:233,2,70,4|2|2,1:0|0:0|0:0,0:0:0:0:
167,271,165243,2,0,P|126:274|95:273,2,70,4|2|0,1:0|0:0|0:0,0:0:0:0:
248,342,165766,1,10,1:2:0:0:
256,192,166115,12,4,167510,0:0:0:0:
45,80,178673,38,0,P|122:75|245:75,1,195.999994018555,4|0,0:0|0:0,0:0:0:0:
345,82,179720,2,0,P|362:127|338:181,1,97.9999970092774,2|0,0:0|0:0,0:0:0:0:
242,184,180417,2,0,P|200:184|139:189,1,97.9999970092774,2|0,0:0|0:0,0:0:0:0:
289,332,181115,6,0,P|346:359|452:288,1,195.999994018555,2|4,0:0|0:0,0:0:0:0:
346,172,182162,1,0,0:0:0:0:
346,172,182510,2,0,P|346:216|349:269,1,97.9999970092774,0|0,1:0|1:0,0:0:0:0:
457,178,183208,2,0,P|457:134|454:81,1,97.9999970092774,0|2,0:0|0:0,0:0:0:0:
346,172,183906,6,0,P|307:180|201:75,1,195.999994018555,4|2,0:0|0:0,0:0:0:0:
293,38,184952,1,4,0:0:0:0:
293,38,185650,1,2,0:0:0:0:
293,38,186348,1,2,0:0:0:0:
126,210,186696,6,0,P|125:125|118:12,1,195.999994018555,4|0,0:0|0:0,0:0:0:0:
31,116,187743,2,0,P|86:112|236:114,1,195.999994018555,4|4,0:0|0:0,0:0:0:0:
311,168,188789,1,0,0:0:0:0:
252,255,189138,1,2,0:0:0:0:
166,202,189487,1,2,0:0:0:0:
166,202,189836,22,0,P|102:225|75:302,1,140,4|0,0:0|0:0,0:0:0:0:
166,202,190882,2,0,P|245:181|274:102,1,167.999994873047,4|0,0:0|0:0,0:0:0:0:
74,286,192278,6,0,P|57:187|34:82,1,195.999994018555,4|0,0:0|0:0,0:0:0:0:
465,22,193673,2,4,P|436:186|406:379,1,336,4|0,0:0|0:0,0:0:0:0:
271,270,195069,2,0,P|257:209|237:114,1,140,4|0,0:0|0:0,0:0:0:0:
256,192,196464,12,6,197859,0:0:0:0:
62,344,198208,6,0,P|117:348|168:286,1,140,4|0,1:0|1:0,0:0:0:0:
105,217,198731,2,0,P|76:220|36:220,1,70,0|0,1:0|1:0,0:0:0:0:
194,128,199080,2,0,P|194:173|197:209,1,70,2|10,1:2|1:2,0:0:0:0:
61,117,199429,2,0,P|110:86|114:6,1,140,0|0,1:0|0:0,0:0:0:0:
199,124,199952,2,0,P|259:121|342:121,2,140,0|8|0,1:0|1:2|1:0,0:0:0:0:
156,222,200825,1,0,1:0:0:0:
156,222,200912,1,0,0:0:0:0:
156,222,200999,22,0,P|199:222|244:218,1,70,4|0,1:0|0:0,0:0:0:0:
321,236,201348,1,4,0:0:0:0:
262,310,201522,2,0,P|240:337|216:362,1,70,0|2,1:0|2:0,0:0:0:0:
321,236,201871,1,2,0:0:0:0:
364,323,202045,38,0,P|424:316|459:249,1,140,10|0,1:2|1:0,0:0:0:0:
423,160,202569,1,2,0:0:0:0:
423,160,202656,1,0,0:0:0:0:
423,160,202743,2,0,P|417:114|416:19,1,140,4|10,1:0|1:2,0:0:0:0:
321,82,203267,1,0,0:0:0:0:
321,82,203354,1,0,0:0:0:0:
321,82,203441,2,0,P|237:83|158:80,1,140,2|4,0:0|1:0,0:0:0:0:
181,81,204139,22,0,P|181:120|176:166,1,70,4|4,0:0|1:0,0:0:0:0:
342,176,204487,2,0,P|303:176|257:181,1,70,4|0,1:2|0:0,0:0:0:0:
202,245,204836,2,0,P|163:245|117:240,1,70,10|2,1:2|0:0,0:0:0:0:
198,340,205185,2,0,P|265:332|297:273,1,140,4|4,0:0|1:0,0:0:0:0:
399,303,205708,1,0,1:0:0:0:
399,303,205795,1,0,0:0:0:0:
399,303,205882,2,0,P|399:342|397:377,1,70,10|2,1:2|0:0,0:0:0:0:
342,176,206231,38,0,P|338:115|337:26,2,140,0|4|4,1:0|1:0|1:2,0:0:0:0:
296,271,207103,1,0,1:0:0:0:
202,221,207278,2,0,P|217:188|239:152,2,70,4|0|10,1:2|0:0|1:2,0:0:0:0:
169,314,207801,1,0,0:0:0:0:
75,281,207976,22,0,P|34:241|53:160,1,140,10|4,1:2|1:0,0:0:0:0:
109,95,208499,1,0,0:0:0:0:
109,95,208586,1,0,0:0:0:0:
109,95,208674,1,10,1:2:0:0:
109,95,209022,1,4,0:0:0:0:
387,60,209371,38,0,P|317:60|247:64,1,140,4|2,1:0|1:2,0:0:0:0:
184,159,209894,2,0,P|222:160|260:158,1,70,4|2,1:0|0:0,0:0:0:0:
355,151,210243,2,0,P|343:199|337:231,1,70,2|10,1:2|1:2,0:0:0:0:
284,366,210592,2,0,P|248:342|250:249,1,140,2|0,1:2|0:0,0:0:0:0:
363,315,211115,2,0,P|422:317|503:317,2,140,4|10|4,1:0|1:2|0:0,0:0:0:0:
255,261,211987,1,0,0:0:0:0:
255,261,212075,1,2,0:0:0:0:
255,261,212162,22,0,P|219:261|180:265,1,70,4|0,1:0|0:0,0:0:0:0:
119,336,212510,1,4,2:0:0:0:
34,294,212685,2,0,P|30:253|30:217,1,70,0|2,1:0|0:0,0:0:0:0:
119,336,213034,1,2,2:0:0:0:
185,264,213208,38,0,P|130:211|125:145,1,140,10|0,1:2|1:0,0:0:0:0:
61,50,213732,1,2,0:0:0:0:
61,50,213819,1,0,0:0:0:0:
61,50,213906,2,0,P|130:51|200:47,1,140,4|10,1:0|0:0,0:0:0:0:
229,157,214429,1,0,0:0:0:0:
229,157,214516,1,0,0:0:0:0:
229,157,214603,2,0,P|263:127|357:129,1,140,4|4,0:0|1:0,0:0:0:0:
353,127,215301,22,0,P|350:93|350:48,1,70,4|0,0:0|1:0,0:0:0:0:
447,94,215650,2,0,P|447:129|444:167,1,70,4|0,1:2|0:0,0:0:0:0:
304,213,215999,2,0,P|338:221|371:232,1,70,10|0,1:2|0:0,0:0:0:0:
459,285,216348,2,0,P|429:327|335:331,1,140,0|0,1:0|1:0,0:0:0:0:
258,293,216871,1,0,0:0:0:0:
258,293,216958,1,0,0:0:0:0:
258,293,217045,2,0,P|228:308|198:331,1,70,8|0,1:2|2:0,1:0:0:0:
105,360,217394,38,0,P|64:354|25:264,2,140,0|4|4,1:0|1:0|0:0,0:0:0:0:
197,332,218266,1,0,1:0:0:0:
165,238,218441,2,0,P|162:202|162:161,2,70,4|0|10,0:0|0:0|1:2,0:0:0:0:
197,332,218964,1,2,0:0:0:0:
95,287,219138,22,0,P|73:226|51:148,1,140,4|4,1:0|1:0,0:0:0:0:
80,62,219662,2,0,P|116:60|159:60,1,70,4|10,1:0|1:2,0:0:0:0:
231,165,220010,2,0,P|195:167|152:167,1,70,0|4,0:0|1:2,0:0:0:0:
161,167,220272,1,0,0:0:0:0:
161,167,220359,1,2,0:0:0:0:
261,69,220534,38,0,P|302:54|392:114,1,140,4|4,1:0|0:2,0:0:0:0:
478,123,221057,2,0,P|474:88|474:52,1,70,0|4,1:0|0:0,0:0:0:0:
411,186,221406,2,0,P|376:185|341:182,1,70,2|10,1:2|1:2,0:0:0:0:
442,276,221755,2,0,P|375:283|276:283,1,140,0|2,1:0|0:0,0:0:0:0:
206,326,222278,2,0,P|253:319|314:383,2,140,4|10|4,1:0|1:2|1:0,0:0:0:0:
117,374,223150,1,2,0:0:0:0:
117,374,223237,1,0,0:0:0:0:
117,374,223324,22,0,P|75:371|41:372,1,70,4|4,1:0|0:0,0:0:0:0:
45,257,223673,1,0,0:0:0:0:
136,282,223848,2,0,P|178:285|212:284,1,70,0|2,1:0|0:0,0:0:0:0:
206,159,224196,1,6,0:2:0:0:
114,187,224371,38,0,P|79:158|91:60,1,140,10|4,1:2|1:0,0:0:0:0:
175,25,224894,1,2,0:0:0:0:
175,25,224981,1,0,0:0:0:0:
175,25,225069,2,0,P|228:22|318:22,1,140,4|10,1:0|1:2,0:0:0:0:
259,127,225592,1,0,0:0:0:0:
259,127,225679,1,0,0:0:0:0:
259,127,225766,2,0,P|262:180|262:270,1,140,4|4,1:0|1:0,0:0:0:0:
262,266,226464,22,0,P|224:265|184:270,1,70,4|2,1:2|0:0,0:0:0:0:
127,353,226813,2,0,P|161:356|196:355,1,70,4|0,0:0|0:0,0:0:0:0:
293,384,227162,2,0,P|318:359|345:336,1,70,10|2,1:2|0:0,0:0:0:0:
432,219,227510,2,0,P|433:286|439:366,1,140,4|0,1:0|1:0,0:0:0:0:
340,246,228034,1,0,2:0:0:0:
340,246,228121,1,2,0:0:0:0:
340,246,228208,2,0,P|330:194|387:131,2,140,10|0|4,1:2|1:0|1:0,0:0:0:0:
424,294,229080,38,0,P|458:275|493:255,1,70,2|4,0:0|0:0,0:0:0:0:
357,363,229429,1,4,1:0:0:0:
279,315,229603,2,0,P|242:315|207:319,2,70,4|0|10,0:2|0:0|1:2,0:0:0:0:
340,246,230127,1,0,0:0:0:0:
267,162,230301,22,0,P|261:99|261:16,1,140,4|4,1:0|1:0,0:0:0:0:
364,58,230824,1,0,0:0:0:0:
364,58,230912,1,0,0:0:0:0:
364,58,230999,1,10,1:2:0:0:
364,58,231348,1,4,0:0:0:0:
110,152,231696,38,0,P|73:128|75:33,1,140,4|4,1:0|0:2,0:0:0:0:
156,76,232220,2,0,P|191:84|225:91,1,70,2|4,1:2|0:0,0:0:0:0:
105,239,232569,2,0,P|65:239|29:243,1,70,0|10,1:0|1:2,0:0:0:0:
203,186,232917,2,0,P|201:261|203:348,1,140,2|2,1:2|0:0,0:0:0:0:
102,352,233441,2,0,P|45:317|41:250,2,140,0|10|0,1:0|1:2|1:0,0:0:0:0:
202,325,234313,1,0,1:0:0:0:
202,325,234400,1,0,1:0:0:0:
202,325,234487,22,0,P|238:322|276:322,1,70,4|6,1:0|0:0,0:0:0:0:
366,353,234836,1,2,0:0:0:0:
316,237,235010,2,0,P|313:196|313:160,1,70,4|2,1:0|0:0,0:0:0:0:
403,267,235359,1,2,0:0:0:0:
366,353,235534,38,0,P|319:351|225:354,1,140,10|4,1:2|1:0,0:0:0:0:
106,276,236057,1,0,0:0:0:0:
106,276,236144,1,0,0:0:0:0:
106,276,236231,2,0,P|157:281|223:225,1,140,4|10,1:0|1:2,0:0:0:0:
309,118,236755,1,0,1:0:0:0:
309,118,236842,1,0,0:0:0:0:
309,118,236929,2,0,P|309:164|315:265,1,140,4|4,2:0|1:0,0:0:0:0:
314,257,237627,22,0,P|356:254|402:254,1,70,4|4,0:0|1:0,0:0:0:0:
455,190,237975,2,0,P|452:148|452:102,1,70,4|0,0:0|0:0,0:0:0:0:
471,283,238324,2,0,P|470:317|467:352,1,70,10|2,1:2|0:0,0:0:0:0:
380,260,238673,2,0,P|341:231|348:131,1,140,4|0,0:0|1:0,0:0:0:0:
375,41,239196,1,2,0:0:0:0:
375,41,239284,1,0,0:0:0:0:
375,41,239371,2,0,P|307:48|210:48,2,140,8|0|4,1:2|1:0|1:0,0:0:0:0:
451,120,240243,38,0,P|448:161|448:196,1,70,0|4,0:0|0:0,0:0:0:0:
403,277,240592,1,4,1:0:0:0:
318,228,240766,2,0,P|321:187|321:152,2,70,4|0|10,0:2|0:0|1:2,0:0:0:0:
259,314,241289,1,2,0:0:0:0:
177,252,241464,22,0,P|136:243|54:307,1,140,4|0,1:0|1:0,0:0:0:0:
180,150,241987,2,0,P|183:112|183:79,1,70,0|10,1:0|1:2,0:0:0:0:
64,52,242336,2,0,P|62:33|62:13,2,35,0|0|4,1:0|0:0|0:1,0:0:0:0:
78,142,242685,1,4,0:0:0:0:
10,217,242859,38,0,P|11:289|7:367,1,140,4|4,1:0|0:0,0:0:0:0:
108,316,243382,2,0,P|146:316|186:321,1,70,4|4,1:0|0:0,0:0:0:0:
260,367,243731,1,2,0:0:0:0:
292,278,243906,2,0,P|270:236|169:227,1,140,10|4,1:2|1:0,0:0:0:0:
86,207,244429,1,2,0:0:0:0:
186,221,244603,2,0,P|190:139|190:61,1,140,4|10,1:0|1:2,0:0:0:0:
287,115,245127,21,0,0:0:0:0:
351,41,245301,1,4,0:0:0:0:
448,77,245475,1,2,0:0:0:0:
448,77,245563,1,0,0:0:0:0:
448,77,245650,2,0,P|448:116|450:149,1,70,4|2,1:0|0:0,0:0:0:0:
360,180,245999,2,0,P|360:219|358:252,1,70,4|4,0:0|1:0,0:0:0:0:
418,333,246348,2,0,P|457:330|498:329,1,70,4|0,0:0|0:0,0:0:0:0:
330,362,246696,2,0,P|295:360|260:358,1,70,10|0,1:2|0:0,0:0:0:0:
140,269,247045,38,0,P|190:282|266:236,1,140,4|0,1:0|1:0,0:0:0:0:
276,146,247569,1,2,0:0:0:0:
276,146,247656,1,0,0:0:0:0:
276,146,247743,1,10,1:2:0:0:
276,146,248092,1,4,0:0:0:0:
44,14,248441,22,0,P|49:92|50:186,1,140,4|4,1:0|0:0,0:0:0:0:
32,250,248964,2,0,P|69:246|106:246,1,70,4|4,1:0|0:0,0:0:0:0:
180,186,249313,1,2,0:0:0:0:
240,309,249487,38,0,P|203:345|115:338,1,140,10|4,1:2|1:0,0:0:0:0:
101,245,250010,1,2,0:0:0:0:
101,245,250098,1,0,0:0:0:0:
101,245,250185,2,0,P|102:207|100:174,1,70,4|0,1:0|0:0,0:0:0:0:
196,72,250534,2,0,P|196:139|200:222,1,140,10|4,1:2|0:0,0:0:0:0:
303,149,251057,1,2,0:0:0:0:
303,149,251144,1,0,0:0:0:0:
303,149,251231,22,0,P|332:127|360:105,2,70,4|2|2,1:0|0:0|0:2,0:0:0:0:
393,226,251755,2,0,P|435:223|467:223,2,70,4|2|0,1:0|0:0|0:0,0:0:0:0:
291,283,252278,1,10,1:2:0:0:
