osu file format v14

[General]
AudioFilename: audio.mp3
AudioLeadIn: 0
PreviewTime: 47292
Countdown: 0
SampleSet: Soft
StackLeniency: 0.3
Mode: 0
LetterboxInBreaks: 0
WidescreenStoryboard: 1

[Editor]
Bookmarks: 188969
DistanceSpacing: 1.3
BeatDivisor: 4
GridSize: 16
TimelineZoom: 1.6

[Metadata]
Title:Tokyo Teddy Bear
TitleUnicode:東京テディベア
Artist:Neru feat. Kagamine Rin
ArtistUnicode:Neru feat. 鏡音リン
Creator:Nevo
Version:Shira's Insane
Source:
Tags:vocaloid addy2607 Sajinn shiratoi shira frontier -_frontier_- KittyAdventure gokugohan12468 Yumerios japanese rock
BeatmapID:2479647
BeatmapSetID:1165741

[Difficulty]
HPDrainRate:5
CircleSize:4
OverallDifficulty:7
ApproachRate:9
SliderMultiplier:1.6
SliderTickRate:1

[Events]
//Background and Video events
0,0,"21056462_p0.png",0,0
Video,0,"vid.mp4"
//Break Periods
2,19998,28086
2,76522,83957
2,132992,139851
//Storyboard Layer 0 (Background)
//Storyboard Layer 1 (Fail)
//Storyboard Layer 2 (Pass)
//Storyboard Layer 3 (Foreground)
//Storyboard Layer 4 (Overlay)
//Storyboard Sound Samples

[TimingPoints]
1175,294.117647058824,4,2,2,40,1,0
1175,-142.857142857143,4,2,2,40,0,0
17645,-111.111111111111,4,2,2,60,0,0
29410,-125,4,2,2,50,0,0
36469,-111.111111111111,4,2,2,60,0,0
38675,-142.857142857143,4,2,2,50,0,0
43380,-125,4,2,2,50,0,0
45733,-111.111111111111,4,2,2,50,0,0
48086,-100,4,2,2,70,0,1
56763,-100,4,2,2,70,0,0
57498,-100,4,2,2,70,0,1
67057,-111.111111111111,4,2,2,60,0,0
76763,-111.111111111111,4,2,2,40,0,0
84557,-111.111111111111,4,2,2,60,0,0
85733,-100,4,2,2,70,0,1
90145,-100,4,2,2,70,0,0
90439,-100,4,2,2,70,0,1
94851,-142.857142857143,4,2,2,50,0,0
99851,-125,4,2,2,50,0,0
102204,-111.111111111111,4,2,2,50,0,0
104557,-100,4,2,2,70,0,1
113233,-100,4,2,2,70,0,0
113969,-100,4,2,2,70,0,1
123380,-111.111111111111,4,2,2,60,0,0
128086,-125,4,2,2,60,0,0
131616,-250,4,2,2,40,0,0
141027,-166.666666666667,4,2,1,40,0,0
149263,-100,4,2,2,70,0,1
150439,-100,4,2,2,70,0,0
152057,-100,4,2,2,70,0,1
152351,-100,4,2,2,70,0,0
152792,-100,4,2,2,70,0,1
160292,-100,4,2,2,70,0,0
161027,-100,4,2,2,70,0,1
170586,-111.111111111111,4,2,2,60,0,0

[Colours]
Combo1 : 255,128,128
Combo2 : 137,3,104
Combo3 : 192,192,192

[HitObjects]
104,319,1175,5,0,0:2:0:0:
104,319,1469,2,0,L|93:253,1,55.9999982910157,2|2,0:2|0:2,0:0:0:0:
140,193,1763,2,0,B|207:162|192:222|266:182,1,111.999996582031,2|2,0:2|0:2,0:0:0:0:
298,123,2204,6,0,P|332:164|319:232,1,111.999996582031,2|2,0:2|0:2,0:0:0:0:
270,281,2645,1,2,0:2:0:0:
270,281,3233,1,2,0:2:0:0:
375,149,3527,6,0,B|443:130|443:130|489:153,1,111.999996582031,2|2,0:2|0:2,0:0:0:0:
507,228,3969,2,0,L|492:352,1,111.999996582031,2|2,0:2|0:2,0:0:0:0:
416,372,4410,1,2,0:2:0:0:
360,309,4557,6,0,B|321:268|268:281|268:281|249:314|208:317,1,167.999994873047,2|0,0:2|0:0,0:0:0:0:
136,286,5145,2,0,P|119:249|125:217,1,55.9999982910157
168,166,5439,1,0,0:0:0:0:
168,166,5586,1,0,0:0:0:0:
214,316,5880,5,0,0:0:0:0:
265,155,6175,2,0,L|327:163,1,55.9999982910157,2|2,0:2|0:2,0:0:0:0:
355,85,6469,2,0,L|466:70,1,111.999996582031,2|2,0:2|0:2,0:0:0:0:
448,152,6910,6,0,P|423:189|449:270,1,111.999996582031,2|2,0:2|0:2,0:0:0:0:
499,303,7351,1,2,0:2:0:0:
499,303,7939,1,2,0:2:0:0:
338,351,8233,6,0,B|268:336|268:336|215:362,1,111.999996582031,2|2,0:2|0:2,0:0:0:0:
148,336,8675,2,0,L|134:212,1,111.999996582031,2|2,0:2|0:2,0:0:0:0:
67,175,9116,1,2,0:2:0:0:
103,99,9263,6,0,B|144:61|196:67|196:67|224:102|260:91,1,167.999994873047,2|0,0:2|0:0,0:0:0:0:
255,176,9851,2,0,L|324:166,1,55.9999982910157
372,111,10145,1,0,0:0:0:0:
372,111,10292,1,0,0:0:0:0:
475,243,10586,5,0,0:0:0:0:
475,243,10880,2,0,L|419:234,1,55.9999982910157,2|0,0:2|0:0,0:0:0:0:
362,297,11175,2,0,B|298:273|312:324|237:294,1,111.999996582031,2|2,0:2|0:2,0:0:0:0:
192,357,11616,6,0,P|170:316|200:237,1,111.999996582031,2|2,0:2|0:2,0:0:0:0:
257,216,12057,1,2,0:2:0:0:
257,216,12645,1,2,0:2:0:0:
370,352,12939,6,0,L|359:279,1,55.9999982910157,2|0,0:2|0:0,0:0:0:0:
422,238,13233,1,2,0:2:0:0:
422,238,13380,2,0,L|433:165,1,55.9999982910157,2|0,0:2|0:0,0:0:0:0:
360,134,13675,1,2,0:2:0:0:
360,134,13822,1,2,0:2:0:0:
299,192,13969,6,0,B|265:241|207:222|207:222|191:180|140:184,1,167.999994873047,2|0,0:2|0:0,0:0:0:0:
144,102,14557,2,0,L|77:112,1,55.9999982910157
32,48,14851,1,0,0:0:0:0:
32,48,14998,1,0,0:0:0:0:
63,212,15292,5,0,0:0:0:0:
63,212,15586,2,0,L|130:222,1,55.9999982910157,2|2,0:2|0:2,0:0:0:0:
147,298,15880,2,0,L|202:289,1,55.9999982910157,2|0,0:2|0:0,0:0:0:0:
255,224,16175,1,2,0:2:0:0:
255,224,16322,1,2,0:2:0:0:
378,337,16616,1,2,0:2:0:0:
452,297,16763,2,0,L|433:184,1,111.999996582031,2|4,0:2|0:1,0:0:0:0:
433,186,17645,6,0,B|402:177|402:177|360:190|360:190|308:175,1,107.999996704102,6|0,1:2|0:0,0:0:0:0:
329,181,17939,1,10,0:2:0:0:
175,81,18086,2,0,B|222:66|222:66|268:84|268:84|312:68,1,143.999995605469,6|2,1:2|1:2,0:0:0:0:
221,164,18527,1,10,0:2:0:0:
143,267,18675,6,0,L|127:148,1,107.999996704102,6|0,1:2|0:0,0:0:0:0:
128,159,18969,1,0,1:2:0:0:
232,317,19116,1,8,0:2:0:0:
143,267,19263,1,8,0:2:0:0:
143,267,19336,1,8,0:2:0:0:
143,267,19410,1,8,0:2:0:0:
49,362,19557,1,0,1:2:0:0:
392,316,29410,5,4,1:2:0:0:
392,316,29704,2,0,L|374:242,1,64,10|2,0:2|0:2,0:0:0:0:
282,269,29998,2,0,L|305:172,1,96,2|0,1:2|0:0,0:0:0:0:
304,175,30292,1,10,0:2:0:0:
248,96,30439,1,2,0:2:0:0:
147,167,30586,6,0,L|221:176,1,64,0|2,1:2|0:2,0:0:0:0:
311,88,30880,2,0,L|237:97,1,64,10|0,0:2|0:0,0:0:0:0:
304,175,31175,2,0,L|378:184,1,64,0|0,1:2|0:0,0:0:0:0:
439,119,31469,1,10,0:2:0:0:
314,238,31763,6,0,L|301:162,1,64,2|0,1:2|0:0,0:0:0:0:
190,262,32057,1,10,0:2:0:0:
147,167,32204,2,0,L|160:91,1,64,2|0,0:2|1:2,0:0:0:0:
90,35,32498,1,2,0:2:0:0:
83,174,32645,2,0,L|157:165,1,64,10|2,0:2|0:2,0:0:0:0:
253,269,32939,6,0,L|179:260,1,64,0|0,1:2|0:0,0:0:0:0:
313,171,33233,1,8,0:2:0:0:
313,171,33380,1,0,0:0:0:0:
362,295,33527,1,0,1:2:0:0:
362,295,33675,1,0,0:0:0:0:
453,139,33822,2,0,B|442:201|442:201|459:236,1,96,8|0,0:2|0:0,0:0:0:0:
456,230,34116,5,0,1:2:0:0:
358,64,34410,2,0,L|287:73,1,64,10|0,0:2|0:0,0:0:0:0:
230,143,34704,2,0,L|134:130,1,96,2|0,1:2|0:0,0:0:0:0:
134,130,34998,1,10,0:2:0:0:
69,201,35145,1,2,0:2:0:0:
165,280,35292,6,0,L|154:203,1,64,0|2,1:2|0:2,0:0:0:0:
74,292,35586,2,0,L|64:355,1,64,10|0,0:2|0:0,0:0:0:0:
165,280,35880,1,0,1:2:0:0:
243,360,36027,1,8,0:2:0:0:
243,360,36101,1,8,0:2:0:0:
243,360,36175,1,8,0:2:0:0:
297,231,36322,1,8,0:2:0:0:
453,324,36469,6,0,B|422:315|422:315|380:328|380:328|328:313,1,107.999996704102,6|0,1:2|0:0,0:0:0:0:
349,319,36763,1,10,0:2:0:0:
469,192,36910,2,0,B|494:104|494:104|472:55,1,143.999995605469,6|2,1:2|1:2,0:0:0:0:
374,181,37351,1,10,0:2:0:0:
266,33,37498,6,0,L|145:45,1,107.999996704102,6|0,1:2|0:0,0:0:0:0:
158,43,37792,1,0,1:2:0:0:
264,142,37939,1,8,0:2:0:0:
218,223,38086,1,8,0:2:0:0:
218,223,38160,1,8,0:2:0:0:
218,223,38233,1,8,0:2:0:0:
267,352,38380,1,2,1:2:0:0:
267,352,38675,6,0,L|145:340,1,111.999996582031,6|0,1:2|0:0,0:0:0:0:
294,267,39116,2,0,L|360:257,1,55.9999982910157,0|0,1:2|0:0,0:0:0:0:
496,364,39410,1,8,0:2:0:0:
496,364,39704,1,2,1:2:0:0:
433,219,39851,6,0,L|412:353,1,111.999996582031,2|0,1:2|0:0,0:0:0:0:
361,179,40292,2,0,L|352:123,1,55.9999982910157,2|0,1:2|0:0,0:0:0:0:
498,45,40586,1,10,0:2:0:0:
498,45,40880,1,2,1:2:0:0:
352,123,41027,6,0,L|463:135,1,111.999996582031,2|0,1:2|0:0,0:0:0:0:
324,40,41469,2,0,L|257:47,1,55.9999982910157,0|0,1:2|0:0,0:0:0:0:
186,181,41763,1,8,0:2:0:0:
186,181,42057,1,2,1:2:0:0:
87,61,42204,6,0,L|98:178,1,111.999996582031,2|2,1:2|0:2,0:0:0:0:
173,41,42645,1,0,1:2:0:0:
97,172,42792,1,8,0:2:0:0:
97,172,42866,1,8,0:2:0:0:
97,172,42939,1,10,0:2:0:0:
243,101,43086,1,8,0:2:0:0:
226,269,43233,1,10,0:2:0:0:
411,193,43380,6,0,B|375:181|375:181|325:198|325:198|280:182,1,128,6|2,1:2|1:2,0:0:0:0:
162,277,43822,2,0,L|233:268,1,64,10|0,0:2|0:0,0:0:0:0:
311,347,44116,1,0,1:2:0:0:
374,269,44263,1,2,1:2:0:0:
475,354,44410,1,8,0:2:0:0:
411,193,44557,6,0,B|375:181|375:181|325:198|325:198|280:182,1,128,2|2,1:2|1:2,0:0:0:0:
415,75,44998,2,0,L|486:66,1,64,10|0,0:2|0:0,0:0:0:0:
411,193,45292,1,0,1:2:0:0:
329,106,45439,1,2,1:2:0:0:
210,184,45586,1,10,0:2:0:0:
130,38,45733,6,0,B|162:64|162:115|162:115|122:138|127:194,1,143.999995605469,6|0,1:2|1:2,0:0:0:0:
223,254,46175,2,0,L|207:169,1,71.9999978027344,10|2,0:2|1:2,0:0:0:0:
210,184,46395,1,0,1:2:0:0:
210,184,46469,1,14,0:2:0:0:
126,280,46616,1,0,1:2:0:0:
51,198,46763,1,2,0:2:0:0:
26,367,46910,6,0,B|75:349|75:349|130:365|130:365|191:340,1,143.999995605469,6|0,1:2|1:2,0:0:0:0:
294,263,47351,2,0,L|209:252,1,71.9999978027344,10|8,0:2|0:2,0:0:0:0:
222,253,47572,1,8,0:2:0:0:
222,253,47645,1,10,0:2:0:0:
303,355,47792,1,10,0:2:0:0:
331,352,47865,1,8,0:2:0:0:
360,349,47939,1,8,0:2:0:0:
388,346,48012,1,8,0:2:0:0:
420,364,48086,6,0,B|386:266|386:266|411:203,1,160,6|0,1:2|1:2,0:0:0:0:
494,127,48527,2,0,L|504:211,1,80,10|0,0:2|0:0,0:0:0:0:
369,109,48822,1,2,1:2:0:0:
327,204,48969,2,0,L|406:213,1,80,2|8,0:2|0:2,0:0:0:0:
273,85,49263,6,0,B|173:39|210:137|96:76,1,160,2|0,1:2|1:2,0:0:0:0:
37,186,49704,2,0,P|80:173|130:190,1,80,10|0,0:2|0:0,0:0:0:0:
203,315,49998,1,2,1:2:0:0:
245,231,50145,2,0,L|232:143,1,80,2|8,0:2|0:2,0:0:0:0:
355,316,50439,6,0,B|302:301|302:301|246:324|246:324|179:309,1,160,6|0,1:2|1:2,0:0:0:0:
359,206,50880,2,0,L|453:195,1,80,10|0,0:2|0:0,0:0:0:0:
501,339,51175,1,2,1:2:0:0:
429,276,51322,2,0,L|438:196,1,80,2|8,0:2|0:2,0:0:0:0:
297,80,51616,6,0,B|393:108|393:108|460:79,1,160,2|0,1:2|1:2,0:0:0:0:
279,169,52057,2,0,L|199:178,1,80,10|0,0:2|0:0,0:0:0:0:
136,35,52351,1,2,1:2:0:0:
208,98,52498,2,0,L|198:177,1,80,2|8,0:2|0:2,0:0:0:0:
71,270,52792,6,0,B|127:256|127:256|176:282|176:282|237:266,1,160,6|0,1:2|1:2,0:0:0:0:
336,362,53233,2,0,L|256:353,1,80,10|0,0:2|0:0,0:0:0:0:
395,231,53527,1,2,1:2:0:0:
326,282,53675,2,0,L|336:362,1,80,2|8,0:2|0:2,0:0:0:0:
486,180,53969,6,0,B|384:138|423:230|298:170,1,160,2|0,1:2|1:2,0:0:0:0:
252,59,54410,2,0,P|268:101|251:147,1,80,10|0,0:2|0:0,0:0:0:0:
96,143,54704,1,2,1:2:0:0:
145,224,54851,2,0,L|236:214,1,80,2|8,0:2|0:2,0:0:0:0:
50,377,55145,6,0,B|91:331|78:287|78:287|48:261|58:215,1,160,6|0,1:2|1:2,0:0:0:0:
163,344,55586,1,8,0:2:0:0:
224,215,55733,1,0,1:2:0:0:
224,215,55807,1,0,1:2:0:0:
224,215,55880,1,14,0:2:0:0:
280,364,56027,1,0,1:2:0:0:
280,364,56322,6,0,B|331:340|331:340|388:361|388:361|442:334,1,160,2|0,1:2|1:2,0:0:0:0:
488,214,56763,1,10,0:2:0:0:
426,341,56910,1,8,0:2:0:0:
426,341,56983,1,8,0:2:0:0:
426,341,57057,1,10,0:2:0:0:
326,238,57204,1,10,0:2:0:0:
329,210,57277,1,8,0:2:0:0:
332,181,57351,1,8,0:2:0:0:
335,153,57424,1,8,0:2:0:0:
368,136,57498,6,0,B|274:163|274:163|206:128,1,160,6|0,1:2|1:2,0:0:0:0:
112,240,57939,2,0,L|204:229,1,80,10|0,0:2|0:0,0:0:0:0:
52,107,58233,1,2,1:2:0:0:
121,160,58380,2,0,L|111:239,1,80,2|8,0:2|0:2,0:0:0:0:
261,355,58675,6,0,B|301:321|349:331|349:331|381:369|431:347,1,160,2|0,1:2|1:2,0:0:0:0:
317,284,59116,2,0,P|304:243|319:198,1,80,10|0,0:2|0:0,0:0:0:0:
486,148,59410,1,2,1:2:0:0:
466,234,59557,2,0,L|377:240,1,80,2|8,0:2|0:2,0:0:0:0:
260,136,59851,6,0,B|314:115|314:115|372:133|372:133|430:113,1,160,2|0,1:2|1:2,0:0:0:0:
273,41,60292,2,0,L|193:35,1,80,10|0,0:2|0:0,0:0:0:0:
161,223,60586,1,2,1:2:0:0:
254,215,60733,2,0,L|259:135,1,80,2|8,0:2|0:2,0:0:0:0:
369,290,61027,6,0,B|287:250|301:332|206:285,1,160,2|0,1:2|1:2,0:0:0:0:
75,355,61469,2,0,P|121:343|162:360,1,80,10|0,0:2|0:0,0:0:0:0:
79,181,61763,1,2,1:2:0:0:
161,223,61910,2,0,P|173:177|156:136,1,80,2|8,0:2|0:2,0:0:0:0:
269,36,62204,6,0,B|312:82|363:69|363:69|383:35|434:34,1,160,6|0,1:2|1:2,0:0:0:0:
512,118,62645,2,0,L|416:114,1,80,10|0,0:2|0:0,0:0:0:0:
433,250,62939,1,2,1:2:0:0:
508,197,63086,2,0,L|512:101,1,80,2|8,0:2|0:2,0:0:0:0:
335,242,63380,6,0,B|282:224|282:224|227:244|227:244|170:223,1,160,2|0,1:2|1:2,0:0:0:0:
95,337,63822,2,0,L|178:329,1,80,10|0,0:2|0:0,0:0:0:0:
21,209,64116,1,2,1:2:0:0:
102,257,64263,2,0,L|94:336,1,80,2|8,0:2|0:2,0:0:0:0:
172,108,64557,6,0,L|183:227,1,120,2|0,1:2|0:0,0:0:0:0:
183,227,64851,1,6,1:2:0:0:
263,98,64998,2,0,L|270:18,1,80,14|0,0:2|1:2,0:0:0:0:
393,178,65292,1,8,0:2:0:0:
263,98,65439,2,0,L|342:90,1,80,12|0,0:2|1:2,0:0:0:0:
455,304,65733,6,0,B|488:206|420:230|455:142,1,160,4|0,1:2|1:2,0:0:0:0:
368,259,66175,1,8,0:2:0:0:
264,182,66322,1,8,0:2:0:0:
264,182,66395,1,8,0:2:0:0:
264,182,66469,1,0,1:0:0:0:
206,265,66616,1,0,1:0:0:0:
114,207,66763,1,0,1:2:0:0:
28,366,66910,1,0,1:2:0:0:
28,366,66983,1,0,0:0:0:0:
28,366,67057,6,0,B|92:348|92:348|150:376,1,107.999996704102,4|0,1:2|0:0,0:0:0:0:
129,366,67351,2,0,L|122:273,1,71.9999978027344,8|0,0:2|0:0,0:0:0:0:
263,370,67645,1,0,1:2:0:0:
263,370,67792,1,0,1:2:0:0:
346,257,67939,1,8,0:2:0:0:
412,367,68086,6,0,P|380:299|434:235,1,143.999995605469,4|0,1:2|1:2,0:0:0:0:
352,106,68527,2,0,P|371:143|361:191,1,71.9999978027344,8|0,0:2|0:0,0:0:0:0:
274,250,68822,2,0,L|360:258,1,71.9999978027344,0|0,1:2|1:2,0:0:0:0:
205,164,69116,2,0,L|67:176,1,107.999996704102,8|0,0:2|0:0,0:0:0:0:
97,174,69410,6,0,B|111:134|111:134|94:95,1,71.9999978027344,4|0,1:2|0:0,0:0:0:0:
12,236,69704,2,0,L|31:315,1,71.9999978027344,8|0,0:2|0:0,0:0:0:0:
139,359,69998,1,0,1:2:0:0:
139,359,70145,1,0,1:2:0:0:
190,243,70292,1,8,0:2:0:0:
329,360,70439,6,0,L|482:346,1,143.999995605469,4|0,1:2|1:2,0:0:0:0:
373,252,70880,2,0,L|281:243,1,71.9999978027344,8|0,0:2|0:0,0:0:0:0:
388,147,71175,2,0,L|479:138,1,71.9999978027344,0|0,1:2|1:2,0:0:0:0:
362,46,71469,2,0,L|239:34,1,107.999996704102,8|0,0:2|0:0,0:0:0:0:
254,36,71763,6,0,B|272:106|272:106|246:154,1,107.999996704102,4|0,1:2|0:0,0:0:0:0:
254,137,72057,2,0,L|182:143,1,71.9999978027344,8|0,0:2|0:0,0:0:0:0:
64,44,72351,1,0,1:2:0:0:
64,44,72498,1,0,1:2:0:0:
16,155,72645,1,8,0:2:0:0:
177,234,72792,6,0,B|83:215|83:215|33:242,1,143.999995605469,4|0,1:2|1:2,0:0:0:0:
163,334,73233,2,0,L|243:321,1,71.9999978027344,8|0,0:2|0:0,0:0:0:0:
363,239,73527,2,0,L|283:226,1,71.9999978027344,0|0,1:2|1:2,0:0:0:0:
374,346,73822,2,0,L|359:210,1,107.999996704102,8|0,0:2|0:0,0:0:0:0:
362,238,74116,6,0,B|400:253|400:253|446:237,1,71.9999978027344,4|0,1:2|0:0,0:0:0:0:
493,102,74410,2,0,L|505:193,1,71.9999978027344,8|0,0:2|0:0,0:0:0:0:
388,120,74704,1,0,1:2:0:0:
388,120,74851,1,0,1:2:0:0:
362,238,74998,1,8,0:2:0:0:
173,171,75145,6,0,B|222:152|222:152|269:169|269:169|319:150,1,143.999995605469,4|0,1:2|1:2,0:0:0:0:
221,258,75586,1,8,0:2:0:0:
278,74,75733,1,8,0:2:0:0:
278,74,75807,1,8,0:2:0:0:
278,74,75880,1,8,0:2:0:0:
296,306,76027,1,8,0:2:0:0:
388,120,76175,1,8,0:2:0:0:
307,154,76322,1,8,0:2:0:0:
64,298,84557,6,0,B|136:284|136:284|182:306,1,107.999996704102,6|0,1:2|0:0,0:0:0:0:
167,298,84851,1,8,0:2:0:0:
276,156,84998,1,8,0:2:0:0:
267,362,85145,1,8,0:2:0:0:
175,167,85292,1,8,0:2:0:0:
349,289,85439,1,8,0:2:0:0:
349,289,85733,6,0,B|404:269|404:269|455:290|455:290|511:264,1,160,6|0,0:2|1:2,0:0:0:0:
355,167,86175,2,0,L|274:155,1,80,10|2,0:2|1:2,0:0:0:0:
167,298,86469,2,0,L|248:286,1,80,10|0,0:2|1:2,0:0:0:0:
175,167,86763,2,0,L|94:155,1,80,10|2,0:2|1:2,0:0:0:0:
70,294,87057,5,8,0:2:0:0:
7,197,87204,1,2,1:2:0:0:
175,167,87351,2,0,L|188:57,1,80,10|2,0:2|1:2,0:0:0:0:
246,286,87645,2,0,L|255:365,1,80,10|0,0:2|1:2,0:0:0:0:
355,167,87939,2,0,L|368:57,1,80,8|2,0:2|1:2,0:0:0:0:
466,244,88233,6,0,B|371:204|390:291|297:228,1,160,8|10,0:2|0:2,0:0:0:0:
427,320,88675,1,2,1:2:0:0:
313,238,88822,2,0,L|322:317,1,80,10|0,0:2|1:2,0:0:0:0:
436,158,89116,2,0,L|445:78,1,80,10|2,0:2|1:2,0:0:0:0:
317,18,89410,5,8,0:2:0:0:
259,92,89557,1,2,1:2:0:0:
100,33,89704,2,0,L|183:24,1,80,10|2,0:2|1:2,0:0:0:0:
108,144,89998,1,10,0:2:0:0:
183,208,90145,1,0,1:2:0:0:
183,208,90439,6,0,B|169:257|169:257|197:310|197:310|181:367,1,160,6|0,1:2|1:2,0:0:0:0:
262,216,90880,2,0,L|165:206,1,80,10|2,0:2|1:2,0:0:0:0:
104,365,91175,2,0,L|201:355,1,80,10|0,0:2|1:2,0:0:0:0:
98,227,91469,2,0,L|1:213,1,80,10|2,0:2|1:2,0:0:0:0:
139,114,91763,5,8,0:2:0:0:
182,207,91910,1,2,1:2:0:0:
278,39,92057,2,0,L|291:133,1,80,10|2,0:2|1:2,0:0:0:0:
406,228,92351,2,0,L|416:148,1,80,10|0,0:2|1:2,0:0:0:0:
262,216,92645,2,0,L|275:310,1,80,8|2,0:2|1:2,0:0:0:0:
404,351,92939,6,0,B|305:315|342:396|246:369,1,160,8|10,0:2|0:2,0:0:0:0:
154,315,93380,1,2,1:2:0:0:
262,216,93527,2,0,L|174:202,1,80,10|0,0:2|1:2,0:0:0:0:
73,100,93822,2,0,L|161:86,1,80,10|2,0:2|1:2,0:0:0:0:
262,216,94116,5,8,0:2:0:0:
311,133,94263,1,2,1:2:0:0:
152,87,94410,2,0,L|73:100,1,80,10|2,0:2|1:2,0:0:0:0:
10,232,94704,1,10,0:2:0:0:
67,303,94851,1,0,1:2:0:0:
67,303,95145,6,0,L|189:291,1,111.999996582031,6|0,1:2|0:0,0:0:0:0:
288,371,95586,2,0,L|232:362,1,55.9999982910157,0|0,1:2|0:0,0:0:0:0:
362,294,95880,1,8,0:2:0:0:
362,294,96174,1,2,1:2:0:0:
471,186,96321,6,0,L|450:320,1,111.999996582031,2|0,1:2|0:0,0:0:0:0:
392,145,96762,2,0,L|383:89,1,55.9999982910157,2|0,1:2|0:0,0:0:0:0:
263,30,97056,1,10,0:2:0:0:
263,30,97350,1,2,1:2:0:0:
166,105,97497,6,0,L|277:117,1,111.999996582031,2|0,1:2|0:0,0:0:0:0:
154,187,97939,2,0,L|87:194,1,55.9999982910157,0|0,1:2|0:0,0:0:0:0:
28,329,98233,1,8,0:2:0:0:
28,329,98527,1,2,1:2:0:0:
98,192,98676,6,0,L|109:309,1,111.999996582031,2|2,1:2|0:2,0:0:0:0:
236,205,99117,1,0,1:2:0:0:
108,303,99264,1,8,0:2:0:0:
108,303,99336,1,8,0:2:0:0:
108,303,99411,1,10,0:2:0:0:
166,105,99557,1,8,0:2:0:0:
201,299,99703,1,10,0:2:0:0:
357,212,99851,6,0,B|321:200|321:200|271:217|271:217|226:201,1,128,6|2,1:2|1:2,0:0:0:0:
343,84,100292,2,0,L|414:75,1,64,10|0,0:2|0:0,0:0:0:0:
502,197,100586,1,0,1:2:0:0:
479,101,100733,1,2,1:2:0:0:
433,257,100880,1,8,0:2:0:0:
343,84,101027,6,0,L|357:218,1,128,2|2,1:2|1:2,0:0:0:0:
424,320,101468,2,0,L|433:249,1,64,10|0,0:2|0:0,0:0:0:0:
329,342,101762,1,0,1:2:0:0:
278,259,101909,1,2,1:2:0:0:
183,358,102056,1,10,0:2:0:0:
47,244,102204,6,0,B|128:199|108:285|206:239,1,143.999995605469,6|0,1:2|1:2,0:0:0:0:
179,96,102645,2,0,L|163:181,1,71.9999978027344,10|2,0:2|1:2,0:0:0:0:
166,166,102865,1,0,1:2:0:0:
166,166,102939,1,14,0:2:0:0:
61,113,103086,1,0,1:2:0:0:
47,244,103233,1,2,0:2:0:0:
301,181,103380,6,0,B|252:163|252:163|197:179|197:179|136:154,1,143.999995605469,6|0,1:2|1:2,0:0:0:0:
278,74,103821,2,0,L|363:63,1,71.9999978027344,10|8,0:2|0:2,0:0:0:0:
350,64,104042,1,8,0:2:0:0:
350,64,104115,1,10,0:2:0:0:
472,155,104262,1,10,0:2:0:0:
475,183,104335,1,8,0:2:0:0:
478,212,104409,1,8,0:2:0:0:
481,240,104482,1,8,0:2:0:0:
468,278,104557,6,0,B|424:246|424:246|355:240|320:308,1,160,6|0,1:2|1:2,0:0:0:0:
193,348,104997,2,0,P|235:364|294:334,1,80,10|0,0:2|0:0,0:0:0:0:
167,197,105292,1,2,1:2:0:0:
252,205,105439,2,0,L|243:284,1,80,2|8,0:2|0:2,0:0:0:0:
292,132,105733,6,0,B|192:86|229:184|115:123,1,160,2|0,1:2|1:2,0:0:0:0:
0,240,106174,2,0,L|93:235,1,80,10|0,0:2|0:0,0:0:0:0:
3,101,106468,1,2,1:2:0:0:
68,156,106615,2,0,L|79:235,1,80,2|8,0:2|0:2,0:0:0:0:
214,358,106910,6,0,B|253:324|312:329|312:329|332:360|376:359,1,160,6|0,1:2|1:2,0:0:0:0:
457,272,107350,2,0,L|377:281,1,80,10|0,0:2|0:0,0:0:0:0:
401,121,107645,1,2,1:2:0:0:
465,192,107792,2,0,L|456:272,1,80,2|8,0:2|0:2,0:0:0:0:
302,94,108086,6,0,B|398:122|398:122|465:93,1,160,2|0,1:2|1:2,0:0:0:0:
322,191,108527,2,0,L|242:200,1,80,10|0,0:2|0:0,0:0:0:0:
166,61,108821,1,2,1:2:0:0:
110,135,108968,2,0,L|120:214,1,80,2|8,0:2|0:2,0:0:0:0:
241,351,109262,6,0,B|255:298|255:298|231:250|231:250|245:185,1,160,6|0,1:2|1:2,0:0:0:0:
320,359,109703,2,0,L|240:350,1,80,10|0,0:2|0:0,0:0:0:0:
120,214,109997,1,2,1:2:0:0:
65,285,110145,2,0,L|75:365,1,80,2|8,0:2|0:2,0:0:0:0:
241,199,110439,6,0,B|330:170|330:170|394:202,1,160,2|0,1:2|1:2,0:0:0:0:
509,128,110880,2,0,L|513:47,1,80,10|0,0:2|0:0,0:0:0:0:
389,199,111174,1,2,1:2:0:0:
429,124,111322,2,0,L|508:127,1,80,2|8,0:2|0:2,0:0:0:0:
383,343,111615,6,0,B|424:297|411:253|411:253|381:227|391:181,1,160,6|0,1:2|1:2,0:0:0:0:
299,343,112056,1,8,0:2:0:0:
241,199,112203,1,0,1:2:0:0:
241,199,112277,1,0,1:2:0:0:
241,199,112350,1,14,0:2:0:0:
184,346,112497,1,0,1:2:0:0:
184,346,112792,6,0,B|133:322|133:322|76:343|76:343|22:316,1,160,2|0,1:2|1:2,0:0:0:0:
19,183,113233,1,10,0:2:0:0:
37,323,113380,1,8,0:2:0:0:
37,323,113453,1,8,0:2:0:0:
37,323,113527,1,10,0:2:0:0:
127,186,113674,1,10,0:2:0:0:
130,158,113747,1,8,0:2:0:0:
133,129,113821,1,8,0:2:0:0:
136,101,113894,1,8,0:2:0:0:
161,73,113969,6,0,B|248:36|236:115|319:77,1,160,6|0,1:2|1:2,0:0:0:0:
416,162,114409,2,0,P|374:150|317:177,1,80,10|0,0:2|0:0,0:0:0:0:
281,315,114703,1,2,1:2:0:0:
366,309,114850,2,0,L|376:230,1,80,2|8,0:2|0:2,0:0:0:0:
512,310,115145,6,0,B|472:276|424:286|424:286|392:324|342:302,1,160,2|0,1:2|1:2,0:0:0:0:
488,208,115586,2,0,P|501:167|486:122,1,80,10|0,0:2|0:0,0:0:0:0:
359,66,115880,1,2,1:2:0:0:
339,158,116027,2,0,L|250:164,1,80,2|8,0:2|0:2,0:0:0:0:
164,277,116321,6,0,B|182:226|182:226|160:173|160:173|175:119,1,160,2|0,1:2|1:2,0:0:0:0:
243,282,116762,2,0,L|163:276,1,80,10|0,0:2|0:0,0:0:0:0:
50,372,117056,1,2,1:2:0:0:
5,297,117203,2,0,L|18:216,1,80,2|8,0:2|0:2,0:0:0:0:
172,126,117498,6,0,B|263:162|263:162|322:135,1,160,2|0,1:2|1:2,0:0:0:0:
414,43,117939,2,0,L|334:38,1,80,10|0,0:2|0:0,0:0:0:0:
431,156,118233,1,2,1:2:0:0:
493,88,118380,2,0,P|505:42|488:1,1,80,2|8,0:2|0:2,0:0:0:0:
319,136,118674,6,0,B|273:179|286:230|286:230|320:250|321:301,1,160,6|0,1:2|1:2,0:0:0:0:
255,370,119115,2,0,P|237:331|263:278,1,80,10|0,0:2|0:0,0:0:0:0:
409,365,119409,1,2,1:2:0:0:
396,282,119556,2,0,L|303:271,1,80,2|8,0:2|0:2,0:0:0:0:
168,149,119850,6,0,B|221:131|221:131|276:151|276:151|333:130,1,160,2|0,1:2|1:2,0:0:0:0:
190,239,120292,2,0,L|110:231,1,80,10|0,0:2|0:0,0:0:0:0:
31,360,120586,1,2,1:2:0:0:
118,310,120733,2,0,L|110:231,1,80,2|8,0:2|0:2,0:0:0:0:
20,96,121027,6,0,L|9:215,1,120,2|0,1:2|0:0,0:0:0:0:
8,215,121321,1,6,1:2:0:0:
109,79,121468,2,0,L|102:-1,1,80,14|0,0:2|1:2,0:0:0:0:
218,106,121762,1,12,0:2:0:0:
281,39,121909,2,0,L|360:47,1,80,12|0,0:2|1:2,0:0:0:0:
414,181,122203,6,0,B|447:83|379:107|414:19,1,160,0|0,1:2|1:2,0:0:0:0:
327,139,122645,1,8,0:2:0:0:
411,26,122792,1,8,0:2:0:0:
411,26,122866,1,8,0:2:0:0:
411,26,122939,1,0,1:2:0:0:
499,67,123086,1,0,1:2:0:0:
414,181,123233,1,0,1:2:0:0:
492,341,123380,6,0,L|503:170,1,143.999995605469,4|0,1:2|0:0,0:0:0:0:
399,292,123822,2,0,L|403:363,1,71.9999978027344,0|0,1:2|0:0,0:0:0:0:
320,246,124116,2,0,L|328:109,1,107.999996704102,8|0,0:2|0:0,0:0:0:0:
326,138,124410,1,0,1:2:0:0:
220,47,124557,6,0,B|141:17|162:79|72:54,1,143.999995605469,0|0,1:2|0:0,0:0:0:0:
13,149,124998,2,0,P|60:140|98:152,1,71.9999978027344,0|0,1:2|0:0,0:0:0:0:
209,233,125292,2,0,P|183:193|211:124,1,107.999996704102,8|0,0:2|0:0,0:0:0:0:
196,137,125586,1,0,1:2:0:0:
320,246,125733,6,0,L|483:230,1,143.999995605469,0|0,1:2|0:0,0:0:0:0:
355,340,126175,2,0,L|257:330,1,71.9999978027344,0|0,1:2|0:0,0:0:0:0:
178,371,126469,1,8,0:2:0:0:
178,371,126616,1,0,0:0:0:0:
133,272,126763,1,0,1:2:0:0:
316,177,126910,6,0,B|329:216|329:216|312:268,1,71.9999978027344,0|0,1:2|0:0,0:0:0:0:
196,137,127204,2,0,L|207:66,1,71.9999978027344,0|0,0:0|1:2,0:0:0:0:
70,19,127498,1,8,0:2:0:0:
70,19,127572,1,8,0:2:0:0:
70,19,127645,1,8,0:2:0:0:
102,132,127792,1,8,0:2:0:0:
207,65,127939,1,8,0:2:0:0:
316,177,128086,6,0,B|387:145|380:213|460:163,1,128,4|0,1:2|1:2,0:0:0:0:
343,283,128527,2,0,L|255:268,1,64,8|0,0:2|0:0,0:0:0:0:
178,371,128822,2,0,L|266:356,1,64,0|0,1:2|1:2,0:0:0:0:
118,293,129116,2,0,L|77:284,2,42.6666666666667,8|0|0,0:2|0:0|1:2,0:0:0:0:
71,254,129410,2,0,L|23:259,2,42.6666666666667,0|0|0,0:0|0:0|1:2,0:0:0:0:
28,219,129704,2,0,P|19:178|38:136,1,64,8|0,0:2|0:0,0:0:0:0:
145,90,129998,2,0,P|154:49|135:7,1,64,0|0,1:2|1:2,0:0:0:0:
57,8,130292,1,8,0:2:0:0:
107,180,130439,6,0,B|154:171|154:171|190:188|190:188|230:178,1,128,4|0,1:2|1:2,0:0:0:0:
332,302,130880,1,8,0:2:0:0:
229,178,131027,1,0,1:2:0:0:
229,178,131101,1,0,1:2:0:0:
229,178,131175,1,8,0:2:0:0:
231,342,131322,1,0,1:2:0:0:
339,168,131469,1,0,0:0:0:0:
456,244,131616,6,0,P|425:195|421:290,1,256,12|2,0:2|0:2,0:0:0:0:
150,292,141027,5,2,1:2:0:0:
150,292,141469,2,0,L|134:179,1,95.9999970703126,2|10,1:2|0:2,0:0:0:0:
71,142,141910,1,2,0:2:0:0:
204,47,142204,6,0,B|266:34|266:34|309:53,1,95.9999970703126,2|0,1:2|0:0,0:0:0:0:
365,89,142645,1,2,1:2:0:0:
365,89,142939,2,0,L|358:158,2,47.9999985351563,10|2|0,0:2|0:2|0:0,0:0:0:0:
441,117,143380,6,0,L|450:212,1,95.9999970703126,2|0,0:2|0:0,0:0:0:0:
411,284,143822,1,2,1:2:0:0:
411,284,144116,2,0,L|404:353,2,47.9999985351563,10|2|0,0:2|0:2|0:0,0:0:0:0:
338,236,144557,6,0,B|282:223|282:223|239:242,1,95.9999970703126,2|0,1:2|0:0,0:0:0:0:
194,306,144998,1,2,1:2:0:0:
52,207,145292,2,0,L|59:147,1,47.9999985351563,10|2,0:2|0:2,0:0:0:0:
57,159,145733,1,2,0:2:0:0:
228,41,146175,1,2,0:2:0:0:
228,41,146469,2,0,L|233:88,1,47.9999985351563,10|2,0:2|0:2,0:0:0:0:
233,88,146910,6,0,P|282:72|331:93,1,95.9999970703126,2|0,1:2|0:0,0:0:0:0:
374,155,147351,1,2,1:2:0:0:
302,312,147645,2,0,L|243:303,1,47.9999985351563,10|2,0:2|0:2,0:0:0:0:
254,304,148086,6,0,L|357:289,1,95.9999970703126,2|0,1:2|0:0,0:0:0:0:
414,346,148527,1,2,0:2:0:0:
481,200,148822,2,0,L|487:145,1,47.9999985351563,2|2,0:2|0:2,0:0:0:0:
486,152,149263,6,0,B|413:174|413:174|365:150,1,120,6|0,1:2|0:0,0:0:0:0:
373,154,149557,1,2,1:2:0:0:
327,20,149704,1,10,0:2:0:0:
269,155,149851,1,0,0:0:0:0:
269,155,149925,1,8,0:2:0:0:
269,155,149998,1,0,1:2:0:0:
201,34,150145,1,8,0:2:0:0:
169,36,150218,1,8,0:2:0:0:
137,39,150292,1,8,0:2:0:0:
105,41,150365,1,8,0:2:0:0:
80,65,150439,6,0,B|48:153|130:120|82:233,1,160,8|0,0:2|1:2,0:0:0:0:
197,336,150880,2,0,P|171:283|198:227,1,120,10|8,0:2|0:2,0:0:0:0:
193,230,151175,5,10,0:2:0:0:
267,282,151395,5,10,1:2:0:0:
336,229,151616,5,10,1:2:0:0:
336,229,152057,2,0,L|323:140,1,80,6|0,1:2|0:0,0:0:0:0:
421,38,152351,1,2,1:2:0:0:
324,149,152498,1,10,0:2:0:0:
292,146,152571,1,8,0:2:0:0:
260,144,152645,1,8,0:2:0:0:
228,141,152718,1,8,0:2:0:0:
206,162,152792,6,0,B|158:145|158:145|105:172|105:172|54:153,1,160,6|0,1:2|1:2,0:0:0:0:
175,260,153233,2,0,L|266:246,1,80,10|0,0:2|0:0,0:0:0:0:
324,370,153527,1,2,1:2:0:0:
241,326,153675,2,0,L|255:235,1,80,2|8,0:2|0:2,0:0:0:0:
340,104,153969,6,0,B|302:156|320:199|320:199|346:232|333:274,1,160,2|0,1:2|1:2,0:0:0:0:
427,336,154410,2,0,P|413:295|447:241,1,80,10|0,0:2|0:0,0:0:0:0:
511,86,154704,1,2,1:2:0:0:
419,111,154851,2,0,L|339:103,1,80,2|8,0:2|0:2,0:0:0:0:
167,188,155145,6,0,B|268:170|268:170|334:202,1,160,2|0,1:2|1:2,0:0:0:0:
210,294,155586,2,0,L|130:286,1,80,10|0,0:2|0:0,0:0:0:0:
54,117,155880,1,2,1:2:0:0:
10,200,156027,2,0,L|17:279,1,80,2|8,0:2|0:2,0:0:0:0:
165,75,156322,6,0,B|78:33|100:119|-7:70,1,160,6|0,1:2|1:2,0:0:0:0:
236,123,156763,2,0,P|248:74|226:27,1,80,10|0,0:2|0:0,0:0:0:0:
167,188,157057,1,2,1:2:0:0:
236,123,157204,2,0,L|315:130,1,80,2|8,0:2|0:2,0:0:0:0:
406,330,157498,6,0,B|369:306|369:306|350:245|406:196,1,160,2|0,1:2|1:2,0:0:0:0:
483,102,157939,2,0,P|501:153|478:196,1,80,10|0,0:2|0:0,0:0:0:0:
353,53,158233,1,2,1:2:0:0:
315,130,158380,2,0,L|236:123,1,80,2|8,0:2|0:2,0:0:0:0:
113,251,158675,6,0,B|170:232|170:232|220:255|220:255|281:237,1,160,2|0,1:2|1:2,0:0:0:0:
155,338,159116,1,8,0:2:0:0:
263,242,159263,1,0,1:2:0:0:
263,242,159336,1,0,1:2:0:0:
263,242,159410,1,14,0:2:0:0:
331,365,159557,1,0,1:2:0:0:
331,365,159851,6,0,B|388:346|388:346|438:369|438:369|499:351,1,160,6|0,1:2|1:2,0:0:0:0:
384,222,160292,1,10,0:2:0:0:
481,356,160439,1,8,0:2:0:0:
481,356,160513,1,8,0:2:0:0:
481,356,160586,1,10,0:2:0:0:
384,222,160733,1,10,0:2:0:0:
386,190,160806,1,8,0:2:0:0:
388,158,160880,1,8,0:2:0:0:
390,126,160953,1,8,0:2:0:0:
414,91,161027,6,0,B|320:118|320:118|253:79,1,160,6|0,1:2|1:2,0:0:0:0:
155,181,161469,2,0,L|247:169,1,80,10|0,0:2|0:0,0:0:0:0:
110,69,161763,1,10,0:2:0:0:
63,165,161910,1,2,1:2:0:0:
189,79,162057,2,0,L|97:67,1,80,8|2,0:2|1:2,0:0:0:0:
259,214,162351,6,0,B|223:102|298:152|261:43,1,160,8|10,0:2|0:2,0:0:0:0:
338,170,162792,1,0,1:2:0:0:
266,60,162939,2,0,L|358:48,1,80,10|2,0:2|1:2,0:0:0:0:
417,180,163233,2,0,L|325:168,1,80,8|2,0:2|1:2,0:0:0:0:
223,289,163527,6,0,B|275:266|275:266|331:284|331:284|386:258,1,160,8|10,0:2|0:2,0:0:0:0:
476,359,163969,1,0,0:0:0:0:
371,265,164116,2,0,L|383:348,1,80,10|0,0:2|1:2,0:0:0:0:
505,221,164410,1,10,0:2:0:0:
419,57,164557,6,0,B|333:18|354:92|258:57,1,160,6|0,1:2|1:2,0:0:0:0:
209,178,164998,1,10,0:2:0:0:
137,36,165145,1,8,0:2:0:0:
137,36,165219,1,8,0:2:0:0:
137,36,165292,1,2,1:2:0:0:
56,174,165439,1,2,1:2:0:0:
56,174,165733,6,0,B|112:165|112:165|159:189|159:189|221:174,1,160,6|0,1:2|1:2,0:0:0:0:
283,294,166175,2,0,L|185:278,1,80,10|0,0:2|0:0,0:0:0:0:
365,166,166469,1,2,1:2:0:0:
286,214,166616,2,0,L|282:293,1,80,2|8,0:2|0:2,0:0:0:0:
454,120,166910,6,0,B|361:75|379:155|293:116,1,160,2|0,1:2|1:2,0:0:0:0:
181,40,167352,2,0,L|264:32,1,80,10|0,0:2|0:0,0:0:0:0:
122,171,167646,1,2,1:2:0:0:
189,119,167793,2,0,L|181:40,1,80,2|10,0:2|0:2,0:0:0:0:
294,174,168087,6,0,L|283:293,1,120,2|0,1:2|0:0,0:0:0:0:
283,293,168381,1,6,1:2:0:0:
407,149,168528,2,0,L|400:69,1,80,14|0,0:2|1:2,0:0:0:0:
294,174,168822,1,8,0:2:0:0:
380,246,168969,2,0,L|459:238,1,80,12|0,0:2|1:2,0:0:0:0:
337,360,169263,6,0,B|250:311|273:397|165:344,1,160,4|0,1:2|1:2,0:0:0:0:
136,210,169705,1,8,0:2:0:0:
184,352,169852,1,8,0:2:0:0:
184,352,169925,1,8,0:2:0:0:
184,352,169999,1,0,1:2:0:0:
227,225,170146,1,0,1:2:0:0:
283,293,170293,1,0,1:2:0:0:
363,135,170440,1,0,1:2:0:0:
363,135,170513,1,0,0:0:0:0:
363,135,170587,6,0,B|299:153|299:153|241:125,1,107.999996704102,4|0,1:2|0:0,0:0:0:0:
261,134,170881,2,0,L|268:41,1,71.9999978027344,8|0,0:2|0:0,0:0:0:0:
155,16,171175,1,0,1:2:0:0:
155,16,171322,1,0,1:2:0:0:
99,90,171469,1,8,0:2:0:0:
189,211,171616,6,0,P|253:182|324:225,1,143.999995605469,4|0,1:2|1:2,0:0:0:0:
258,343,172057,2,0,P|247:303|261:262,1,71.9999978027344,8|0,0:2|0:0,0:0:0:0:
386,218,172352,2,0,L|314:211,1,71.9999978027344,0|0,1:2|1:2,0:0:0:0:
386,310,172646,2,0,L|493:300,1,107.999996704102,8|0,0:2|0:0,0:0:0:0:
493,300,172940,6,0,B|479:260|479:260|496:221,1,71.9999978027344,4|0,1:2|0:0,0:0:0:0:
369,147,173234,2,0,L|388:226,1,71.9999978027344,8|0,0:2|0:0,0:0:0:0:
448,80,173528,1,0,1:2:0:0:
448,80,173675,1,0,1:2:0:0:
369,147,173822,1,8,0:2:0:0:
286,33,173969,6,0,L|133:47,1,143.999995605469,4|0,1:2|1:2,0:0:0:0:
45,138,174410,2,0,L|116:145,1,71.9999978027344,8|0,0:2|0:0,0:0:0:0:
215,237,174705,2,0,L|143:244,1,71.9999978027344,0|0,1:2|1:2,0:0:0:0:
36,334,174999,2,0,L|143:344,1,107.999996704102,8|0,0:2|0:0,0:0:0:0:
144,345,175293,6,0,B|126:275|126:275|152:227,1,107.999996704102,4|0,1:2|0:0,0:0:0:0:
143,243,175587,2,0,L|215:237,1,71.9999978027344,8|0,0:2|0:0,0:0:0:0:
298,351,175881,1,0,1:2:0:0:
298,351,176028,1,0,1:2:0:0:
363,270,176175,1,8,0:2:0:0:
477,378,176322,6,0,B|458:284|458:284|485:234,1,143.999995605469,4|0,1:2|1:2,0:0:0:0:
413,124,176763,2,0,L|406:219,1,71.9999978027344,8|0,0:2|0:0,0:0:0:0:
512,100,177057,2,0,L|506:28,1,71.9999978027344,0|0,1:2|1:2,0:0:0:0:
413,124,177352,2,0,L|277:139,1,107.999996704102,8|0,0:2|0:0,0:0:0:0:
305,135,177646,6,0,B|320:97|320:97|304:51,1,71.9999978027344,4|0,1:2|0:0,0:0:0:0:
210,189,177940,2,0,L|222:280,1,71.9999978027344,8|0,0:2|0:0,0:0:0:0:
358,346,178234,1,0,1:2:0:0:
358,346,178381,1,0,1:2:0:0:
319,249,178528,1,8,0:2:0:0:
192,359,178675,6,0,B|147:340|147:340|96:357|96:357|46:338,1,143.999995605469,4|0,1:2|1:2,0:0:0:0:
112,162,179116,1,8,0:2:0:0:
57,342,179263,1,8,0:2:0:0:
57,342,179337,1,8,0:2:0:0:
57,342,179410,1,8,0:2:0:0:
21,166,179557,1,8,0:2:0:0:
144,248,179705,1,8,0:2:0:0:
177,92,179852,1,8,0:2:0:0:
280,244,179998,6,0,B|197:224|197:224|117:259,1,143.999995605469,4|10,1:2|0:2,0:0:0:0:
288,346,180439,1,2,0:2:0:0:
372,229,180586,2,0,L|381:324,1,71.9999978027344,2|0,1:2|1:2,0:0:0:0:
460,169,180880,1,10,0:2:0:0:
356,81,181027,6,0,B|404:94|404:94|445:76|445:76|503:93,1,143.999995605469,6|2,1:2|1:2,0:0:0:0:
314,162,181469,2,0,L|231:171,1,71.9999978027344,10|0,0:2|0:0,0:0:0:0:
137,58,181763,2,0,L|253:70,1,107.999996704102,0|0,1:2|0:0,0:0:0:0:
244,69,182057,2,0,B|223:134|223:134|251:188,1,107.999996704102,10|0,0:2|0:0,0:0:0:0:
242,169,182351,6,0,L|314:162,1,71.9999978027344,6|0,1:2|0:0,0:0:0:0:
210,303,182645,1,10,0:2:0:0:
136,236,182792,2,0,L|143:148,1,71.9999978027344,2|0,0:2|1:2,0:0:0:0:
41,247,183086,1,2,1:2:0:0:
141,164,183233,1,10,0:2:0:0:
210,303,183380,6,0,B|266:288|266:288|302:306|302:306|351:291,1,143.999995605469,6|0,1:2|1:2,0:0:0:0:
469,369,183822,2,0,L|383:365,1,71.9999978027344,8|0,0:2|0:0,0:0:0:0:
499,274,184116,1,0,1:2:0:0:
499,274,184263,1,0,1:2:0:0:
408,208,184410,2,0,L|419:92,1,107.999996704102,8|0,0:2|0:0,0:0:0:0:
418,100,184704,6,0,B|381:110|381:110|332:90,1,71.9999978027344,4|0,1:2|0:0,0:0:0:0:
235,202,184998,2,0,L|325:189,1,71.9999978027344,10|2,0:2|0:2,0:0:0:0:
169,97,185292,1,2,1:2:0:0:
169,97,185439,1,0,1:2:0:0:
127,223,185586,1,10,0:2:0:0:
23,58,185733,6,0,B|-10:150|62:110|18:224,1,143.999995605469,6|2,1:2|1:2,0:0:0:0:
134,290,186175,2,0,P|120:244|143:201,1,71.9999978027344,10|0,0:2|0:0,0:0:0:0:
253,342,186469,2,0,L|324:330,1,71.9999978027344,0|0,1:2|1:2,0:0:0:0:
463,248,186763,2,0,L|353:229,1,107.999996704102,10|0,0:2|0:0,0:0:0:0:
356,230,187057,6,0,B|379:161|379:161|361:117,1,107.999996704102,6|0,1:2|0:0,0:0:0:0:
365,128,187351,1,10,0:2:0:0:
206,34,187498,2,0,B|158:20|158:20|119:46|119:46|68:34,1,143.999995605469,6|2,0:2|1:2,0:0:0:0:
183,114,187939,1,10,0:2:0:0:
117,267,188086,6,0,L|91:134,1,107.999996704102,6|0,1:2|0:0,0:0:0:0:
96,161,188380,1,0,1:2:0:0:
213,317,188527,1,8,0:2:0:0:
274,227,188675,1,8,0:2:0:0:
274,227,188748,1,8,0:2:0:0:
274,227,188822,1,8,0:2:0:0:
405,354,188969,1,0,1:2:0:0:
