osu file format v14

[General]
AudioFilename: audio.mp3
AudioLeadIn: 0
PreviewTime: 47292
Countdown: 0
SampleSet: Soft
StackLeniency: 0.3
Mode: 0
LetterboxInBreaks: 0
WidescreenStoryboard: 1

[Editor]
Bookmarks: 29410,48086,67057,90439,104557,123380,149263,161027,162939,170586,188969
DistanceSpacing: 1.3
BeatDivisor: 4
GridSize: 32
TimelineZoom: 1.6

[Metadata]
Title:Tokyo Teddy Bear
TitleUnicode:東京テディベア
Artist:Neru feat. Kagamine Rin
ArtistUnicode:Neru feat. 鏡音リン
Creator:Nevo
Version:Sajinn's Hard
Source:
Tags:vocaloid addy2607 Sajinn shiratoi shira frontier -_frontier_- KittyAdventure gokugohan12468 Yumerios japanese rock
BeatmapID:2517784
BeatmapSetID:1165741

[Difficulty]
HPDrainRate:4
CircleSize:3.1
OverallDifficulty:6.8
ApproachRate:8
SliderMultiplier:1.32
SliderTickRate:1

[Events]
//Background and Video events
0,0,"21056462_p0.png",0,0
Video,0,"vid.mp4"
//Break Periods
2,20198,28660
2,76522,83807
2,132845,140277
2,170786,179248
//Storyboard Layer 0 (Background)
//Storyboard Layer 1 (Fail)
//Storyboard Layer 2 (Pass)
//Storyboard Layer 3 (Foreground)
//Storyboard Layer 4 (Overlay)
//Storyboard Sound Samples

[TimingPoints]
1175,294.117647058824,4,2,2,42,1,0
1175,-121.951219512195,4,2,2,42,0,0
1469,-121.951219512195,4,2,2,40,0,0
1616,-121.951219512195,4,2,2,42,0,0
1763,-121.951219512195,4,2,2,40,0,0
3453,-121.951219512195,4,2,2,42,0,0
3527,-121.951219512195,4,2,2,40,0,0
8159,-121.951219512195,4,2,2,42,0,0
8233,-121.951219512195,4,2,2,40,0,0
11027,-121.951219512195,4,2,2,42,0,0
11175,-121.951219512195,4,2,2,40,0,0
12865,-121.951219512195,4,2,2,42,0,0
12939,-121.951219512195,4,2,2,40,0,0
16910,-121.951219512195,4,2,2,42,0,0
17057,-89.2857142857142,4,2,2,40,0,0
17204,-89.2857142857142,4,2,2,67,0,0
17351,-108.695652173913,4,2,2,40,0,0
17571,-108.695652173913,4,2,2,52,0,0
17645,-98.0392156862745,4,2,2,60,0,0
18233,-98.0392156862745,4,2,2,62,0,0
18380,-98.0392156862745,4,2,2,60,0,0
19704,-98.0392156862745,4,2,2,62,0,0
19924,-98.0392156862745,4,2,2,60,0,0
29410,-108.695652173913,4,2,2,50,0,0
29557,-108.695652173913,4,2,2,52,0,0
29704,-108.695652173913,4,2,2,50,0,0
31027,-108.695652173913,4,2,2,52,0,0
31175,-108.695652173913,4,2,2,50,0,0
31689,-108.695652173913,4,2,2,52,0,0
31763,-108.695652173913,4,2,2,50,0,0
34263,-108.695652173913,4,2,2,52,0,0
34410,-108.695652173913,4,2,2,50,0,0
35733,-108.695652173913,4,2,2,52,0,0
35880,-108.695652173913,4,2,2,50,0,0
36469,-98.0392156862745,4,2,2,60,0,0
38675,-108.695652173913,4,2,2,50,0,0
39116,-108.695652173913,4,2,2,52,0,0
39410,-108.695652173913,4,2,2,50,0,0
40292,-108.695652173913,4,2,2,52,0,0
40586,-108.695652173913,4,2,2,50,0,0
42645,-108.695652173913,4,2,2,52,0,0
42939,-108.695652173913,4,2,2,50,0,0
43380,-98.0392156862745,4,2,2,50,0,0
43969,-98.0392156862745,4,2,2,62,0,0
44116,-98.0392156862745,4,2,2,50,0,0
45145,-98.0392156862745,4,2,2,62,0,0
45292,-98.0392156862745,4,2,2,50,0,0
46395,-98.0392156862745,4,2,2,62,0,0
46469,-98.0392156862745,4,2,2,50,0,0
47204,-98.0392156862745,4,2,2,62,0,0
47351,-98.0392156862745,4,2,2,50,0,0
48086,-89.2857142857143,4,2,2,70,0,1
48674,-89.2857142857143,4,2,2,67,0,1
48822,-89.2857142857143,4,2,2,70,0,1
49851,-89.2857142857143,4,2,2,67,0,1
49998,-89.2857142857143,4,2,2,70,0,1
53380,-89.2857142857143,4,2,2,67,0,1
53527,-89.2857142857143,4,2,2,70,0,1
54557,-89.2857142857143,4,2,2,67,0,1
54704,-89.2857142857143,4,2,2,70,0,1
58086,-89.2857142857143,4,2,2,67,0,1
58233,-89.2857142857143,4,2,2,70,0,1
59263,-89.2857142857143,4,2,2,67,0,1
59410,-89.2857142857143,4,2,2,70,0,1
62792,-89.2857142857143,4,2,2,67,0,1
62939,-89.2857142857143,4,2,2,70,0,1
64704,-89.2857142857143,4,2,2,67,0,1
64851,-89.2857142857143,4,2,2,70,0,1
67057,-98.0392156862745,4,2,2,60,0,0
67204,-98.0392156862745,4,2,2,62,0,0
75586,-98.0392156862745,4,2,2,60,0,0
75807,-98.0392156862745,4,2,2,62,0,0
75880,-98.0392156862745,4,2,2,60,0,0
84777,-98.0392156862745,4,2,2,62,0,0
84851,-98.0392156862745,4,2,2,60,0,0
85733,-89.2857142857143,4,2,2,70,0,1
89998,-98.0392156862745,4,2,2,70,0,0
90439,-89.2857142857143,4,2,2,70,0,1
94704,-98.0392156862745,4,2,2,70,0,0
94851,-98.0392156862745,4,2,2,50,0,0
95145,-108.695652173913,4,2,2,50,0,0
95586,-108.695652173913,4,2,2,52,0,0
95880,-108.695652173913,4,2,2,50,0,0
97938,-108.695652173913,4,2,2,52,0,0
98233,-108.695652173913,4,2,2,50,0,0
99116,-108.695652173913,4,2,2,52,0,0
99410,-108.695652173913,4,2,2,50,0,0
99851,-98.0392156862745,4,2,2,50,0,0
100439,-98.0392156862745,4,2,2,62,0,0
100586,-98.0392156862745,4,2,2,50,0,0
101615,-98.0392156862745,4,2,2,62,0,0
101762,-98.0392156862745,4,2,2,50,0,0
102865,-98.0392156862745,4,2,2,62,0,0
102939,-98.0392156862745,4,2,2,50,0,0
104557,-89.2857142857143,4,2,2,70,0,1
105145,-89.2857142857143,4,2,2,67,0,1
105292,-89.2857142857143,4,2,2,70,0,1
106322,-89.2857142857143,4,2,2,67,0,1
106469,-89.2857142857143,4,2,2,70,0,1
109851,-89.2857142857143,4,2,2,67,0,1
109998,-89.2857142857143,4,2,2,70,0,1
111027,-89.2857142857143,4,2,2,67,0,1
111175,-89.2857142857143,4,2,2,70,0,1
114557,-89.2857142857143,4,2,2,67,0,1
114704,-89.2857142857143,4,2,2,70,0,1
115733,-89.2857142857143,4,2,2,67,0,1
115880,-89.2857142857143,4,2,2,70,0,1
121174,-89.2857142857143,4,2,2,67,0,1
121322,-89.2857142857143,4,2,2,70,0,1
123380,-108.695652173913,4,2,2,60,0,0
128086,-98.0392156862745,4,2,2,60,0,0
129189,-98.0392156862745,4,2,2,62,0,0
129410,-98.0392156862745,4,2,2,60,0,0
129483,-98.0392156862745,4,2,2,62,0,0
129704,-98.0392156862745,4,2,2,60,0,0
129777,-98.0392156862745,4,2,2,62,0,0
129998,-98.0392156862745,4,2,2,60,0,0
130071,-98.0392156862745,4,2,2,62,0,0
130292,-98.0392156862745,4,2,2,60,0,0
131616,-138.888888888889,4,2,2,40,0,0
132645,-138.888888888889,4,2,2,37,0,0
141027,-121.951219512195,4,2,2,42,0,0
142204,-121.951219512195,4,2,1,40,0,0
142498,-121.951219512195,4,2,1,42,0,0
142645,-121.951219512195,4,2,1,40,0,0
143233,-121.951219512195,4,2,1,42,0,0
143380,-121.951219512195,4,2,1,40,0,0
143674,-121.951219512195,4,2,1,42,0,0
143822,-121.951219512195,4,2,1,40,0,0
144410,-121.951219512195,4,2,1,42,0,0
144557,-121.951219512195,4,2,1,40,0,0
144851,-121.951219512195,4,2,1,42,0,0
144999,-121.951219512195,4,2,1,40,0,0
145586,-121.951219512195,4,2,1,42,0,0
145733,-121.951219512195,4,2,1,40,0,0
146027,-121.951219512195,4,2,1,42,0,0
146175,-121.951219512195,4,2,1,40,0,0
146763,-121.951219512195,4,2,1,42,0,0
146910,-121.951219512195,4,2,1,40,0,0
147204,-121.951219512195,4,2,1,42,0,0
147352,-121.951219512195,4,2,1,40,0,0
147939,-121.951219512195,4,2,1,42,0,0
148086,-121.951219512195,4,2,1,40,0,0
149188,-121.951219512195,4,2,1,42,0,0
149263,-89.2857142857143,4,2,2,70,0,1
150439,-98.0392156862745,4,2,2,70,0,0
151027,-98.0392156862745,4,2,2,62,0,0
151101,-98.0392156862745,4,2,2,70,0,0
152057,-98.0392156862745,4,2,2,70,0,1
152204,-98.0392156862745,4,2,2,62,0,0
152351,-98.0392156862745,4,2,2,70,0,0
152792,-89.2857142857143,4,2,2,70,0,1
156910,-89.2857142857143,4,2,2,67,0,1
157057,-89.2857142857143,4,2,2,70,0,1
158086,-89.2857142857143,4,2,2,67,0,1
158233,-89.2857142857143,4,2,2,70,0,1
159336,-89.2857142857143,4,2,2,67,0,1
159410,-89.2857142857143,4,2,2,70,0,1
161027,-89.2857142857143,4,2,2,70,0,1
168306,-89.2857142857143,4,2,2,67,0,1
168380,-89.2857142857143,4,2,2,70,0,1
170586,-98.0392156862745,4,2,2,60,0,0
182277,-98.0392156862745,4,2,2,62,0,0
182351,-98.0392156862745,4,2,2,60,0,0
184630,-98.0392156862745,4,2,2,62,0,0
184704,-98.0392156862745,4,2,2,60,0,0
186983,-98.0392156862745,4,2,2,62,0,0
187057,-98.0392156862745,4,2,2,60,0,0

[Colours]
Combo1 : 255,128,128
Combo2 : 137,3,104
Combo3 : 192,192,192

[HitObjects]
81,64,1175,5,0,0:0:0:0:
185,183,1469,2,0,P|228:175|259:177,1,54.1200008258057,2|0,0:2|0:0,0:0:0:0:
318,195,1763,2,0,B|310:233|310:233|336:272|320:319,1,108.240001651611,2|2,0:2|0:2,0:0:0:0:
245,285,2204,2,0,B|205:276|205:276|130:288,1,108.240001651611,2|2,0:2|0:2,0:0:0:0:
60,309,2645,1,2,0:2:0:0:
311,118,3233,6,0,P|351:137|388:125,1,81.1800012387085,2|0,0:2|0:0,0:0:0:0:
420,105,3527,2,0,B|412:145|412:145|434:228,1,108.240001651611,2|2,0:2|0:2,0:0:0:0:
458,295,3969,2,0,P|418:314|350:293,1,108.240001651611,0|2,0:0|0:2,0:0:0:0:
309,234,4410,1,2,0:2:0:0:
309,234,4557,2,0,B|281:219|258:192|258:192|211:211|154:194|154:194|168:133|126:83,1,270.600004129028,2|0,0:2|0:0,0:0:0:0:
337,160,6175,6,0,L|401:142,1,54.1200008258057,2|2,0:2|0:2,0:0:0:0:
470,142,6469,2,0,P|464:192|471:274,1,108.240001651611,2|2,0:2|0:2,0:0:0:0:
445,333,6910,2,0,P|392:362|333:335,1,108.240001651611,2|2,0:2|0:2,0:0:0:0:
385,279,7351,1,2,0:2:0:0:
76,283,7939,6,0,P|77:247|66:192,1,81.1800012387085,2|0,0:2|0:0,0:0:0:0:
58,161,8233,2,0,B|100:168|100:168|175:130,1,108.240001651611,2|2,0:2|0:2,0:0:0:0:
188,63,8675,2,0,P|228:93|235:156,1,108.240001651611,2|2,0:2|0:2,0:0:0:0:
221,232,9116,1,2,0:2:0:0:
221,232,9263,2,0,B|267:237|288:278|288:278|331:255|379:271|379:271|393:249|393:249|442:274|477:259,1,270.600004129028,2|0,0:2|0:0,0:0:0:0:
212,309,10880,6,0,P|183:331|152:334,1,54.1200008258057,2|0,0:2|0:0,0:0:0:0:
87,319,11175,2,0,P|87:253|75:193,1,108.240001651611,2|2,0:2|0:2,0:0:0:0:
22,153,11616,2,0,P|60:157|123:107,1,108.240001651611,2|2,0:2|0:2,0:0:0:0:
49,78,12057,1,2,0:2:0:0:
356,150,12645,6,0,P|400:155|436:127,1,81.1800012387085,2|0,0:2|0:0,0:0:0:0:
470,125,12939,2,0,B|460:166|460:166|480:241,1,108.240001651611,2|2,0:2|0:2,0:0:0:0:
495,310,13380,2,0,P|455:273|389:269,1,108.240001651611,2|2,0:2|0:2,0:0:0:0:
421,351,13822,1,2,0:2:0:0:
421,351,13969,2,0,B|386:363|359:372|359:372|341:361|315:349|315:349|216:362|199:243,1,270.600004129028,2|0,0:2|0:0,0:0:0:0:
438,45,15586,6,0,L|430:114,1,54.1200008258057,2|2,0:2|0:2,0:0:0:0:
417,177,15880,2,0,P|376:130|314:129,1,108.240001651611,2|2,0:2|0:2,0:0:0:0:
341,203,16322,1,2,0:2:0:0:
200,136,16616,1,2,0:2:0:0:
200,136,16763,2,0,L|206:201,1,54.1200008258057,2|0,0:2|0:0,0:0:0:0:
182,273,17057,2,0,B|164:266|164:266|153:273|153:273|137:268|137:268|125:274|125:274|110:268|110:268|104:272,1,73.9200009023438,4|0,0:1|0:0,0:0:0:0:
37,231,17351,2,0,P|14:186|30:130,1,91.079996942505,2|0,0:2|0:0,0:0:0:0:
42,103,17645,5,6,1:2:0:0:
220,36,17939,1,10,0:2:0:0:
220,36,18086,2,0,L|212:115,1,67.3200004108887,6|0,1:2|0:0,0:0:0:0:
277,172,18380,2,0,P|319:165|357:161,1,67.3200004108887,2|10,1:2|0:2,0:0:0:0:
434,187,18675,6,0,P|424:243|418:331,1,134.640000821777,6|0,1:2|1:2,0:0:0:0:
337,369,19116,2,0,P|303:358|258:350,1,67.3200004108887,8|8,0:2|0:2,0:0:0:0:
233,342,19336,1,8,0:2:0:0:
237,346,19410,1,8,0:2:0:0:
183,268,19557,1,0,1:2:0:0:
221,181,19704,2,0,L|221:67,1,100.980000616333
221,19,19998,5,4,1:2:0:0:
355,60,29410,5,4,1:2:0:0:
355,60,29557,1,0,0:0:0:0:
272,93,29704,2,0,L|199:100,1,60.71999796167,10|2,0:2|0:2,0:0:0:0:
137,140,29998,2,0,P|118:177|160:258,1,121.43999592334,2|10,1:2|0:2,0:0:0:0:
209,301,30439,6,0,B|275:292|257:348|328:337,1,121.43999592334,2|2,0:2|0:2,0:0:0:0:
402,322,30880,2,0,L|411:255,1,60.71999796167,10|0,0:2|0:0,0:0:0:0:
390,183,31175,1,0,1:2:0:0:
390,183,31322,1,0,0:0:0:0:
332,119,31469,2,0,P|278:110|226:87,1,91.079996942505,10|0,0:2|0:0,0:0:0:0:
202,85,31763,6,0,P|206:131|201:229,1,121.43999592334,2|10,1:2|0:2,0:0:0:0:
139,281,32204,2,0,P|91:227|23:226,1,121.43999592334,2|2,0:2|0:2,0:0:0:0:
54,309,32645,1,10,0:2:0:0:
54,309,32792,6,0,B|77:349|118:365|118:365|180:365,1,121.43999592334,2|0,0:2|0:0,0:0:0:0:
233,338,33233,2,0,L|239:251,1,60.71999796167,8|0,0:2|0:0,0:0:0:0:
279,205,33527,1,0,1:2:0:0:
279,205,33675,1,0,0:0:0:0:
356,240,33822,2,0,L|428:241,1,60.71999796167,8|0,0:2|0:0,0:0:0:0:
466,173,34116,5,0,1:2:0:0:
466,173,34263,1,0,0:0:0:0:
397,126,34410,2,0,L|328:125,1,60.71999796167,10|0,0:2|0:0,0:0:0:0:
259,88,34704,2,0,P|211:87|178:81,1,60.71999796167,2|0,1:2|0:0,0:0:0:0:
111,56,34998,1,10,0:2:0:0:
111,56,35145,6,0,B|121:100|121:100|92:197,1,121.43999592334,2|2,0:2|0:2,0:0:0:0:
105,257,35586,2,0,P|145:253|187:253,1,60.71999796167,10|0,0:2|0:0,0:0:0:0:
245,281,35880,2,0,P|274:283|310:281,1,60.71999796167,0|8,1:2|0:2,0:0:0:0:
339,267,36101,1,8,0:2:0:0:
343,271,36175,1,8,0:2:0:0:
374,189,36322,1,8,0:2:0:0:
339,96,36469,6,0,P|353:55|450:35,1,134.640000821777,6|10,1:2|0:2,0:0:0:0:
499,94,36910,2,0,P|488:133|477:236,1,134.640000821777,6|2,1:2|1:2,0:0:0:0:
435,312,37351,1,10,0:2:0:0:
435,312,37498,6,0,B|391:318|391:318|288:282,1,134.640000821777,6|0,1:2|1:2,0:0:0:0:
226,236,37939,2,0,L|219:158,1,67.3200004108887,8|8,0:2|0:2,0:0:0:0:
214,126,38160,1,8,0:2:0:0:
218,130,38233,1,8,0:2:0:0:
272,53,38380,1,2,1:2:0:0:
436,118,38675,6,0,B|423:158|428:184|428:184|380:188|316:231,1,182.15999388501,6|0,1:2|0:0,0:0:0:0:
218,130,39410,1,8,0:2:0:0:
35,222,39704,1,2,1:2:0:0:
35,222,39851,2,0,B|138:197|111:286|221:254,1,182.15999388501,2|0,1:2|0:0,0:0:0:0:
387,265,40586,1,10,0:2:0:0:
258,69,40880,1,2,1:2:0:0:
258,69,41027,6,0,B|262:139|262:139|280:172|280:172|285:252,1,182.15999388501,2|0,1:2|1:2,0:0:0:0:
433,353,41763,1,8,0:2:0:0:
482,180,42057,1,2,1:2:0:0:
482,180,42204,2,0,P|429:162|349:154,1,121.43999592334,2|2,1:2|0:2,0:0:0:0:
271,167,42645,6,0,B|287:223|287:223|291:265|261:299,1,121.43999592334,0|10,0:0|0:2,0:0:0:0:
189,323,43086,1,8,0:2:0:0:
189,323,43233,1,10,0:2:0:0:
101,290,43380,6,0,P|125:251|223:239,1,134.640000821777,6|2,1:2|1:2,0:0:0:0:
279,311,43822,2,0,P|324:309|363:312,1,67.3200004108887,10|0,0:2|0:0,0:0:0:0:
416,247,44116,1,0,1:2:0:0:
416,247,44263,2,0,L|421:165,1,67.3200004108887,2|8,1:2|0:2,0:0:0:0:
365,102,44557,6,0,B|286:97|317:153|218:136,1,134.640000821777,2|2,1:2|1:2,0:0:0:0:
147,158,44998,2,0,L|155:237,1,67.3200004108887,10|0,0:2|0:0,0:0:0:0:
141,321,45292,1,0,1:2:0:0:
141,321,45439,2,0,P|92:311|62:309,1,67.3200004108887,2|10,1:2|0:2,0:0:0:0:
6,244,45733,6,0,B|-6:210|-6:210|33:177|59:104,1,134.640000821777,6|0,1:2|1:2,0:0:0:0:
133,60,46175,2,0,P|187:55|224:50,1,67.3200004108887,10|2,0:2|1:2,0:0:0:0:
248,49,46395,1,0,0:0:0:0:
252,53,46469,1,14,0:2:0:0:
323,118,46616,1,0,1:2:0:0:
325,215,46763,1,2,0:2:0:0:
250,287,46910,1,6,1:2:0:0:
441,334,47204,5,0,0:0:0:0:
441,334,47351,2,0,L|452:252,1,67.3200004108887,10|8,0:2|0:2,0:0:0:0:
452,231,47572,1,8,0:2:0:0:
452,231,47645,1,10,0:2:0:0:
404,147,47792,2,0,P|372:128|294:149,1,100.980000616333,10|8,0:2|0:2,0:0:0:0:
282,152,48086,6,0,P|229:136|116:139,1,147.840001804688,6|0,1:2|1:2,0:0:0:0:
68,201,48527,2,0,P|76:256|77:283,1,73.9200009023438,10|0,0:2|0:0,0:0:0:0:
149,338,48822,1,2,1:2:0:0:
239,306,48969,2,0,L|318:303,1,73.9200009023438,2|8,0:2|0:2,0:0:0:0:
408,306,49263,6,0,B|386:259|386:259|412:137,1,147.840001804688,2|0,1:2|1:2,0:0:0:0:
409,69,49704,2,0,P|371:59|324:73,1,73.9200009023438,10|0,0:2|0:0,0:0:0:0:
271,135,49998,1,2,1:2:0:0:
199,70,50145,2,0,P|162:63|119:72,1,73.9200009023438,2|8,0:2|0:2,0:0:0:0:
43,116,50439,6,0,B|57:177|57:177|52:207|52:207|65:281,1,147.840001804688,6|0,1:2|1:2,0:0:0:0:
123,343,50880,2,0,P|163:336|199:337,1,73.9200009023438,10|0,0:2|0:0,0:0:0:0:
253,252,51175,2,0,L|243:168,2,73.9200009023438,2|2|8,1:2|0:2|0:2,0:0:0:0:
359,259,51616,6,0,P|395:287|498:235,1,147.840001804688,2|0,1:2|1:2,0:0:0:0:
497,157,52057,2,0,P|494:115|486:69,1,73.9200009023438,10|0,0:2|0:0,0:0:0:0:
408,19,52351,1,2,1:2:0:0:
317,69,52498,2,0,P|260:66|219:74,1,73.9200009023438,2|8,0:2|0:2,0:0:0:0:
143,63,52792,6,0,B|166:110|166:110|150:222,1,147.840001804688,6|0,1:2|1:2,0:0:0:0:
171,298,53233,2,0,P|217:305|256:325,1,73.9200009023438,10|0,0:2|0:0,0:0:0:0:
337,276,53527,2,0,P|371:262|407:258,2,73.9200009023438,2|2|8,1:2|0:2|0:2,0:0:0:0:
362,167,53969,6,0,B|271:144|299:224|196:192,1,147.840001804688,2|0,1:2|1:2,0:0:0:0:
128,191,54410,2,0,P|117:145|99:104,1,73.9200009023438,10|0,0:2|0:0,0:0:0:0:
47,45,54704,1,2,1:2:0:0:
143,46,54851,2,0,P|188:58|231:59,1,73.9200009023438,2|8,0:2|0:2,0:0:0:0:
107,120,55145,6,0,P|61:151|70:241,1,147.840001804688,6|0,1:2|1:2,0:0:0:0:
117,316,55586,2,0,P|164:318|200:325,1,73.9200009023438,8|0,0:2|1:2,0:0:0:0:
230,336,55807,1,0,0:0:0:0:
230,336,55880,1,14,0:2:0:0:
291,262,56027,1,0,1:2:0:0:
200,108,56322,6,0,B|280:88|267:160|362:129,1,147.840001804688,2|0,1:2|1:2,0:0:0:0:
434,155,56763,2,0,P|426:202|428:245,1,73.9200009023438,10|8,0:2|0:2,0:0:0:0:
436,267,56983,1,8,0:2:0:0:
436,267,57057,1,10,0:2:0:0:
363,332,57204,2,0,L|360:369,3,36.9600004511719,10|8|8|8,0:2|0:2|0:2|0:2,0:0:0:0:
335,292,57498,6,0,B|290:279|290:279|180:316,1,147.840001804688,6|0,1:2|1:2,0:0:0:0:
101,285,57939,2,0,L|85:186,1,73.9200009023438,10|0,0:2|0:0,0:0:0:0:
104,117,58233,1,2,1:2:0:0:
170,47,58380,2,0,L|252:37,1,73.9200009023438,2|8,0:2|0:2,0:0:0:0:
339,48,58675,6,0,P|325:121|326:204,1,147.840001804688,2|0,1:2|1:2,0:0:0:0:
335,292,59116,2,0,P|283:296|251:304,1,73.9200009023438,10|0,0:2|0:0,0:0:0:0:
164,266,59410,2,0,P|127:258|90:257,2,73.9200009023438,2|2|8,1:2|0:2|0:2,0:0:0:0:
56,166,59851,6,0,P|93:135|203:159,1,147.840001804688,2|0,1:2|1:2,0:0:0:0:
272,187,60292,2,0,P|319:171|367:168,1,73.9200009023438,10|0,0:2|0:0,0:0:0:0:
425,118,60586,1,2,1:2:0:0:
339,74,60733,2,0,P|291:59|241:54,1,73.9200009023438,2|8,0:2|0:2,0:0:0:0:
342,167,61027,6,0,P|338:231|240:256,1,147.840001804688,2|0,1:2|1:2,0:0:0:0:
181,225,61469,2,0,P|174:162|168:139,1,73.9200009023438,10|0,0:2|0:0,0:0:0:0:
113,75,61763,1,2,1:2:0:0:
46,143,61910,2,0,P|37:180|36:217,1,73.9200009023438,2|8,0:2|0:2,0:0:0:0:
17,310,62204,6,0,P|80:311|184:340,1,147.840001804688,6|0,1:2|1:2,0:0:0:0:
257,343,62645,2,0,L|346:327,1,73.9200009023438,10|0,0:2|0:0,0:0:0:0:
393,258,62939,1,2,1:2:0:0:
388,162,63086,2,0,L|377:78,1,73.9200009023438,2|8,0:2|0:2,0:0:0:0:
308,208,63380,6,0,P|258:211|188:122,1,147.840001804688,2|0,1:2|1:2,0:0:0:0:
147,60,63822,2,0,P|97:57|61:64,1,73.9200009023438,10|0,0:2|0:0,0:0:0:0:
58,162,64116,2,0,P|71:207|75:239,2,73.9200009023438,2|2|8,1:2|0:2|0:2,0:0:0:0:
136,312,64557,2,0,P|209:313|239:309,1,73.9200009023438,2|0,1:2|0:0,0:0:0:0:
312,311,64851,5,6,1:2:0:0:
376,239,64998,2,0,P|381:191|389:150,1,73.9200009023438,14|0,0:2|1:2,0:0:0:0:
346,77,65292,1,8,0:2:0:0:
260,33,65439,2,0,P|211:28|167:20,1,73.9200009023438,12|0,0:2|1:2,0:0:0:0:
96,56,65733,6,0,P|77:101|160:169,1,147.840001804688,4|0,1:2|1:2,0:0:0:0:
219,216,66175,2,0,P|226:260|229:302,1,73.9200009023438,8|8,0:2|0:2,0:0:0:0:
233,324,66395,1,8,0:2:0:0:
233,324,66469,1,0,1:0:0:0:
315,372,66616,1,0,1:0:0:0:
409,353,66763,2,0,P|461:340|483:323,1,73.9200009023438,0|0,1:2|1:2,0:0:0:0:
495,243,67057,6,0,P|487:184|470:151,1,67.3200004108887,4|0,1:2|0:0,0:0:0:0:
402,146,67351,2,0,L|323:155,1,67.3200004108887
247,180,67645,1,0,0:0:0:0:
247,180,67792,2,0,L|155:172,1,67.3200004108887
88,150,68086,6,0,B|67:120|67:120|76:61|136:45,1,134.640000821777
212,11,68527,2,0,P|265:14|303:25,1,67.3200004108887
364,68,68822,1,0,0:0:0:0:
364,68,68969,1,0,0:0:0:0:
413,147,69116,2,0,P|427:205|430:229,1,67.3200004108887
446,304,69410,6,0,B|397:297|397:297|298:334,1,134.640000821777
234,377,69851,1,0,0:0:0:0:
234,377,69998,1,0,0:0:0:0:
161,316,70145,2,0,P|157:261|149:232,1,67.3200004108887
116,162,70439,6,0,P|175:131|271:125,1,134.640000821777
334,157,70880,1,0,0:0:0:0:
334,157,71027,2,0,P|344:204|348:238,1,67.3200004108887
400,307,71322,1,0,0:0:0:0:
400,307,71469,2,0,P|452:294|469:284,1,67.3200004108887
495,198,71763,6,0,B|492:155|492:155|455:113|385:107,1,134.640000821777
223,50,72351,1,0,0:0:0:0:
223,50,72498,2,0,P|228:92|229:128,1,67.3200004108887
159,180,72792,6,0,P|111:150|17:173,1,134.640000821777
83,240,73233,2,0,L|94:308,1,67.3200004108887
172,367,73527,1,0,0:0:0:0:
172,367,73675,1,0,0:0:0:0:
247,310,73822,2,0,P|303:292|338:293,1,67.3200004108887
404,277,74116,6,0,B|384:234|384:234|400:125,1,134.640000821777
254,15,74704,1,0,0:0:0:0:
254,15,74851,2,0,P|207:22|163:25,1,67.3200004108887
94,39,75145,6,0,B|82:93|82:93|88:122|88:122|78:177,1,134.640000821777
92,270,75586,2,0,L|162:255,1,67.3200004108887,8|8,0:2|0:2,0:0:0:0:
197,251,75807,1,0,0:0:0:0:
197,251,75880,1,8,0:2:0:0:
255,177,76027,1,8,0:2:0:0:
348,159,76175,1,8,0:2:0:0:
423,215,76322,1,8,0:2:0:0:
120,91,84557,6,0,P|165:81|249:83,1,100.980000616333,6|0,1:2|0:0,0:0:0:0:
264,95,84851,2,0,P|260:132|259:176,1,67.3200004108887,8|8,0:2|0:2,0:0:0:0:
333,219,85145,2,0,P|337:256|337:298,1,67.3200004108887,8|8,0:2|0:2,0:0:0:0:
286,365,85439,1,8,0:2:0:0:
93,289,85733,6,0,P|53:253|80:160,1,147.840001804688,6|0,0:2|1:2,0:0:0:0:
148,100,86175,1,10,0:2:0:0:
148,100,86322,1,2,1:2:0:0:
229,163,86469,2,0,P|289:167|323:165,1,73.9200009023438,10|0,0:2|1:2,0:0:0:0:
403,206,86763,1,10,0:2:0:0:
403,206,86910,1,2,1:2:0:0:
463,122,87057,6,0,L|451:39,2,73.9200009023438,8|2|10,0:2|1:2|0:2,0:0:0:0:
499,219,87498,1,2,1:2:0:0:
499,219,87645,2,0,P|492:270|497:322,1,73.9200009023438,10|0,0:2|1:2,0:0:0:0:
420,366,87939,2,0,P|369:357|332:354,1,73.9200009023438,8|2,0:2|1:2,0:0:0:0:
250,316,88233,6,0,L|168:322,1,73.9200009023438,8|0,0:2|1:2,0:0:0:0:
82,358,88527,1,10,0:2:0:0:
82,358,88675,1,2,1:2:0:0:
24,271,88822,2,0,P|20:222|11:183,1,73.9200009023438,10|0,0:2|1:2,0:0:0:0:
46,101,89116,1,10,0:2:0:0:
46,101,89263,1,2,1:2:0:0:
144,93,89410,6,0,L|215:49,2,73.9200009023438,8|2|10,0:2|1:2|0:2,0:0:0:0:
100,182,89851,1,2,1:2:0:0:
100,182,89998,2,0,P|109:224|119:251,1,67.3200004108887,10|0,0:2|1:2,0:0:0:0:
295,351,90439,6,0,B|346:361|346:361|443:306,1,147.840001804688,6|0,1:2|1:2,0:0:0:0:
484,227,90880,1,10,0:2:0:0:
484,227,91027,1,2,1:2:0:0:
411,155,91175,2,0,P|345:151|317:151,1,73.9200009023438,10|0,0:2|1:2,0:0:0:0:
264,85,91469,1,10,0:2:0:0:
264,85,91616,1,2,1:2:0:0:
205,170,91763,6,0,L|216:253,2,73.9200009023438,8|2|10,0:2|1:2|0:2,0:0:0:0:
137,100,92204,1,2,1:2:0:0:
137,100,92351,2,0,P|89:99|45:93,1,73.9200009023438,10|0,0:2|1:2,0:0:0:0:
8,181,92645,2,0,P|13:233|14:277,1,73.9200009023438,8|2,0:2|1:2,0:0:0:0:
34,355,92939,6,0,L|120:343,1,73.9200009023438,8|0,0:2|1:2,0:0:0:0:
214,350,93233,1,10,0:2:0:0:
214,350,93380,1,2,1:2:0:0:
263,259,93527,2,0,P|268:206|275:185,1,73.9200009023438,10|0,0:2|1:2,0:0:0:0:
331,100,93822,1,10,0:2:0:0:
331,100,93969,1,2,1:2:0:0:
381,191,94116,6,0,L|397:271,2,73.9200009023438,8|2|10,0:2|1:2|0:2,0:0:0:0:
424,100,94557,1,2,1:2:0:0:
424,100,94704,2,0,P|473:91|502:91,1,67.3200004108887,10|0,0:2|1:2,0:0:0:0:
475,257,95145,6,0,P|432:334|335:313,1,182.15999388501,6|0,1:2|0:0,0:0:0:0:
233,196,95880,1,8,0:2:0:0:
79,243,96175,1,2,1:2:0:0:
79,243,96321,2,0,B|181:210|164:310|267:277,1,182.15999388501,2|2,1:2|1:2,0:0:0:0:
395,259,97057,1,10,0:2:0:0:
306,144,97350,1,2,1:2:0:0:
306,144,97497,6,0,B|245:87|184:123|184:123|159:107|111:112,1,182.15999388501,2|0,1:2|0:0,0:0:0:0:
231,196,98233,1,8,0:2:0:0:
398,196,98527,1,2,1:2:0:0:
398,196,98674,2,0,P|394:263|395:340,1,121.43999592334,2|2,1:2|0:2,0:0:0:0:
320,373,99116,2,0,B|270:380|270:380|226:370|196:320,1,121.43999592334,0|10,0:0|0:2,0:0:0:0:
159,267,99556,1,8,0:2:0:0:
159,267,99703,1,10,0:2:0:0:
220,200,99851,6,0,L|211:59,1,134.640000821777,6|2,1:2|1:2,0:0:0:0:
283,7,100292,2,0,P|328:5|368:9,1,67.3200004108887,10|0,0:2|0:0,0:0:0:0:
438,53,100586,1,0,1:2:0:0:
438,53,100733,2,0,L|444:129,1,67.3200004108887,2|8,1:2|0:2,0:0:0:0:
353,97,101027,6,0,B|280:89|301:159|208:134,1,134.640000821777,2|2,1:2|1:2,0:0:0:0:
140,165,101468,2,0,L|149:248,1,67.3200004108887,10|0,0:2|0:0,0:0:0:0:
135,326,101762,1,0,1:2:0:0:
135,326,101909,2,0,P|86:316|57:314,1,67.3200004108887,2|10,1:2|0:2,0:0:0:0:
13,244,102203,6,0,B|1:210|1:210|6:153|65:107,1,134.640000821777,6|0,1:2|1:2,0:0:0:0:
115,60,102645,2,0,P|168:55|198:52,1,67.3200004108887,10|2,0:2|1:2,0:0:0:0:
224,57,102865,1,0,0:0:0:0:
224,57,102939,1,14,0:2:0:0:
308,98,103086,1,0,1:2:0:0:
351,181,103233,1,2,0:2:0:0:
314,267,103380,1,6,1:2:0:0:
139,185,103675,5,0,1:2:0:0:
139,185,103822,2,0,P|192:180|227:176,1,67.3200004108887,10|8,0:2|0:2,0:0:0:0:
247,182,104042,1,8,0:2:0:0:
247,182,104116,1,10,0:2:0:0:
223,295,104263,2,0,P|186:336|114:333,1,100.980000616333,10|8,0:2|0:2,0:0:0:0:
97,336,104557,6,0,B|89:264|89:264|51:234|48:180,1,147.840001804688,6|0,1:2|1:2,0:0:0:0:
81,110,104998,2,0,P|130:93|176:91,1,73.9200009023438,10|0,0:2|0:0,0:0:0:0:
247,94,105292,1,2,1:2:0:0:
307,169,105439,2,0,L|296:271,1,73.9200009023438,2|8,0:2|0:2,0:0:0:0:
349,324,105733,6,0,B|389:347|389:347|442:348|472:262,1,147.840001804688,2|0,1:2|1:2,0:0:0:0:
466,189,106175,2,0,P|457:129|457:93,1,73.9200009023438,10|0,0:2|0:0,0:0:0:0:
391,45,106469,1,2,1:2:0:0:
302,82,106616,2,0,P|235:95|198:94,1,73.9200009023438,2|8,0:2|0:2,0:0:0:0:
134,82,106910,6,0,P|147:125|141:242,1,147.840001804688,6|0,1:2|1:2,0:0:0:0:
182,323,107351,2,0,P|240:312|284:312,1,73.9200009023438,10|0,0:2|0:0,0:0:0:0:
325,235,107645,2,0,P|316:166|317:133,2,73.9200009023438,2|2|8,1:2|0:2|0:2,0:0:0:0:
430,260,108086,6,0,P|433:305|337:363,1,147.840001804688,2|0,1:2|1:2,0:0:0:0:
264,352,108527,2,0,L|178:346,1,73.9200009023438,10|0,0:2|0:0,0:0:0:0:
94,363,108822,1,2,1:2:0:0:
37,285,108969,2,0,P|44:217|40:183,1,73.9200009023438,2|8,0:2|0:2,0:0:0:0:
63,117,109263,6,0,B|139:93|132:162|222:128,1,147.840001804688,6|0,1:2|1:2,0:0:0:0:
289,87,109704,2,0,P|352:89|390:83,1,73.9200009023438,10|0,0:2|0:0,0:0:0:0:
449,143,109998,2,0,P|441:186|445:234,2,73.9200009023438,2|2|8,1:2|0:2|0:2,0:0:0:0:
395,312,110439,6,0,P|354:268|264:282,1,147.840001804688,2|0,1:2|1:2,0:0:0:0:
185,317,110880,2,0,P|175:256|164:218,1,73.9200009023438,10|0,0:2|0:0,0:0:0:0:
127,158,111175,1,2,1:2:0:0:
222,166,111322,2,0,P|291:166|326:177,1,73.9200009023438,2|8,0:2|0:2,0:0:0:0:
183,76,111616,6,0,B|141:59|141:59|81:59|37:108,1,147.840001804688,6|0,1:2|1:2,0:0:0:0:
21,188,112057,2,0,L|16:267,1,73.9200009023438,8|0,0:2|1:2,0:0:0:0:
18,299,112277,1,0,1:2:0:0:
18,299,112351,1,14,0:2:0:0:
85,366,112498,1,0,1:2:0:0:
273,330,112792,6,0,B|303:320|329:329|329:329|333:279|357:222,1,147.840001804688,2|0,1:2|1:2,0:0:0:0:
360,148,113233,2,0,P|314:113|284:108,1,73.9200009023438,10|8,0:2|0:2,0:0:0:0:
264,105,113454,1,8,0:2:0:0:
264,105,113527,1,10,0:2:0:0:
181,43,113675,2,0,L|193:4,3,36.9600004511719,10|8|8|8,0:2|0:2|0:2|0:2,0:0:0:0:
155,82,113969,6,0,P|170:135|178:247,1,147.840001804688,6|0,1:2|1:2,0:0:0:0:
157,320,114410,2,0,P|98:305|67:300,1,73.9200009023438,10|0,0:2|0:0,0:0:0:0:
15,237,114704,1,2,1:2:0:0:
36,143,114851,2,0,L|56:59,1,73.9200009023438,2|8,0:2|0:2,0:0:0:0:
128,11,115145,6,0,B|216:6|185:73|283:55,1,147.840001804688,2|0,1:2|1:2,0:0:0:0:
354,86,115586,2,0,P|346:138|344:185,1,73.9200009023438,10|0,0:2|0:0,0:0:0:0:
368,252,115880,1,2,1:2:0:0:
319,334,116027,2,0,P|261:318|232:316,1,73.9200009023438,2|8,0:2|0:2,0:0:0:0:
188,240,116322,6,0,B|141:217|141:217|40:240,1,147.840001804688,2|0,1:2|1:2,0:0:0:0:
12,327,116763,2,0,P|54:333|95:348,1,73.9200009023438,10|0,0:2|0:0,0:0:0:0:
179,346,117057,1,2,1:2:0:0:
258,291,117204,2,0,P|272:245|256:189,1,73.9200009023438,2|8,0:2|0:2,0:0:0:0:
340,342,117498,6,0,P|388:349|443:252,1,147.840001804688,2|0,1:2|1:2,0:0:0:0:
396,189,117939,2,0,P|380:143|374:95,1,73.9200009023438,10|0,0:2|0:0,0:0:0:0:
271,86,118233,2,0,L|196:92,2,73.9200009023438,2|2|8,1:2|0:2|0:2,0:0:0:0:
103,116,118675,6,0,P|88:164|84:290,1,147.840001804688,6|0,1:2|1:2,0:0:0:0:
135,339,119116,2,0,P|195:329|239:325,1,73.9200009023438,10|0,0:2|0:0,0:0:0:0:
310,316,119410,2,0,P|346:320|382:327,2,73.9200009023438,2|2|8,1:2|0:2|0:2,0:0:0:0:
459,255,119851,6,0,B|465:203|465:203|441:158|422:106,1,147.840001804688,2|0,1:2|1:2,0:0:0:0:
349,57,120292,2,0,P|293:55|249:50,1,73.9200009023438,10|0,0:2|0:0,0:0:0:0:
181,34,120586,1,2,1:2:0:0:
111,100,120733,2,0,L|119:177,1,73.9200009023438,2|8,0:2|0:2,0:0:0:0:
113,269,121027,2,0,P|163:277|213:301,1,73.9200009023438,2|0,1:2|0:0,0:0:0:0:
268,333,121322,5,6,1:2:0:0:
323,254,121469,2,0,L|332:168,1,73.9200009023438,14|0,0:2|1:2,0:0:0:0:
301,89,121763,1,12,0:2:0:0:
380,35,121910,2,0,L|458:26,1,73.9200009023438,12|0,0:2|1:2,0:0:0:0:
477,119,122204,6,0,P|470:178|466:278,1,147.840001804688,0|0,1:2|1:2,0:0:0:0:
398,351,122645,2,0,L|311:343,1,73.9200009023438,8|8,0:2|0:2,0:0:0:0:
285,342,122866,1,8,0:2:0:0:
285,342,122939,1,0,1:2:0:0:
200,288,123086,2,0,L|105:296,1,73.9200009023438,0|0,1:2|1:2,0:0:0:0:
54,249,123380,6,0,B|58:219|50:199|50:199|70:163|75:108,1,121.43999592334,4|0,1:2|0:0,0:0:0:0:
126,65,123822,2,0,P|169:55|201:53,1,60.71999796167,0|0,1:2|0:0,0:0:0:0:
262,89,124116,2,0,P|293:97|330:98,1,60.71999796167,8|0,0:2|0:0,0:0:0:0:
405,132,124410,1,0,1:2:0:0:
405,132,124557,6,0,P|396:176|397:269,1,121.43999592334,0|0,1:2|0:0,0:0:0:0:
350,324,124998,2,0,P|304:321|266:319,1,60.71999796167,0|0,1:2|0:0,0:0:0:0:
211,285,125292,2,0,P|218:237|219:209,1,60.71999796167,8|0,0:2|0:0,0:0:0:0:
166,165,125586,1,0,1:2:0:0:
166,165,125733,6,0,B|132:141|132:141|80:146|46:186,1,121.43999592334,0|0,1:2|0:0,0:0:0:0:
10,249,126175,1,0,1:2:0:0:
10,249,126322,1,0,0:0:0:0:
45,329,126469,1,8,0:2:0:0:
45,329,126616,1,0,0:0:0:0:
126,372,126763,1,0,1:2:0:0:
126,372,126910,6,0,P|180:369|205:364,1,60.71999796167,0|0,1:2|0:0,0:0:0:0:
260,325,127204,2,0,P|256:272|251:251,1,60.71999796167,0|0,0:0|1:2,0:0:0:0:
208,193,127498,2,0,P|210:140|213:118,1,60.71999796167,8|8,0:2|0:2,0:0:0:0:
289,96,127792,1,8,0:2:0:0:
289,96,127939,1,8,0:2:0:0:
364,39,128086,6,0,B|399:13|399:13|443:42|455:103,1,134.640000821777,4|0,1:2|1:2,0:0:0:0:
454,175,128527,2,0,P|448:216|447:257,1,67.3200004108887,8|0,0:2|0:0,0:0:0:0:
400,324,128822,2,0,P|352:315|328:314,1,67.3200004108887,0|0,1:2|1:2,0:0:0:0:
246,278,129116,2,0,L|256:234,2,44.8800002739258,8|0|0,0:2|0:0|0:0,0:0:0:0:
156,307,129410,2,0,L|166:350,2,44.8800002739258
98,231,129704,2,0,L|106:186,2,44.8800002739258,8|0|0,0:2|0:0|0:0,0:0:0:0:
191,169,129998,2,0,L|183:124,2,44.8800002739258,0|0|0,1:2|0:0|0:0,0:0:0:0:
256,60,130292,5,8,0:2:0:0:
256,60,130439,2,0,P|294:51|365:122,1,134.640000821777,4|0,1:2|1:2,0:0:0:0:
358,201,130880,2,0,P|351:243|351:273,1,67.3200004108887,8|0,0:2|1:2,0:0:0:0:
350,305,131101,1,0,0:0:0:0:
354,309,131175,1,8,0:2:0:0:
277,364,131322,1,0,1:2:0:0:
158,304,131616,6,0,B|94:257|94:257|135:122|303:114,1,332.640008121094,12|0,0:2|0:0,0:0:0:0:
101,85,141027,5,0,0:0:0:0:
284,233,141469,2,0,P|339:219|398:234,1,108.240001651611
458,265,141910,1,0,0:0:0:0:
342,368,142204,2,0,P|287:382|225:365,1,108.240001651611,2|0,1:2|0:0,0:0:0:0:
168,332,142645,1,2,1:2:0:0:
57,219,142939,6,0,L|-15:225,2,54.1200008258057,10|2|0,0:2|0:2|0:0,0:0:0:0:
126,172,143380,2,0,P|131:100|132:55,1,108.240001651611,2|0,0:2|0:0,0:0:0:0:
199,11,143822,1,2,1:2:0:0:
335,79,144116,6,0,L|404:72,2,54.1200008258057,10|2|0,0:2|0:2|0:0,0:0:0:0:
258,117,144557,2,0,P|264:189|266:235,1,108.240001651611,2|0,1:2|0:0,0:0:0:0:
333,284,144999,1,2,1:2:0:0:
178,308,145292,6,0,P|189:341|190:367,2,54.1200008258057,10|2|0,0:2|0:2|0:0,0:0:0:0:
97,268,145733,2,0,P|50:275|1:221,1,108.240001651611,2|0,0:2|0:0,0:0:0:0:
0,153,146175,1,2,0:2:0:0:
158,107,146469,2,0,P|147:73|146:47,2,54.1200008258057,10|2|0,0:2|0:2|0:0,0:0:0:0:
233,146,146910,2,0,P|278:140|328:194,1,108.240001651611,2|0,1:2|0:0,0:0:0:0:
336,262,147352,1,2,1:2:0:0:
451,164,147645,6,0,L|513:172,2,54.1200008258057,10|2|0,0:2|0:2|0:0,0:0:0:0:
386,102,148086,2,0,B|428:50|398:-5|348:-24|300:-5|275:45|307:97|307:97|240:118|166:66,1,405.900006193543,2|0,1:2|0:0,0:0:0:0:
130,82,149263,6,0,P|137:128|134:236,1,147.840001804688,6|2,1:2|1:2,0:0:0:0:
166,319,149704,2,0,P|211:303|252:301,1,73.9200009023438,10|0,0:2|0:0,0:0:0:0:
283,301,149925,1,8,0:2:0:0:
283,301,149998,1,0,1:2:0:0:
371,338,150145,2,0,L|376:374,3,36.9600004511719,8|8|8|8,0:2|0:2|0:2|0:2,0:0:0:0:
386,294,150439,6,0,B|396:246|396:246|366:140,1,134.640000821777,8|0,0:2|1:2,0:0:0:0:
309,102,150880,2,0,P|265:90|214:93,1,67.3200004108887,10|0,0:2|0:0,0:0:0:0:
208,109,151101,1,8,0:2:0:0:
208,109,151175,2,0,P|211:150|205:224,2,100.980000616333,10|10|10,0:2|1:2|1:2,0:0:0:0:
430,285,152057,6,0,L|321:321,1,100.980000616333,6|0,1:2|0:0,0:0:0:0:
297,330,152351,1,2,1:2:0:0:
229,273,152498,2,0,L|239:231,3,33.6600002054443,10|8|8|8,0:2|0:2|0:2|0:2,0:0:0:0:
201,297,152792,6,0,B|164:325|164:325|96:324|65:252,1,147.840001804688,6|0,1:2|1:2,0:0:0:0:
35,194,153233,2,0,P|35:126|30:99,1,73.9200009023438,10|0,0:2|0:0,0:0:0:0:
77,34,153527,1,2,1:2:0:0:
165,72,153675,2,0,P|237:86|267:83,1,73.9200009023438,2|8,0:2|0:2,0:0:0:0:
329,59,153969,6,0,P|319:102|331:225,1,147.840001804688,2|0,1:2|1:2,0:0:0:0:
341,307,154410,2,0,P|281:325|243:338,1,73.9200009023438,10|0,0:2|0:0,0:0:0:0:
171,323,154704,1,2,1:2:0:0:
125,238,154851,2,0,L|134:148,1,73.9200009023438,2|8,0:2|0:2,0:0:0:0:
48,289,155145,6,0,P|77:326|173:321,1,147.840001804688,2|0,1:2|1:2,0:0:0:0:
223,243,155586,2,0,P|263:232|304:228,1,73.9200009023438,10|0,0:2|0:0,0:0:0:0:
388,205,155880,1,2,1:2:0:0:
440,124,156027,2,0,L|443:45,1,73.9200009023438,2|8,0:2|0:2,0:0:0:0:
349,75,156322,6,0,B|263:59|284:131|189:102,1,147.840001804688,6|0,1:2|1:2,0:0:0:0:
114,101,156763,2,0,L|116:180,1,73.9200009023438,10|0,0:2|0:0,0:0:0:0:
87,266,157057,1,2,1:2:0:0:
153,335,157204,2,0,P|199:327|255:326,1,73.9200009023438,2|8,0:2|0:2,0:0:0:0:
309,277,157498,6,0,B|340:250|340:250|331:188|262:155,1,147.840001804688,2|0,1:2|1:2,0:0:0:0:
186,141,157939,2,0,P|145:153|107:187,1,73.9200009023438,10|0,0:2|0:0,0:0:0:0:
30,204,158233,1,2,1:2:0:0:
34,108,158380,2,0,P|44:66|36:18,1,73.9200009023438,2|8,0:2|0:2,0:0:0:0:
120,171,158675,6,0,P|156:209|253:176,1,147.840001804688,2|0,1:2|1:2,0:0:0:0:
310,123,159116,2,0,P|364:109|400:108,1,73.9200009023438,8|0,0:2|1:2,0:0:0:0:
419,110,159336,1,0,0:0:0:0:
419,110,159410,1,14,0:2:0:0:
474,188,159557,1,0,1:2:0:0:
333,332,159851,6,0,B|286:350|286:350|161:323,1,147.840001804688,6|0,1:2|1:2,0:0:0:0:
107,280,160292,2,0,P|102:222|96:195,1,73.9200009023438,10|8,0:2|0:2,0:0:0:0:
89,166,160513,1,8,0:2:0:0:
89,166,160586,1,10,0:2:0:0:
154,96,160733,2,0,L|152:55,3,36.9600004511719,10|8|8|8,0:2|0:2|0:2|0:2,0:0:0:0:
188,128,161027,6,0,B|267:113|250:179|337:152,1,147.840001804688,6|0,1:2|1:2,0:0:0:0:
424,160,161469,2,0,L|434:237,1,73.9200009023438,10|0,0:2|0:0,0:0:0:0:
347,264,161763,2,0,L|334:342,1,73.9200009023438,10|2,0:2|1:2,0:0:0:0:
245,372,162057,1,8,0:2:0:0:
168,314,162204,6,0,P|120:294|14:286,1,147.840001804688,2|0,1:2|1:2,0:0:0:0:
11,189,162645,2,0,L|0:104,1,73.9200009023438,10|0,0:2|1:2,0:0:0:0:
81,62,162939,1,10,0:2:0:0:
167,19,163086,1,2,1:2:0:0:
259,43,163233,1,8,0:2:0:0:
344,117,163380,6,0,P|328:155|331:269,1,147.840001804688,2|0,1:2|1:2,0:0:0:0:
393,331,163822,2,0,P|432:316|475:307,1,73.9200009023438,10|0,0:2|0:0,0:0:0:0:
328,260,164116,2,0,P|291:245|245:236,1,73.9200009023438,10|0,0:2|1:2,0:0:0:0:
161,242,164410,1,10,0:2:0:0:
86,302,164557,6,0,B|56:262|56:262|49:205|99:146,1,147.840001804688,6|0,1:2|1:2,0:0:0:0:
136,91,164998,2,0,P|195:67|221:67,1,73.9200009023438,10|8,0:2|0:2,0:0:0:0:
237,73,165219,1,8,0:2:0:0:
237,73,165292,1,2,1:2:0:0:
301,143,165439,1,2,1:2:0:0:
307,238,165586,1,0,1:2:0:0:
302,333,165733,6,0,P|365:324|389:223,1,147.840001804688,6|0,1:2|1:2,0:0:0:0:
399,156,166175,2,0,P|399:101|403:71,1,73.9200009023438,10|0,0:2|0:0,0:0:0:0:
323,25,166469,1,2,1:2:0:0:
261,98,166616,2,0,L|173:112,1,73.9200009023438,2|8,0:2|0:2,0:0:0:0:
97,142,166910,6,0,P|113:191|116:296,1,147.840001804688,2|0,1:2|1:2,0:0:0:0:
169,367,167351,2,0,P|223:350|268:348,1,73.9200009023438,10|0,0:2|0:0,0:0:0:0:
312,285,167645,1,2,1:2:0:0:
266,200,167792,2,0,P|211:184|163:181,1,73.9200009023438,2|10,0:2|0:2,0:0:0:0:
318,120,168086,6,0,P|367:115|442:127,1,110.880001353516,2|0,1:2|0:0,0:0:0:0:
464,155,168380,1,6,1:2:0:0:
464,155,168527,2,0,P|463:207|466:242,1,73.9200009023438,14|0,0:2|1:2,0:0:0:0:
414,313,168822,1,8,0:2:0:0:
414,313,168969,2,0,P|362:312|328:314,1,73.9200009023438,12|0,0:2|1:2,0:0:0:0:
245,296,169263,6,0,B|157:274|181:348|82:316,1,147.840001804688,4|0,1:2|1:2,0:0:0:0:
33,258,169704,2,0,L|38:176,1,73.9200009023438,8|8,0:2|0:2,0:0:0:0:
41,149,169925,1,8,0:2:0:0:
41,149,169998,1,0,1:2:0:0:
204,47,170292,2,0,P|194:90|191:137,1,73.9200009023438,0|0,1:2|1:2,0:0:0:0:
192,207,170586,5,4,1:2:0:0:
86,70,179998,6,0,P|124:88|204:62,1,100.980000616333,4|0,1:2|0:0,0:0:0:0:
225,94,180292,2,0,P|223:137|225:175,1,67.3200004108887,10|2,0:2|0:2,0:0:0:0:
252,251,180586,2,0,P|292:232|394:248,1,134.640000821777,2|10,1:2|0:2,0:0:0:0:
470,265,181027,6,0,P|459:218|481:110,1,134.640000821777,6|2,1:2|1:2,0:0:0:0:
438,43,181469,1,10,0:2:0:0:
277,152,181763,1,0,1:2:0:0:
277,152,181910,1,0,1:2:0:0:
207,83,182057,2,0,P|166:61|108:73,1,100.980000616333,10|0,0:2|0:0,0:0:0:0:
79,96,182351,6,0,P|88:133|99:252,1,134.640000821777,6|10,1:2|0:2,0:0:0:0:
133,316,182792,2,0,B|210:298|200:356|284:328,1,134.640000821777,2|2,0:2|1:2,0:0:0:0:
353,300,183233,1,10,0:2:0:0:
353,300,183380,6,0,P|342:245|254:216,1,134.640000821777,6|0,1:2|1:2,0:0:0:0:
182,222,183822,1,8,0:2:0:0:
278,56,184116,1,0,1:2:0:0:
278,56,184263,1,0,1:2:0:0:
367,27,184410,2,0,P|410:29|451:92,1,100.980000616333,8|0,0:2|0:0,0:0:0:0:
452,115,184704,6,0,P|399:123|312:159,1,134.640000821777,4|10,1:2|0:2,0:0:0:0:
260,222,185145,1,2,0:2:0:0:
260,222,185292,2,0,L|176:216,1,67.3200004108887,2|0,1:2|1:2,0:0:0:0:
115,174,185586,1,10,0:2:0:0:
115,174,185733,6,0,B|87:212|87:212|77:262|113:304,1,134.640000821777,6|2,1:2|1:2,0:0:0:0:
187,342,186175,1,10,0:2:0:0:
377,316,186469,1,0,1:2:0:0:
377,316,186616,1,0,1:2:0:0:
426,231,186763,2,0,P|441:177|421:126,1,100.980000616333,10|0,0:2|0:0,0:0:0:0:
394,105,187057,6,0,P|350:108|247:85,1,134.640000821777,6|10,1:2|0:2,0:0:0:0:
178,46,187498,1,6,0:2:0:0:
211,234,187792,1,2,1:2:0:0:
211,234,187939,1,10,0:2:0:0:
144,161,188086,6,0,P|115:194|129:290,1,134.640000821777,6|0,1:2|1:2,0:0:0:0:
200,329,188527,1,8,0:2:0:0:
289,289,188675,1,8,0:2:0:0:
289,289,188748,1,8,0:2:0:0:
289,289,188822,1,8,0:2:0:0:
302,195,188969,1,0,1:2:0:0:
