osu file format v14

[General]
AudioFilename: audio.mp3
AudioLeadIn: 0
PreviewTime: 47292
Countdown: 0
SampleSet: Soft
StackLeniency: 0.7
Mode: 0
LetterboxInBreaks: 0
WidescreenStoryboard: 1

[Editor]
DistanceSpacing: 1.3
BeatDivisor: 4
GridSize: 16
TimelineZoom: 2.1

[Metadata]
Title:Tokyo Teddy Bear
TitleUnicode:東京テディベア
Artist:Neru feat. Kagamine Rin
ArtistUnicode:Neru feat. 鏡音リン
Creator:Nevo
Version:Frontier's Extra
Source:
Tags:vocaloid addy2607 Sajinn shiratoi shira frontier -_frontier_- KittyAdventure gokugohan12468 Yumerios japanese rock
BeatmapID:2470132
BeatmapSetID:1165741

[Difficulty]
HPDrainRate:5
CircleSize:3.8
OverallDifficulty:9
ApproachRate:9.3
SliderMultiplier:1.8
SliderTickRate:1

[Events]
//Background and Video events
0,0,"21056462_p0.png",0,0
Video,0,"vid.mp4"
//Break Periods
2,20198,28856
2,76670,84003
2,132992,141650
//Storyboard Layer 0 (Background)
//Storyboard Layer 1 (Fail)
//Storyboard Layer 2 (Pass)
//Storyboard Layer 3 (Foreground)
//Storyboard Layer 4 (Overlay)
//Storyboard Sound Samples

[TimingPoints]
1175,294.117647058824,4,2,2,40,1,0
1175,-133.333333333333,4,2,2,40,0,0
17351,-66.6666666666667,4,2,2,40,0,0
17645,-100,4,2,2,60,0,0
19704,-57.1428571428571,4,2,2,60,0,0
19998,-83.3333333333333,4,2,2,60,0,0
29410,-100,4,2,2,50,0,0
36469,-100,4,2,2,60,0,0
38675,-133.333333333333,4,2,2,50,0,0
43380,-100,4,2,2,50,0,0
48086,-80,4,2,2,70,0,1
67057,-100,4,2,2,60,0,0
76763,-100,4,2,2,40,0,0
84557,-80,4,2,2,60,0,0
85733,-80,4,2,2,70,0,1
94851,-100,4,2,2,50,0,0
104557,-80,4,2,2,70,0,1
123380,-100,4,2,2,60,0,0
128086,-90.9090909090909,4,2,2,60,0,0
131616,-100,4,2,2,40,0,0
141027,-100,4,2,1,40,0,0
142204,-200,4,2,1,40,0,0
149263,-66.6666666666667,4,2,2,70,0,1
149557,-100,4,2,2,70,0,0
150880,-66.6666666666667,4,2,2,70,0,0
151175,-50,4,2,2,70,0,0
151616,-200,4,2,2,70,0,0
152057,-100,4,2,2,70,0,1
152204,-80,4,2,2,70,0,0
152792,-80,4,2,2,70,0,1
161027,-66.6666666666667,4,2,2,70,0,1
165733,-80,4,2,2,70,0,1
170586,-100,4,2,2,60,0,0
187057,-80,4,2,2,60,0,0
188675,-100,4,2,2,60,0,0
188822,-57.1428571428571,4,2,2,60,0,0

[Colours]
Combo1 : 255,128,128
Combo2 : 137,3,104
Combo3 : 192,192,192

[HitObjects]
39,318,1175,6,0,B|81:291|131:289|131:289|114:255,1,135.000005149842,0|2,0:2|0:2,0:0:0:0:
206,338,1616,1,2,0:2:0:0:
206,338,1763,2,0,L|214:266,2,67.5000025749208,2|0|2,0:2|0:0|0:2,0:0:0:0:
267,221,2204,6,0,B|271:214|271:214|348:200|374:278,1,135.000005149842,2|2,0:2|0:2,0:0:0:0:
417,376,2645,2,0,P|421:340|454:306,1,67.5000025749208,2|0,0:2|0:0,0:0:0:0:
506,227,2939,2,0,P|472:241|426:229,1,67.5000025749208
461,164,3233,6,0,B|434:73|434:73|453:56|464:19,1,135.000005149842,2|2,0:2|0:2,0:0:0:0:
269,29,3822,1,2,0:2:0:0:
344,36,3969,2,0,B|369:83|369:83|273:107,1,135.000005149842,2|2,0:2|0:2,0:0:0:0:
241,163,4410,2,0,B|220:139|220:139|173:143,1,67.5000025749208,2|2,0:2|0:2,0:0:0:0:
111,58,4851,6,0,P|81:71|35:72,1,67.5000025749208
92,121,5145,2,0,P|95:88|117:48,1,67.5000025749208
46,73,5439,2,0,P|72:92|96:131,1,67.5000025749208
1,225,5880,6,0,P|69:213|119:280,1,135.000005149842,0|2,0:0|0:2,0:0:0:0:
63,318,6322,1,2,0:2:0:0:
179,314,6469,2,0,B|201:310|201:310|270:301|235:356|326:341,1,135.000005149842,2|2,0:2|0:2,0:0:0:0:
388,363,6910,6,0,B|366:278|366:278|381:263|386:237,1,135.000005149842,2|2,0:2|0:2,0:0:0:0:
265,182,7351,2,0,P|290:192|314:233,1,67.5000025749208,2|0,0:2|0:0,0:0:0:0:
423,138,7645,2,0,P|401:154|354:154,1,67.5000025749208
306,104,7939,6,0,B|282:83|289:56|289:56|364:23,1,135.000005149842,2|2,0:2|0:2,0:0:0:0:
200,52,8527,1,2,0:2:0:0:
200,52,8675,2,0,B|119:52|154:98|75:116,1,135.000005149842,2|2,0:2|0:2,0:0:0:0:
23,66,9116,2,0,B|15:36|15:36|31:-7,1,67.5000025749208,2|2,0:2|0:2,0:0:0:0:
77,191,9557,6,0,P|110:213|130:252,1,67.5000025749208
139,171,9851,2,0,P|103:188|59:186,1,67.5000025749208
124,235,10145,2,0,P|126:195|150:158,1,67.5000025749208
20,272,10586,6,0,B|105:256|77:298|151:316,1,135.000005149842,0|2,0:0|0:2,0:0:0:0:
216,334,11027,1,0,0:0:0:0:
316,377,11175,2,0,B|336:347|336:347|311:306|314:241,1,135.000005149842,2|2,0:2|0:2,0:0:0:0:
359,195,11616,2,0,L|376:121,1,67.5000025749208,2|0,0:2|0:0,0:0:0:0:
339,56,11910,1,2,0:2:0:0:
339,56,12057,2,0,P|313:20|205:5,1,135.000005149842,2|0,0:2|0:0,0:0:0:0:
143,84,12645,6,0,L|79:106,1,67.5000025749208,2|0,0:2|0:0,0:0:0:0:
81,23,12939,2,0,B|12:47|12:47|-11:92|10:121,1,135.000005149842,2|2,0:2|0:2,0:0:0:0:
26,180,13380,2,0,P|87:197|143:242,1,135.000005149842,2|2,0:2|0:2,0:0:0:0:
213,277,13822,2,0,B|225:244|225:244|217:211,1,67.5000025749208,2|2,0:2|0:2,0:0:0:0:
370,342,14263,6,0,P|336:346|308:364,1,67.5000025749208
320,299,14557,2,0,P|340:325|369:341,1,67.5000025749208
308,364,14851,2,0,P|321:333|319:299,1,67.5000025749208
447,379,15292,6,0,P|463:310|535:254,1,135.000005149842,0|2,0:0|0:2,0:0:0:0:
462,203,15733,1,2,0:2:0:0:
462,203,15880,2,0,L|445:49,1,135.000005149842,2|2,0:2|0:2,0:0:0:0:
349,21,16322,6,0,B|274:8|274:8|263:43|236:63,1,135.000005149842,2|2,0:2|0:2,0:0:0:0:
155,79,16763,2,0,L|141:7,1,67.5000025749208,2|0,0:2|0:0,0:0:0:0:
312,94,17057,2,0,L|290:173,1,67.5000025749208,4|0,0:1|0:0,0:0:0:0:
176,243,17351,6,0,B|214:218|214:218|384:189,1,202.500007724762,2|0,0:2|0:0,0:0:0:0:
444,178,17645,5,6,1:2:0:0:
262,300,17792,1,0,0:0:0:0:
262,300,17866,1,0,0:0:0:0:
262,300,17939,1,10,0:2:0:0:
462,363,18086,2,0,B|467:309|421:298|421:298|321:345,1,180,6|2,1:2|1:2,0:0:0:0:
510,260,18527,1,10,0:2:0:0:
326,347,18675,6,0,B|222:323|222:323|211:285|182:262,1,180,6|0,1:2|1:2,0:0:0:0:
97,222,19116,1,8,0:2:0:0:
1,155,19263,1,8,0:2:0:0:
1,155,19336,1,8,0:2:0:0:
1,155,19410,1,8,0:2:0:0:
13,247,19557,1,0,1:2:0:0:
161,149,19704,6,0,B|293:55|400:163|349:256|208:255|235:122,1,315.000003004074,2|4,0:2|1:2,0:0:0:0:
116,141,29410,6,0,P|192:82|299:97,1,180,4|10,1:2|0:2,0:0:0:0:
336,130,29851,1,2,0:2:0:0:
116,141,29998,2,0,P|185:141|146:60,1,180,2|10,1:2|0:2,0:0:0:0:
0,231,30439,2,0,B|52:187|52:187|90:237|158:236,1,180,2|2,0:2|0:2,0:0:0:0:
70,383,30880,6,0,L|50:291,1,90,10|0,0:2|0:0,0:0:0:0:
215,164,31175,2,0,L|234:251,1,90,0|0,1:2|0:0,0:0:0:0:
184,377,31469,2,0,P|225:324|316:304,1,135,10|0,0:2|0:0,0:0:0:0:
312,314,31763,6,0,B|400:340|400:340|440:292|399:265,1,180,2|10,1:2|0:2,0:0:0:0:
469,168,32204,2,0,L|331:190,1,135,2|0,0:2|0:0,0:0:0:0:
328,192,32498,1,2,0:2:0:0:
399,265,32645,1,10,0:2:0:0:
190,340,32792,6,0,B|236:382|268:329|268:329|223:227,1,180,2|0,0:2|0:0,0:0:0:0:
138,213,33233,2,0,P|87:223|29:245,1,90,8|0,0:2|0:0,0:0:0:0:
256,128,33527,2,0,P|298:141|342:150,1,90,0|0,1:2|0:0,0:0:0:0:
342,150,33748,1,0,0:0:0:0:
342,150,33822,1,8,0:2:0:0:
263,47,33969,5,0,0:0:0:0:
337,16,34116,2,0,P|420:11|482:92,1,180,0|10,1:2|0:2,0:0:0:0:
426,137,34557,1,0,0:0:0:0:
426,309,34704,2,0,B|464:339|497:293|497:293|467:182,1,180,2|10,1:2|0:2,0:0:0:0:
335,246,35145,2,0,L|350:158,1,90,2|0,0:2|1:2,0:0:0:0:
256,281,35439,1,2,0:2:0:0:
327,357,35586,2,0,P|245:333|153:405,1,180,10|0,0:2|1:2,0:0:0:0:
92,287,36027,5,8,0:2:0:0:
92,287,36101,1,8,0:2:0:0:
92,287,36175,1,8,0:2:0:0:
5,253,36322,1,8,0:2:0:0:
81,171,36469,6,0,B|147:160|147:160|192:181|192:181|259:165,1,180,6|10,1:2|0:2,0:0:0:0:
327,17,36910,2,0,P|266:26|199:96,1,135,6|0,1:2|0:0,0:0:0:0:
204,81,37204,1,2,1:2:0:0:
362,142,37351,1,10,0:2:0:0:
253,166,37498,6,0,B|366:175|311:242|426:259,1,180,6|0,1:2|1:2,0:0:0:0:
287,352,37939,1,8,0:2:0:0:
372,333,38086,1,8,0:2:0:0:
372,333,38160,1,8,0:2:0:0:
372,333,38233,1,8,0:2:0:0:
481,374,38380,1,2,1:2:0:0:
481,374,38675,6,0,L|507:235,1,135.000005149842,6|0,1:2|0:0,0:0:0:0:
505,241,39116,1,0,1:2:0:0:
449,173,39410,2,0,L|475:34,1,135.000005149842,8|2,0:2|1:2,0:0:0:0:
473,40,39851,6,0,P|410:23|352:54,1,135.000005149842,2|0,1:2|0:0,0:0:0:0:
296,112,40292,2,0,P|237:143|174:125,1,135.000005149842,2|10,1:2|0:2,0:0:0:0:
64,32,40880,5,2,1:2:0:0:
64,32,41027,2,0,B|82:97|82:97|63:163,1,135.000005149842,2|0,1:2|0:0,0:0:0:0:
63,161,41469,1,0,1:2:0:0:
0,272,41763,2,0,B|64:253|64:253|129:271,1,135.000005149842,8|2,0:2|1:2,0:0:0:0:
197,316,42204,6,0,B|276:303|241:358|330:347,1,135.000005149842,2|2,1:2|0:2,0:0:0:0:
453,234,42645,2,0,L|411:241,1,33.7500012874604,0|0,1:2|0:0,0:0:0:0:
347,256,42793,1,8,0:2:0:0:
347,256,42866,1,8,0:2:0:0:
347,256,42939,1,10,0:2:0:0:
252,201,43086,5,8,0:2:0:0:
175,229,43233,1,10,0:2:0:0:
50,197,43380,6,0,B|19:188|19:188|-33:142|-1:91|51:77,1,180,6|2,1:2|1:2,0:0:0:0:
254,104,43822,2,0,B|141:82|141:82|131:115|98:138,1,180,10|0,0:2|1:2,0:0:0:0:
251,24,44263,1,2,1:2:0:0:
265,22,44336,1,0,0:0:0:0:
279,20,44410,1,8,0:2:0:0:
366,103,44557,6,0,P|427:112|474:14,1,180,2|2,1:2|1:2,0:0:0:0:
366,103,44998,2,0,P|422:104|507:197,1,180,10|0,0:2|1:2,0:0:0:0:
490,265,45439,2,0,L|480:314,2,45,2|0|10,1:2|0:0|0:2,0:0:0:0:
418,368,45733,6,0,B|398:351|398:351|369:192,1,180,6|0,1:2|1:2,0:0:0:0:
321,133,46175,5,10,0:2:0:0:
354,61,46322,1,2,1:2:0:0:
354,61,46395,1,0,1:2:0:0:
354,61,46469,1,14,0:2:0:0:
467,15,46616,5,0,1:2:0:0:
512,78,46763,1,2,0:2:0:0:
454,156,46910,6,0,B|394:170|394:170|373:195|373:195|284:220,1,180,6|0,1:2|1:2,0:0:0:0:
237,123,47351,6,0,B|227:83|227:83|237:35,1,90,10|8,0:2|0:2,0:0:0:0:
236,35,47572,1,8,0:2:0:0:
236,35,47645,1,10,0:2:0:0:
372,82,47792,2,0,L|311:97,1,45,10|8,0:2|0:2,0:0:0:0:
223,103,47939,2,0,L|162:118,1,45,8|8,0:2|0:2,0:0:0:0:
50,187,48086,6,0,P|150:202|234:322,1,225,6|0,1:2|1:2,0:0:0:0:
50,187,48527,2,0,P|118:221|167:95,1,225,10|2,0:2|1:2,0:0:0:0:
105,72,48969,1,2,0:2:0:0:
102,60,49042,1,0,0:0:0:0:
99,48,49116,1,8,0:2:0:0:
235,0,49263,6,0,B|269:29|304:48|304:48|266:193,1,225,2|0,1:2|1:2,0:0:0:0:
420,338,49704,2,0,B|380:391|329:346|329:346|364:218,1,225,10|2,0:2|1:2,0:0:0:0:
376,228,50072,1,0,0:0:0:0:
386,226,50145,1,2,0:2:0:0:
396,224,50219,1,0,0:0:0:0:
406,222,50292,1,8,0:2:0:0:
512,103,50439,6,0,B|537:163|537:163|464:123|373:126,1,225,6|0,1:2|1:2,0:0:0:0:
180,114,50880,2,0,B|200:72|207:5|207:5|225:57|316:107,1,225,10|2,0:2|1:2,0:0:0:0:
254,166,51322,1,2,0:2:0:0:
251,179,51395,1,0,0:0:0:0:
248,192,51469,1,8,0:2:0:0:
11,251,51616,6,0,B|176:224|176:224|201:264|230:275,1,225,2|0,1:2|1:2,0:0:0:0:
338,384,52057,2,0,B|369:337|369:337|346:270,1,112.5,10|0,0:2|0:0,0:0:0:0:
275,258,52277,1,0,0:0:0:0:
269,258,52351,2,0,L|213:266,1,56.25,2|0,1:2|0:0,0:0:0:0:
133,277,52498,1,2,0:2:0:0:
349,180,52645,1,8,0:2:0:0:
266,141,52792,6,0,B|408:177|408:177|404:223|439:263,1,225,6|0,1:2|1:2,0:0:0:0:
506,19,53233,2,0,P|411:32|336:111,1,168.75,10|0,0:2|0:0,0:0:0:0:
351,84,53527,1,2,1:2:0:0:
490,189,53675,1,2,0:2:0:0:
493,180,53748,1,0,0:0:0:0:
496,171,53822,1,8,0:2:0:0:
474,383,53969,6,0,B|492:322|535:293|535:293|414:244,1,225,2|0,1:2|1:2,0:0:0:0:
256,352,54410,2,0,L|372:337,1,112.5,10|0,0:2|0:0,0:0:0:0:
367,337,54630,1,0,0:0:0:0:
367,337,54704,1,2,1:2:0:0:
323,241,54851,5,2,0:2:0:0:
217,279,54998,1,8,0:2:0:0:
57,347,55145,6,0,B|87:408|143:358|143:358|113:243,1,225,6|0,1:2|1:2,0:0:0:0:
111,236,55513,1,0,0:0:0:0:
108,227,55586,1,8,0:2:0:0:
8,149,55733,5,0,1:2:0:0:
8,149,55807,1,0,1:2:0:0:
8,149,55880,2,0,P|35:148|58:132,1,56.25,14|0,0:2|0:0,0:0:0:0:
160,32,56027,2,0,P|187:32|210:48,1,56.25,0|0,1:2|0:0,0:0:0:0:
246,118,56175,5,0,0:0:0:0:
161,112,56322,2,0,B|320:67|320:67|336:22|374:4,1,225,2|0,1:2|1:2,0:0:0:0:
502,107,56763,2,0,P|449:116|405:83,1,112.5,10|8,0:2|0:2,0:0:0:0:
404,76,56983,1,8,0:2:0:0:
410,70,57057,5,10,0:2:0:0:
447,74,57130,1,0,0:0:0:0:
480,90,57204,1,10,0:2:0:0:
505,118,57277,1,8,0:2:0:0:
512,153,57351,1,8,0:2:0:0:
512,190,57424,1,8,0:2:0:0:
506,225,57498,6,0,B|459:199|459:199|361:229|361:229|357:280|315:312,1,225,6|0,1:2|1:2,0:0:0:0:
216,323,57939,2,0,B|194:278|141:254|141:254|262:228,1,225,10|2,0:2|1:2,0:0:0:0:
357,383,58380,1,2,0:2:0:0:
359,374,58454,1,0,0:0:0:0:
361,365,58527,1,8,0:2:0:0:
431,307,58675,6,0,P|322:325|190:406,1,225,2|0,1:2|1:2,0:0:0:0:
180,171,59116,2,0,B|237:156|275:117|275:117|247:168|262:247,1,225,10|2,0:2|1:2,0:0:0:0:
251,231,59483,1,0,0:0:0:0:
243,234,59557,1,2,0:2:0:0:
235,237,59630,1,0,0:0:0:0:
227,240,59704,1,8,0:2:0:0:
72,97,59851,6,0,B|98:-6|222:2|233:82|166:83,1,225,2|0,1:2|1:2,0:0:0:0:
72,97,60292,2,0,P|191:103|292:162,1,225,10|2,0:2|1:2,0:0:0:0:
346,97,60733,2,0,L|362:37,2,56.25,2|0|8,0:2|0:0|0:2,0:0:0:0:
405,286,61027,6,0,B|446:150|446:150|412:195|339:190,1,225,2|0,1:2|1:2,0:0:0:0:
294,344,61469,2,0,B|263:292|202:279|202:279|332:252,1,225,10|2,0:2|1:2,0:0:0:0:
428,362,61910,1,2,0:2:0:0:
437,359,61983,1,0,0:0:0:0:
446,356,62057,1,8,0:2:0:0:
294,344,62204,6,0,B|231:305|166:333|189:369|125:396|64:353,1,225,6|0,1:2|1:2,0:0:0:0:
68,170,62645,2,0,B|119:115|161:174|161:174|119:287,1,225,10|2,0:2|1:2,0:0:0:0:
4,368,63086,1,2,0:2:0:0:
3,358,63160,1,0,0:0:0:0:
2,348,63233,1,8,0:2:0:0:
28,240,63380,6,0,P|113:245|205:141,1,225,2|0,1:2|1:2,0:0:0:0:
387,5,63822,2,0,B|296:21|296:21|347:72|321:143,1,225,10|2,0:2|1:2,0:0:0:0:
334,148,64189,1,0,0:0:0:0:
346,152,64263,1,2,0:2:0:0:
358,156,64336,1,0,0:0:0:0:
370,160,64410,1,8,0:2:0:0:
470,205,64557,6,0,P|386:259|381:351,1,168.75,2|0,1:2|0:0,0:0:0:0:
438,376,64851,2,0,P|455:358|452:316,1,56.25,6|0,1:2|0:0,0:0:0:0:
293,260,64998,2,0,B|254:246|254:246|143:268|143:268|139:318|101:342,1,225,14|8,0:2|0:2,0:0:0:0:
57,272,65439,1,12,0:2:0:0:
45,269,65513,1,0,0:0:0:0:
33,266,65586,1,0,1:2:0:0:
31,107,65733,6,0,B|86:92|86:92|180:78|128:160|262:145,1,225,4|0,1:2|1:2,0:0:0:0:
414,14,66175,2,0,L|391:97,1,56.25,8|0,0:2|0:0,0:0:0:0:
354,216,66322,2,0,L|331:133,1,56.25,8|8,0:2|0:2,0:0:0:0:
312,61,66469,5,0,1:0:0:0:
455,138,66616,1,0,1:0:0:0:
304,287,66763,2,0,B|436:258,1,112.5,0|0,1:2|1:2,0:0:0:0:
469,381,67057,6,0,P|511:302|507:213,2,180,4|8|0,1:2|0:2|1:2,0:0:0:0:
313,371,67792,2,0,B|294:327|294:327|306:277,1,90,0|8,1:2|0:2,0:0:0:0:
249,133,68086,6,0,B|373:97|373:97|386:132|410:148,1,180,4|0,1:2|1:2,0:0:0:0:
297,274,68527,2,0,B|189:240|189:240|144:265|171:295,1,180,8|0,0:2|1:2,0:0:0:0:
388,227,68969,2,0,L|403:321,1,90,0|8,1:2|0:2,0:0:0:0:
384,216,69263,2,0,L|370:274,1,45
451,373,69410,6,0,B|502:403|519:350|519:350|495:244,1,180,4|8,1:2|0:2,0:0:0:0:
480,128,69851,1,0,0:0:0:0:
480,128,69925,1,0,0:0:0:0:
480,128,69998,1,0,1:2:0:0:
368,163,70145,2,0,B|351:122|351:122|374:74,1,90,0|8,1:2|0:2,0:0:0:0:
358,246,70439,6,0,B|318:240|300:212|300:212|243:200|196:239,1,180,4|0,1:2|1:2,0:0:0:0:
61,105,70880,2,0,B|133:158|133:158|149:66,1,180,8|0,0:2|1:2,0:0:0:0:
80,21,71322,2,0,L|21:12,1,45,0|0,1:2|0:0,0:0:0:0:
86,22,71469,2,0,L|-24:43,1,90,8|0,0:2|0:0,0:0:0:0:
148,68,71763,6,0,B|218:32|218:32|222:72|270:110,1,135,4|0,1:2|0:0,0:0:0:0:
296,27,72057,2,0,B|376:49|388:128|388:128|335:148,1,180,8|0,0:2|1:2,0:0:0:0:
386,214,72498,2,0,L|464:234,2,45,0|0|8,1:2|0:0|0:2,0:0:0:0:
165,181,72792,6,0,B|274:148|274:148|280:181|313:210,1,180,4|0,1:2|1:2,0:0:0:0:
249,373,73233,2,0,B|228:333|228:333|241:287,1,90,8|0,0:2|0:0,0:0:0:0:
240,289,73454,1,0,0:0:0:0:
240,289,73527,1,0,1:2:0:0:
320,332,73675,1,0,1:2:0:0:
441,341,73822,6,0,B|460:329|460:329|501:280|440:234,1,135,8|0,0:2|0:0,0:0:0:0:
498,148,74116,2,0,B|420:196|420:196|396:142|325:134,1,180,4|8,1:2|0:2,0:0:0:0:
376,36,74557,1,0,0:0:0:0:
376,36,74630,1,0,0:0:0:0:
376,36,74704,2,0,B|421:47|421:47|426:52|426:52|479:69,1,90,0|0,1:2|1:2,0:0:0:0:
291,12,74998,1,8,0:2:0:0:
224,128,75145,6,0,B|201:150|201:150|88:155|118:52,1,180,4|0,1:2|1:2,0:0:0:0:
193,32,75586,1,8,0:2:0:0:
302,57,75733,1,8,0:2:0:0:
302,57,75807,1,8,0:2:0:0:
302,57,75880,1,8,0:2:0:0:
438,138,76027,5,8,0:2:0:0:
512,122,76175,1,8,0:2:0:0:
434,130,76322,1,8,0:2:0:0:
508,114,76470,1,4,1:2:0:0:
365,316,84557,6,0,B|343:379|501:369|440:267|411:252|411:252|400:197,1,225,6|8,1:2|0:2,0:0:0:0:
407,132,84998,5,8,0:2:0:0:
330,109,85145,5,8,0:2:0:0:
211,164,85292,5,8,0:2:0:0:
123,188,85439,5,8,0:2:0:0:
123,188,85733,6,0,B|181:162|227:206|227:206|273:250|332:224,1,225,6|0,0:2|1:2,0:0:0:0:
399,178,86175,1,10,0:2:0:0:
345,22,86322,1,2,1:2:0:0:
501,121,86469,2,0,B|522:134|515:160|515:160|466:254,1,112.5,10|0,0:2|1:2,0:0:0:0:
406,361,86763,1,10,0:2:0:0:
294,289,86910,2,0,L|416:269,1,112.5,2|8,1:2|0:2,0:0:0:0:
221,190,87204,1,2,1:2:0:0:
397,191,87351,1,10,0:2:0:0:
181,298,87498,1,2,1:2:0:0:
305,252,87645,1,10,0:2:0:0:
145,152,87792,2,0,B|124:157|110:132|110:132|136:55,1,112.5,0|8,1:2|0:2,0:0:0:0:
296,17,88086,2,0,L|323:158,1,112.5,2|8,1:2|0:2,0:0:0:0:
358,292,88380,1,0,1:2:0:0:
221,142,88527,1,10,0:2:0:0:
389,209,88675,1,2,1:2:0:0:
240,352,88822,2,0,B|184:364|184:364|175:372|175:372|95:386,1,112.5,10|0,0:2|1:2,0:0:0:0:
272,230,89116,1,10,0:2:0:0:
384,375,89263,2,0,P|421:323|373:265,1,112.5,2|8,1:2|0:2,0:0:0:0:
201,153,89557,1,2,1:2:0:0:
184,148,89630,1,0,0:0:0:0:
167,145,89704,1,10,0:2:0:0:
208,237,89851,1,2,1:2:0:0:
313,202,89998,1,10,0:2:0:0:
246,65,90145,1,0,1:2:0:0:
246,65,90439,6,0,B|215:22|160:44|160:44|7:110,1,225,6|0,1:2|1:2,0:0:0:0:
193,196,90880,1,10,0:2:0:0:
81,175,91027,1,2,1:2:0:0:
173,376,91175,2,0,B|210:327|210:327|182:273,1,112.5,10|0,0:2|1:2,0:0:0:0:
51,189,91469,1,10,0:2:0:0:
10,335,91616,2,0,P|58:337|98:272,1,112.5,2|8,1:2|0:2,0:0:0:0:
171,112,91910,1,2,1:2:0:0:
11,248,92057,1,10,0:2:0:0:
249,191,92204,1,2,1:2:0:0:
107,44,92351,1,10,0:2:0:0:
179,275,92498,2,0,L|306:302,1,112.5,0|8,1:2|0:2,0:0:0:0:
217,119,92792,2,0,B|216:91|151:121|151:121,1,112.5,2|8,1:2|0:2,0:0:0:0:
203,356,93086,1,0,1:2:0:0:
280,192,93233,1,10,0:2:0:0:
139,254,93380,1,2,1:2:0:0:
333,371,93527,2,0,P|361:330|316:263,1,112.5,10|0,0:2|1:2,0:0:0:0:
190,181,93822,1,10,0:2:0:0:
114,208,93969,2,0,L|0:243,1,112.5,2|8,1:2|0:2,0:0:0:0:
30,95,94263,1,2,1:2:0:0:
30,95,94336,1,0,0:0:0:0:
30,95,94410,1,10,0:2:0:0:
106,62,94557,1,2,1:2:0:0:
190,93,94704,1,10,0:2:0:0:
286,141,94851,1,0,1:2:0:0:
276,138,95145,6,0,P|225:164|194:276,1,180,6|0,1:2|0:0,0:0:0:0:
281,290,95586,2,0,L|380:307,1,90,0|0,1:2|0:0,0:0:0:0:
369,305,95807,1,0,0:0:0:0:
369,305,95880,1,8,0:2:0:0:
455,298,96027,1,0,0:0:0:0:
381,328,96175,5,2,1:2:0:0:
265,300,96322,2,0,B|168:285|204:362|91:350,1,180,2|0,1:2|0:0,0:0:0:0:
27,232,96763,2,0,B|125:267|125:267|182:256|134:186,1,180,2|10,1:2|0:2,0:0:0:0:
64,128,97204,2,0,B|19:135|19:135|13:140|13:140|-28:149,1,90,0|2,0:0|1:2,0:0:0:0:
128,76,97498,6,0,B|225:38|225:38|218:77|251:123,1,180,2|0,1:2|0:0,0:0:0:0:
305,60,97939,2,0,L|396:78,1,90,0|0,1:2|0:0,0:0:0:0:
393,77,98160,1,0,0:0:0:0:
393,77,98233,1,8,0:2:0:0:
328,149,98380,1,0,0:0:0:0:
343,236,98527,5,2,1:2:0:0:
448,320,98675,2,0,B|476:331|507:313|507:313|457:365|378:324,1,180,2|2,1:2|0:2,0:0:0:0:
329,363,99116,1,0,1:2:0:0:
254,336,99262,1,8,0:2:0:0:
254,336,99336,1,8,0:2:0:0:
254,336,99409,1,10,0:2:0:0:
151,349,99557,5,8,0:2:0:0:
72,368,99704,1,10,0:2:0:0:
0,293,99851,6,0,B|-17:227|-17:227|-30:160|64:141,1,180,6|2,1:2|1:2,0:0:0:0:
192,128,100292,2,0,B|180:225|180:225|154:183|93:178,1,180,10|0,0:2|1:2,0:0:0:0:
128,32,100733,1,2,1:2:0:0:
142,28,100807,1,0,0:0:0:0:
156,24,100880,1,8,0:2:0:0:
258,63,101027,6,0,B|353:72|308:133|425:161,1,180,2|2,1:2|1:2,0:0:0:0:
512,0,101469,2,0,B|474:-32|457:15|457:15|479:140,1,180,10|0,0:2|1:2,0:0:0:0:
470,213,101910,2,0,L|524:230,2,45,2|0|10,1:2|0:0|0:2,0:0:0:0:
438,296,102204,6,0,B|336:319|336:319|326:353|282:376,1,180,6|0,1:2|1:2,0:0:0:0:
162,298,102645,2,0,B|142:256|142:256|160:207,1,90,10|2,0:2|1:2,0:0:0:0:
199,157,102866,1,0,1:2:0:0:
199,157,102939,1,14,0:2:0:0:
281,186,103086,1,0,1:2:0:0:
381,109,103233,5,2,0:2:0:0:
464,61,103380,2,0,P|378:87|289:78,1,180,6|0,1:2|1:2,0:0:0:0:
175,19,103822,6,0,L|86:35,1,90,10|8,0:2|0:2,0:0:0:0:
86,34,104042,1,8,0:2:0:0:
86,34,104116,1,10,0:2:0:0:
215,151,104263,2,0,L|170:137,1,45,10|8,0:2|0:2,0:0:0:0:
94,192,104410,2,0,L|49:206,1,45,8|8,0:2|0:2,0:0:0:0:
7,138,104557,6,0,B|50:267|50:267|28:320|-23:296,1,225,6|0,1:2|1:2,0:0:0:0:
133,326,104998,2,0,B|256:295|196:397|347:367,1,225,10|2,0:2|1:2,0:0:0:0:
428,316,105439,1,2,0:2:0:0:
441,319,105513,1,0,0:0:0:0:
454,322,105586,1,8,0:2:0:0:
342,367,105733,6,0,B|334:274|394:223|394:223|318:205,1,225,2|0,1:2|1:2,0:0:0:0:
418,62,106175,2,0,B|368:76|368:76|337:124|337:124|265:142,1,168.75,10|0,0:2|0:0,0:0:0:0:
281,131,106469,1,2,1:2:0:0:
282,123,106542,1,0,0:0:0:0:
283,115,106616,1,2,0:2:0:0:
284,107,106689,1,0,0:0:0:0:
285,99,106763,1,8,0:2:0:0:
160,0,106910,6,0,B|208:22|181:76|181:76|50:105,1,225,6|0,1:2|1:2,0:0:0:0:
10,193,107351,2,0,B|73:176|141:222|149:279|149:279|101:312,1,225,10|2,0:2|1:2,0:0:0:0:
222,378,107792,2,0,L|165:367,2,56.25,2|0|8,0:2|0:0|0:2,0:0:0:0:
333,253,108086,6,0,B|312:245|312:245|244:279|282:385|408:342,1,225,2|0,1:2|1:2,0:0:0:0:
461,274,108527,2,0,L|447:160,1,112.5,10|0,0:2|0:0,0:0:0:0:
447,162,108748,1,0,0:0:0:0:
447,162,108822,1,2,1:2:0:0:
509,341,108969,1,2,0:2:0:0:
324,305,109116,1,8,0:2:0:0:
426,269,109263,6,0,B|281:283|281:283|254:247|204:245,1,225,6|0,1:2|1:2,0:0:0:0:
110,144,109704,2,0,B|54:134|2:158|-12:216|-12:216|12:172|75:164,1,225,10|2,0:2|1:2,0:0:0:0:
158,255,110145,2,0,L|228:243,2,56.25,2|0|8,0:2|0:0|0:2,0:0:0:0:
0,287,110439,6,0,B|76:306|76:306|107:368|107:368|195:387,1,225,2|0,1:2|1:2,0:0:0:0:
431,348,110880,2,0,B|485:301|439:263|439:263|303:312,1,225,10|2,0:2|1:2,0:0:0:0:
261,356,111322,1,2,0:2:0:0:
216,200,111469,1,8,0:2:0:0:
158,255,111616,6,0,B|33:186|33:186|100:100,1,225,6|0,1:2|1:2,0:0:0:0:
161,83,112057,1,8,0:2:0:0:
289,123,112204,1,0,1:2:0:0:
289,123,112277,1,0,1:2:0:0:
289,123,112351,2,0,P|315:133|346:129,1,56.25,14|0,0:2|0:0,0:0:0:0:
416,32,112498,2,0,P|442:22|473:26,1,56.25,0|0,1:2|0:0,0:0:0:0:
326,50,112645,5,0,0:0:0:0:
493,117,112792,2,0,B|376:99|420:197|257:149,1,225,2|0,1:2|1:2,0:0:0:0:
146,122,113233,2,0,L|125:1,1,112.5,10|8,0:2|0:2,0:0:0:0:
120,7,113454,1,8,0:2:0:0:
113,2,113527,5,10,0:2:0:0:
75,4,113600,1,0,0:0:0:0:
42,20,113674,1,10,0:2:0:0:
18,49,113747,1,8,0:2:0:0:
7,84,113821,1,8,0:2:0:0:
12,121,113894,1,8,0:2:0:0:
31,153,113969,6,0,B|89:160|89:160|125:184|125:184|166:169|166:169|244:179,1,225,6|0,1:2|1:2,0:0:0:0:
368,64,114410,2,0,B|383:44|426:43|426:43|301:25|311:161,1,225,10|2,0:2|1:2,0:0:0:0:
372,245,114851,1,2,0:2:0:0:
381,248,114925,1,0,0:0:0:0:
390,251,114998,1,8,0:2:0:0:
471,206,115145,6,0,B|364:258|400:362|467:367|458:279,1,225,2|0,1:2|1:2,0:0:0:0:
338,351,115586,2,0,B|280:320|256:268|256:268|251:330|222:373,1,225,10|2,0:2|1:2,0:0:0:0:
205,363,115953,1,0,0:0:0:0:
187,359,116027,1,2,0:2:0:0:
169,355,116100,1,0,0:0:0:0:
150,351,116174,1,8,0:2:0:0:
24,281,116322,6,0,B|164:250|164:250|173:213|190:160,1,225,2|0,1:2|1:2,0:0:0:0:
336,70,116763,2,0,B|259:35|196:97|196:97|235:101|268:150,1,225,10|2,0:2|1:2,0:0:0:0:
126,50,117204,2,0,L|116:-7,2,56.25,2|0|8,0:2|0:0|0:2,0:0:0:0:
0,102,117498,6,0,B|79:113|79:113|114:164|114:164|207:180,1,225,2|0,1:2|1:2,0:0:0:0:
278,275,117939,2,0,B|313:327|355:275|355:275|323:131,1,225,10|2,0:2|1:2,0:0:0:0:
310,146,118307,1,0,0:0:0:0:
291,142,118380,1,2,0:2:0:0:
273,138,118454,1,0,0:0:0:0:
255,133,118527,1,8,0:2:0:0:
450,107,118675,6,0,B|414:98|393:63|393:63|439:222,1,225,6|0,1:2|1:2,0:0:0:0:
496,352,119116,2,0,B|548:339|534:275|481:278|481:278|371:326,1,225,10|2,0:2|1:2,0:0:0:0:
244,365,119557,2,0,L|191:385,2,56.25,2|0|8,0:2|0:0|0:2,0:0:0:0:
136,286,119851,6,0,B|304:323|304:323|312:361|336:378,1,225,2|0,1:2|1:2,0:0:0:0:
25,337,120292,2,0,B|56:391|25:337|93:276|93:276|70:182,1,225,10|2,0:2|1:2,0:0:0:0:
49,83,120733,1,2,0:2:0:0:
49,83,120807,1,0,0:0:0:0:
49,83,120880,1,8,0:2:0:0:
145,139,121027,6,0,B|193:106|253:123|253:123|235:67,1,168.75,2|0,1:2|0:0,0:0:0:0:
357,7,121322,2,0,P|322:21|304:48,1,56.25,6|0,1:2|0:0,0:0:0:0:
237,71,121469,2,0,P|346:82|445:182,1,225,14|12,0:2|0:2,0:0:0:0:
473,256,121910,1,12,0:2:0:0:
473,256,121983,1,0,0:0:0:0:
473,256,122057,1,0,1:2:0:0:
375,345,122204,6,0,B|296:358|240:310|226:273|226:273|241:306|238:336,1,225,0|0,1:2|1:2,0:0:0:0:
189,383,122645,1,8,0:2:0:0:
305,240,122792,1,8,0:2:0:0:
305,240,122866,1,8,0:2:0:0:
305,240,122939,1,0,1:2:0:0:
198,197,123086,5,0,1:2:0:0:
238,318,123233,1,0,1:2:0:0:
271,145,123380,6,0,P|182:155|104:200,1,180,4|0,1:2|0:0,0:0:0:0:
56,269,123822,1,0,1:2:0:0:
56,269,124116,2,0,P|90:186|91:97,1,180,8|0,0:2|1:2,0:0:0:0:
36,32,124557,6,0,L|217:62,1,180,0|0,1:2|0:0,0:0:0:0:
288,16,124998,1,0,1:2:0:0:
288,16,125292,2,0,L|469:46,1,180,8|0,0:2|1:2,0:0:0:0:
506,112,125733,6,0,B|454:185|454:185|476:272,1,180,0|0,1:2|0:0,0:0:0:0:
384,272,126175,6,0,L|405:359,1,90,0|0,1:2|0:0,0:0:0:0:
288,240,126469,2,0,L|352:177,1,90,8|0,0:2|0:0,0:0:0:0:
309,340,126763,1,0,1:2:0:0:
222,314,126910,2,0,B|145:322|80:358|80:358|36:322,1,180,0|0,1:2|0:0,0:0:0:0:
87,260,127351,1,0,1:2:0:0:
241,325,127498,2,0,L|311:349,1,45,8|8,0:2|0:2,0:0:0:0:
331,278,127645,5,8,0:2:0:0:
351,190,127792,1,8,0:2:0:0:
240,133,127939,1,8,0:2:0:0:
99,32,128086,2,0,B|216:9|172:98|302:72,1,198.000006042481,4|0,1:2|1:2,0:0:0:0:
392,4,128527,2,0,L|404:77,1,49.5000015106202,8|0,0:2|0:0,0:0:0:0:
479,113,128675,2,0,L|470:161,1,49.5000015106202
394,213,128822,5,0,1:2:0:0:
394,213,128895,1,0,0:0:0:0:
394,213,128969,1,0,1:2:0:0:
394,213,129042,1,0,0:0:0:0:
394,213,129116,2,0,L|384:286,1,66.0000020141602
268,262,129312,5,0,0:0:0:0:
288,336,129410,2,0,P|295:300|275:262,1,66.0000020141602
160,260,129606,5,0,0:0:0:0:
183,183,129704,2,0,B|192:217|192:217|173:247,1,66.0000020141602
104,116,129900,5,0,0:0:0:0:
47,154,129998,2,0,B|85:123|58:122|93:101,1,66.0000020141602
241,77,130194,5,0,0:0:0:0:
170,54,130292,2,0,L|259:65,1,49.5000015106202
492,82,130439,2,0,B|538:116|484:134|484:134|393:155,1,148.50000453186,4|0,1:2|0:0,0:0:0:0:
351,198,130733,5,0,1:2:0:0:
264,168,130880,1,8,0:2:0:0:
170,54,131027,5,0,1:2:0:0:
170,54,131101,1,0,1:2:0:0:
170,54,131175,1,8,0:2:0:0:
59,75,131322,1,0,1:2:0:0:
16,226,131469,1,0,0:0:0:0:
238,318,131616,6,0,B|275:380|355:342|355:342|332:282|237:264|177:325|177:325|236:265|240:177|153:139|153:139|82:205|124:268,1,720,12|2,0:2|0:2,0:0:0:0:
25,144,142204,6,0,L|158:219,1,135,2|2,1:2|1:2,0:0:0:0:
138,201,142939,2,0,L|90:220,2,45,10|2|0,0:2|0:2|0:0,0:0:0:0:
237,237,143380,6,0,P|293:226|296:151,1,135,2|2,0:2|1:2,0:0:0:0:
296,153,144116,2,0,P|287:132|289:109,1,45,10|2,0:2|0:2,0:0:0:0:
381,82,144557,6,0,B|366:66|366:66|236:46,1,135,2|2,1:2|1:2,0:0:0:0:
254,47,145292,2,0,B|246:21|246:21|254:-9,1,45,10|2,0:2|0:2,0:0:0:0:
195,96,145733,6,0,B|158:87|132:110|145:120|115:143|70:131,1,135,2|2,0:2|0:2,0:0:0:0:
8,94,146322,1,0,0:0:0:0:
74,181,146469,1,10,0:2:0:0:
10,230,146616,2,0,L|-5:325,1,90,2|2,0:2|1:2,0:0:0:0:
2,325,147351,6,0,P|28:325|63:273,1,90,2|10,1:2|0:2,0:0:0:0:
124,327,147792,2,0,B|156:338|156:338|162:347|162:347|209:364,1,90,2|2,0:2|1:2,0:0:0:0:
211,369,148527,6,0,B|223:322|223:322|204:282,1,90,2|2,0:2|0:2,0:0:0:0:
205,284,148969,2,0,L|143:300,1,45,2|2,0:2|0:2,0:0:0:0:
58,146,149263,6,0,B|62:137|62:137|156:117|247:188|247:188,1,202.500007724762,6|0,1:2|0:0,0:0:0:0:
291,248,149557,5,2,1:2:0:0:
362,209,149704,1,10,0:2:0:0:
456,244,149851,1,0,0:0:0:0:
456,244,149925,1,8,0:2:0:0:
456,244,149998,1,0,1:2:0:0:
225,190,150145,6,0,P|196:191|174:223,1,45,8|8,0:2|0:2,0:0:0:0:
109,199,150292,2,0,P|89:220|96:258,1,45,8|8,0:2|0:2,0:0:0:0:
162,305,150439,2,0,B|194:318|194:318|279:287|244:197,1,180,8|0,0:2|1:2,0:0:0:0:
189,105,150880,2,0,B|199:36|115:43|115:43|20:112,1,202.500007724762,10|8,0:2|0:2,0:0:0:0:
0,23,151175,6,0,P|23:75|47:235,1,180,10|0,0:2|0:0,0:0:0:0:
13,3,151395,2,0,P|36:55|60:215,1,180,10|0,1:2|0:0,0:0:0:0:
8,267,151616,6,0,L|103:280,1,90,10|0,1:2|0:0,0:0:0:0:
496,316,152057,6,0,B|403:306|403:306|384:361|326:366,1,180,6|2,1:2|1:2,0:0:0:0:
321,282,152425,1,0,0:0:0:0:
321,282,152498,2,0,P|302:258|271:255,1,56.25,10|8,0:2|0:2,0:0:0:0:
213,289,152645,2,0,P|182:285|158:305,1,56.25,8|8,0:2|0:2,0:0:0:0:
125,358,152792,6,0,B|2:388|2:388|-57:346|14:297,1,225,6|0,1:2|1:2,0:0:0:0:
140,158,153233,2,0,B|204:156|231:219|231:219|194:168|124:167,1,225,10|2,0:2|1:2,0:0:0:0:
32,50,153675,2,0,L|14:-12,2,56.25,2|0|8,0:2|0:0|0:2,0:0:0:0:
4,137,153969,6,0,B|104:125|171:76|171:76|232:111,1,225,2|0,1:2|1:2,0:0:0:0:
420,79,154410,2,0,B|437:67|437:67|466:2|391:-43|312:20,1,168.75,10|0,0:2|0:0,0:0:0:0:
300,53,154704,1,2,1:2:0:0:
298,59,154777,1,0,0:0:0:0:
297,66,154851,1,2,0:2:0:0:
296,73,154924,1,0,0:0:0:0:
295,80,154998,1,8,0:2:0:0:
512,161,155145,6,0,B|477:162|477:162|394:169|445:242|301:250,1,225,2|0,1:2|1:2,0:0:0:0:
210,98,155586,2,0,B|183:150|183:150|208:216,1,112.5,10|0,0:2|0:0,0:0:0:0:
253,262,155807,1,0,0:0:0:0:
261,260,155880,2,0,L|325:247,1,56.25,2|0,1:2|0:0,0:0:0:0:
387,303,156027,1,2,0:2:0:0:
468,327,156175,1,8,0:2:0:0:
278,352,156322,6,0,B|213:373|213:373|104:341|156:258,1,225,6|0,1:2|1:2,0:0:0:0:
24,128,156763,2,0,B|78:148|78:148|81:144|81:144|79:149|79:149|133:168|133:168|72:198|56:263,1,225,10|2,0:2|1:2,0:0:0:0:
16,42,157204,1,2,0:2:0:0:
14,32,157277,1,0,0:0:0:0:
12,22,157351,1,8,0:2:0:0:
289,133,157498,6,0,B|266:195|214:160|214:160|189:28,1,225,2|0,1:2|1:2,0:0:0:0:
406,41,157939,2,0,B|446:64|446:64|424:87|413:139,1,112.5,10|0,0:2|0:0,0:0:0:0:
424,130,158160,1,0,0:0:0:0:
430,138,158233,1,2,1:2:0:0:
431,282,158380,1,2,0:2:0:0:
428,299,158454,1,0,0:0:0:0:
425,316,158527,1,8,0:2:0:0:
325,363,158675,6,0,B|287:304|314:235|314:235|214:273,1,225,2|0,1:2|1:2,0:0:0:0:
156,310,159116,1,8,0:2:0:0:
64,230,159263,5,0,1:2:0:0:
64,230,159336,1,0,1:2:0:0:
64,230,159410,2,0,P|51:198|65:148,1,56.25,14|0,0:2|0:0,0:0:0:0:
133,70,159557,2,0,P|114:90|105:117,1,56.25,0|0,1:2|0:0,0:0:0:0:
213,66,159704,2,0,P|245:53|295:67,1,56.25,0|0,1:2|0:0,0:0:0:0:
404,61,159851,6,0,B|459:100|535:88|536:88|536:88|460:100|441:153,1,225,6|0,1:2|1:2,0:0:0:0:
405,188,160292,1,10,0:2:0:0:
325,163,160439,1,8,0:2:0:0:
325,163,160513,1,8,0:2:0:0:
325,163,160586,1,10,0:2:0:0:
224,211,160733,6,0,L|165:228,1,56.25,10|8,0:2|0:2,0:0:0:0:
107,281,160880,2,0,L|48:264,1,56.25,8|8,0:2|0:2,0:0:0:0:
75,159,161027,6,0,B|13:186|-38:84|89:27|198:83|198:83,1,270.000010299683,6|0,1:2|1:2,0:0:0:0:
361,191,161469,1,10,0:2:0:0:
307,8,161616,1,0,0:0:0:0:
282,235,161763,1,10,0:2:0:0:
366,75,161910,1,2,1:2:0:0:
186,212,162057,1,8,0:2:0:0:
371,358,162204,2,0,B|476:341|476:341|508:279,1,135.000005149842,2|8,1:2|0:2,0:0:0:0:
227,147,162498,1,0,1:2:0:0:
442,247,162645,1,10,0:2:0:0:
206,347,162792,1,0,1:2:0:0:
356,275,162939,1,10,0:2:0:0:
121,207,163086,1,2,1:2:0:0:
352,166,163233,1,8,0:2:0:0:
193,13,163380,2,0,B|166:5|154:24|154:24|185:126,1,135.000005149842,2|8,1:2|0:2,0:0:0:0:
197,351,163675,1,0,1:2:0:0:
256,109,163822,1,10,0:2:0:0:
114,363,163969,1,0,0:0:0:0:
77,101,164116,1,10,0:2:0:0:
26,272,164263,1,0,1:2:0:0:
26,272,164336,1,0,0:0:0:0:
26,272,164410,2,0,L|107:284,1,67.5000025749208,10|0,0:2|0:0,0:0:0:0:
294,334,164557,6,0,B|368:314|431:350|431:350|380:298|287:318,1,270.000010299683,6|0,1:2|1:2,0:0:0:0:
181,199,164998,2,0,B|96:231|96:231|48:181,1,135.000005149842,10|8,0:2|0:2,0:0:0:0:
20,133,165219,1,8,0:2:0:0:
20,133,165293,1,2,1:2:0:0:
116,31,165439,6,0,P|151:29|177:66,1,67.5000025749208,2|0,1:2|0:0,0:0:0:0:
228,99,165586,2,0,P|261:112|298:86,1,67.5000025749208,0|0,1:2|0:0,0:0:0:0:
430,32,165733,6,0,B|311:109|383:211|463:162|407:94,1,225,6|0,1:2|1:2,0:0:0:0:
500,274,166175,2,0,B|369:331|407:189|268:224,1,225,10|2,0:2|1:2,0:0:0:0:
173,266,166616,1,2,0:2:0:0:
168,279,166689,1,0,0:0:0:0:
163,292,166763,1,8,0:2:0:0:
257,332,166910,6,0,B|278:164|278:164|251:178|225:146,1,225,2|0,1:2|1:2,0:0:0:0:
145,73,167351,2,0,B|196:-4|286:28|286:28|257:111,1,225,10|2,0:2|1:2,0:0:0:0:
344,99,167719,1,0,0:0:0:0:
347,90,167792,1,2,0:2:0:0:
350,81,167866,1,0,0:0:0:0:
353,72,167939,1,10,0:2:0:0:
183,163,168086,6,0,B|125:176|72:136|72:136|79:193,1,168.75,2|0,1:2|0:0,0:0:0:0:
133,250,168380,2,0,P|171:257|195:283,1,56.25,6|0,1:2|0:0,0:0:0:0:
43,341,168527,2,0,B|135:329|192:376|192:376|134:329,1,225,14|8,0:2|0:2,0:0:0:0:
258,313,168969,1,12,0:2:0:0:
271,310,169042,1,0,0:0:0:0:
285,308,169116,1,0,1:2:0:0:
480,324,169263,6,0,B|459:393|396:351|396:351|431:230,1,225,4|0,1:2|1:2,0:0:0:0:
501,57,169704,6,0,P|465:74|435:73,1,56.25,8|0,0:2|0:0,0:0:0:0:
310,133,169851,2,0,P|337:137|361:150,1,56.25,8|8,0:2|0:2,0:0:0:0:
511,165,169998,5,0,1:2:0:0:
358,44,170145,1,0,1:2:0:0:
339,261,170292,2,0,L|363:143,1,112.5,0|0,1:2|1:2,0:0:0:0:
405,359,170586,6,0,P|330:304|223:300,2,180,4|8|0,1:2|0:2|1:2,0:0:0:0:
441,267,171322,2,0,B|488:270|488:270|525:237,1,90,0|8,1:2|0:2,0:0:0:0:
504,82,171616,6,0,B|470:46|433:85|433:85|460:189,1,180,4|0,1:2|1:2,0:0:0:0:
278,226,172057,2,0,B|333:244|333:244|360:88,1,180,8|0,0:2|1:2,0:0:0:0:
315,31,172498,2,0,L|266:17,1,45,0|0,1:2|0:0,0:0:0:0:
327,35,172645,2,0,L|204:56,1,90,8|8,0:2|0:0,0:0:0:0:
60,38,172939,6,0,B|92:26|92:26|153:42|153:42|153:90|205:123,1,180,4|8,1:2|0:2,0:0:0:0:
300,160,173380,1,0,0:0:0:0:
311,156,173454,1,0,0:0:0:0:
322,152,173527,1,0,1:2:0:0:
265,90,173675,1,0,1:2:0:0:
216,195,173822,1,8,0:2:0:0:
257,361,173969,6,0,B|307:385|326:325|326:325|292:229,1,180,4|0,1:2|1:2,0:0:0:0:
46,171,174410,2,0,B|12:208|12:208|153:237,1,180,8|0,0:2|1:2,0:0:0:0:
322,152,174851,2,0,L|262:135,1,45,0|0,1:2|0:0,0:0:0:0:
311,155,174998,2,0,L|211:175,1,90,8|0,0:2|0:0,0:0:0:0:
75,97,175292,6,0,P|51:57|151:52,1,180,4|8,1:2|0:2,0:0:0:0:
184,103,175733,1,0,0:0:0:0:
181,111,175807,1,0,0:0:0:0:
178,119,175880,1,0,1:2:0:0:
97,183,176027,2,0,B|54:190|54:190|46:196|46:196|-8:208,1,90,0|8,1:2|0:2,0:0:0:0:
127,349,176322,6,0,B|145:361|145:361|173:371|247:355|218:260,1,180,4|0,1:2|1:2,0:0:0:0:
333,118,176763,2,0,B|285:110|285:110|319:213,1,135,8|0,0:2|0:0,0:0:0:0:
338,265,177057,1,0,1:2:0:0:
411,299,177204,2,0,L|477:322,1,45,0|0,1:2|0:0,0:0:0:0:
483,303,177351,2,0,B|396:321|449:351|334:358,1,135,8|0,0:2|0:0,0:0:0:0:
276,348,177645,6,0,P|382:368|487:382,1,180,4|8,1:2|0:2,0:0:0:0:
424,225,178086,1,0,0:0:0:0:
424,225,178160,1,0,0:0:0:0:
424,225,178233,1,0,1:2:0:0:
335,204,178380,1,0,1:2:0:0:
228,266,178527,1,8,0:2:0:0:
162,326,178675,6,0,B|127:312|87:304|87:304|101:256|107:195,1,180,4|0,1:2|1:2,0:0:0:0:
172,148,179116,5,8,0:2:0:0:
136,13,179263,1,8,0:2:0:0:
136,13,179336,1,8,0:2:0:0:
136,13,179410,1,8,0:2:0:0:
264,163,179557,5,8,0:2:0:0:
297,27,179704,1,8,0:2:0:0:
279,173,179851,1,8,0:2:0:0:
359,102,179998,6,0,B|461:88|416:165|530:186,1,180,4|10,1:2|0:2,0:0:0:0:
399,17,180439,1,2,0:2:0:0:
501,7,180586,2,0,P|464:23|400:29,1,90,2|0,1:2|1:2,0:0:0:0:
211,141,180880,5,10,0:2:0:0:
266,211,181027,2,0,B|367:244|367:244|394:185|368:142,1,180,6|2,1:2|1:2,0:0:0:0:
290,16,181469,2,0,P|236:17|168:78,1,135,10|0,0:2|0:0,0:0:0:0:
159,142,181763,5,0,1:2:0:0:
197,211,181910,2,0,L|190:269,1,45,0|0,1:2|0:0,0:0:0:0:
129,357,182057,2,0,B|181:373|211:340|189:333|236:303|280:313,1,135,10|0,0:2|0:0,0:0:0:0:
273,313,182351,6,0,B|320:325|344:361|326:371|390:392|439:373,1,180,6|10,1:2|0:2,0:0:0:0:
506,200,182792,2,0,B|531:161|446:155|446:155|396:207,1,135,2|0,0:2|0:0,0:0:0:0:
365,128,183086,1,2,1:2:0:0:
392,304,183233,1,10,0:2:0:0:
277,296,183380,6,0,B|265:262|239:240|239:240|291:118,1,180,6|0,1:2|1:2,0:0:0:0:
473,4,183822,2,0,P|457:62|328:70,1,180,8|0,0:2|1:2,0:0:0:0:
207,16,184263,2,0,L|236:64,1,45,0|0,1:2|0:0,0:0:0:0:
215,11,184410,2,0,L|195:119,1,90,8|0,0:2|0:0,0:0:0:0:
41,171,184704,6,0,B|77:165|77:165|147:158|116:215|233:212,1,180,4|10,1:2|0:2,0:0:0:0:
324,168,185145,1,2,0:2:0:0:
398,233,185292,2,0,B|457:252|457:252|517:208|481:141,1,180,2|10,1:2|0:2,0:0:0:0:
328,19,185733,6,0,B|281:-16|246:25|246:25|276:118,1,180,6|2,1:2|1:2,0:0:0:0:
353,301,186175,2,0,B|367:225|367:225|369:156,1,135,10|0,0:2|0:0,0:0:0:0:
365,93,186469,1,0,1:2:0:0:
275,344,186616,2,0,L|258:279,1,45,0|0,1:2|0:0,0:0:0:0:
273,208,186763,6,0,P|203:198|167:267,1,135,10|0,0:2|0:0,0:0:0:0:
98,268,187057,6,0,B|206:290|206:290|290:261|260:206,1,225,6|10,1:2|0:2,0:0:0:0:
169,62,187498,2,0,B|117:32|91:92|91:92|126:188,1,168.75,6|0,0:2|0:0,0:0:0:0:
121,172,187792,1,2,1:2:0:0:
247,122,187939,1,10,0:2:0:0:
374,207,188086,6,0,B|436:200|481:231|481:231|437:183|350:175,1,225,6|0,1:2|1:2,0:0:0:0:
279,202,188527,1,8,0:2:0:0:
146,384,188675,5,8,0:2:0:0:
102,349,188748,1,8,0:2:0:0:
46,338,188822,2,0,B|96:279|96:279|181:318,1,157.500001502037,8|0,0:2|1:2,0:0:0:0:
