osu file format v14

[General]
AudioFilename: audio.mp3
AudioLeadIn: 0
PreviewTime: 47292
Countdown: 0
SampleSet: Soft
StackLeniency: 0.3
Mode: 0
LetterboxInBreaks: 0
WidescreenStoryboard: 1

[Editor]
Bookmarks: 29410,48086,67057,90439,104557,123380,149263,161027,170586,188969
DistanceSpacing: 1
BeatDivisor: 4
GridSize: 32
TimelineZoom: 1.6

[Metadata]
Title:Tokyo Teddy Bear
TitleUnicode:東京テディベア
Artist:Neru feat. Kagamine Rin
ArtistUnicode:Neru feat. 鏡音リン
Creator:Nevo
Version:AddyAdventure's Normal
Source:
Tags:vocaloid addy2607 Sajinn shiratoi shira frontier -_frontier_- KittyAdventure gokugohan12468 Yumerios japanese rock
BeatmapID:2510687
BeatmapSetID:1165741

[Difficulty]
HPDrainRate:3
CircleSize:3
OverallDifficulty:4
ApproachRate:5.5
SliderMultiplier:0.9
SliderTickRate:1

[Events]
//Background and Video events
0,0,"21056462_p0.png",0,0
Video,0,"vid.mp4"
//Break Periods
2,20198,28285
2,67257,75145
2,132792,140344
2,170786,178873
//Storyboard Layer 0 (Background)
//Storyboard Layer 1 (Fail)
//Storyboard Layer 2 (Pass)
//Storyboard Layer 3 (Foreground)
//Storyboard Layer 4 (Overlay)
//Storyboard Sound Samples

[TimingPoints]
1175,294.117647058824,4,2,2,40,1,0
1175,-100,4,2,2,40,0,0
17645,-100,4,2,2,60,0,0
29410,-100,4,2,2,50,0,0
36469,-100,4,2,2,60,0,0
38675,-100,4,2,2,50,0,0
43380,-100,4,2,2,50,0,0
45733,-100,4,2,2,50,0,0
48086,-100,4,2,2,70,0,1
67057,-100,4,2,2,60,0,0
76763,-100,4,2,2,40,0,0
84557,-100,4,2,2,60,0,0
85733,-100,4,2,2,70,0,1
89998,-100,4,2,2,70,0,0
90439,-100,4,2,2,70,0,1
94704,-100,4,2,2,70,0,0
94851,-100,4,2,2,50,0,0
99851,-100,4,2,2,50,0,0
102204,-100,4,2,2,50,0,0
104557,-100,4,2,2,70,0,1
123380,-100,4,2,2,60,0,0
128086,-100,4,2,2,60,0,0
131616,-100,4,2,2,40,0,0
141027,-100,4,2,1,40,0,0
149263,-100,4,2,2,70,0,1
150439,-100,4,2,2,70,0,0
152057,-100,4,2,2,70,0,1
152204,-100,4,2,2,70,0,0
152792,-100,4,2,2,70,0,1
161027,-100,4,2,2,70,0,1
170586,-100,4,2,2,60,0,0

[Colours]
Combo1 : 255,128,128
Combo2 : 137,3,104
Combo3 : 192,192,192

[HitObjects]
376,274,1175,5,0,0:2:0:0:
376,274,1469,2,0,P|392:224|377:182,1,90,2|2,0:2|0:2,0:0:0:0:
338,110,2057,2,0,L|288:110,1,45,2|2,0:2|0:2,0:0:0:0:
216,156,2498,2,0,L|166:156,1,45,2|2,0:2|0:2,0:0:0:0:
34,38,3233,1,2,0:2:0:0:
1,121,3527,6,0,L|1:221,1,90,2|2,0:2|0:2,0:0:0:0:
37,238,3969,2,0,L|37:338,1,90,2|2,0:2|0:2,0:0:0:0:
70,358,4410,2,0,L|131:357,1,45,2|2,0:2|0:2,0:0:0:0:
187,304,4851,2,0,L|187:249,2,45
263,351,5439,2,0,L|314:351,1,45
389,312,5880,5,0,0:0:0:0:
350,230,6175,2,0,L|350:183,1,45,2|2,0:2|0:2,0:0:0:0:
313,158,6469,2,0,P|295:108|308:65,1,90,2|2,0:2|0:2,0:0:0:0:
323,33,6910,2,0,L|217:35,1,90,2|2,0:2|0:2,0:0:0:0:
188,35,7351,1,2,0:2:0:0:
33,127,7939,1,2,0:2:0:0:
75,206,8233,6,0,P|123:219|171:202,1,90,2|2,0:2|0:2,0:0:0:0:
201,188,8675,2,0,P|249:175|297:192,1,90,2|2,0:2|0:2,0:0:0:0:
326,205,9116,2,0,L|326:260,1,45,2|2,0:2|0:2,0:0:0:0:
372,326,9557,2,0,L|430:326,2,45
289,362,10145,2,0,L|231:362,1,45
164,320,10586,5,0,0:0:0:0:
164,320,10880,2,0,B|188:289|188:289|188:235,1,90,2|2,0:2|0:2,0:0:0:0:
142,160,11469,2,0,L|91:160,1,45,2|2,0:2|0:2,0:0:0:0:
131,76,11910,2,0,L|182:76,1,45,2|2,0:2|0:2,0:0:0:0:
345,15,12645,1,2,0:2:0:0:
426,52,12939,6,0,P|434:105|421:153,1,90,2|2,0:2|0:2,0:0:0:0:
399,176,13380,2,0,P|391:229|404:277,1,90,2|2,0:2|0:2,0:0:0:0:
411,307,13822,2,0,L|365:307,1,45,2|2,0:2|0:2,0:0:0:0:
289,259,14263,2,0,L|294:204,2,45
233,329,14851,2,0,L|187:329,1,45
98,326,15292,5,0,0:0:0:0:
43,254,15586,2,0,L|43:157,1,90,2|2,0:2|0:2,0:0:0:0:
103,97,16175,2,0,L|165:97,1,45,2|2,0:2|0:2,0:0:0:0:
224,143,16616,2,0,L|286:143,1,45,2|2,0:2|0:2,0:0:0:0:
358,145,17057,1,4,0:1:0:0:
358,145,17351,1,2,0:2:0:0:
447,146,17645,6,0,L|448:251,1,90,6|10,1:2|0:2,0:0:0:0:
447,281,18086,2,0,P|399:269|347:287,1,90,6|2,1:2|1:2,0:0:0:0:
331,312,18527,1,10,0:2:0:0:
331,312,18675,2,0,B|249:331|271:284|186:306,1,135,6|8,1:2|0:2,0:0:0:0:
114,330,19410,2,0,L|109:285,1,45,8|0,0:2|1:2,0:0:0:0:
124,243,19704,1,2,0:2:0:0:
80,164,19998,5,4,1:2:0:0:
476,162,29410,5,4,1:2:0:0:
410,223,29704,2,0,L|316:214,1,90,10|2,0:2|1:2,0:0:0:0:
248,268,30292,1,10,0:2:0:0:
248,268,30439,2,0,P|205:277|163:262,1,90,2|2,0:2|0:2,0:0:0:0:
120,278,30880,2,0,L|129:184,1,90,10|0,0:2|1:2,0:0:0:0:
52,140,31469,1,10,0:2:0:0:
124,86,31763,6,0,B|168:72|168:72|209:88,1,90,2|10,1:2|0:2,0:0:0:0:
230,127,32204,2,0,B|274:141|274:141|315:125,1,90,2|2,0:2|0:2,0:0:0:0:
337,86,32645,1,10,0:2:0:0:
337,86,32792,2,0,L|354:219,1,135,2|8,0:2|0:2,0:0:0:0:
443,227,33527,2,0,L|436:271,1,45,0|0,1:2|0:0,0:0:0:0:
432,316,33822,1,8,0:2:0:0:
353,360,34116,5,0,1:2:0:0:
270,315,34410,2,0,P|227:307|186:324,1,90,10|2,0:2|1:2,0:0:0:0:
102,291,34998,1,10,0:2:0:0:
102,291,35145,2,0,P|78:253|78:209,1,90,2|2,0:2|0:2,0:0:0:0:
111,178,35586,1,10,0:2:0:0:
192,140,35880,1,0,1:2:0:0:
192,140,36027,2,0,L|236:142,1,45,8|8,0:2|0:2,0:0:0:0:
312,93,36469,6,0,P|354:81|396:98,1,90,6|10,1:2|0:2,0:0:0:0:
440,94,36910,2,0,L|431:183,1,90,6|2,1:2|1:2,0:0:0:0:
397,213,37351,1,10,0:2:0:0:
397,213,37498,2,0,P|333:228|303:287,1,135,6|8,1:2|0:2,0:0:0:0:
224,331,38233,1,8,0:2:0:0:
224,331,38380,1,2,1:2:0:0:
148,280,38675,6,0,P|83:268|53:210,1,135,6|0,1:2|1:2,0:0:0:0:
116,146,39410,2,0,L|109:56,1,90,8|2,0:2|1:2,0:0:0:0:
145,29,39851,2,0,B|226:61|203:7|276:32,1,135,2|2,1:2|1:2,0:0:0:0:
340,93,40586,2,0,P|381:109|425:100,1,90,10|2,0:2|1:2,0:0:0:0:
466,82,41027,6,0,B|436:115|436:115|454:203,1,135,2|0,1:2|1:2,0:0:0:0:
384,260,41763,2,0,L|294:248,1,90,8|2,0:2|1:2,0:0:0:0:
265,213,42204,2,0,P|203:235|144:205,1,135,2|0,1:2|1:2,0:0:0:0:
104,185,42792,1,8,0:2:0:0:
104,185,42939,2,0,L|96:274,1,90,10|10,0:2|0:2,0:0:0:0:
67,304,43380,6,0,P|114:351|179:350,1,135,6|10,1:2|0:2,0:0:0:0:
247,290,44116,2,0,L|250:245,2,45,0|2|8,1:2|1:2|0:2,0:0:0:0:
273,326,44557,2,0,B|331:321|331:321|351:309|351:309|404:304,1,135,2|10,1:2|0:2,0:0:0:0:
494,299,45292,2,0,L|497:343,2,45,0|2|10,1:2|1:2|0:2,0:0:0:0:
488,254,45733,6,0,B|483:196|483:196|471:176|471:176|466:123,1,135,6|10,1:2|0:2,0:0:0:0:
391,71,46469,2,0,P|350:90|325:126,1,90,14|2,0:2|0:2,0:0:0:0:
339,169,46910,2,0,L|204:154,1,135,6|10,1:2|0:2,0:0:0:0:
114,153,47645,2,0,L|120:197,1,45,10|10,0:2|0:2,0:0:0:0:
67,270,48086,6,0,P|113:293|187:260,1,135,6|10,1:2|0:2,0:0:0:0:
238,189,48822,1,2,1:2:0:0:
301,252,49116,1,8,0:2:0:0:
301,252,49263,2,0,L|444:252,1,135,2|10,1:2|0:2,0:0:0:0:
492,182,49998,1,2,1:2:0:0:
445,104,50292,1,8,0:2:0:0:
445,104,50439,6,0,B|411:132|411:132|318:132,1,135,6|10,1:2|0:2,0:0:0:0:
247,78,51175,1,2,1:2:0:0:
168,34,51469,1,8,0:2:0:0:
168,34,51616,2,0,P|194:90|148:148,1,135,2|10,1:2|0:2,0:0:0:0:
66,157,52351,2,0,L|66:209,1,45,2|2,1:2|0:2,0:0:0:0:
50,290,52792,6,0,B|128:304|96:252|177:267,1,135,6|10,1:2|0:2,0:0:0:0:
248,321,53527,1,2,1:2:0:0:
319,264,53822,1,8,0:2:0:0:
319,264,53969,2,0,P|370:295|437:264,1,135,2|10,1:2|0:2,0:0:0:0:
476,187,54704,1,2,1:2:0:0:
403,133,54998,1,8,0:2:0:0:
403,133,55145,6,0,L|263:133,1,135,6|8,1:2|0:2,0:0:0:0:
185,169,55880,2,0,P|198:218|182:269,1,90,14|0,0:2|0:0,0:0:0:0:
171,296,56322,2,0,P|104:331|44:306,1,135,2|10,1:2|0:2,0:0:0:0:
26,226,57057,2,0,L|27:176,1,45,10|10,0:2|0:2,0:0:0:0:
19,91,57498,6,0,B|66:107|66:107|103:88,1,90,6|0,1:2|1:2,0:0:0:0:
139,64,57939,2,0,L|199:64,1,45,10|0,0:2|0:0,0:0:0:0:
228,64,58233,1,2,1:2:0:0:
228,64,58380,1,2,0:2:0:0:
285,133,58675,2,0,L|377:133,1,90,2|0,1:2|1:2,0:0:0:0:
406,164,59116,2,0,L|466:164,1,45,10|0,0:2|0:0,0:0:0:0:
488,188,59410,1,2,1:2:0:0:
488,188,59557,1,2,0:2:0:0:
465,275,59851,6,0,P|419:255|372:276,1,90,2|0,1:2|1:2,0:0:0:0:
347,294,60292,2,0,L|286:294,1,45,10|0,0:2|0:0,0:0:0:0:
263,270,60586,1,2,1:2:0:0:
263,270,60733,1,2,0:2:0:0:
188,320,61027,2,0,L|89:316,1,90,2|0,1:2|1:2,0:0:0:0:
64,285,61469,2,0,L|60:225,1,45,10|0,0:2|0:0,0:0:0:0:
56,195,61763,1,2,1:2:0:0:
56,195,61910,1,2,0:2:0:0:
104,119,62204,6,0,P|163:146|223:106,1,135,6|10,1:2|0:2,0:0:0:0:
272,40,62939,2,0,P|296:34|330:40,1,45,2|2,1:2|0:2,0:0:0:0:
388,88,63380,2,0,B|373:139|373:139|396:226,1,135,2|10,1:2|0:2,0:0:0:0:
425,302,64116,2,0,L|371:303,1,45,2|2,1:2|0:2,0:0:0:0:
304,253,64557,5,2,1:2:0:0:
229,303,64851,1,6,1:2:0:0:
229,303,64998,1,14,0:2:0:0:
161,243,65292,2,0,L|104:241,1,45,8|12,0:2|0:2,0:0:0:0:
52,178,65733,2,0,P|40:118|52:84,1,90,4|0,1:2|1:2,0:0:0:0:
69,51,66175,1,8,0:2:0:0:
151,15,66469,2,0,L|209:20,1,45,0|0,1:0|1:0,0:0:0:0:
229,49,66763,2,0,L|287:44,1,45,0|0,1:2|1:2,0:0:0:0:
318,37,67057,5,4,1:2:0:0:
63,97,76469,5,4,1:2:0:0:
114,170,76763,2,0,L|108:214,2,45,2|2|2,0:2|0:2|0:2,0:0:0:0:
198,138,77351,2,0,L|192:93,1,45,2|2,0:2|0:2,0:0:0:0:
257,30,77792,1,2,0:2:0:0:
257,30,77939,2,0,L|346:35,1,90,2|0,0:2|0:0,0:0:0:0:
433,58,78527,1,2,0:2:0:0:
493,124,78822,6,0,P|505:166|493:209,1,90,2|2,0:2|0:2,0:0:0:0:
465,245,79263,2,0,P|422:257|379:244,1,90,2|2,0:2|0:2,0:0:0:0:
342,219,79704,1,2,0:2:0:0:
342,219,79851,2,0,L|354:353,1,135,2|0,0:2|0:0,0:0:0:0:
264,353,80586,2,0,L|255:263,1,90
185,206,81175,5,0,0:0:0:0:
115,262,81469,2,0,L|70:268,2,45,2|2|2,0:2|0:2|0:2,0:0:0:0:
100,173,82057,2,0,L|55:179,1,45,2|2,0:2|0:2,0:0:0:0:
18,96,82498,1,2,0:2:0:0:
18,96,82645,2,0,P|51:66|94:57,1,90,2|0,0:2|0:0,0:0:0:0:
175,16,83233,1,2,0:2:0:0:
251,63,83527,6,0,L|241:152,1,90,2|2,0:2|0:2,0:0:0:0:
281,172,83969,2,0,L|290:261,1,90,2|2,0:2|0:2,0:0:0:0:
277,304,84410,1,2,0:2:0:0:
277,304,84557,2,0,P|340:282|397:315,1,135,6|8,1:2|0:2,0:0:0:0:
485,310,85292,1,8,0:2:0:0:
485,310,85439,1,8,0:2:0:0:
453,225,85733,6,0,B|472:179|454:141|454:141|469:95,1,135,6|10,0:2|0:2,0:0:0:0:
393,45,86469,1,10,0:2:0:0:
312,85,86763,1,10,0:2:0:0:
312,85,86910,2,0,L|222:77,1,90,2|2,1:2|1:2,0:0:0:0:
190,109,87351,2,0,L|186:153,2,45,10|2|10,0:2|1:2|0:2,0:0:0:0:
111,63,87939,1,8,0:2:0:0:
111,63,88086,6,0,B|64:80|64:80|41:161,1,135,2|10,1:2|0:2,0:0:0:0:
83,241,88822,1,10,0:2:0:0:
113,326,89116,1,10,0:2:0:0:
113,326,89263,2,0,B|136:344|166:344|199:327,1,90,2|2,1:2|1:2,0:0:0:0:
229,295,89704,2,0,L|282:295,1,45,10|2,0:2|1:2,0:0:0:0:
314,315,89998,1,10,0:2:0:0:
444,348,90439,6,0,L|443:198,1,135,6|10,1:2|0:2,0:0:0:0:
460,124,91175,1,10,0:2:0:0:
431,37,91469,1,10,0:2:0:0:
431,37,91616,2,0,P|369:15|337:29,1,90,2|2,1:2|1:2,0:0:0:0:
309,43,92057,2,0,L|306:101,2,45,10|2|10,0:2|1:2|0:2,0:0:0:0:
222,69,92645,1,8,0:2:0:0:
222,69,92792,6,0,B|157:93|157:93|79:70,1,135,2|10,1:2|0:2,0:0:0:0:
13,34,93527,1,10,0:2:0:0:
6,124,93822,1,10,0:2:0:0:
6,124,93969,2,0,L|6:232,1,90,2|2,1:2|1:2,0:0:0:0:
34,248,94410,2,0,L|34:312,1,45,10|2,0:2|1:2,0:0:0:0:
63,326,94704,1,10,0:2:0:0:
171,245,95145,6,0,B|257:228|219:287|307:264,1,135,6|0,1:2|1:2,0:0:0:0:
340,186,95880,2,0,B|324:139|324:139|336:93,1,90,8|2,0:2|1:2,0:0:0:0:
348,56,96322,2,0,P|277:29|218:48,1,135,2|2,1:2|1:2,0:0:0:0:
167,115,97057,2,0,P|118:132|76:120,1,90,10|2,0:2|1:2,0:0:0:0:
40,106,97498,6,0,B|57:137|57:137|46:245,1,135,2|0,1:2|1:2,0:0:0:0:
26,323,98233,2,0,P|74:337|122:320,1,90,8|2,0:2|1:2,0:0:0:0:
142,293,98675,2,0,L|277:293,1,135,2|0,1:2|1:2,0:0:0:0:
317,311,99263,1,8,0:2:0:0:
317,311,99410,2,0,B|317:269|317:269|309:250|309:250|309:218,1,90,10|10,0:2|0:2,0:0:0:0:
310,177,99851,6,0,P|367:189|423:135,1,135,6|10,1:2|0:2,0:0:0:0:
376,63,100586,2,0,L|376:11,2,45,0|2|8,1:2|1:2|0:2,0:0:0:0:
334,80,101027,2,0,B|264:102|264:102|194:79,1,135,2|10,1:2|0:2,0:0:0:0:
119,55,101763,2,0,L|119:3,2,45,0|2|10,1:2|1:2|0:2,0:0:0:0:
82,81,102204,6,0,P|63:138|91:217,1,135,6|10,1:2|0:2,0:0:0:0:
130,284,102939,2,0,L|220:284,1,90,14|2,0:2|0:2,0:0:0:0:
262,267,103380,2,0,B|292:205|234:195|266:137,1,135,6|10,1:2|0:2,0:0:0:0:
333,76,104116,2,0,P|354:72|376:76,1,45,10|10,0:2|0:2,0:0:0:0:
453,30,104557,6,0,P|486:86|471:151,1,135,6|10,1:2|0:2,0:0:0:0:
452,239,105292,1,2,1:2:0:0:
452,239,105439,2,0,L|404:232,1,45,2|8,0:2|0:2,0:0:0:0:
371,259,105733,6,0,B|332:272|311:297|311:297|292:271|261:260,1,135,2|10,1:2|0:2,0:0:0:0:
174,285,106469,1,2,1:2:0:0:
174,285,106616,2,0,P|151:281|131:291,1,45,2|8,0:2|0:2,0:0:0:0:
95,317,106910,6,0,L|109:182,1,135,6|10,1:2|0:2,0:0:0:0:
63,104,107645,1,2,1:2:0:0:
63,104,107792,2,0,P|59:83|64:61,1,45,2|8,0:2|0:2,0:0:0:0:
93,25,108086,5,2,1:2:0:0:
179,67,108380,1,0,1:2:0:0:
179,67,108527,2,0,L|270:59,1,90,10|2,0:2|1:2,0:0:0:0:
307,82,108969,2,0,L|311:127,1,45,2|8,0:2|0:2,0:0:0:0:
277,158,109263,6,0,P|342:149|388:196,1,135,6|10,1:2|0:2,0:0:0:0:
463,244,109998,1,2,1:2:0:0:
463,244,110145,2,0,L|459:288,1,45,2|8,0:2|0:2,0:0:0:0:
487,324,110439,6,0,B|403:310|443:360|359:346,1,135,2|10,1:2|0:2,0:0:0:0:
275,312,111175,1,2,1:2:0:0:
275,312,111322,2,0,P|267:290|269:268,1,45,2|8,0:2|0:2,0:0:0:0:
291,229,111616,6,0,B|207:242|247:192|163:206,1,135,6|8,1:2|0:2,0:0:0:0:
87,155,112351,2,0,P|70:115|85:73,1,90,14|0,0:2|0:0,0:0:0:0:
116,41,112792,2,0,L|205:49,1,90,2|0,1:2|1:2,0:0:0:0:
228,88,113233,1,10,0:2:0:0:
277,163,113527,1,10,0:2:0:0:
277,163,113675,2,0,L|321:158,1,45,10|8,0:2|0:2,0:0:0:0:
354,127,113969,6,0,B|411:142|411:142|395:216,1,135,6|10,1:2|0:2,0:0:0:0:
463,274,114704,1,2,1:2:0:0:
463,274,114851,2,0,L|458:318,1,45,2|8,0:2|0:2,0:0:0:0:
425,348,115145,6,0,P|359:345|323:291,1,135,2|10,1:2|0:2,0:0:0:0:
243,249,115880,1,2,1:2:0:0:
243,249,116027,2,0,P|225:236|203:233,1,45,2|8,0:2|0:2,0:0:0:0:
159,249,116322,6,0,L|174:114,1,135,2|10,1:2|0:2,0:0:0:0:
258,85,117057,1,2,1:2:0:0:
258,85,117204,2,0,L|263:129,1,45,2|8,0:2|0:2,0:0:0:0:
300,154,117498,5,2,1:2:0:0:
388,136,117792,1,0,1:2:0:0:
388,136,117939,2,0,L|377:46,1,90,10|2,0:2|1:2,0:0:0:0:
410,16,118380,2,0,P|433:14|453:23,1,45,2|8,0:2|0:2,0:0:0:0:
486,54,118675,6,0,L|501:188,1,135,6|10,1:2|0:2,0:0:0:0:
450,262,119410,1,2,1:2:0:0:
450,262,119557,2,0,L|455:306,1,45,2|8,0:2|0:2,0:0:0:0:
484,340,119851,6,0,P|418:331|359:363,1,135,2|10,1:2|0:2,0:0:0:0:
285,310,120586,1,2,1:2:0:0:
285,310,120733,2,0,P|262:313|242:304,1,45,2|8,0:2|0:2,0:0:0:0:
222,264,121027,5,2,1:2:0:0:
148,213,121322,1,6,1:2:0:0:
148,213,121469,1,14,0:2:0:0:
196,137,121763,2,0,L|191:92,1,45,12|12,0:2|0:2,0:0:0:0:
280,108,122204,2,0,L|271:18,1,90,0|0,1:2|1:2,0:0:0:0:
316,19,122645,1,8,0:2:0:0:
401,47,122939,2,0,P|422:53|438:68,1,45,0|0,1:2|1:2,0:0:0:0:
449,112,123233,1,0,1:2:0:0:
449,156,123380,6,0,P|428:227|457:288,1,135,4|0,1:2|1:2,0:0:0:0:
483,369,124116,2,0,L|393:362,1,90,8|0,0:2|1:2,0:0:0:0:
355,337,124557,2,0,B|282:326|297:372|213:351,1,135,0|0,1:2|1:2,0:0:0:0:
145,309,125292,2,0,L|154:218,1,90,8|0,0:2|1:2,0:0:0:0:
158,174,125733,2,0,B|226:195|226:195|297:168,1,135,0|0,1:2|1:2,0:0:0:0:
336,97,126469,2,0,L|329:49,2,45,8|0|0,0:2|0:0|1:2,0:0:0:0:
374,120,126910,2,0,P|406:183|386:251,1,135,0|0,1:2|1:2,0:0:0:0:
330,308,127645,2,0,P|281:292|236:309,1,90,8|8,0:2|0:2,0:0:0:0:
214,335,128086,6,0,P|167:354|127:342,1,90,4|0,1:2|1:2,0:0:0:0:
96,314,128527,1,8,0:2:0:0:
51,235,128822,2,0,L|2:228,2,45,0|0|8,1:2|1:2|0:2,0:0:0:0:
90,214,129263,2,0,B|108:169|108:169|92:130,1,90,0|8,1:2|0:2,0:0:0:0:
71,90,129704,1,8,0:2:0:0:
148,43,129998,2,0,L|143:-8,2,45,0|0|8,1:2|1:2|0:2,0:0:0:0:
178,76,130439,6,0,P|226:91|265:70,1,90,4|0,1:2|1:2,0:0:0:0:
296,49,130880,2,0,L|359:50,1,45,8|0,0:2|1:2,0:0:0:0:
380,72,131175,2,0,L|443:73,1,45,8|0,0:2|1:2,0:0:0:0:
490,134,131616,5,12,0:2:0:0:
244,282,141469,5,2,1:2:0:0:
244,282,141763,2,0,L|247:224,2,45,10|2|0,0:2|0:2|0:0,0:0:0:0:
209,310,142204,6,0,B|144:338|144:338|77:315,1,135,2|2,1:2|1:2,0:0:0:0:
60,231,142939,2,0,L|8:238,2,45,10|2|0,0:2|0:2|0:0,0:0:0:0:
93,201,143380,2,0,B|70:164|70:164|86:66,1,135,2|2,0:2|1:2,0:0:0:0:
153,15,144116,1,10,0:2:0:0:
153,15,144263,1,2,0:2:0:0:
242,24,144557,6,0,P|273:93|243:158,1,135,2|2,1:2|1:2,0:0:0:0:
201,218,145292,1,10,0:2:0:0:
201,218,145439,1,2,0:2:0:0:
254,290,145733,2,0,B|287:310|287:310|339:295|387:310,1,135,2|2,0:2|0:2,0:0:0:0:
472,302,146469,2,0,P|478:278|473:248,1,45,10|2,0:2|0:2,0:0:0:0:
468,169,146910,6,0,B|392:160|414:203|327:186,1,135,2|2,1:2|1:2,0:0:0:0:
262,137,147645,2,0,P|228:131|206:137,1,45,10|2,0:2|0:2,0:0:0:0:
128,140,148086,2,0,P|105:209|124:267,1,135,2|2,1:2|0:2,0:0:0:0:
181,335,148822,2,0,L|234:335,1,45,2|2,0:2|0:2,0:0:0:0:
295,278,149263,6,0,B|334:278|334:278|360:294|360:294|390:278|390:278|420:278,1,135,6|10,1:2|0:2,0:0:0:0:
486,216,149998,1,0,1:2:0:0:
486,216,150145,2,0,P|502:175|489:133,1,90,8|8,0:2|0:2,0:0:0:0:
383,47,150880,5,10,0:2:0:0:
383,47,151175,2,0,L|387:133,2,67.5,10|10|10,0:2|1:2|1:2,0:0:0:0:
255,91,152057,6,0,P|194:120|130:105,1,135,6|10,1:2|0:2,0:0:0:0:
42,86,152792,2,0,L|51:175,1,90,6|0,1:2|1:2,0:0:0:0:
58,219,153233,1,10,0:2:0:0:
147,218,153527,1,2,1:2:0:0:
147,218,153675,2,0,L|142:262,1,45,2|8,0:2|0:2,0:0:0:0:
117,299,153969,6,0,P|176:328|238:305,1,135,2|10,1:2|0:2,0:0:0:0:
313,256,154704,1,2,1:2:0:0:
313,256,154851,2,0,L|357:261,1,45,2|8,0:2|0:2,0:0:0:0:
393,234,155145,5,2,1:2:0:0:
454,168,155439,1,0,1:2:0:0:
454,168,155586,2,0,B|470:124|470:124|456:83,1,90,10|2,0:2|1:2,0:0:0:0:
417,60,156027,2,0,L|372:65,1,45,2|8,0:2|0:2,0:0:0:0:
332,44,156322,6,0,B|268:23|268:23|212:62,1,135,6|10,1:2|0:2,0:0:0:0:
123,49,157057,1,2,1:2:0:0:
123,49,157204,2,0,L|125:93,1,45,2|8,0:2|0:2,0:0:0:0:
147,133,157498,6,0,B|102:124|102:124|64:144|64:144|18:136,1,135,2|10,1:2|0:2,0:0:0:0:
19,226,158233,1,2,1:2:0:0:
19,226,158380,2,0,B|32:244|32:244|34:267,1,45,2|8,0:2|0:2,0:0:0:0:
21,310,158675,6,0,P|85:321|137:281,1,135,2|8,1:2|0:2,0:0:0:0:
227,283,159410,2,0,L|216:191,1,90,14|0,0:2|1:2,0:0:0:0:
260,183,159851,2,0,L|245:48,1,135,6|10,1:2|0:2,0:0:0:0:
334,56,160586,1,10,0:2:0:0:
334,56,160733,1,10,0:2:0:0:
413,97,161027,6,0,L|417:141,1,45,6|0,1:2|0:0,0:0:0:0:
405,185,161322,1,0,1:2:0:0:
405,185,161469,2,0,L|409:229,1,45,10|0,0:2|0:0,0:0:0:0:
400,273,161763,1,10,0:2:0:0:
400,273,161910,1,2,1:2:0:0:
310,261,162204,6,0,P|288:255|266:261,1,45,2|8,1:2|0:2,0:0:0:0:
233,291,162498,1,0,1:2:0:0:
233,291,162645,2,0,L|188:294,1,45,10|0,0:2|1:2,0:0:0:0:
143,292,162939,1,10,0:2:0:0:
143,292,163086,1,2,1:2:0:0:
116,206,163380,6,0,P|125:152|111:116,1,90,2|0,1:2|1:2,0:0:0:0:
100,74,163822,2,0,L|159:61,1,45,10|0,0:2|0:0,0:0:0:0:
186,79,164116,1,10,0:2:0:0:
263,32,164410,1,10,0:2:0:0:
263,32,164557,6,0,P|309:22|363:39,1,90,6|0,1:2|1:2,0:0:0:0:
377,67,164998,2,0,L|382:133,1,45,10|8,0:2|0:2,0:0:0:0:
367,155,165292,1,2,1:2:0:0:
367,155,165439,1,2,1:2:0:0:
413,232,165733,6,0,L|273:243,1,135,6|10,1:2|0:2,0:0:0:0:
191,267,166469,1,2,1:2:0:0:
132,199,166763,1,8,0:2:0:0:
132,199,166910,2,0,B|156:128|156:128|132:54,1,135,2|10,1:2|0:2,0:0:0:0:
54,35,167645,1,2,1:2:0:0:
17,117,167939,1,10,0:2:0:0:
17,117,168086,5,2,1:2:0:0:
49,200,168380,2,0,L|49:252,1,45,6|14,1:2|0:2,0:0:0:0:
47,335,168822,2,0,L|99:333,1,45,8|12,0:2|0:2,0:0:0:0:
170,289,169263,2,0,P|223:272|265:291,1,90,4|0,1:2|1:2,0:0:0:0:
288,311,169704,1,8,0:2:0:0:
369,348,169998,2,0,L|373:292,1,45,0|0,1:2|1:2,0:0:0:0:
409,278,170292,2,0,L|413:222,1,45,0|0,1:2|1:2,0:0:0:0:
439,197,170586,5,4,1:2:0:0:
439,197,179998,5,4,1:2:0:0:
372,136,180292,2,0,L|282:149,1,90,10|2,0:2|1:2,0:0:0:0:
211,94,180880,1,10,0:2:0:0:
211,94,181027,2,0,P|169:110|147:148,1,90,6|2,1:2|1:2,0:0:0:0:
104,163,181469,2,0,P|100:206|125:243,1,90,10|0,0:2|1:2,0:0:0:0:
181,314,182057,1,10,0:2:0:0:
258,267,182351,6,0,L|347:277,1,90,6|10,1:2|0:2,0:0:0:0:
383,250,182792,2,0,L|472:240,1,90,2|2,0:2|1:2,0:0:0:0:
499,204,183233,1,10,0:2:0:0:
499,204,183380,2,0,P|514:140|474:88,1,135,6|8,1:2|0:2,0:0:0:0:
388,60,184116,2,0,L|343:66,1,45,0|0,1:2|1:2,0:0:0:0:
305,42,184410,1,8,0:2:0:0:
228,89,184704,5,4,1:2:0:0:
150,43,184998,2,0,P|105:44|73:74,1,90,10|2,0:2|1:2,0:0:0:0:
34,155,185586,1,10,0:2:0:0:
34,155,185733,2,0,L|46:244,1,90,6|2,1:2|1:2,0:0:0:0:
29,286,186175,1,10,0:2:0:0:
84,356,186469,2,0,L|128:350,1,45,0|0,1:2|1:2,0:0:0:0:
173,347,186763,1,10,0:2:0:0:
234,281,187057,6,0,B|276:298|276:298|317:280,1,90,6|10,1:2|0:2,0:0:0:0:
354,255,187498,2,0,B|395:237|395:237|437:254,1,90,6|2,0:2|1:2,0:0:0:0:
478,271,187939,1,10,0:2:0:0:
478,271,188086,2,0,P|446:213|441:146,1,135,6|8,1:2|0:2,0:0:0:0:
370,89,188822,1,8,0:2:0:0:
370,89,188969,5,0,1:2:0:0:
