osu file format v14

[General]
AudioFilename: audio.mp3
AudioLeadIn: 0
PreviewTime: 75498
Countdown: 0
SampleSet: Soft
StackLeniency: 0.5
Mode: 0
LetterboxInBreaks: 0
WidescreenStoryboard: 1

[Editor]
Bookmarks: 7565,10528,13491,15714,16454,19417,22380,25343,26825,28121,38637,42525,51229,51970,57896,63637,74377,75488,84377,87248,90303,93266,96229,97711,99377,112350,114007,116970,122896,134748,137711,140674,143637,155488,157165,157535,157906,158276,158451,161414,164377,170303,173081,176229,179192,183822,210488
DistanceSpacing: 0.5
BeatDivisor: 4
GridSize: 16
TimelineZoom: 1

[Metadata]
Title:The Lost One's Weeping
TitleUnicode:ロストワンの号哭
Artist:Neru feat. Kagamine Rin
ArtistUnicode:Neru feat. 鏡音リン
Creator:Cheezit
Version:Rinsane
Source:
Tags:vocaloid sekai seifuku japanese
BeatmapID:1513163
BeatmapSetID:716180

[Difficulty]
HPDrainRate:6
CircleSize:4
OverallDifficulty:7.5
ApproachRate:9
SliderMultiplier:1.6
SliderTickRate:1

[Events]
//Background and Video events
0,0,"lostonesweepingbg.jpg",0,0
//Break Periods
2,42921,50639
//Storyboard Layer 0 (Background)
//Storyboard Layer 1 (Fail)
//Storyboard Layer 2 (Pass)
//Storyboard Layer 3 (Foreground)
//Storyboard Sound Samples

[TimingPoints]
1610,370.37037037037,4,2,0,100,1,0
75406,-100,4,2,0,100,0,1
99202,-100,4,2,0,100,0,0
134758,-100,4,2,0,100,0,1
158276,-100,4,2,0,100,0,0
170313,-100,4,2,0,100,0,1
183647,-100,4,2,0,100,0,0

[Colours]
Combo1 : 140,0,0
Combo2 : 212,212,212

[HitObjects]
144,96,1610,5,8,0:0:0:0:
288,64,1795,1,0,0:0:0:0:
352,208,1980,2,0,L|288:224,2,40
368,288,2350,5,8,0:0:0:0:
224,320,2535,1,0,0:0:0:0:
160,176,2721,2,0,L|224:160,2,40
352,80,3091,5,8,0:0:0:0:
384,224,3276,1,0,0:0:0:0:
240,288,3461,2,0,L|224:224,2,40
144,128,3832,6,8,B|192:96|256:96|304:128,1,160
382,173,4572,2,0,P|388:231|364:273,1,80
258,324,4943,1,0,0:0:0:0:
258,324,5035,1,0,0:0:0:0:
258,324,5128,1,0,0:0:0:0:
136,278,5313,6,8,P|105:237|109:202,1,80
138,113,5684,1,0,0:0:0:0:
138,113,5776,1,0,0:0:0:0:
138,113,5869,1,0,0:0:0:0:
285,170,6054,6,8,P|237:202|205:202,1,80
116,244,6424,1,0,0:0:0:0:
116,244,6517,1,0,0:0:0:0:
116,244,6610,1,0,0:0:0:0:
213,308,6795,6,8,P|278:319|316:301,1,80
392,264,7165,1,0,0:0:0:0:
392,264,7258,1,0,0:0:0:0:
392,264,7350,1,0,0:0:0:0:
243,106,7535,6,8,L|179:186,1,80
226,288,7906,2,0,L|274:288,2,40
368,192,8276,2,8,L|320:96,1,80
224,64,8647,2,0,L|176:64,2,40
128,208,9017,6,8,P|160:256|208:240,1,80
336,240,9387,2,0,L|368:192,2,40
224,320,9757,2,8,P|176:304|160:256,1,80
160,144,10128,2,0,L|176:96,2,40
144,288,10498,6,8,L|240:272,1,80
368,224,10868,2,0,L|304:192,1,40
256,160,11054,1,0,0:0:0:0:
160,96,11239,2,8,L|240:64,1,80
384,64,11609,2,0,L|352:112,1,40
304,176,11794,1,0,0:0:0:0:
288,288,11979,6,8,L|192:240,1,80
128,160,12350,2,0,L|192:144,1,40
272,128,12535,1,0,0:0:0:0:
416,208,12720,2,8,L|336:240,1,80
176,272,13091,2,0,L|208:224,1,40
256,160,13276,1,0,0:0:0:0:
352,288,13461,5,8,0:0:0:0:
400,160,13646,1,0,0:0:0:0:
304,64,13831,2,0,L|256:64,2,40
128,128,14202,1,8,0:0:0:0:
160,288,14387,1,0,0:0:0:0:
320,304,14572,2,0,L|352:272,2,40
352,112,14942,5,8,0:0:0:0:
208,64,15128,1,0,0:0:0:0:
128,176,15313,2,0,L|128:224,2,40
256,304,15683,6,0,P|298:288|319:251,1,80
304,80,16054,2,0,P|261:80|222:127,1,80
192,288,16424,6,8,P|256:320|288:304,1,80
384,256,16794,2,0,L|400:208,2,40
297,181,17165,2,8,P|251:159|238:125,1,80
305,30,17535,2,0,L|321:78,2,40
378,166,17905,6,8,P|442:182|474:166,1,80
443,83,18276,2,0,L|459:35,2,40
317,67,18646,2,8,P|269:51|205:67,1,80
101,141,19017,2,0,L|117:189,2,40
256,288,19387,5,8,0:0:0:0:
256,288,19572,1,0,0:0:0:0:
128,128,19757,2,0,L|192:112,2,40
352,80,20128,1,8,0:0:0:0:
352,80,20313,1,0,0:0:0:0:
384,240,20498,2,0,L|336:256,2,40
160,240,20868,5,8,0:0:0:0:
160,240,21054,1,0,0:0:0:0:
176,96,21239,2,0,L|224:80,2,40
368,64,21610,1,8,0:0:0:0:
368,64,21795,1,0,0:0:0:0:
384,192,21980,2,0,L|368:240,2,40
256,288,22350,6,8,P|208:304|176:288,1,80
76,249,22721,2,0,L|108:201,2,40
62,104,23091,2,8,P|78:56|110:40,1,80
217,33,23461,2,0,L|269:54,2,40
144,240,23832,6,8,P|112:192|128:160,1,80
224,80,24202,2,0,L|288:64,2,40
320,224,24572,2,8,P|352:160|336:128,1,80
176,80,24942,2,0,L|128:112,2,40
144,240,25313,5,8,0:0:0:0:
288,304,25498,1,0,0:0:0:0:
368,192,25683,2,0,L|384:144,2,40
272,80,26054,1,8,0:0:0:0:
128,144,26239,1,0,0:0:0:0:
160,288,26424,2,0,L|208:304,2,40
352,256,26794,6,2,L|400:224,2,40
160,208,27165,2,2,L|112:176,2,40
320,144,27535,2,2,L|368:112,2,40
224,96,27905,2,2,L|192:64,2,40
182,232,28276,5,4,0:0:0:0:
368,239,28646,1,8,0:0:0:0:
336,96,29017,2,0,L|288:80,2,40
144,64,29387,1,8,0:0:0:0:
159,240,29758,6,0,P|191:280|225:289,1,80
384,192,30128,1,8,0:0:0:0:
428,100,30313,2,0,L|451:50,2,40
217,40,30869,1,8,0:0:0:0:
112,216,31239,5,0,0:0:0:0:
272,272,31609,1,8,0:0:0:0:
400,224,31980,2,0,L|384:158,2,40
356,50,32350,1,8,0:0:0:0:
482,167,32720,6,0,L|466:215,2,40
368,326,33091,2,0,L|323:306,2,40
183,259,33461,2,0,L|135:307,2,40
65,164,33831,1,8,0:0:0:0:
187,32,34202,5,0,0:0:0:0:
336,80,34572,1,8,0:0:0:0:
208,96,34942,2,0,L|160:144,2,40
96,240,35313,1,8,0:0:0:0:
202,314,35684,6,0,P|229:245|255:218,1,80
384,240,36054,1,8,0:0:0:0:
352,128,36239,2,0,L|304:96,2,40
160,96,36795,1,8,0:0:0:0:
154,240,37165,5,0,0:0:0:0:
336,288,37535,1,8,0:0:0:0:
320,160,37906,2,0,L|288:128,2,40
144,80,38276,1,8,0:0:0:0:
147,204,38647,6,0,L|180:239,2,40
314,265,39017,2,0,L|375:226,2,40
371,120,39387,2,0,L|317:71,2,40
160,80,39758,1,0,0:0:0:0:
140,80,39850,1,0,0:0:0:0:
120,85,39943,1,0,0:0:0:0:
102,94,40035,1,0,0:0:0:0:
87,108,40128,1,0,0:0:0:0:
256,192,40313,12,8,42721,0:0:0:0:
172,97,51239,6,0,B|246:148|246:148|174:190|174:190|247:247,1,240
323,313,51980,1,0,0:0:0:0:
414,189,52350,5,8,0:0:0:0:
304,112,52721,2,0,L|256:80,2,40
128,96,53091,1,8,0:0:0:0:
97,215,53461,5,0,0:0:0:0:
189,296,53647,1,0,0:0:0:0:
292,230,53832,1,8,0:0:0:0:
245,121,54017,2,0,L|292:62,2,40
438,55,54572,1,8,0:0:0:0:
404,266,54942,5,0,0:0:0:0:
227,291,55313,1,8,0:0:0:0:
259,176,55683,2,0,L|277:130,2,40
112,128,56054,1,8,0:0:0:0:
160,256,56424,6,0,L|192:288,2,40
336,304,56794,2,0,L|368:256,2,40
407,151,57165,2,0,L|350:111,2,40
232,41,57535,1,8,0:0:0:0:
166,203,57905,5,0,0:0:0:0:
292,319,58276,1,8,0:0:0:0:
120,295,58647,2,0,L|88:247,2,40
85,88,59017,1,8,0:0:0:0:
285,47,59387,5,0,0:0:0:0:
379,126,59572,1,0,0:0:0:0:
320,236,59758,1,8,0:0:0:0:
205,175,59943,2,0,L|154:140,2,40
45,47,60498,1,8,0:0:0:0:
239,41,60869,5,0,0:0:0:0:
400,111,61239,1,8,0:0:0:0:
278,207,61609,2,0,L|327:253,2,40
405,319,61980,1,8,0:0:0:0:
394,193,62350,6,0,L|419:145,2,40
309,71,62721,2,0,L|241:103,2,40
256,224,63091,2,0,L|224:256,4,40
128,192,63647,5,8,0:0:0:0:
186,85,63832,1,0,0:0:0:0:
370,119,64109,1,0,0:0:0:0:
304,272,64387,1,8,0:0:0:0:
192,288,64572,2,0,P|144:272|112:208,1,120,0|0,0:3|0:3,0:3:0:0:
176,96,65128,5,8,0:0:0:0:
288,74,65313,1,0,0:0:0:0:
431,211,65591,1,0,0:0:0:0:
281,328,65869,1,8,0:0:0:0:
243,228,66054,2,0,P|259:180|243:100,1,120
96,112,66609,6,8,P|96:176|112:208,1,80
169,314,67072,1,0,0:0:0:0:
346,292,67350,1,8,0:0:0:0:
400,208,67535,2,0,P|416:144|384:96,1,120
192,96,68091,5,8,0:0:0:0:
307,48,68276,1,0,0:0:0:0:
438,172,68554,1,0,0:0:0:0:
320,272,68832,2,8,L|272:288,2,40
129,251,69295,1,0,0:0:0:0:
144,128,69572,6,8,L|192:112,2,40
304,80,70035,1,0,0:0:0:0:
375,272,70313,1,8,0:0:0:0:
272,304,70498,2,0,B|208:320|160:304|144:288,1,120
98,139,71054,5,8,0:0:0:0:
176,96,71239,2,0,P|224:80|304:96,1,120
352,192,71795,2,8,L|292:211,2,40
186,229,72258,1,0,0:0:0:0:
288,272,72535,6,2,L|336:288,2,40
474,339,72998,1,0,0:0:0:0:
444,197,73276,1,0,0:0:0:0:
323,81,73647,1,0,0:0:0:0:
119,131,74017,2,2,P|155:182|186:183,1,80
320,192,74480,1,0,0:0:0:0:
453,116,74758,2,0,B|485:164|485:228|437:276,1,160
304,256,75498,5,8,0:0:0:0:
304,256,75591,1,8,0:0:0:0:
304,256,75684,1,8,0:0:0:0:
320,144,75869,2,8,L|288:112,1,40
180,59,76147,2,8,L|106:42,1,40
35,211,76609,1,0,0:0:0:0:
182,284,76795,2,0,L|294:316,2,80
98,166,77443,1,0,0:0:0:0:
209,53,77721,1,0,0:0:0:0:
338,64,77906,1,0,0:0:0:0:
389,229,78461,6,8,L|368:274,2,40
388,114,78832,2,8,L|359:73,1,40
256,52,79109,2,8,L|192:69,1,40
128,224,79572,1,0,0:0:0:0:
176,240,79758,1,0,0:0:0:0:
224,256,79943,1,0,0:0:0:0:
272,272,80128,1,0,0:0:0:0:
447,263,80406,1,0,0:0:0:0:
411,153,80684,2,0,L|380:63,1,80
292,222,81424,6,8,L|276:270,2,40
380,324,81795,2,8,L|428:340,1,40
463,244,82165,2,8,P|413:164|346:158,1,160
228,180,82721,1,0,0:0:0:0:
125,114,82906,1,0,0:0:0:0:
106,261,83091,1,0,0:0:0:0:
250,305,83369,2,0,P|316:296|360:250,1,120
416,170,83832,1,0,0:0:0:0:
241,81,84387,5,8,0:0:0:0:
135,119,84572,2,0,P|112:191|123:236,1,120
244,341,85128,1,0,0:0:0:0:
341,282,85313,1,0,0:0:0:0:
239,99,85869,1,8,0:0:0:0:
364,63,86054,2,0,P|426:103|453:167,1,120
378,319,86609,1,0,0:0:0:0:
264,269,86795,1,0,0:0:0:0:
257,166,87350,6,8,L|297:120,2,40
387,174,87721,2,8,L|354:231,1,40
332,312,87998,2,8,L|373:330,1,40
470,160,88461,1,0,0:0:0:0:
339,214,88647,2,0,P|276:239|234:232,1,80
262,118,89017,2,0,B|214:102|166:102|118:134|118:134,1,120
84,269,89572,1,0,0:0:0:0:
179,326,89758,1,0,0:0:0:0:
359,302,90313,6,8,L|391:254,2,40
342,139,90684,2,8,L|310:107,1,40
210,83,90961,2,8,L|152:115,1,40
160,272,91424,1,0,0:0:0:0:
112,160,91609,1,0,0:0:0:0:
208,64,91794,1,0,0:0:0:0:
368,144,91980,2,0,P|320:176|288:240,1,120
160,256,92535,1,0,0:0:0:0:
224,160,92721,1,0,0:0:0:0:
352,176,93276,6,8,L|336:128,2,40
224,80,93647,2,8,L|176:96,1,40
140,197,93924,2,8,L|143:243,1,40
291,305,94387,1,0,0:0:0:0:
214,232,94572,2,0,P|198:168|278:136,1,160
446,198,95221,1,0,0:0:0:0:
356,288,95498,2,0,L|260:329,1,80
131,240,96239,5,8,0:0:0:0:
175,140,96424,2,0,P|239:140|287:188,1,120
364,300,96980,2,0,P|396:236|396:204,1,80
370,90,97721,1,8,0:0:0:0:
255,39,97906,2,0,B|207:23|175:23|127:55,1,120
61,120,98461,2,0,P|93:168|125:184,1,80
288,252,99017,1,0,0:0:0:0:
320,128,99387,6,8,P|352:192|352:224,1,80
320,325,99758,1,0,0:0:0:0:
320,325,99851,1,0,0:0:0:0:
320,325,99943,1,0,0:0:0:0:
406,255,100128,2,8,P|454:223|470:191,1,80
452,74,100498,1,0,0:0:0:0:
452,74,100591,1,0,0:0:0:0:
452,74,100684,1,0,0:0:0:0:
337,193,100869,5,8,0:0:0:0:
244,284,101054,1,0,0:0:0:0:
212,139,101239,2,0,L|191:98,2,40
70,182,101609,1,8,0:0:0:0:
169,243,101795,1,0,0:0:0:0:
212,139,101980,2,0,L|234:77,2,40
339,53,102350,6,8,P|387:85|387:133,1,80
352,266,102721,1,0,0:0:0:0:
352,266,102813,1,0,0:0:0:0:
352,266,102906,1,0,0:0:0:0:
209,291,103091,2,8,P|253:327|304:328,1,80
449,340,103461,1,0,0:0:0:0:
449,340,103554,1,0,0:0:0:0:
449,340,103647,1,0,0:0:0:0:
396,211,103832,6,8,P|347:225|316:275,1,80
230,325,104202,1,0,0:0:0:0:
230,325,104295,1,0,0:0:0:0:
230,325,104387,1,0,0:0:0:0:
116,241,104572,2,8,P|100:193|116:145,1,80
181,54,104943,1,0,0:0:0:0:
181,54,105035,1,0,0:0:0:0:
181,54,105128,1,0,0:0:0:0:
309,146,105313,5,8,0:0:0:0:
262,273,105498,1,0,0:0:0:0:
181,179,105684,2,0,L|147:131,2,40
211,74,106054,1,8,0:0:0:0:
319,40,106239,1,0,0:0:0:0:
413,118,106424,2,0,L|472:94,2,40
429,216,106795,5,8,0:0:0:0:
324,303,106980,1,0,0:0:0:0:
195,268,107165,2,0,L|135:227,2,40
125,124,107535,1,8,0:0:0:0:
241,59,107721,1,0,0:0:0:0:
368,106,107906,2,0,L|425:136,2,40
320,288,108276,6,8,P|256:304|208:288,1,80
101,247,108647,1,0,0:0:0:0:
101,247,108739,1,0,0:0:0:0:
101,247,108832,1,0,0:0:0:0:
144,128,109017,2,8,P|192:96|224:96,1,80
347,88,109387,1,0,0:0:0:0:
347,88,109480,1,0,0:0:0:0:
347,88,109572,1,0,0:0:0:0:
227,55,109758,6,8,P|175:51|122:81,1,80
67,187,110128,1,0,0:0:0:0:
67,187,110221,1,0,0:0:0:0:
67,187,110313,1,0,0:0:0:0:
178,292,110498,2,8,P|218:273|242:244,1,80
293,142,110869,1,0,0:0:0:0:
305,126,110961,1,0,0:0:0:0:
322,116,111054,1,0,0:0:0:0:
341,110,111147,1,0,0:0:0:0:
360,106,111239,6,4,P|464:159|401:269,1,240
324,330,111980,1,0,0:0:0:0:
268,214,112258,1,0,0:0:0:0:
256,115,112535,2,0,P|224:67|176:51,1,80
76,48,112998,1,0,0:0:0:0:
73,154,113276,2,0,P|128:256|235:212,1,240
268,129,114017,5,4,0:0:0:0:
336,50,114202,2,4,P|441:60|458:184,1,240
409,260,114943,1,0,0:0:0:0:
251,265,115221,2,0,P|184:227|178:182,1,120
183,93,115684,1,0,0:0:0:0:
328,146,115961,1,0,0:0:0:0:
212,240,116239,1,0,0:0:0:0:
212,240,116980,5,4,0:0:0:0:
334,272,117165,2,4,P|384:176|288:112,1,240
194,113,117906,1,0,0:0:0:0:
78,199,118184,1,0,0:0:0:0:
175,286,118461,2,0,L|255:318,1,80
357,318,118924,1,0,0:0:0:0:
414,234,119202,2,0,P|381:122|274:132,1,240
155,265,120128,1,4,0:0:0:0:
92,122,121424,6,8,L|69:69,2,40
245,187,121887,1,0,0:0:0:0:
178,58,122165,1,0,0:0:0:0:
327,51,122535,1,0,0:0:0:0:
429,203,122906,6,8,P|429:251|398:285,1,80
279,328,123369,1,0,0:0:0:0:
286,197,123647,2,8,L|301:146,2,40
340,31,124109,1,0,0:0:0:0:
365,199,124387,2,8,P|349:151|301:119,1,80
188,76,124850,1,0,0:0:0:0:
144,224,125128,2,8,L|196:265,2,40
310,330,125591,1,0,0:0:0:0:
420,190,125869,5,8,0:0:0:0:
332,94,126054,2,0,P|271:61|208:70,1,120
79,157,126609,1,8,0:0:0:0:
156,74,126795,2,8,P|213:46|284:58,1,120
227,235,127350,1,8,0:0:0:0:
361,210,127535,2,0,B|400:160|368:96,1,120
243,50,128091,2,8,L|195:66,2,40
76,157,128554,1,0,0:0:0:0:
208,288,128832,6,8,L|192:240,2,40
160,96,129295,1,0,0:0:0:0:
272,80,129572,2,8,L|288:128,2,40
336,256,130035,1,0,0:0:0:0:
224,288,130313,2,8,L|176:256,2,40
128,160,130776,1,0,0:0:0:0:
224,80,131054,2,8,L|256:112,2,40
352,208,131517,1,0,0:0:0:0:
428,307,131795,5,8,0:0:0:0:
441,185,131980,2,0,P|436:131|385:85,1,120
306,137,132535,2,0,B|204:148|188:36,1,160
137,185,133276,5,8,0:0:0:0:
214,278,133461,2,0,P|288:308|346:287,1,120
311,208,134017,2,0,B|331:118|423:112,1,160
404,262,134758,6,8,L|388:310,2,40
251,302,135128,2,8,L|219:270,1,40
174,166,135406,2,8,L|196:110,1,40
331,44,135869,1,0,0:0:0:0:
368,192,136054,2,0,P|336:256|304:272,1,80
161,309,136424,1,0,0:0:0:0:
89,206,136702,2,0,P|107:158|166:115,1,120
282,77,137165,1,0,0:0:0:0:
156,182,137721,6,8,L|140:230,2,40
76,329,138091,2,8,L|31:274,1,40
42,149,138461,1,8,0:0:0:0:
146,42,138832,1,8,0:0:0:0:
243,124,139017,2,0,P|291:140|333:128,1,80
452,84,139387,1,0,0:0:0:0:
389,187,139665,2,0,P|378:250|409:307,1,120
479,182,140128,1,0,0:0:0:0:
352,83,140684,6,8,L|303:55,2,40
189,54,141054,2,8,L|133:88,1,40
72,167,141424,2,8,B|23:238|71:318,1,160
230,329,141980,1,0,0:0:0:0:
384,266,142165,1,0,0:0:0:0:
248,221,142350,2,0,B|200:189|184:157|168:125,1,120
295,86,142906,2,0,P|327:54|375:45,1,80
448,169,143647,5,8,0:0:0:0:
382,274,143832,2,0,P|326:306|264:311,1,120
134,277,144387,1,0,0:0:0:0:
48,186,144572,1,0,0:0:0:0:
222,46,145128,5,8,0:0:0:0:
350,64,145313,2,0,P|324:130|276:171,1,120
158,238,145869,1,0,0:0:0:0:
53,147,146054,1,0,0:0:0:0:
128,256,146609,6,8,L|160:288,2,40
128,128,146980,2,8,L|160:96,1,40
248,46,147258,2,8,L|318:32,1,40
356,138,147721,1,0,0:0:0:0:
202,112,147906,1,0,0:0:0:0:
238,262,148091,1,0,0:0:0:0:
356,138,148276,1,0,0:0:0:0:
434,283,148554,2,0,P|383:314|312:314,1,120
182,283,149017,1,0,0:0:0:0:
104,151,149572,6,8,L|76:104,2,40
187,45,149943,2,8,L|235:61,1,40
320,111,150221,2,8,L|352:143,1,40
384,272,150684,1,0,0:0:0:0:
240,256,150869,1,0,0:0:0:0:
320,144,151054,1,0,0:0:0:0:
384,272,151239,1,0,0:0:0:0:
197,312,151517,2,0,P|124:287|77:229,1,120
39,130,151980,1,0,0:0:0:0:
192,96,152535,6,8,L|256:80,2,40
336,112,152906,2,8,L|368:144,1,40
398,240,153184,2,8,L|383:284,1,40
267,334,153647,1,0,0:0:0:0:
144,256,153832,2,0,P|112:176|176:112,1,160
265,171,154480,2,0,P|305:140|315:67,1,120
163,38,154943,1,0,0:0:0:0:
333,153,155498,5,8,0:0:0:0:
270,297,155684,1,0,0:0:0:0:
394,318,155961,2,0,P|434:272|434:209,1,120
398,81,156424,1,0,0:0:0:0:
157,100,157165,5,8,0:0:0:0:
300,287,157535,5,8,0:0:0:0:
308,135,157906,5,8,0:0:0:0:
134,308,158276,5,8,0:0:0:0:
99,187,158461,6,8,P|96:128|126:87,1,80
209,46,158832,2,8,L|255:73,1,40
308,149,159109,2,8,L|338:198,1,40
397,316,159572,1,0,0:0:0:0:
443,223,159758,2,0,P|412:96|314:183,1,280
277,291,160684,1,0,0:0:0:0:
167,191,160869,1,0,0:0:0:0:
192,304,161424,6,8,L|240:320,2,40
359,286,161795,2,8,L|399:251,1,40
425,153,162072,2,8,L|407:105,1,40
286,31,162535,1,0,0:0:0:0:
265,205,162721,1,0,0:0:0:0:
132,84,162906,1,0,0:0:0:0:
79,227,163091,1,0,0:0:0:0:
196,302,163369,2,0,P|261:315|324:303,1,120
446,250,163832,1,0,0:0:0:0:
388,106,164387,5,0,0:0:0:0:
250,75,164572,2,0,P|198:110|185:157,1,80
177,242,164943,2,0,P|212:294|259:307,1,80
296,203,165313,2,0,P|339:157|342:109,1,80
269,40,165684,2,0,P|206:44|171:78,1,80
221,168,166054,2,0,P|167:201|119:194,1,80
68,102,166424,2,0,P|103:50|150:37,1,80
191,140,166795,2,0,P|252:152|294:127,1,80
373,92,167165,6,0,P|402:147|391:194,1,80
387,269,167535,2,0,P|341:312|293:315,1,80
235,224,167906,2,0,P|200:172|153:159,1,80
71,144,168276,2,0,P|19:179|6:226,1,80
26,294,168647,2,0,P|61:346|108:359,1,80
216,333,169017,2,0,P|268:298|281:251,1,80
327,157,169387,1,0,0:0:0:0:
192,80,169572,1,0,0:0:0:0:
186,245,169758,1,0,0:0:0:0:
281,92,169943,1,0,0:0:0:0:
289,261,170128,1,0,0:0:0:0:
158,169,170313,6,8,L|105:129,2,40
167,50,170684,2,8,L|233:32,1,40
323,42,171054,2,8,B|403:58|435:154,1,160
456,309,171609,1,0,0:0:0:0:
297,330,171795,1,0,0:0:0:0:
210,222,171980,2,0,P|194:144|234:86,1,120
347,56,172535,1,0,0:0:0:0:
370,199,172721,1,0,0:0:0:0:
256,288,173091,6,8,L|192:272,4,40
159,187,173647,2,8,L|149:149,1,40
69,71,173924,2,8,L|40:136,1,40
54,274,174387,1,0,0:0:0:0:
188,323,174572,1,0,0:0:0:0:
236,189,174758,1,0,0:0:0:0:
374,272,174943,2,0,P|422:213|408:140,1,120
344,38,175498,1,0,0:0:0:0:
202,82,175684,1,0,0:0:0:0:
144,208,176239,6,8,L|176:256,2,40
295,310,176609,2,8,L|347:296,1,40
415,245,176887,2,8,L|452:198,1,40
432,79,177350,1,0,0:0:0:0:
286,80,177535,2,0,B|230:151|263:245,1,160
173,326,178184,2,0,P|129:270|122:210,1,120
129,85,178647,1,0,0:0:0:0:
314,195,179202,5,8,0:0:0:0:
275,56,179387,2,0,P|217:38|156:51,1,120
32,163,179943,1,0,0:0:0:0:
89,268,180128,1,0,0:0:0:0:
297,323,180684,5,8,0:0:0:0:
368,205,180869,2,0,P|369:142|342:89,1,120
212,164,181424,1,0,0:0:0:0:
120,290,181609,2,0,P|72:253|68:156,1,160
316,175,182350,6,8,L|284:207,3,40
192,304,182906,2,8,L|160:272,3,40
160,128,183461,1,0,0:0:0:0:
272,80,183832,6,8,P|336:112|352:144,1,80
395,248,184202,1,0,0:0:0:0:
395,248,184295,1,0,0:0:0:0:
395,248,184387,1,0,0:0:0:0:
288,304,184572,2,8,P|240:324|192:304,1,80
104,252,184943,1,0,0:0:0:0:
104,252,185035,1,0,0:0:0:0:
104,252,185128,1,0,0:0:0:0:
107,138,185313,6,8,P|155:90|187:90,1,80
320,112,185684,1,0,0:0:0:0:
320,112,185776,1,0,0:0:0:0:
320,112,185869,1,0,0:0:0:0:
208,96,186054,2,8,P|160:112|128:160,1,80
128,240,186424,1,0,0:0:0:0:
128,240,186517,1,0,0:0:0:0:
128,240,186609,1,0,0:0:0:0:
240,288,186795,5,8,0:0:0:0:
336,192,186980,1,0,0:0:0:0:
256,96,187165,2,0,L|208:80,2,40
128,160,187535,1,8,0:0:0:0:
160,288,187721,1,0,0:0:0:0:
288,320,187906,2,0,L|320:288,2,40
368,192,188276,5,8,0:0:0:0:
240,208,188461,1,0,0:0:0:0:
108,170,188647,2,0,L|76:122,2,40
176,64,189017,1,8,0:0:0:0:
288,96,189202,1,0,0:0:0:0:
352,192,189387,2,0,L|384:240,2,40
320,304,189758,6,8,P|256:320|224:320,1,80
106,284,190128,1,0,0:0:0:0:
106,284,190221,1,0,0:0:0:0:
106,284,190313,1,0,0:0:0:0:
74,172,190498,2,8,P|90:108|106:92,1,80
229,54,190869,1,0,0:0:0:0:
229,54,190961,1,0,0:0:0:0:
229,54,191054,1,0,0:0:0:0:
349,98,191239,6,8,P|397:130|413:162,1,80
385,271,191609,1,0,0:0:0:0:
385,271,191702,1,0,0:0:0:0:
385,271,191795,1,0,0:0:0:0:
300,172,191980,2,8,P|257:150|220:156,1,80
78,188,192350,1,0,0:0:0:0:
78,188,192443,1,0,0:0:0:0:
78,188,192535,1,0,0:0:0:0:
178,297,192721,5,8,0:0:0:0:
308,323,192906,1,0,0:0:0:0:
288,176,193091,2,0,L|256:128,2,40
160,112,193461,1,8,0:0:0:0:
128,224,193647,1,0,0:0:0:0:
240,208,193832,2,0,L|288:192,2,40
384,160,194202,5,8,0:0:0:0:
336,64,194387,1,0,0:0:0:0:
208,64,194572,2,0,L|160:80,2,40
146,179,194943,1,8,0:0:0:0:
242,274,195128,1,8,0:0:0:0:
329,182,195313,1,8,0:0:0:0:
232,88,195498,1,8,0:0:0:0:
128,192,195684,6,8,P|144:240|176:256,1,80
288,256,196054,2,0,L|336:240,2,40
400,160,196424,2,8,P|361:120|320:112,1,80
240,80,196795,2,0,L|192:64,2,40
96,96,197165,2,8,P|80:128|96:176,1,80
144,256,197535,2,0,L|176:288,2,40
288,288,197906,2,8,P|288:224|272:192,1,80
208,128,198276,2,0,L|176:96,2,40
288,48,198647,6,8,P|352:64|368:80,1,80
416,160,199017,1,0,0:0:0:0:
416,160,199109,1,0,0:0:0:0:
416,160,199202,1,0,0:0:0:0:
400,256,199387,2,8,P|352:288|304:288,1,80
185,289,199758,1,0,0:0:0:0:
185,289,199850,1,0,0:0:0:0:
185,289,199943,1,0,0:0:0:0:
123,183,200128,6,8,P|123:135|155:103,1,80
280,66,200498,1,0,0:0:0:0:
280,66,200591,1,0,0:0:0:0:
280,66,200684,1,0,0:0:0:0:
141,111,200869,2,8,P|118:154|124:186,1,80
192,288,201239,1,0,0:0:0:0:
192,288,201332,1,0,0:0:0:0:
192,288,201424,1,0,0:0:0:0:
352,272,201609,5,8,0:0:0:0:
384,160,201795,1,0,0:0:0:0:
256,80,201980,2,0,L|208:64,2,40
128,128,202350,1,8,0:0:0:0:
208,224,202535,1,0,0:0:0:0:
336,256,202721,2,0,L|384:240,2,40
416,144,203091,5,8,0:0:0:0:
288,96,203276,1,0,0:0:0:0:
192,176,203461,2,0,L|160:208,2,40
112,288,203832,1,8,0:0:0:0:
80,176,204017,1,0,0:0:0:0:
176,96,204202,2,0,L|224:80,2,40
320,80,204572,6,8,P|368:128|368:160,1,80
320,240,204943,2,0,L|288:272,2,40
192,304,205313,2,8,P|141:294|112:272,1,80
80,176,205684,2,0,L|96:128,2,40
192,80,206054,2,8,P|256:128|272:160,1,80
304,224,206424,2,0,L|336:272,2,40
416,304,206795,2,8,P|432:240|416:192,1,80
384,128,207165,2,0,L|336:96,2,40
208,80,207535,5,8,0:0:0:0:
112,192,207721,1,8,0:0:0:0:
256,272,207906,2,0,L|320:256,2,40
368,160,208276,1,8,0:0:0:0:
208,144,208461,1,8,0:0:0:0:
176,272,208647,2,0,L|224:288,2,40
336,256,209017,5,8,0:0:0:0:
384,144,209202,1,8,0:0:0:0:
256,96,209387,2,0,L|197:76,2,40
106,162,209758,1,0,0:0:0:0:
237,342,210128,5,0,0:0:0:0:
410,306,210498,5,8,0:0:0:0:
395,200,210684,1,8,0:0:0:0:
288,112,210869,1,0,0:0:0:0:
272,108,210961,1,0,0:0:0:0:
256,104,211054,1,0,0:0:0:0:
128,96,211239,1,0,0:0:0:0:
272,80,211424,1,8,0:0:0:0:
368,176,211609,1,0,0:0:0:0:
363,191,211702,1,0,0:0:0:0:
359,206,211795,1,0,0:0:0:0:
304,304,211980,5,8,0:0:0:0:
192,272,212165,1,8,0:0:0:0:
128,192,212350,1,0,0:0:0:0:
122,176,212443,1,0,0:0:0:0:
117,161,212535,1,0,0:0:0:0:
112,146,212628,1,0,0:0:0:0:
107,131,212721,1,0,0:0:0:0:
