osu file format v14

[General]
AudioFilename: audio.mp3
AudioLeadIn: 0
PreviewTime: 75498
Countdown: 0
SampleSet: Soft
StackLeniency: 0.5
Mode: 0
LetterboxInBreaks: 0
WidescreenStoryboard: 1

[Editor]
Bookmarks: 7565,10528,13491,15714,16454,19417,22380,25343,26795,28276,28637,29377,30118,30859,31599,38637,40035,43081,46044,49007,51229,51414,51599,51970,57896,63091,63276,63461,63554,63637,74377,75488,75684,76599,80961,81609,84377,86980,87248,87535,90303,93266,94572,94943,96229,97711,99377,109748,111229,111785,114007,116970,122896,123637,125118,128081,128822,129562,130303,131044,131785,133647,134748,134758,134943,137711,140674,140869,143637,146147,146599,146795,149562,152525,155313,155591,158451,161414,164377,170303,173081,176229,179192,182340,182896,183451,183822,194933,206044,206795,207525,210488,212711
DistanceSpacing: 0.5
BeatDivisor: 4
GridSize: 16
TimelineZoom: 1

[Metadata]
Title:The Lost One's Weeping
TitleUnicode:ロストワンの号哭
Artist:Neru feat. Kagamine Rin
ArtistUnicode:Neru feat. 鏡音リン
Creator:Cheezit
Version:Impossible?
Source:
Tags:vocaloid sekai seifuku japanese
BeatmapID:1605045
BeatmapSetID:716180

[Difficulty]
HPDrainRate:6.5
CircleSize:4.2
OverallDifficulty:8.5
ApproachRate:9.2
SliderMultiplier:2.6
SliderTickRate:2

[Events]
//Background and Video events
0,0,"lostonesweepingbg.jpg",0,0
//Break Periods
//Storyboard Layer 0 (Background)
//Storyboard Layer 1 (Fail)
//Storyboard Layer 2 (Pass)
//Storyboard Layer 3 (Foreground)
//Storyboard Sound Samples

[TimingPoints]
1610,370.37037037037,4,2,0,100,1,0
75406,-100,4,2,0,100,0,1
99202,-100,4,2,0,100,0,0
134758,-100,4,2,0,100,0,1
158276,-100,4,2,0,100,0,0
164943,-133.333333333333,4,2,0,100,0,0
167165,-100,4,2,0,100,0,0
170313,-100,4,2,0,100,0,1
183647,-100,4,2,0,100,0,0

[Colours]
Combo1 : 140,0,0
Combo2 : 212,212,212

[HitObjects]
147,237,1610,6,0,P|111:165|144:112,1,130
196,49,1980,1,8,0:0:0:0:
226,39,2072,1,8,0:0:0:0:
258,37,2165,1,8,0:0:0:0:
289,44,2258,1,8,0:0:0:0:
315,62,2350,6,0,P|351:134|318:187,1,130
266,250,2720,1,8,0:0:0:0:
237,266,2813,1,8,0:0:0:0:
204,269,2906,1,8,0:0:0:0:
173,260,2998,1,8,0:0:0:0:
145,241,3091,6,0,P|109:169|142:116,1,130
194,53,3461,1,8,0:0:0:0:
225,44,3554,1,8,0:0:0:0:
257,41,3647,1,8,0:0:0:0:
288,46,3739,1,8,0:0:0:0:
317,60,3832,1,8,0:0:0:0:
99,206,4202,5,8,0:0:0:0:
264,263,4572,6,0,P|340:263|396:220,1,130
450,116,4943,1,8,0:0:0:0:
445,84,5035,1,8,0:0:0:0:
418,64,5128,1,8,0:0:0:0:
254,43,5313,6,0,P|213:107|220:177,1,130
289,300,5684,1,8,0:0:0:0:
272,327,5776,1,8,0:0:0:0:
239,334,5869,1,8,0:0:0:0:
91,301,6054,6,0,P|29:256|9:188,1,130
5,71,6424,1,8,0:0:0:0:
22,44,6516,1,8,0:0:0:0:
55,37,6609,1,8,0:0:0:0:
195,56,6795,6,0,P|260:95|285:160,1,130
265,266,7165,1,8,0:0:0:0:
248,293,7257,1,8,0:0:0:0:
215,300,7350,1,8,0:0:0:0:
83,293,7535,6,0,P|35:233|33:163,1,130
78,64,7906,2,8,P|107:41|144:45,2,65
240,215,8276,2,0,P|160:183|128:119,1,130
128,304,8647,2,8,P|160:333|208:336,2,65
320,320,9017,6,0,P|272:256|288:176,1,130
432,240,9387,2,8,P|433:202|416:176,2,65
352,80,9758,2,0,P|288:128|208:112,1,130
112,128,10128,2,8,P|90:164|100:223,2,65
160,304,10498,5,0,0:0:0:0:
272,288,10683,2,0,P|336:240|352:176,1,130,0|8,0:0|0:0,0:0:0:0:
358,162,10961,1,8,0:0:0:0:
361,130,11053,1,8,0:0:0:0:
240,48,11239,1,0,0:0:0:0:
160,112,11424,2,0,P|192:176|247:210,1,130,0|8,0:0|0:0,0:0:0:0:
268,222,11702,1,8,0:0:0:0:
298,234,11795,1,8,0:0:0:0:
128,320,11980,5,0,0:0:0:0:
96,208,12165,2,0,P|112:128|148:93,1,130,0|8,0:0|0:0,0:0:0:0:
169,74,12443,1,8,0:0:0:0:
196,57,12535,1,8,0:0:0:0:
240,224,12721,1,0,0:0:0:0:
336,304,12906,2,0,P|384:256|384:176,1,130,0|8,0:0|0:0,0:0:0:0:
386,164,13184,1,8,0:0:0:0:
376,133,13276,1,8,0:0:0:0:
156,98,13461,6,0,P|128:160|169:256,1,130
288,288,13832,1,8,0:0:0:0:
320,256,13924,1,8,0:0:0:0:
352,224,14017,1,8,0:0:0:0:
129,128,14202,2,0,P|192:80|257:80,1,130
416,112,14572,1,8,0:0:0:0:
416,144,14665,1,8,0:0:0:0:
416,176,14758,1,8,0:0:0:0:
368,320,14943,6,0,P|288:304|240:272,1,130
75,215,15313,1,8,0:0:0:0:
107,183,15406,1,8,0:0:0:0:
139,151,15498,1,8,0:0:0:0:
418,91,15684,5,8,0:0:0:0:
299,169,15869,1,8,0:0:0:0:
442,242,16054,1,8,0:0:0:0:
305,297,16239,1,8,0:0:0:0:
176,304,16424,6,0,P|112:256|96:192,1,130
106,50,16795,1,8,0:0:0:0:
136,61,16887,1,8,0:0:0:0:
166,73,16980,1,8,0:0:0:0:
234,212,17165,2,0,P|304:192|352:144,1,130
466,279,17535,1,8,0:0:0:0:
434,295,17628,1,8,0:0:0:0:
402,311,17721,1,8,0:0:0:0:
197,327,17906,6,0,P|118:305|78:236,1,130
144,112,18276,1,8,0:0:0:0:
160,83,18369,1,8,0:0:0:0:
177,56,18461,1,8,0:0:0:0:
194,205,18647,2,0,P|192:272|258:317,1,130
408,290,19017,1,8,0:0:0:0:
424,258,19109,1,8,0:0:0:0:
440,226,19202,1,8,0:0:0:0:
320,96,19387,5,0,0:0:0:0:
192,96,19572,2,0,P|112:112|96:176,1,130,0|8,0:0|0:0,0:0:0:0:
90,182,19850,1,8,0:0:0:0:
85,214,19943,1,8,0:0:0:0:
256,192,20128,1,0,0:0:0:0:
324,62,20313,2,0,P|404:78|436:142,1,130,0|8,0:0|0:0,0:0:0:0:
444,143,20591,1,8,0:0:0:0:
460,171,20684,1,8,0:0:0:0:
288,336,20869,5,0,0:0:0:0:
144,240,21054,2,0,P|128:176|160:112,1,130,0|8,0:0|0:0,0:0:0:0:
172,93,21332,1,8,0:0:0:0:
192,68,21424,1,8,0:0:0:0:
320,272,21609,1,0,0:0:0:0:
192,304,21795,2,0,P|112:288|80:224,1,130,0|8,0:0|0:0,0:0:0:0:
76,220,22072,1,8,0:0:0:0:
67,188,22165,1,8,0:0:0:0:
224,160,22350,6,0,P|272:208|352:208,1,130
416,96,22721,2,8,P|384:71|336:64,2,65
432,256,23091,2,0,P|384:304|304:320,1,130
124,257,23461,2,8,P|97:233|92:193,2,65
176,96,23832,2,0,P|192:160|272:192,1,130
429,195,24202,2,8,P|458:168|461:131,2,65
320,320,24572,2,0,P|256:336|176:304,1,130
59,206,24943,2,8,P|37:173|43:142,2,65
246,214,25313,6,0,P|304:256|384:240,1,130
400,128,25684,1,8,0:0:0:0:
416,100,25776,1,8,0:0:0:0:
432,71,25869,1,8,0:0:0:0:
272,64,26054,2,0,P|192:48|128:96,1,130
80,240,26424,1,8,0:0:0:0:
69,270,26517,1,8,0:0:0:0:
58,300,26609,1,8,0:0:0:0:
248,310,26795,5,8,0:0:0:0:
276,325,26887,1,0,0:0:0:0:
307,333,26980,1,0,0:0:0:0:
339,336,27072,1,0,0:0:0:0:
371,329,27165,2,0,P|403:317|427:291,3,65
465,206,27536,5,8,0:0:0:0:
474,174,27629,1,0,0:0:0:0:
473,141,27721,1,0,0:0:0:0:
461,110,27814,1,0,0:0:0:0:
442,82,27907,2,0,P|402:52|342:67,3,65
199,43,28276,5,4,0:0:0:0:
76,150,28647,1,8,0:0:0:0:
269,286,29017,1,0,0:0:0:0:
297,301,29109,1,0,0:0:0:0:
325,317,29202,1,0,0:0:0:0:
418,160,29387,1,8,0:0:0:0:
196,52,29758,1,0,0:0:0:0:
118,171,29943,2,8,P|143:230|215:247,1,130,0|8,0:0|0:0,0:0:0:0:
407,210,30312,1,0,0:0:0:0:
433,229,30405,1,0,0:0:0:0:
458,249,30498,1,0,0:0:0:0:
238,341,30869,1,8,0:0:0:0:
176,256,31239,6,8,P|192:128|336:96,1,260
424,280,31980,1,0,0:0:0:0:
402,304,32072,1,0,0:0:0:0:
381,329,32165,1,0,0:0:0:0:
272,64,32350,1,8,0:0:0:0:
144,128,32721,5,0,0:0:0:0:
64,240,32906,2,0,P|112:288|184:296,1,130,0|8,0:0|0:0,0:0:0:0:
376,330,33276,1,0,0:0:0:0:
406,319,33369,1,0,0:0:0:0:
436,308,33461,1,0,0:0:0:0:
458,162,33832,1,8,0:0:0:0:
305,36,34202,6,8,P|194:43|150:174,1,260
390,321,34943,1,0,0:0:0:0:
411,297,35035,1,0,0:0:0:0:
433,274,35128,1,0,0:0:0:0:
144,112,35313,1,8,0:0:0:0:
128,288,35684,5,0,0:0:0:0:
203,184,35869,2,0,P|224:112|277:72,1,130,0|8,0:0|0:0,0:0:0:0:
404,200,36239,1,8,0:0:0:0:
420,232,36332,1,0,0:0:0:0:
436,264,36424,1,0,0:0:0:0:
237,322,36795,1,8,0:0:0:0:
82,179,37165,6,8,B|114:115|178:67|258:67|338:83,1,260
384,272,37906,1,0,0:0:0:0:
352,288,37998,1,0,0:0:0:0:
320,304,38091,1,0,0:0:0:0:
144,288,38276,1,8,0:0:0:0:
112,144,38647,1,8,0:0:0:0:
127,115,38739,1,0,0:0:0:0:
147,89,38832,1,0,0:0:0:0:
172,69,38924,1,0,0:0:0:0:
199,51,39017,2,0,P|249:43|301:68,3,65
353,86,39387,1,8,0:0:0:0:
370,113,39480,1,0,0:0:0:0:
382,142,39572,1,0,0:0:0:0:
385,174,39665,1,0,0:0:0:0:
383,206,39758,2,0,P|367:260|323:288,3,65
210,313,40128,6,0,P|127:282|92:217,1,130
240,64,40498,2,8,P|275:63|304:80,2,65
336,272,40869,2,0,P|384:208|384:128,1,130
259,65,41239,2,8,P|224:64|195:81,2,65
160,304,41609,2,0,P|128:240|128:160,1,130
160,48,41980,2,8,P|201:58|224:96,2,65
128,224,42350,2,0,P|160:288|224:304,1,130
384,224,42721,2,8,P|403:193|400:160,2,65
256,304,43091,6,0,P|192:288|144:208,1,130
192,80,43461,1,8,0:0:0:0:
224,64,43554,1,8,0:0:0:0:
256,48,43647,1,8,0:0:0:0:
368,192,43832,2,0,P|288:192|224:240,1,130
127,325,44202,1,8,0:0:0:0:
143,293,44295,1,8,0:0:0:0:
159,261,44387,1,8,0:0:0:0:
115,125,44572,6,0,P|179:61|259:45,1,130
368,144,44943,1,0,0:0:0:0:
384,176,45035,1,8,0:0:0:0:
400,208,45128,1,8,0:0:0:0:
208,64,45313,2,0,P|144:112|144:192,1,130
297,263,45684,1,8,0:0:0:0:
323,282,45776,1,8,0:0:0:0:
353,306,45869,1,8,0:0:0:0:
144,304,46054,5,0,0:0:0:0:
128,175,46239,2,0,P|160:111|208:79,1,130,0|8,0:0|0:0,0:0:0:0:
240,64,46517,1,8,0:0:0:0:
277,55,46609,1,8,0:0:0:0:
297,214,46795,1,0,0:0:0:0:
416,80,46980,2,0,P|448:160|432:224,1,130,0|8,0:0|0:0,0:0:0:0:
431,232,47258,1,8,0:0:0:0:
420,262,47350,1,8,0:0:0:0:
208,320,47535,5,0,0:0:0:0:
288,240,47721,2,0,P|320:192|320:112,1,130,0|8,0:0|0:0,0:0:0:0:
312,90,47998,1,8,0:0:0:0:
297,60,48091,1,8,0:0:0:0:
160,80,48276,1,0,0:0:0:0:
144,240,48461,2,0,P|208:288|304:288,1,130,0|8,0:0|0:0,0:0:0:0:
288,294,48739,1,8,0:0:0:0:
320,291,48832,1,8,0:0:0:0:
272,160,49017,6,0,P|320:96|416:96,1,130
432,240,49387,1,8,0:0:0:0:
437,272,49480,1,8,0:0:0:0:
441,304,49572,1,8,0:0:0:0:
272,320,49758,2,0,P|192:320|128:256,1,130
176,144,50128,1,8,0:0:0:0:
179,111,50221,1,8,0:0:0:0:
183,79,50313,1,8,0:0:0:0:
320,64,50498,6,0,P|384:112|384:192,1,130
315,308,50869,1,8,0:0:0:0:
285,321,50961,1,8,0:0:0:0:
255,334,51054,1,8,0:0:0:0:
128,192,51239,2,0,B|112:127|112:127|160:80,2,130
312,114,51980,6,0,P|414:166|316:254,1,260,0|8,0:0|0:0,0:0:0:0:
184,271,52721,1,0,0:0:0:0:
154,257,52813,1,0,0:0:0:0:
124,243,52906,1,0,0:0:0:0:
256,96,53091,1,8,0:0:0:0:
368,240,53461,5,0,0:0:0:0:
160,128,53647,1,0,0:0:0:0:
192,272,53832,1,8,0:0:0:0:
304,144,54017,1,0,0:0:0:0:
336,112,54109,1,0,0:0:0:0:
368,80,54202,1,0,0:0:0:0:
304,288,54572,1,8,0:0:0:0:
112,272,54943,5,0,0:0:0:0:
96,160,55313,2,0,B|144:112|208:80|288:96|352:160,1,260,8|0,0:0|0:0,0:0:0:0:
357,159,55776,1,0,0:0:0:0:
384,176,55869,1,0,0:0:0:0:
272,320,56054,1,8,0:0:0:0:
133,103,56424,5,0,0:0:0:0:
141,281,56609,1,0,0:0:0:0:
300,160,56795,1,8,0:0:0:0:
375,268,56980,1,0,0:0:0:0:
394,294,57073,1,0,0:0:0:0:
416,325,57165,1,0,0:0:0:0:
222,186,57535,1,8,0:0:0:0:
370,327,57906,6,0,B|418:263|434:199|418:135|370:87,1,260,0|8,0:0|0:0,0:0:0:0:
240,64,58647,1,0,0:0:0:0:
192,80,58739,1,0,0:0:0:0:
144,96,58832,1,0,0:0:0:0:
96,288,59017,1,8,0:0:0:0:
240,304,59387,5,0,0:0:0:0:
374,182,59572,1,0,0:0:0:0:
188,99,59758,1,8,0:0:0:0:
144,256,59943,1,0,0:0:0:0:
176,288,60035,1,0,0:0:0:0:
208,320,60128,1,0,0:0:0:0:
320,112,60498,1,8,0:0:0:0:
144,96,60869,5,0,0:0:0:0:
128,224,61239,2,0,B|176:272|240:304|304:304|368:288,1,260,8|0,0:0|0:0,0:0:0:0:
398,280,61702,1,0,0:0:0:0:
429,273,61795,1,0,0:0:0:0:
304,144,61980,1,8,0:0:0:0:
186,54,62350,6,8,P|137:87|132:143,2,65
124,245,62721,2,8,P|157:294|213:299,2,65
364,261,63091,5,8,0:0:0:0:
384,239,63183,1,8,0:0:0:0:
397,212,63276,1,8,0:0:0:0:
402,183,63368,1,8,0:0:0:0:
398,153,63461,1,8,0:0:0:0:
386,126,63553,1,8,0:0:0:0:
366,104,63646,1,12,0:0:0:0:
192,64,63832,6,0,B|128:128|128:192|160:256,1,195,0|8,0:0|0:0,0:0:0:0:
288,304,64387,1,8,0:0:0:0:
336,288,64480,1,8,0:0:0:0:
384,272,64572,1,8,0:0:0:0:
353,92,64850,1,0,0:0:0:0:
144,112,65128,5,8,0:0:0:0:
160,160,65221,1,8,0:0:0:0:
176,208,65313,1,8,0:0:0:0:
347,288,65591,1,0,0:0:0:0:
368,112,65869,2,0,P|288:64|224:64,1,130,8|0,0:0|0:0,0:0:0:0:
130,73,66332,1,0,0:0:0:0:
224,304,66609,5,8,0:0:0:0:
208,256,66702,1,8,0:0:0:0:
192,208,66795,1,8,0:0:0:0:
386,74,67072,1,0,0:0:0:0:
403,210,67350,1,8,0:0:0:0:
361,233,67443,1,8,0:0:0:0:
320,256,67535,2,8,B|226:315|128:272,1,195,8|0,0:0|0:0,0:0:0:0:
128,128,68091,6,0,P|192:80|256:80,1,130,8|0,0:0|0:0,0:0:0:0:
211,302,68554,1,8,0:0:0:0:
368,224,68832,1,8,0:0:0:0:
384,176,68924,1,8,0:0:0:0:
400,128,69017,1,8,0:0:0:0:
218,225,69295,1,0,0:0:0:0:
159,60,69572,5,8,0:0:0:0:
143,88,69665,1,8,0:0:0:0:
128,117,69758,2,0,P|105:225|162:308,1,195,8|0,0:0|0:0,0:0:0:0:
396,256,70313,2,0,P|332:288|268:288,1,130,8|0,0:0|0:0,0:0:0:0:
126,195,70776,1,0,0:0:0:0:
288,80,71054,2,0,P|352:96|400:176,1,130,8|0,0:0|0:0,0:0:0:0:
353,303,71517,1,0,0:0:0:0:
129,249,71795,1,8,0:0:0:0:
118,218,71887,1,8,0:0:0:0:
107,187,71980,2,0,P|123:107|232:72,1,195,8|0,0:0|0:0,0:0:0:0:
370,235,72535,5,0,0:0:0:0:
295,301,72721,2,0,P|230:317|166:293,1,130,0|4,0:0|0:0,0:0:0:0:
141,185,73091,1,8,0:0:0:0:
150,149,73184,1,8,0:0:0:0:
161,125,73276,2,0,P|214:80|275:76,1,130,8|0,0:0|0:0,0:0:0:0:
356,96,73647,2,0,P|303:153|246:175,1,130,4|0,0:0|0:0,0:0:0:0:
224,320,74017,2,0,L|336:240,1,130,8|0,0:0|0:0,0:0:0:0:
345,85,74387,5,8,0:0:0:0:
323,69,74479,1,0,0:0:0:0:
299,58,74572,1,0,0:0:0:0:
273,50,74664,1,0,0:0:0:0:
247,47,74757,1,0,0:0:0:0:
220,49,74849,1,0,0:0:0:0:
194,55,74942,1,0,0:0:0:0:
169,65,75035,1,0,0:0:0:0:
147,79,75127,1,0,0:0:0:0:
127,96,75220,1,0,0:0:0:0:
110,117,75312,1,0,0:0:0:0:
97,140,75405,1,0,0:0:0:0:
87,165,75498,1,8,0:0:0:0:
82,191,75590,1,8,0:0:0:0:
82,218,75683,5,8,0:0:0:0:
400,128,75869,2,8,L|336:96,1,65
160,64,76147,1,0,0:0:0:0:
128,71,76239,2,8,P|56:111|39:200,1,130
176,288,76609,1,0,0:0:0:0:
336,240,76795,2,0,P|384:176|384:128,1,130
160,96,77165,1,0,0:0:0:0:
270,317,77443,2,0,L|197:293,1,65
260,72,77721,2,0,P|336:112|368:176,1,130
306,253,78091,2,0,P|352:304|432:309,1,130
192,304,78461,5,8,0:0:0:0:
175,276,78554,1,8,0:0:0:0:
159,247,78646,1,8,0:0:0:0:
352,208,78832,2,8,L|384:144,1,65
160,96,79202,2,0,P|82:103|43:151,1,130
96,288,79572,1,0,0:0:0:0:
288,272,79758,2,0,P|368:224|384:176,2,130
120,211,80406,2,0,L|76:146,1,65
297,67,80684,2,0,P|368:96|406:183,1,130,0|8,0:0|0:0,0:0:0:0:
409,165,80961,5,0,0:0:0:0:
416,190,81053,1,0,0:0:0:0:
417,216,81146,1,0,0:0:0:0:
411,242,81238,1,0,0:0:0:0:
398,266,81331,1,0,0:0:0:0:
380,285,81423,1,8,0:0:0:0:
356,298,81516,1,8,0:0:0:0:
331,305,81609,5,8,0:0:0:0:
368,160,81795,2,8,L|272:176,1,65
96,240,82072,1,0,0:0:0:0:
86,208,82165,2,8,P|80:128|116:78,1,130
291,67,82535,1,0,0:0:0:0:
176,304,82721,2,0,P|240:336|304:304,1,130
384,176,83091,1,0,0:0:0:0:
186,199,83369,2,0,L|113:216,1,65
96,64,83647,2,0,P|176:64|240:96,1,130
185,192,84017,2,0,P|175:265|239:351,1,130
416,304,84387,6,0,L|336:176,1,130,0|8,0:0|0:0,0:0:0:0:
163,274,84850,2,0,L|207:223,1,65
319,98,85128,1,0,0:0:0:0:
137,74,85313,1,0,0:0:0:0:
263,196,85498,2,0,P|185:195|130:153,1,130
136,323,85869,6,0,L|285:285,1,130,0|8,0:0|0:0,0:0:0:0:
436,198,86332,2,0,L|394:142,1,65
125,77,86609,1,0,0:0:0:0:
303,330,86795,1,0,0:0:0:0:
82,236,86980,1,0,0:0:0:0:
320,211,87165,1,8,0:0:0:0:
345,191,87257,1,0,0:0:0:0:
361,162,87350,1,8,0:0:0:0:
359,129,87442,1,8,0:0:0:0:
342,101,87535,5,8,0:0:0:0:
160,288,87721,2,8,L|240:272,1,65
176,64,87998,1,0,0:0:0:0:
143,64,88091,2,8,P|73:92|47:164,1,130
368,176,88461,1,0,0:0:0:0:
80,64,88647,1,0,0:0:0:0:
160,288,88832,1,0,0:0:0:0:
144,144,89017,2,0,B|208:96|272:80|336:80,1,195
357,86,89387,1,0,0:0:0:0:
384,320,89572,2,0,L|272:240,1,130
150,95,89943,2,0,P|114:161|127:230,1,130
304,128,90313,5,8,0:0:0:0:
352,112,90406,1,8,0:0:0:0:
400,96,90498,1,8,0:0:0:0:
256,256,90684,2,8,L|160:288,1,65
96,144,90961,1,0,0:0:0:0:
103,112,91054,2,8,P|155:49|219:45,1,130
384,160,91424,1,0,0:0:0:0:
272,288,91609,1,0,0:0:0:0:
112,288,91795,1,0,0:0:0:0:
80,160,91980,2,0,B|128:96|208:96|256:144,1,195
280,161,92350,1,0,0:0:0:0:
256,320,92535,2,0,L|144:240,1,130
92,77,92906,2,0,P|169:88|252:62,1,130
368,240,93276,5,8,0:0:0:0:
384,192,93369,1,8,0:0:0:0:
400,144,93461,1,8,0:0:0:0:
240,256,93647,2,8,L|272:192,1,65
93,310,93924,1,0,0:0:0:0:
82,279,94017,2,8,P|85:213|140:154,1,130
205,35,94387,1,0,0:0:0:0:
384,83,94572,2,0,P|298:126|331:216,1,195
319,208,94943,2,0,P|311:293|173:306,1,195
397,339,95498,2,0,P|455:287|453:181,1,130
370,210,95869,2,0,P|337:149|356:82,1,130
256,248,96239,5,0,0:0:0:0:
131,245,96424,2,0,P|96:176|120:123,1,130,8|0,0:0|0:0,0:0:0:0:
261,73,96795,1,8,0:0:0:0:
294,90,96887,1,8,0:0:0:0:
321,106,96980,2,0,P|368:160|370:217,1,130,8|0,0:0|0:0,0:0:0:0:
277,291,97350,2,0,P|197:309|117:264,1,130
160,112,97721,2,0,P|192:160|272:176,1,130,0|8,0:0|0:0,0:0:0:0:
124,305,98184,2,0,L|213:294,1,65
400,80,98461,2,0,P|416:151|432:224,1,130
160,112,99017,1,0,0:0:0:0:
192,288,99387,6,0,P|272:288|352:240,1,130
416,128,99758,1,8,0:0:0:0:
384,96,99850,1,8,0:0:0:0:
352,64,99943,1,8,0:0:0:0:
80,224,100128,2,0,P|128:176|208:160,1,130
416,304,100498,1,8,0:0:0:0:
368,288,100591,1,8,0:0:0:0:
320,272,100684,1,8,0:0:0:0:
90,107,100869,6,0,P|80:176|127:254,1,130
384,208,101239,1,8,0:0:0:0:
400,160,101332,1,8,0:0:0:0:
416,112,101424,1,8,0:0:0:0:
256,304,101609,2,0,P|176:288|128:240,1,130
224,144,101980,1,8,0:0:0:0:
192,112,102072,1,8,0:0:0:0:
160,80,102165,1,8,0:0:0:0:
144,304,102350,5,0,0:0:0:0:
336,288,102535,2,0,P|400:240|400:160,1,130,0|8,0:0|0:0,0:0:0:0:
405,161,102813,2,8,L|341:65,1,65
256,222,103091,1,0,0:0:0:0:
165,72,103276,2,0,P|112:128|117:200,1,130,0|8,0:0|0:0,0:0:0:0:
119,208,103554,2,8,L|174:283,1,65
258,126,103832,5,0,0:0:0:0:
413,246,104017,2,0,P|352:192|301:198,1,130,0|8,0:0|0:0,0:0:0:0:
276,204,104295,2,8,L|190:265,1,65
320,80,104572,1,0,0:0:0:0:
400,304,104758,2,0,P|320:320|247:262,1,130,0|8,0:0|0:0,0:0:0:0:
250,284,105035,2,8,L|176:198,1,65
400,144,105313,6,0,P|384:208|320:272,1,130
144,240,105684,1,8,0:0:0:0:
128,192,105776,1,8,0:0:0:0:
112,144,105869,1,8,0:0:0:0:
288,320,106054,2,0,P|352:288|400:224,1,130
272,96,106424,1,8,0:0:0:0:
224,112,106517,1,8,0:0:0:0:
176,128,106609,1,8,0:0:0:0:
384,96,106795,6,0,P|376:184|322:250,1,130
192,168,107165,1,8,0:0:0:0:
153,145,107258,1,8,0:0:0:0:
116,123,107350,1,8,0:0:0:0:
259,309,107535,2,0,P|337:326|419:293,1,130
404,67,107906,1,8,0:0:0:0:
375,103,107998,1,8,0:0:0:0:
344,139,108091,1,8,0:0:0:0:
160,304,108276,6,0,P|96:256|96:160,1,130
304,80,108647,2,8,P|344:82|384:112,2,65
272,320,109017,2,0,P|240:256|240:176,1,130
432,192,109387,2,8,P|419:152|384:128,2,65
256,64,109758,5,8,0:0:0:0:
217,70,109850,1,0,0:0:0:0:
180,85,109943,1,0,0:0:0:0:
152,112,110035,1,0,0:0:0:0:
135,140,110128,2,0,P|117:205|133:245,3,65
171,278,110498,5,8,0:0:0:0:
208,289,110591,1,0,0:0:0:0:
247,289,110684,1,0,0:0:0:0:
281,271,110776,1,0,0:0:0:0:
309,254,110869,2,0,P|351:209|354:169,3,65
312,113,111239,6,4,B|192:96|192:96|224:208|224:208|170:241|170:241|80:144,1,390
278,31,111980,1,8,0:0:0:0:
368,144,112258,2,8,P|400:224|336:304,1,195
124,285,112721,1,8,0:0:0:0:
330,244,112998,1,8,0:0:0:0:
304,96,113276,2,0,L|128:64,1,130
250,159,113832,1,8,0:0:0:0:
144,304,114017,5,8,0:0:0:0:
416,320,114202,2,4,B|416:240|416:240|304:224|304:224|384:128|384:128|272:96,1,390
81,272,114943,1,8,0:0:0:0:
96,80,115221,1,0,0:0:0:0:
182,312,115499,1,8,0:0:0:0:
192,80,115684,2,0,P|256:144|368:176,1,195,8|0,0:0|0:0,0:0:0:0:
192,320,116239,2,0,L|80:224,1,130
304,33,116795,1,8,0:0:0:0:
390,214,116980,5,8,0:0:0:0:
208,80,117165,2,4,B|80:80|80:80|90:158|294:183|127:295|127:295,1,390
336,303,117906,1,8,0:0:0:0:
304,80,118184,1,8,0:0:0:0:
96,80,118461,2,0,P|80:176|96:224,1,130
352,160,118924,1,8,0:0:0:0:
208,320,119202,2,0,L|80:272,1,130,8|0,0:0|0:0,0:0:0:0:
288,96,119758,5,0,0:0:0:0:
256,192,120128,12,0,121239,0:0:0:0:
128,256,121424,6,0,P|107:228|112:192,2,65
288,288,121887,1,0,0:0:0:0:
352,112,122165,1,0,0:0:0:0:
96,176,122535,1,0,0:0:0:0:
181,312,122721,5,8,0:0:0:0:
212,307,122813,1,8,0:0:0:0:
242,295,122906,1,8,0:0:0:0:
267,275,122998,1,8,0:0:0:0:
285,248,123091,1,8,0:0:0:0:
133,78,123369,1,0,0:0:0:0:
90,301,123647,5,8,0:0:0:0:
176,272,123739,2,8,L|256:240,1,65
272,77,124109,1,0,0:0:0:0:
304,304,124387,2,0,P|224:304|176:256,1,130,8|0,0:0|0:0,0:0:0:0:
394,168,124850,1,0,0:0:0:0:
180,45,125128,1,8,0:0:0:0:
141,122,125221,2,8,L|109:186,1,65
379,295,125591,1,0,0:0:0:0:
112,304,125869,6,0,P|80:240|112:160,1,130,8|0,0:0|0:0,0:0:0:0:
392,145,126332,1,0,0:0:0:0:
107,301,126609,1,8,0:0:0:0:
133,314,126702,1,8,0:0:0:0:
160,320,126795,2,0,P|256:304|336:240,1,195,8|0,0:0|0:0,0:0:0:0:
96,176,127350,1,8,0:0:0:0:
432,169,127535,2,0,P|325:128|240:185,1,195
417,302,128091,1,8,0:0:0:0:
332,315,128184,2,8,L|266:324,1,65
110,168,128554,1,0,0:0:0:0:
336,304,128832,5,8,0:0:0:0:
373,232,128924,2,8,L|405:168,1,65
124,302,129295,1,0,0:0:0:0:
151,57,129572,1,8,0:0:0:0:
224,96,129665,2,8,L|288:128,1,65
170,297,130035,1,0,0:0:0:0:
441,246,130313,5,8,0:0:0:0:
384,192,130406,2,8,L|336:144,1,65
120,95,130776,1,0,0:0:0:0:
404,344,131054,1,8,0:0:0:0:
327,308,131147,2,8,L|244:271,1,65
323,71,131517,1,0,0:0:0:0:
65,294,131795,6,8,L|193:246,1,130
200,67,132258,2,0,L|219:137,1,65
401,314,132535,1,0,0:0:0:0:
423,73,132721,2,0,P|376:135|321:157,1,130
104,244,133091,1,0,0:0:0:0:
132,96,133276,6,8,L|228:224,1,130
271,64,133647,1,8,0:0:0:0:
306,68,133739,1,0,0:0:0:0:
340,83,133832,1,0,0:0:0:0:
368,105,133924,1,0,0:0:0:0:
389,135,134017,1,0,0:0:0:0:
401,169,134109,1,8,0:0:0:0:
404,205,134202,1,0,0:0:0:0:
396,241,134295,1,0,0:0:0:0:
380,273,134387,1,0,0:0:0:0:
355,300,134480,1,0,0:0:0:0:
324,319,134572,1,0,0:0:0:0:
289,328,134665,1,0,0:0:0:0:
253,328,134758,1,8,0:0:0:0:
218,319,134850,1,8,0:0:0:0:
187,300,134943,5,8,0:0:0:0:
10,239,135128,2,8,L|96:151,1,65
194,164,135406,1,0,0:0:0:0:
226,160,135498,2,8,P|281:140|328:73,1,130
431,241,135869,1,0,0:0:0:0:
144,112,136054,2,0,P|224:80|304:112,1,130
112,272,136424,2,0,P|192:320|320:320,1,195
330,319,136795,1,0,0:0:0:0:
416,112,136980,2,0,L|288:64,1,130
161,98,137350,2,0,L|287:210,1,130
112,224,137721,5,8,0:0:0:0:
144,256,137813,1,8,0:0:0:0:
176,288,137906,1,8,0:0:0:0:
400,144,138091,2,8,L|288:160,1,65
368,320,138461,2,0,P|291:337|239:314,1,130
48,254,138832,1,0,0:0:0:0:
400,192,139017,2,0,P|352:128|288:112,1,130
112,192,139387,2,0,P|176:272|288:304,1,195
293,307,139758,1,0,0:0:0:0:
434,111,139943,2,0,P|400:160|330:167,1,130
168,63,140313,2,0,P|87:120|101:195,1,130
116,259,140684,5,8,0:0:0:0:
140,290,140776,1,8,0:0:0:0:
164,323,140869,1,8,0:0:0:0:
336,320,141054,2,8,L|400:240,1,65
234,157,141332,1,0,0:0:0:0:
201,154,141424,2,8,P|132:138|83:79,1,130
368,208,141795,1,0,0:0:0:0:
193,75,141980,2,0,P|257:43|337:59,1,130
368,304,142350,2,0,P|256:336|144:304,1,195
149,310,142721,1,0,0:0:0:0:
400,144,142906,2,0,L|256:176,1,130
93,207,143276,2,0,P|117:140|169:108,1,130
96,320,143647,5,8,0:0:0:0:
128,160,143832,2,0,B|208:80|352:128,1,195,8|0,0:0|0:0,0:0:0:0:
340,126,144202,1,0,0:0:0:0:
400,320,144387,2,0,L|256:272,1,130
248,55,144758,2,0,P|192:115|194:184,1,130
384,80,145128,5,8,0:0:0:0:
96,192,145313,2,0,P|176:272|256:288,1,195,8|0,0:0|0:0,0:0:0:0:
286,289,145684,1,0,0:0:0:0:
304,128,145869,2,0,P|256:64|160:80,1,130
178,63,146147,1,0,0:0:0:0:
151,66,146239,1,0,0:0:0:0:
127,77,146332,1,0,0:0:0:0:
106,93,146424,1,0,0:0:0:0:
91,115,146517,1,0,0:0:0:0:
82,140,146609,1,8,0:0:0:0:
80,166,146702,1,8,0:0:0:0:
85,192,146795,5,8,0:0:0:0:
224,48,146980,2,8,L|288:96,1,65
80,304,147258,1,0,0:0:0:0:
105,284,147350,2,8,P|169:253|239:259,1,130
384,304,147721,1,0,0:0:0:0:
320,112,147906,2,0,P|256:80|176:80,1,130
112,256,148276,2,0,B|192:320|304:304,1,195
328,302,148647,1,0,0:0:0:0:
209,49,148832,2,0,P|208:112|161:177,1,130
240,305,149202,2,0,P|240:224|288:184,1,130
384,320,149572,5,8,0:0:0:0:
400,272,149665,1,8,0:0:0:0:
416,224,149758,1,8,0:0:0:0:
160,304,149943,2,8,L|128:240,1,65
336,80,150221,1,0,0:0:0:0:
309,98,150313,2,8,P|256:164|258:229,1,130
83,130,150684,1,0,0:0:0:0:
336,320,150869,2,0,P|256:320|192:288,1,130
192,96,151239,2,0,B|288:48|384:128,1,195
397,143,151609,1,0,0:0:0:0:
112,304,151795,2,0,P|80:240|80:176,1,130
248,226,152165,2,0,P|256:309|327:340,1,130
439,115,152535,5,8,0:0:0:0:
407,147,152628,1,8,0:0:0:0:
375,179,152721,1,8,0:0:0:0:
56,287,152906,2,8,L|72:223,1,65
240,128,153184,1,0,0:0:0:0:
217,151,153276,2,8,P|178:216|187:282,1,130
416,320,153647,1,0,0:0:0:0:
352,224,153832,2,0,P|272:272|170:190,1,195
175,201,154202,2,0,P|217:110|307:94,1,195
300,258,154758,2,0,P|216:321|153:292,1,130
139,92,155221,1,8,0:0:0:0:
172,74,155313,2,0,P|256:64|320:112,1,130,8|0,0:0|0:0,0:0:0:0:
384,223,155684,5,0,0:0:0:0:
265,286,155869,1,0,0:0:0:0:
256,165,156054,1,0,0:0:0:0:
146,230,156239,1,0,0:0:0:0:
170,85,156424,1,0,0:0:0:0:
52,156,156609,1,0,0:0:0:0:
108,37,156795,2,0,P|160:80|235:83,1,130
368,64,157165,5,8,0:0:0:0:
409,274,157535,2,0,L|307:129,1,130
125,58,157906,5,8,0:0:0:0:
246,197,158276,5,8,0:0:0:0:
128,256,158461,1,8,0:0:0:0:
336,320,158647,1,8,0:0:0:0:
256,64,158832,2,8,L|320:96,1,65
226,208,159109,2,8,L|134:167,1,65
352,320,159572,1,0,0:0:0:0:
432,144,159758,2,0,P|384:96|304:96,1,130
112,320,160128,2,0,P|80:224|144:112,1,195
432,288,160684,2,0,L|320:176,1,130
144,80,161424,5,8,0:0:0:0:
128,128,161517,1,8,0:0:0:0:
112,176,161609,1,8,0:0:0:0:
400,288,161795,2,8,L|416:224,1,65
176,320,162072,2,8,L|112:288,1,65
304,96,162535,1,0,0:0:0:0:
96,192,162721,2,0,P|128:272|192:304,1,130
384,256,163091,2,0,B|368:144|272:96,1,195
80,320,163647,2,0,L|208:288,1,130
384,64,164387,6,8,P|416:84|432:128,2,65
128,112,164758,1,0,0:0:0:0:
192,304,164943,2,0,P|256:336|320:312,1,97.50000371933
111,219,165313,2,0,P|112:160|164:105,1,97.50000371933
363,193,165684,2,0,P|304:224|230:222,1,97.50000371933
141,304,166054,2,0,P|192:320|261:288,1,97.50000371933
141,98,166424,2,0,P|176:144|176:208,1,97.50000371933
352,291,166795,2,0,P|368:224|341:159,1,97.50000371933
173,251,167165,2,0,P|125:299|61:315,1,130
345,57,167535,6,0,P|393:121|393:185,1,130
50,50,167906,2,0,P|98:114|158:116,1,130
347,323,168276,2,0,P|403:305|439:242,1,130
192,34,168647,2,0,P|224:114|288:146,1,130
132,328,169017,2,0,P|212:328|270:267,1,130
98,126,169387,1,8,0:0:0:0:
340,54,169572,1,8,0:0:0:0:
224,333,169758,1,8,0:0:0:0:
431,217,169943,1,8,0:0:0:0:
187,49,170128,1,8,0:0:0:0:
128,304,170313,5,8,0:0:0:0:
144,256,170406,1,8,0:0:0:0:
160,208,170498,1,8,0:0:0:0:
432,176,170684,2,8,L|368:144,1,65
96,128,170961,1,0,0:0:0:0:
116,102,171054,2,8,P|185:56|242:51,1,130
288,320,171424,1,0,0:0:0:0:
400,112,171609,2,0,P|336:80|256:96,1,130
112,240,171980,2,0,P|192:304|304:320,1,195
313,320,172350,1,0,0:0:0:0:
112,80,172535,2,0,L|288:64,1,130
400,240,173091,5,8,0:0:0:0:
365,257,173184,1,8,0:0:0:0:
329,272,173276,1,8,0:0:0:0:
291,282,173369,1,8,0:0:0:0:
252,282,173461,1,8,0:0:0:0:
352,48,173647,2,8,L|272:96,1,65
96,192,173924,1,0,0:0:0:0:
91,224,174017,2,8,P|97:306|134:356,1,130
448,224,174387,1,0,0:0:0:0:
272,64,174572,2,0,P|192:80|144:128,1,130
224,320,174943,2,0,B|336:320|416:256,1,195
433,244,175313,1,0,0:0:0:0:
64,80,175498,2,0,P|96:160|176:176,1,130
323,215,175869,2,0,P|298:290|239:317,1,130
432,304,176239,5,8,0:0:0:0:
416,256,176332,1,8,0:0:0:0:
400,208,176424,1,8,0:0:0:0:
96,304,176609,2,8,L|128:224,1,65
320,48,176887,1,0,0:0:0:0:
294,68,176980,2,0,P|248:121|225:188,1,130
400,320,177350,1,0,0:0:0:0:
96,256,177535,2,0,P|80:176|144:112,1,130
384,64,177906,2,0,B|400:176|336:272,1,195
334,281,178276,1,0,0:0:0:0:
64,160,178461,2,0,P|128:112|192:112,1,130
293,145,178832,2,0,P|368:144|420:82,1,130
368,288,179202,5,8,0:0:0:0:
128,304,179387,2,0,P|80:208|94:117,1,195,8|0,0:0|0:0,0:0:0:0:
107,95,179758,1,0,0:0:0:0:
288,320,179943,2,0,P|304:256|368:192,1,130
376,86,180313,2,0,P|306:93|252:58,1,130
112,112,180684,1,8,0:0:0:0:
400,240,180869,2,0,P|304:304|208:278,1,195,8|0,0:0|0:0,0:0:0:0:
200,278,181239,1,0,0:0:0:0:
133,39,181424,1,0,0:0:0:0:
442,146,181609,1,8,0:0:0:0:
233,336,181980,1,8,0:0:0:0:
112,192,182350,5,8,0:0:0:0:
122,154,182443,1,8,0:0:0:0:
139,119,182535,1,8,0:0:0:0:
166,91,182628,1,8,0:0:0:0:
400,192,182906,5,8,0:0:0:0:
390,230,182999,1,8,0:0:0:0:
373,265,183091,1,8,0:0:0:0:
346,293,183184,1,8,0:0:0:0:
256,192,183461,1,0,0:0:0:0:
96,64,183832,6,0,P|176:48|272:96,1,130
364,226,184202,1,8,0:0:0:0:
348,274,184295,1,8,0:0:0:0:
332,322,184387,1,8,0:0:0:0:
160,320,184572,2,0,P|112:272|96:192,1,130
306,216,184943,1,8,0:0:0:0:
354,200,185035,1,8,0:0:0:0:
402,184,185128,1,8,0:0:0:0:
223,341,185313,6,0,P|288:336|337:289,1,130
192,64,185684,1,8,0:0:0:0:
176,112,185776,1,8,0:0:0:0:
160,160,185869,1,8,0:0:0:0:
379,163,186054,2,0,P|336:224|266:237,1,130
96,336,186424,1,8,0:0:0:0:
112,288,186517,1,8,0:0:0:0:
128,240,186609,1,8,0:0:0:0:
352,320,186795,6,0,P|400:256|400:192,1,130
128,96,187165,2,8,P|149:123|192:144,2,65
416,240,187535,2,0,P|336:288|272:288,1,130
368,64,187906,2,8,P|328:66|288:96,2,65
128,320,188276,6,0,P|96:256|96:176,1,130
288,303,188647,2,8,P|327:288|352:255,2,65
448,64,189017,2,0,P|384:112|320:112,1,130
96,272,189387,2,8,P|100:236|128:208,2,65
416,320,189758,5,0,0:0:0:0:
176,80,189943,2,0,P|224:128|320:144,1,130,0|8,0:0|0:0,0:0:0:0:
313,152,190221,1,8,0:0:0:0:
345,157,190313,1,8,0:0:0:0:
96,304,190498,1,0,0:0:0:0:
352,304,190684,2,0,P|384:240|368:160,1,130,0|8,0:0|0:0,0:0:0:0:
367,153,190961,1,8,0:0:0:0:
354,123,191054,1,8,0:0:0:0:
128,96,191239,5,0,0:0:0:0:
416,208,191424,2,0,P|352:256|288:272,1,130,0|8,0:0|0:0,0:0:0:0:
272,276,191702,1,8,0:0:0:0:
239,280,191795,1,8,0:0:0:0:
432,64,191980,1,0,0:0:0:0:
128,320,192165,2,0,P|96:256|112:176,1,130,0|8,0:0|0:0,0:0:0:0:
109,167,192443,1,8,0:0:0:0:
117,135,192535,1,8,0:0:0:0:
432,304,192721,6,0,P|352:304|304:256,1,130
416,144,193091,1,8,0:0:0:0:
400,96,193184,1,8,0:0:0:0:
384,48,193276,1,8,0:0:0:0:
102,270,193461,2,0,P|166:318|262:302,1,130
112,48,193832,1,8,0:0:0:0:
128,96,193924,1,8,0:0:0:0:
144,144,194017,1,8,0:0:0:0:
416,320,194202,6,0,P|432:240|368:176,1,130
112,304,194572,1,8,0:0:0:0:
160,288,194665,1,8,0:0:0:0:
208,272,194758,1,8,0:0:0:0:
130,69,194943,5,8,0:0:0:0:
271,142,195128,1,8,0:0:0:0:
105,220,195313,1,8,0:0:0:0:
269,297,195498,1,8,0:0:0:0:
416,256,195684,6,0,P|448:176|416:96,1,130
112,304,196054,2,8,P|120:266|160:224,2,65
96,80,196424,2,0,P|160:32|240:64,1,130
352,304,196795,2,8,P|385:333|432:336,2,65
416,64,197165,6,0,P|368:128|288:160,1,130
96,64,197535,2,8,P|91:106|112:144,2,65
416,320,197906,2,0,P|384:256|320:224,1,130
123,273,198276,2,8,P|89:296|75:337,2,65
416,96,198647,6,0,P|416:176|352:256,1,130
96,288,199017,1,8,0:0:0:0:
80,240,199109,1,8,0:0:0:0:
64,192,199202,1,8,0:0:0:0:
304,320,199387,2,0,P|384:320|432:240,1,130
240,80,199758,1,8,0:0:0:0:
192,96,199850,1,8,0:0:0:0:
144,112,199943,1,8,0:0:0:0:
416,277,200128,6,0,P|434:217|389:130,1,130
160,320,200498,1,8,0:0:0:0:
144,272,200591,1,8,0:0:0:0:
128,224,200684,1,8,0:0:0:0:
400,64,200869,2,0,P|320:48|240:112,1,130
336,336,201239,1,8,0:0:0:0:
384,320,201332,1,8,0:0:0:0:
432,304,201424,1,8,0:0:0:0:
96,128,201609,5,0,0:0:0:0:
352,256,201795,2,0,P|288:304|192:304,1,130,0|8,0:0|0:0,0:0:0:0:
207,310,202072,1,8,0:0:0:0:
175,302,202165,1,8,0:0:0:0:
320,80,202350,1,0,0:0:0:0:
80,272,202535,2,0,P|144:304|224:304,1,130,0|8,0:0|0:0,0:0:0:0:
233,304,202813,1,8,0:0:0:0:
265,298,202906,1,8,0:0:0:0:
400,96,203091,5,0,0:0:0:0:
128,288,203276,2,0,P|96:224|96:160,1,130,0|8,0:0|0:0,0:0:0:0:
104,135,203554,1,8,0:0:0:0:
113,103,203647,1,8,0:0:0:0:
384,304,203832,1,0,0:0:0:0:
416,96,204017,2,0,P|352:144|288:144,1,130,0|8,0:0|0:0,0:0:0:0:
271,145,204295,1,8,0:0:0:0:
238,141,204387,1,8,0:0:0:0:
400,320,204572,6,0,P|416:256|400:192,1,130
112,304,204943,2,8,P|149:301|176:272,2,65
352,64,205313,2,0,P|288:112|288:176,1,130
112,160,205684,2,8,P|90:125|96:80,2,65
172,291,206054,5,8,0:0:0:0:
202,317,206146,1,0,0:0:0:0:
239,334,206239,1,0,0:0:0:0:
280,341,206331,1,0,0:0:0:0:
312,343,206424,2,0,P|372:334|401:300,3,65
426,222,206794,5,8,0:0:0:0:
428,181,206887,1,0,0:0:0:0:
419,141,206979,1,0,0:0:0:0:
399,106,207072,1,0,0:0:0:0:
379,80,207165,2,0,P|326:44|282:38,3,65
222,58,207535,6,0,B|144:80|133:151,1,130
158,245,207906,1,8,0:0:0:0:
176,271,207998,1,8,0:0:0:0:
202,289,208091,1,8,0:0:0:0:
232,299,208184,1,8,0:0:0:0:
264,298,208276,6,0,B|352:272|352:192,1,130
332,110,208646,1,8,0:0:0:0:
307,87,208739,1,8,0:0:0:0:
278,71,208831,1,8,0:0:0:0:
246,61,208924,1,8,0:0:0:0:
213,58,209017,6,0,P|153:87|128:160,1,130
139,227,209387,1,8,0:0:0:0:
156,254,209480,1,8,0:0:0:0:
177,278,209572,1,8,0:0:0:0:
205,294,209665,1,8,0:0:0:0:
235,306,209758,1,8,0:0:0:0:
400,320,210128,1,8,0:0:0:0:
128,224,210498,6,0,P|112:144|162:104,1,130
228,67,210869,1,8,0:0:0:0:
260,65,210961,1,8,0:0:0:0:
291,74,211054,1,8,0:0:0:0:
318,92,211147,1,8,0:0:0:0:
340,115,211239,6,0,P|368:192|325:238,1,130
247,280,211609,1,8,0:0:0:0:
214,280,211702,1,8,0:0:0:0:
182,272,211795,1,8,0:0:0:0:
152,259,211887,1,8,0:0:0:0:
125,240,211980,6,0,P|79:178|111:130,1,130
187,66,212350,1,8,0:0:0:0:
218,56,212443,1,8,0:0:0:0:
250,57,212535,1,8,0:0:0:0:
281,65,212628,1,8,0:0:0:0:
309,81,212721,1,8,0:0:0:0:
