osu file format v14

[General]
AudioFilename: audio.ogg
AudioLeadIn: 0
PreviewTime: 75321
Countdown: 0
SampleSet: Normal
StackLeniency: 0.7
Mode: 1
LetterboxInBreaks: 0
WidescreenStoryboard: 1

[Editor]
Bookmarks: 4419,16271,28122,39974,51826,63678,75530,87382,99233,111085,122937,134789,170345,183678
DistanceSpacing: 1.7
BeatDivisor: 4
GridSize: 32
TimelineZoom: 0.6999998

[Metadata]
Title:Lost One no Goukoku
TitleUnicode:ロストワンの号哭
Artist:Neru feat. Kagamine Rin
ArtistUnicode:Neru feat. 鏡音リン
Creator:gaston_2199
Version:Kantan
Source:
Tags:the lost one's ones weeping rosuto wan 世界征服 sekai seifuku world conquest 押入れp oshiirep oshiire-p oshiire p 友達募集P Tomodachi Boshuu P TomodachiBoshuuP TomoboP Tomobo-P ft. featuring 456 ボーカロイド vocaloid japanese rock j-rock jrock
BeatmapID:4507632
BeatmapSetID:2141614

[Difficulty]
HPDrainRate:8
CircleSize:2
OverallDifficulty:3
ApproachRate:10
SliderMultiplier:1.4
SliderTickRate:1

[Events]
//Background and Video events
0,0,"BG.jpg",0,-50
Video,-150,"TaikoMV.mp4"
//Break Periods
//Storyboard Layer 0 (Background)
//Storyboard Layer 1 (Fail)
//Storyboard Layer 2 (Pass)
//Storyboard Layer 3 (Foreground)
//Storyboard Layer 4 (Overlay)
//Storyboard Sound Samples

[TimingPoints]
1456,370.37037037037,4,1,0,80,1,0
15527,-100,4,1,0,60,0,0
16209,-100,4,1,0,80,0,0
28395,-100,4,1,0,70,0,0
39971,-100,4,1,0,80,0,0
51823,-100,4,1,0,70,0,0
63770,-100,4,1,0,65,0,0
69604,-100,4,1,0,70,0,0
69696,-100,4,1,0,65,0,0
72379,-100,4,1,0,80,0,0
75530,-100,4,1,0,90,0,1
99233,-100,4,1,0,70,0,0
99604,-100,4,1,0,80,0,0
123018,-100,4,1,0,65,0,0
128852,-100,4,1,0,70,0,0
128944,-100,4,1,0,65,0,0
131627,-100,4,1,0,80,0,0
134789,-100,4,1,0,90,0,1
158493,-100,4,1,0,80,0,0
164415,-100,4,1,0,70,0,0
168863,-100,4,1,0,80,0,0
170344,-100,4,1,0,100,0,1
182196,-100,4,1,0,90,0,0
183307,-100,4,1,0,80,0,0
194778,-100,4,1,0,60,0,0
195460,-100,4,1,0,80,0,0

[HitObjects]
250,165,1456,1,0,0:0:0:0:
250,165,2196,1,0,0:0:0:0:
250,165,2567,1,8,0:0:0:0:
250,165,2937,1,0,0:0:0:0:
250,165,3678,1,8,0:0:0:0:
256,192,4418,5,12,0:0:0:0:
256,192,5159,1,0,0:0:0:0:
256,192,5530,1,8,0:0:0:0:
256,192,5900,1,0,0:0:0:0:
256,192,6641,1,8,0:0:0:0:
256,192,7011,1,8,0:0:0:0:
256,192,7381,1,0,0:0:0:0:
256,192,8122,1,0,0:0:0:0:
256,192,8863,1,0,0:0:0:0:
255,161,9233,1,8,0:0:0:0:
256,192,9604,1,0,0:0:0:0:
256,192,10344,1,12,0:0:0:0:
256,192,11085,1,0,0:0:0:0:
256,192,11455,1,8,0:0:0:0:
256,192,11826,1,0,0:0:0:0:
256,192,12567,1,8,0:0:0:0:
256,192,12937,1,8,0:0:0:0:
256,192,13307,1,0,0:0:0:0:
256,192,14048,1,0,0:0:0:0:
256,192,14789,1,8,0:0:0:0:
256,192,16270,1,12,0:0:0:0:
256,192,17011,1,0,0:0:0:0:
256,192,17381,1,8,0:0:0:0:
256,192,17752,1,0,0:0:0:0:
256,192,18493,1,8,0:0:0:0:
256,192,18863,1,8,0:0:0:0:
256,192,19233,1,0,0:0:0:0:
256,192,19974,1,0,0:0:0:0:
256,192,20715,1,0,0:0:0:0:
256,192,21085,1,8,0:0:0:0:
256,192,21455,1,0,0:0:0:0:
256,192,22196,1,12,0:0:0:0:
256,192,22937,1,0,0:0:0:0:
256,192,23307,1,8,0:0:0:0:
256,192,23678,1,0,0:0:0:0:
256,192,24418,1,8,0:0:0:0:
256,192,24789,1,8,0:0:0:0:
256,192,25159,1,0,0:0:0:0:
256,192,25900,1,0,0:0:0:0:
256,192,26641,1,8,0:0:0:0:
62,16,27011,1,0,0:0:0:0:
256,192,27381,1,8,0:0:0:0:
256,192,27752,1,8,0:0:0:0:
231,155,28122,1,4,0:0:0:0:
256,192,29233,1,8,0:0:0:0:
256,192,29604,1,0,0:0:0:0:
256,192,30159,1,8,0:0:0:0:
256,192,31085,1,0,0:0:0:0:
256,192,32196,1,8,0:0:0:0:
256,192,32567,1,8,0:0:0:0:
224,160,33122,1,0,0:0:0:0:
224,160,34048,1,4,0:0:0:0:
256,192,35159,1,8,0:0:0:0:
256,192,35530,1,0,0:0:0:0:
256,192,36085,1,8,0:0:0:0:
256,192,37011,1,0,0:0:0:0:
256,192,38122,1,8,0:0:0:0:
256,192,38493,1,8,0:0:0:0:
224,160,39048,1,8,0:0:0:0:
224,160,39604,1,0,0:0:0:0:
256,192,39974,1,12,0:0:0:0:
256,192,40715,1,0,0:0:0:0:
256,192,41085,1,8,0:0:0:0:
256,192,41455,1,0,0:0:0:0:
256,192,42196,1,8,0:0:0:0:
256,192,42567,1,8,0:0:0:0:
256,192,42937,1,0,0:0:0:0:
256,192,43678,1,0,0:0:0:0:
256,192,44418,1,0,0:0:0:0:
256,192,44789,1,8,0:0:0:0:
256,192,45159,1,0,0:0:0:0:
256,192,45900,1,12,0:0:0:0:
256,192,46641,1,0,0:0:0:0:
256,192,47011,1,8,0:0:0:0:
256,192,47381,1,0,0:0:0:0:
256,192,48122,1,8,0:0:0:0:
256,192,48493,1,8,0:0:0:0:
256,192,48863,1,0,0:0:0:0:
256,192,49604,1,0,0:0:0:0:
256,192,50344,1,8,0:0:0:0:
231,155,51826,1,4,0:0:0:0:
256,192,52937,1,8,0:0:0:0:
256,192,53307,1,0,0:0:0:0:
256,192,53863,1,8,0:0:0:0:
256,192,54789,1,0,0:0:0:0:
256,192,55900,1,0,0:0:0:0:
256,192,56270,1,8,0:0:0:0:
224,160,56826,1,8,0:0:0:0:
224,160,57752,1,4,0:0:0:0:
256,192,58863,1,8,0:0:0:0:
256,192,59233,1,0,0:0:0:0:
256,192,59789,1,8,0:0:0:0:
256,192,60715,1,0,0:0:0:0:
256,192,61826,1,8,0:0:0:0:
256,192,62196,1,8,0:0:0:0:
224,160,62937,1,0,0:0:0:0:
256,192,63678,5,4,0:0:0:0:
224,192,64418,1,8,0:0:0:0:
224,192,65159,1,0,0:0:0:0:
224,192,65900,1,8,0:0:0:0:
224,192,66641,1,0,0:0:0:0:
224,192,67381,1,0,0:0:0:0:
224,192,68122,1,8,0:0:0:0:
224,192,68863,1,8,0:0:0:0:
224,192,69604,1,4,0:0:0:0:
224,192,70344,1,8,0:0:0:0:
224,192,71085,1,0,0:0:0:0:
224,192,71826,1,8,0:0:0:0:
224,192,72567,1,0,0:0:0:0:
224,192,74048,1,4,0:0:0:0:
224,192,74789,1,8,0:0:0:0:
224,192,75159,1,8,0:0:0:0:
224,192,75530,1,4,0:0:0:0:
192,160,76641,1,8,0:0:0:0:
192,160,77011,1,0,0:0:0:0:
192,160,77381,1,0,0:0:0:0:
192,160,77752,1,8,0:0:0:0:
192,160,78493,1,0,0:0:0:0:
192,160,79048,1,0,0:0:0:0:
241,164,79604,1,8,0:0:0:0:
160,160,79974,1,8,0:0:0:0:
402,222,80344,1,0,0:0:0:0:
160,160,80715,1,8,0:0:0:0:
160,160,81455,1,4,0:0:0:0:
192,128,82567,1,0,0:0:0:0:
192,128,82937,1,8,0:0:0:0:
192,128,83307,1,0,0:0:0:0:
192,128,83678,1,8,0:0:0:0:
192,128,84418,1,0,0:0:0:0:
192,128,84789,1,8,0:0:0:0:
192,128,85159,1,0,0:0:0:0:
192,128,85900,1,8,0:0:0:0:
215,102,86270,1,0,0:0:0:0:
192,128,86641,1,8,0:0:0:0:
192,128,87011,1,8,0:0:0:0:
192,128,87381,1,4,0:0:0:0:
192,160,88493,1,8,0:0:0:0:
192,160,88863,1,0,0:0:0:0:
201,125,89233,1,0,0:0:0:0:
192,160,89604,1,8,0:0:0:0:
192,160,90344,1,0,0:0:0:0:
192,160,90900,1,8,0:0:0:0:
217,147,91455,1,0,0:0:0:0:
160,160,91826,1,8,0:0:0:0:
302,38,92196,1,8,0:0:0:0:
160,160,92567,1,0,0:0:0:0:
160,160,93307,1,4,0:0:0:0:
192,128,94418,1,8,0:0:0:0:
192,128,94789,1,0,0:0:0:0:
271,55,95159,1,8,0:0:0:0:
192,128,95530,1,0,0:0:0:0:
192,128,96270,1,8,0:0:0:0:
192,128,96641,1,0,0:0:0:0:
192,128,97011,1,8,0:0:0:0:
192,128,97752,1,0,0:0:0:0:
361,8,98122,1,8,0:0:0:0:
192,128,98493,1,0,0:0:0:0:
192,128,99604,1,12,0:0:0:0:
256,192,100344,1,8,0:0:0:0:
256,192,100715,1,0,0:0:0:0:
256,192,101455,1,8,0:0:0:0:
256,192,101826,1,8,0:0:0:0:
256,192,102196,1,0,0:0:0:0:
256,192,102937,1,0,0:0:0:0:
256,192,103678,1,0,0:0:0:0:
256,192,104048,1,8,0:0:0:0:
256,192,104418,1,0,0:0:0:0:
256,192,105159,1,12,0:0:0:0:
256,192,105900,1,0,0:0:0:0:
256,192,106270,1,8,0:0:0:0:
256,192,106641,1,0,0:0:0:0:
256,192,107381,1,8,0:0:0:0:
256,192,107752,1,8,0:0:0:0:
256,192,108122,1,0,0:0:0:0:
256,192,108863,1,0,0:0:0:0:
256,192,109604,1,8,0:0:0:0:
62,16,109974,1,0,0:0:0:0:
256,192,110344,1,8,0:0:0:0:
256,192,110715,5,8,0:0:0:0:
231,155,111085,1,4,0:0:0:0:
256,192,112567,1,0,0:0:0:0:
256,192,114048,1,8,0:0:0:0:
256,192,115530,1,8,0:0:0:0:
224,192,117011,1,4,0:0:0:0:
224,160,117752,1,0,0:0:0:0:
224,160,118493,1,8,0:0:0:0:
224,160,119233,1,8,0:0:0:0:
224,160,119974,1,4,0:0:0:0:
256,192,122567,1,8,0:0:0:0:
256,192,122937,5,4,0:0:0:0:
224,192,123678,1,8,0:0:0:0:
224,192,124418,1,8,0:0:0:0:
224,192,125159,1,8,0:0:0:0:
224,192,125900,1,0,0:0:0:0:
224,192,126641,1,0,0:0:0:0:
224,192,127381,1,8,0:0:0:0:
224,192,128122,1,8,0:0:0:0:
224,192,128863,1,4,0:0:0:0:
224,192,129604,1,8,0:0:0:0:
224,192,130344,1,0,0:0:0:0:
224,192,131085,1,8,0:0:0:0:
224,192,131826,1,0,0:0:0:0:
224,192,133307,1,4,0:0:0:0:
224,192,134048,1,8,0:0:0:0:
224,192,134418,1,8,0:0:0:0:
224,192,134789,1,4,0:0:0:0:
192,160,135900,1,8,0:0:0:0:
192,160,136270,1,0,0:0:0:0:
352,280,136641,1,0,0:0:0:0:
192,160,137011,1,8,0:0:0:0:
192,160,137752,1,0,0:0:0:0:
192,160,138307,1,0,0:0:0:0:
257,161,138863,1,8,0:0:0:0:
160,160,139233,1,8,0:0:0:0:
389,87,139604,1,0,0:0:0:0:
160,160,139974,1,8,0:0:0:0:
160,160,140715,1,4,0:0:0:0:
192,128,141826,1,0,0:0:0:0:
192,128,142196,1,8,0:0:0:0:
383,42,142567,1,0,0:0:0:0:
192,128,142937,1,8,0:0:0:0:
192,128,143678,1,0,0:0:0:0:
125,323,144048,1,8,0:0:0:0:
192,128,144418,1,0,0:0:0:0:
192,128,145159,1,8,0:0:0:0:
401,56,145530,1,0,0:0:0:0:
192,128,145900,1,8,0:0:0:0:
399,56,146270,1,8,0:0:0:0:
192,128,146641,1,4,0:0:0:0:
192,160,147752,1,8,0:0:0:0:
192,160,148122,1,0,0:0:0:0:
197,130,148493,1,0,0:0:0:0:
192,160,148863,1,8,0:0:0:0:
192,160,149604,1,0,0:0:0:0:
192,160,150159,1,8,0:0:0:0:
488,16,150715,1,0,0:0:0:0:
160,160,151085,1,8,0:0:0:0:
369,62,151455,1,8,0:0:0:0:
160,160,151826,1,0,0:0:0:0:
160,160,152567,1,4,0:0:0:0:
192,128,153678,1,8,0:0:0:0:
192,128,154048,1,0,0:0:0:0:
378,26,154418,1,8,0:0:0:0:
192,128,154789,1,0,0:0:0:0:
192,128,155530,1,8,0:0:0:0:
192,128,155900,1,8,0:0:0:0:
192,128,156270,1,0,0:0:0:0:
383,3,156641,1,0,0:0:0:0:
192,128,157011,5,12,0:0:0:0:
192,128,157752,1,12,0:0:0:0:
192,128,158493,1,0,0:0:0:0:
192,160,159604,1,0,0:0:0:0:
192,160,160715,1,8,0:0:0:0:
192,160,161085,1,0,0:0:0:0:
192,160,161455,1,8,0:0:0:0:
192,160,162567,1,8,0:0:0:0:
192,160,163678,1,8,0:0:0:0:
192,160,164418,1,4,0:0:0:0:
192,160,165159,1,0,0:0:0:0:
192,160,165900,1,8,0:0:0:0:
192,160,166641,1,8,0:0:0:0:
192,160,167381,1,0,0:0:0:0:
192,160,167752,1,8,0:0:0:0:
192,160,168122,1,0,0:0:0:0:
192,160,168863,1,12,0:0:0:0:
192,160,169604,1,8,0:0:0:0:
192,160,169974,1,8,0:0:0:0:
164,112,170344,1,4,0:0:0:0:
192,160,171455,1,8,0:0:0:0:
192,160,171826,1,0,0:0:0:0:
211,123,172196,1,0,0:0:0:0:
192,160,172567,1,8,0:0:0:0:
192,160,172937,1,8,0:0:0:0:
192,160,173307,1,0,0:0:0:0:
192,160,173863,1,8,0:0:0:0:
192,160,174418,1,0,0:0:0:0:
160,160,174789,1,8,0:0:0:0:
380,84,175159,1,8,0:0:0:0:
160,160,175530,1,0,0:0:0:0:
160,160,176270,1,4,0:0:0:0:
192,128,177381,1,8,0:0:0:0:
192,128,177752,1,0,0:0:0:0:
192,128,178122,1,8,0:0:0:0:
192,128,178493,1,0,0:0:0:0:
192,128,179233,1,8,0:0:0:0:
409,250,179604,1,0,0:0:0:0:
192,128,179974,1,8,0:0:0:0:
192,128,180715,1,0,0:0:0:0:
192,128,181085,1,8,0:0:0:0:
192,128,181455,1,0,0:0:0:0:
192,128,181826,1,0,0:0:0:0:
192,128,182196,5,8,0:0:0:0:
256,192,183678,1,12,0:0:0:0:
256,192,184418,1,0,0:0:0:0:
256,192,184789,1,8,0:0:0:0:
256,192,185159,1,0,0:0:0:0:
256,192,185900,1,8,0:0:0:0:
256,192,186270,1,8,0:0:0:0:
256,192,186641,1,0,0:0:0:0:
256,192,187381,1,0,0:0:0:0:
256,192,188122,1,0,0:0:0:0:
255,161,188493,1,8,0:0:0:0:
256,192,188863,1,0,0:0:0:0:
256,192,189604,1,12,0:0:0:0:
256,192,190344,1,0,0:0:0:0:
256,192,190715,1,8,0:0:0:0:
256,192,191085,1,0,0:0:0:0:
256,192,191826,1,8,0:0:0:0:
256,192,192196,1,8,0:0:0:0:
256,192,192567,1,0,0:0:0:0:
256,192,193307,1,0,0:0:0:0:
256,192,194048,1,8,0:0:0:0:
256,192,195530,5,12,0:0:0:0:
256,192,196270,1,0,0:0:0:0:
256,192,196641,1,8,0:0:0:0:
256,192,197011,1,0,0:0:0:0:
256,192,197752,1,8,0:0:0:0:
256,192,198122,1,8,0:0:0:0:
256,192,198493,1,0,0:0:0:0:
256,192,199233,1,0,0:0:0:0:
256,192,199974,1,0,0:0:0:0:
256,192,200344,1,8,0:0:0:0:
256,192,200715,1,0,0:0:0:0:
256,192,201455,1,12,0:0:0:0:
256,192,202196,1,0,0:0:0:0:
256,192,202567,1,8,0:0:0:0:
256,192,202937,1,0,0:0:0:0:
256,192,203678,1,8,0:0:0:0:
256,192,204048,1,8,0:0:0:0:
256,192,204418,1,0,0:0:0:0:
256,192,205159,1,0,0:0:0:0:
256,192,205900,1,8,0:0:0:0:
62,16,206270,1,0,0:0:0:0:
256,192,206641,1,8,0:0:0:0:
256,192,207011,1,8,0:0:0:0:
256,192,207381,5,0,0:0:0:0:
256,192,208122,1,0,0:0:0:0:
256,192,208493,1,8,0:0:0:0:
256,192,208863,1,0,0:0:0:0:
234,173,209604,1,8,0:0:0:0:
234,173,210344,1,0,0:0:0:0:
234,173,211085,1,0,0:0:0:0:
234,173,211455,1,8,0:0:0:0:
234,173,211826,1,0,0:0:0:0:
234,173,212567,1,8,0:0:0:0:
