osu file format v14

[General]
AudioFilename: audio.ogg
AudioLeadIn: 0
PreviewTime: 75321
Countdown: 0
SampleSet: Normal
StackLeniency: 0.7
Mode: 1
LetterboxInBreaks: 0
WidescreenStoryboard: 0

[Editor]
Bookmarks: 4419,16271,28122,39974,51826,63678,75530,87382,99233,111085,122937,134789,170345,183678
DistanceSpacing: 1.7
BeatDivisor: 4
GridSize: 32
TimelineZoom: 1.4

[Metadata]
Title:Lost One no Goukoku
TitleUnicode:ロストワンの号哭
Artist:Neru feat. Kagamine Rin
ArtistUnicode:Neru feat. 鏡音リン
Creator:gaston_2199
Version:Inner Oni
Source:
Tags:the lost one's ones weeping rosuto wan 世界征服 sekai seifuku world conquest 押入れp oshiirep oshiire-p oshiire p 友達募集P Tomodachi Boshuu P TomodachiBoshuuP TomoboP Tomobo-P ft. featuring 456 ボーカロイド vocaloid japanese rock j-rock jrock
BeatmapID:4507631
BeatmapSetID:2141614

[Difficulty]
HPDrainRate:6
CircleSize:2
OverallDifficulty:6
ApproachRate:10
SliderMultiplier:1.4
SliderTickRate:1

[Events]
//Background and Video events
0,0,"BG.jpg",0,-50
Video,-150,"TaikoMV.mp4"
//Break Periods
//Storyboard Layer 0 (Background)
//Storyboard Layer 1 (Fail)
//Storyboard Layer 2 (Pass)
//Storyboard Layer 3 (Foreground)
//Storyboard Layer 4 (Overlay)
//Storyboard Sound Samples

[TimingPoints]
1456,370.37037037037,4,1,0,80,1,0
1456,-66.6666666666667,4,1,0,80,0,0
1637,-70.1754385964912,4,1,0,80,0,0
1822,-74.0740740740741,4,1,0,80,0,0
1915,-76.2022448769437,4,1,0,80,0,0
2007,-78.4313725490196,4,1,0,80,0,0
2100,-80.8213193534294,4,1,0,80,0,0
2192,-66.6666666666667,4,1,0,80,0,0
2378,-70.1903949985791,4,1,0,80,0,0
2563,-74.0851829634073,4,1,0,80,0,0
2655,-76.1875385564466,4,1,0,80,0,0
2748,-78.4375992378533,4,1,0,80,0,0
2841,-80.8246073298429,4,1,0,80,0,0
2933,-66.6666666666667,4,1,0,80,0,0
3118,-70.1704545454545,4,1,0,80,0,0
3303,-74.0629685157421,4,1,0,80,0,0
3396,-76.1875385564466,4,1,0,80,0,0
3489,-78.4375992378533,4,1,0,80,0,0
3581,-80.7981681386981,4,1,0,80,0,0
3674,-83.3333333333333,4,1,0,80,0,0
3858,-133.333333333333,4,1,0,80,0,0
4418,-74.0740740740741,4,1,0,80,0,0
4511,-83.3333333333333,4,1,0,80,0,0
10343,-74.0740740740741,4,1,0,80,0,0
10436,-83.3333333333333,4,1,0,80,0,0
15527,-88.9128869690425,4,1,0,60,0,0
15712,-95.2564596991901,4,1,0,60,0,0
15897,-102.574750830565,4,1,0,60,0,0
16082,-111.111111111111,4,1,0,60,0,0
16209,-74.0740740740741,4,1,0,80,0,0
16302,-83.3333333333333,4,1,0,80,0,0
22192,-74.0740740740741,4,1,0,80,0,0
22285,-83.3333333333333,4,1,0,80,0,0
26638,-82.1924566466859,4,1,0,80,0,0
26730,-81.6366531912287,4,1,0,80,0,0
26823,-81.0823964569037,4,1,0,80,0,0
26916,-80.5356150146231,4,1,0,80,0,0
27008,-80.0019208144253,4,1,0,80,0,0
27101,-79.4695668765503,4,1,0,80,0,0
27193,-78.949862572268,4,1,0,80,0,0
27286,-78.4313725490196,4,1,0,80,0,0
27379,-77.9196482858613,4,1,0,80,0,0
27564,-76.9213011058014,4,1,0,80,0,0
27749,-75.9482129832239,4,1,0,80,0,0
27842,-75.4682793141718,4,1,0,80,0,0
27934,-74.9994372791321,4,1,0,80,0,0
28027,-74.5313828121505,4,1,0,80,0,0
28119,-74.0740740740741,4,1,0,80,0,0
28395,-100,4,1,0,70,0,0
38490,-97.8273634762184,4,1,0,70,0,0
38582,-96.7816893226444,4,1,0,70,0,0
38675,-95.7471264367816,4,1,0,70,0,0
38768,-94.7344478562493,4,1,0,70,0,0
38860,-93.7535171637591,4,1,0,70,0,0
38953,-92.7823568723547,4,1,0,70,0,0
39045,-91.8412348401323,4,1,0,70,0,0
39138,-90.9090909090909,4,1,0,70,0,0
39230,-90.0054024851432,4,1,0,70,0,0
39416,-88.2321787946192,4,1,0,70,0,0
39601,-86.5364637440266,4,1,0,70,0,0
39693,-85.7172257666187,4,1,0,70,0,0
39786,-84.904698807461,4,1,0,70,0,0
39879,-84.1074313408724,4,1,0,70,0,0
39971,-74.0740740740741,4,1,0,80,0,0
40067,-83.3333333333333,4,1,0,80,0,0
45883,-74.0740740740741,4,1,0,80,0,0
45979,-83.3333333333333,4,1,0,80,0,0
51823,-100,4,1,0,70,0,0
63770,-111.111111111111,4,1,0,65,0,0
69604,-111.111111111111,4,1,0,70,0,0
69696,-111.111111111111,4,1,0,65,0,0
72379,-100,4,1,0,80,0,0
74045,-83.3333333333333,4,1,0,80,0,0
74230,-100,4,1,0,80,0,0
74323,-98.8546327845971,4,1,0,80,0,0
74416,-97.7352057796899,4,1,0,80,0,0
74508,-96.6524845468411,4,1,0,80,0,0
74601,-95.5821061405946,4,1,0,80,0,0
74693,-94.5463112018532,4,1,0,80,0,0
74786,-93.5218269380146,4,1,0,80,0,0
74879,-92.5193068736312,4,1,0,80,0,0
74971,-91.5484925673878,4,1,0,80,0,0
75064,-90.5876156797833,4,1,0,80,0,0
75156,-89.656713083625,4,1,0,80,0,0
75249,-88.7349375391532,4,1,0,80,0,0
75342,-87.8319229646922,4,1,0,80,0,0
75434,-86.9565217391304,4,1,0,80,0,0
75530,-80,4,1,0,90,0,1
84230,-71.4285714285714,4,1,0,90,0,1
84323,-72.9225233329585,4,1,0,90,0,1
84416,-74.4803032043184,4,1,0,90,0,1
84508,-76.0882318432477,4,1,0,90,0,1
84693,-79.5412731509874,4,1,0,90,0,1
84786,-81.3982678549015,4,1,0,90,0,1
84971,-85.3626431486113,4,1,0,90,0,1
85064,-87.5050600458777,4,1,0,90,0,1
85156,-89.7329458973295,4,1,0,90,0,1
85249,-92.1033944042039,4,1,0,90,0,1
85342,-94.6024799416484,4,1,0,90,0,1
85434,-98.4554060787245,4,1,0,90,0,1
85527,-100,4,1,0,90,0,1
85712,-90.9090909090909,4,1,0,90,0,1
85805,-89.8830953440395,4,1,0,90,0,1
85897,-88.8906668800256,4,1,0,90,0,1
85990,-87.9094793479981,4,1,0,90,0,1
86175,-86.0206728349657,4,1,0,90,0,1
86268,-85.1014936805822,4,1,0,90,0,1
86453,-83.3302081380086,4,1,0,90,0,1
86545,-82.4765227719832,4,1,0,90,0,1
86638,-81.6311535635562,4,1,0,90,0,1
86730,-80.811754437009,4,1,0,90,0,1
86823,-80,4,1,0,90,0,1
86916,-82.7582783100829,4,1,0,90,0,1
87008,-71.4285714285714,4,1,0,90,0,1
87101,-73.3999406469483,4,1,0,90,0,1
87193,-75.46018509102,4,1,0,90,0,1
87286,-77.6638057358175,4,1,0,90,0,1
87379,-80,4,1,0,90,0,1
96082,-71.4285714285714,4,1,0,90,0,1
96175,-72.9225233329585,4,1,0,90,0,1
96268,-74.4803032043184,4,1,0,90,0,1
96360,-76.0882318432477,4,1,0,90,0,1
96545,-79.5412731509874,4,1,0,90,0,1
96638,-81.3982678549015,4,1,0,90,0,1
96823,-85.3626431486113,4,1,0,90,0,1
96916,-87.5050600458777,4,1,0,90,0,1
97008,-89.7329458973295,4,1,0,90,0,1
97101,-92.1033944042039,4,1,0,90,0,1
97193,-94.574886976812,4,1,0,90,0,1
97379,-100,4,1,0,90,0,1
97564,-90.9090909090909,4,1,0,90,0,1
97656,-90.1454744658835,4,1,0,90,0,1
97749,-89.386486404925,4,1,0,90,0,1
97842,-88.6401723725161,4,1,0,90,0,1
98027,-87.1920167201437,4,1,0,90,0,1
98119,-86.4893275323386,4,1,0,90,0,1
98305,-85.1027151271369,4,1,0,90,0,1
98397,-84.4331689518543,4,1,0,90,0,1
98490,-83.7669683257919,4,1,0,90,0,1
98582,-83.1181950836233,4,1,0,90,0,1
98675,-82.4725045245719,4,1,0,90,0,1
98860,-81.2174389909515,4,1,0,90,0,1
98952,-80.6074130517607,4,1,0,90,0,1
99045,-80,4,1,0,90,0,1
99233,-100,4,1,0,70,0,0
99604,-74.0740740740741,4,1,0,80,0,0
99696,-83.3333333333333,4,1,0,80,0,0
105154,-74.0740740740741,4,1,0,80,0,0
105246,-83.3333333333333,4,1,0,80,0,0
109601,-82.1924566466859,4,1,0,80,0,0
109693,-81.6366531912287,4,1,0,80,0,0
109786,-81.0823964569037,4,1,0,80,0,0
109879,-80.5356150146231,4,1,0,80,0,0
109971,-80.0019208144253,4,1,0,80,0,0
110064,-79.4695668765503,4,1,0,80,0,0
110156,-78.949862572268,4,1,0,80,0,0
110249,-78.4313725490196,4,1,0,80,0,0
110342,-77.9196482858613,4,1,0,80,0,0
110527,-76.9213011058014,4,1,0,80,0,0
110712,-75.9482129832239,4,1,0,80,0,0
110805,-75.4682793141718,4,1,0,80,0,0
110897,-74.9994372791321,4,1,0,80,0,0
110990,-74.5313828121505,4,1,0,80,0,0
111082,-74.0740740740741,4,1,0,80,0,0
111270,-100,4,1,0,80,0,0
117193,-99.3795069595841,4,1,0,80,0,0
117286,-99.0704828139628,4,1,0,80,0,0
117379,-98.7633745541815,4,1,0,80,0,0
117564,-98.1580865301796,4,1,0,80,0,0
117749,-97.5601725330085,4,1,0,80,0,0
117934,-96.9694986254745,4,1,0,80,0,0
118119,-96.3859340945317,4,1,0,80,0,0
118305,-95.8062534355094,4,1,0,80,0,0
118490,-95.2365646695809,4,1,0,80,0,0
118675,-94.6736108892226,4,1,0,80,0,0
118768,-94.3931188276521,4,1,0,80,0,0
118860,-94.1172733625564,4,1,0,80,0,0
119045,-93.5674361322512,4,1,0,80,0,0
119230,-93.0239859349491,4,1,0,80,0,0
119416,-92.4839253386603,4,1,0,80,0,0
119508,-92.2191098661687,4,1,0,80,0,0
119601,-91.9529528597586,4,1,0,80,0,0
119786,-91.4280424586522,4,1,0,80,0,0
119971,-76.9230769230769,4,1,0,80,0,0
122564,-83.3333333333333,4,1,0,80,0,0
122656,-86.9360902255639,4,1,0,80,0,0
122749,-90.9090909090909,4,1,0,80,0,0
122842,-95.2626158599382,4,1,0,80,0,0
122934,-100,4,1,0,80,0,0
123018,-111.111111111111,4,1,0,65,0,0
128852,-111.111111111111,4,1,0,70,0,0
128944,-111.111111111111,4,1,0,65,0,0
131627,-100,4,1,0,80,0,0
133293,-83.3333333333333,4,1,0,80,0,0
133489,-100,4,1,0,80,0,0
133582,-98.8546327845971,4,1,0,80,0,0
133675,-97.7352057796899,4,1,0,80,0,0
133767,-96.6524845468411,4,1,0,80,0,0
133860,-95.5821061405946,4,1,0,80,0,0
133952,-94.5463112018532,4,1,0,80,0,0
134045,-93.5218269380146,4,1,0,80,0,0
134138,-92.5193068736312,4,1,0,80,0,0
134230,-91.5484925673878,4,1,0,80,0,0
134323,-90.5876156797833,4,1,0,80,0,0
134415,-89.656713083625,4,1,0,80,0,0
134508,-88.7349375391532,4,1,0,80,0,0
134601,-87.8319229646922,4,1,0,80,0,0
134693,-86.9565217391304,4,1,0,80,0,0
134789,-80,4,1,0,90,0,1
143490,-71.4285714285714,4,1,0,90,0,1
143582,-72.9072907290729,4,1,0,90,0,1
143675,-74.4656400827396,4,1,0,90,0,1
143768,-76.0920620009394,4,1,0,90,0,1
143953,-79.5482445371962,4,1,0,90,0,1
144045,-81.3865862848531,4,1,0,90,0,1
144230,-85.3530031612223,4,1,0,90,0,1
144323,-87.4966243586281,4,1,0,90,0,1
144416,-89.7506925207756,4,1,0,90,0,1
144508,-92.0977828311541,4,1,0,90,0,1
144601,-94.5985401459854,4,1,0,90,0,1
144786,-100,4,1,0,90,0,1
144969,-90.9090909090909,4,1,0,90,0,1
145062,-89.8830953440395,4,1,0,90,0,1
145154,-88.8906668800256,4,1,0,90,0,1
145247,-87.9094793479981,4,1,0,90,0,1
145432,-86.0206728349657,4,1,0,90,0,1
145525,-85.1014936805822,4,1,0,90,0,1
145710,-83.3302081380086,4,1,0,90,0,1
145802,-82.4765227719832,4,1,0,90,0,1
145895,-81.6311535635562,4,1,0,90,0,1
145987,-80.811754437009,4,1,0,90,0,1
146080,-80,4,1,0,90,0,1
146173,-82.7582783100829,4,1,0,90,0,1
146265,-71.4285714285714,4,1,0,90,0,1
146358,-73.3999406469483,4,1,0,90,0,1
146450,-75.46018509102,4,1,0,90,0,1
146543,-77.6638057358175,4,1,0,90,0,1
146636,-80,4,1,0,90,0,1
155342,-81.6398501212255,4,1,0,90,0,1
155434,-82.4760632375863,4,1,0,90,0,1
155527,-83.3389582630217,4,1,0,90,0,1
155712,-85.1102941176471,4,1,0,90,0,1
155897,-86.9585632116446,4,1,0,90,0,1
156082,-88.8888888888889,4,1,0,90,0,1
156175,-89.8920033976459,4,1,0,90,0,1
156268,-90.9180166912126,4,1,0,90,0,1
156360,-91.9563058589871,4,1,0,90,0,1
156453,-93.0302649755117,4,1,0,90,0,1
156545,-94.1176470588235,4,1,0,90,0,1
156638,-95.2429930573412,4,1,0,90,0,1
156730,-96.3830340879521,4,1,0,90,0,1
156823,-97.5635453707362,4,1,0,90,0,1
156916,-98.7733333333333,4,1,0,90,0,1
157008,-66.6666666666667,4,1,0,90,0,1
157379,-75.016880486158,4,1,0,90,0,1
157749,-85.7253086419753,4,1,0,90,0,1
158119,-100,4,1,0,90,0,1
158307,-83.3333333333333,4,1,0,80,0,1
158493,-83.3333333333333,4,1,0,80,0,0
160897,-90.9090909090909,4,1,0,80,0,0
161082,-100,4,1,0,80,0,0
161270,-83.3333333333333,4,1,0,80,0,0
163953,-88.8915547024952,4,1,0,80,0,0
164230,-95.2197378565921,4,1,0,80,0,0
164416,-100,4,1,0,70,0,0
168863,-90.9090909090909,4,1,0,80,0,0
169045,-97.5641869651086,4,1,0,80,0,0
169230,-95.2442159383034,4,1,0,80,0,0
169416,-93.0203364298268,4,1,0,80,0,0
169601,-90.9090909090909,4,1,0,80,0,0
169786,-88.8915547024952,4,1,0,80,0,0
169971,-86.9616242225091,4,1,0,80,0,0
170156,-85.1137146795314,4,1,0,80,0,0
170249,-84.2141152403682,4,1,0,80,0,0
170344,-76.9230769230769,4,1,0,100,0,1
179045,-68.9655172413793,4,1,0,100,0,1
179138,-70.3572106647861,4,1,0,100,0,1
179230,-71.7903301690975,4,1,0,100,0,1
179323,-73.2996128740569,4,1,0,100,0,1
179508,-76.4988646082161,4,1,0,100,0,1
179601,-78.2149856776722,4,1,0,100,0,1
179786,-81.8683919835885,4,1,0,100,0,1
179879,-83.8369800588216,4,1,0,100,0,1
179971,-85.8798212216521,4,1,0,100,0,1
180064,-88.0486066324972,4,1,0,100,0,1
180156,-90.3046127067015,4,1,0,100,0,1
180249,-92.7057646259962,4,1,0,100,0,1
180342,-95.2380952380952,4,1,0,100,0,1
180527,-86.9565217391304,4,1,0,100,0,1
180619,-86.257607967617,4,1,0,100,0,1
180712,-85.5624241723959,4,1,0,100,0,1
180805,-84.8783563056996,4,1,0,100,0,1
180990,-83.5495881755613,4,1,0,100,0,1
181082,-82.9041648007165,4,1,0,100,0,1
181268,-81.629278509618,4,1,0,100,0,1
181360,-81.0130736830589,4,1,0,100,0,1
181453,-80.3995548437882,4,1,0,100,0,1
181545,-79.8017081121858,4,1,0,100,0,1
181638,-79.2063322280458,4,1,0,100,0,1
181730,-78.6260352516458,4,1,0,100,0,1
181823,-78.0480092751179,4,1,0,100,0,1
181916,-77.4784200889354,4,1,0,100,0,1
182008,-76.9230769230769,4,1,0,100,0,1
182196,-66.6666666666667,4,1,0,90,0,0
182286,-70.6031746031746,4,1,0,90,0,0
182379,-75.0337381916329,4,1,0,90,0,0
182471,-80,4,1,0,90,0,0
182742,-66.6666666666667,4,1,0,90,0,0
182832,-70.6031746031746,4,1,0,90,0,0
182925,-75.0337381916329,4,1,0,90,0,0
183017,-80,4,1,0,90,0,0
183307,-100,4,1,0,80,0,0
183667,-74.0740740740741,4,1,0,80,0,0
183760,-83.3333333333333,4,1,0,80,0,0
189592,-74.0740740740741,4,1,0,80,0,0
189685,-83.3333333333333,4,1,0,80,0,0
194776,-88.9128869690425,4,1,0,60,0,0
194961,-95.2564596991901,4,1,0,60,0,0
195146,-102.574750830565,4,1,0,60,0,0
195331,-111.111111111111,4,1,0,60,0,0
195458,-74.0740740740741,4,1,0,80,0,0
195551,-83.3333333333333,4,1,0,80,0,0
201441,-74.0740740740741,4,1,0,80,0,0
201534,-83.3333333333333,4,1,0,80,0,0
205887,-82.1924566466859,4,1,0,80,0,0
205979,-81.6366531912287,4,1,0,80,0,0
206072,-81.0823964569037,4,1,0,80,0,0
206165,-80.5356150146231,4,1,0,80,0,0
206257,-80.0019208144253,4,1,0,80,0,0
206350,-79.4695668765503,4,1,0,80,0,0
206442,-78.949862572268,4,1,0,80,0,0
206535,-78.4313725490196,4,1,0,80,0,0
206628,-77.9196482858613,4,1,0,80,0,0
206813,-76.9213011058014,4,1,0,80,0,0
206998,-75.9482129832239,4,1,0,80,0,0
207091,-75.4682793141718,4,1,0,80,0,0
207183,-74.9994372791321,4,1,0,80,0,0
207276,-74.5313828121505,4,1,0,80,0,0
207368,-66.6666666666667,4,1,0,80,0,0
207564,-70.1754385964912,4,1,0,80,0,0
207749,-74.0740740740741,4,1,0,80,0,0
207842,-76.2022448769437,4,1,0,80,0,0
207934,-78.4313725490196,4,1,0,80,0,0
208027,-80.8213193534294,4,1,0,80,0,0
208119,-66.6666666666667,4,1,0,80,0,0
208305,-70.1903949985791,4,1,0,80,0,0
208490,-74.0851829634073,4,1,0,80,0,0
208582,-76.1875385564466,4,1,0,80,0,0
208675,-78.4375992378533,4,1,0,80,0,0
208768,-80.8246073298429,4,1,0,80,0,0
208860,-66.6666666666667,4,1,0,80,0,0
209045,-70.1704545454545,4,1,0,80,0,0
209230,-74.0629685157421,4,1,0,80,0,0
209323,-76.1875385564466,4,1,0,80,0,0
209416,-78.4375992378533,4,1,0,80,0,0
209508,-80.7981681386981,4,1,0,80,0,0
209601,-83.3333333333333,4,1,0,80,0,0
209974,-133.333333333333,4,1,0,80,0,0
210340,-66.6666666666667,4,1,0,80,0,0
210526,-70.1754385964912,4,1,0,80,0,0
210711,-74.0740740740741,4,1,0,80,0,0
210804,-76.2022448769437,4,1,0,80,0,0
210896,-78.4313725490196,4,1,0,80,0,0
210989,-80.8213193534294,4,1,0,80,0,0
211081,-66.6666666666667,4,1,0,80,0,0
211267,-70.1903949985791,4,1,0,80,0,0
211452,-74.0851829634073,4,1,0,80,0,0
211544,-76.1875385564466,4,1,0,80,0,0
211637,-78.4375992378533,4,1,0,80,0,0
211730,-80.8246073298429,4,1,0,80,0,0
211822,-66.6666666666667,4,1,0,80,0,0
212007,-70.1704545454545,4,1,0,80,0,0
212192,-74.0629685157421,4,1,0,80,0,0
212285,-76.1875385564466,4,1,0,80,0,0
212378,-78.4375992378533,4,1,0,80,0,0
212470,-80.7981681386981,4,1,0,80,0,0
212563,-83.3333333333333,4,1,0,80,0,0

[HitObjects]
256,192,1456,5,0,0:0:0:0:
256,192,1641,1,0,0:0:0:0:
256,192,1826,1,8,0:0:0:0:
256,160,1918,1,8,0:0:0:0:
246,204,2011,1,8,0:0:0:0:
256,160,2104,1,8,0:0:0:0:
256,192,2196,1,0,0:0:0:0:
256,192,2381,1,0,0:0:0:0:
256,192,2567,1,8,0:0:0:0:
256,192,2659,1,8,0:0:0:0:
256,192,2752,1,8,0:0:0:0:
256,192,2844,1,8,0:0:0:0:
246,204,2937,1,0,0:0:0:0:
256,192,3122,1,0,0:0:0:0:
256,192,3307,1,8,0:0:0:0:
256,192,3400,1,8,0:0:0:0:
256,192,3493,1,8,0:0:0:0:
256,192,3585,1,8,0:0:0:0:
256,192,3678,1,0,0:0:0:0:
246,204,4048,1,8,0:0:0:0:
256,192,4418,1,12,0:0:0:0:
256,192,4604,1,0,0:0:0:0:
256,192,4789,1,8,0:0:0:0:
256,192,4881,1,8,0:0:0:0:
256,192,4974,1,0,0:0:0:0:
256,192,5067,1,0,0:0:0:0:
256,192,5159,1,8,0:0:0:0:
256,192,5344,1,0,0:0:0:0:
256,192,5530,1,8,0:0:0:0:
256,192,5622,1,0,0:0:0:0:
256,192,5715,1,0,0:0:0:0:
256,192,5900,1,8,0:0:0:0:
256,192,6085,1,0,0:0:0:0:
256,192,6178,1,0,0:0:0:0:
256,192,6270,1,8,0:0:0:0:
256,192,6363,1,0,0:0:0:0:
256,192,6455,1,8,0:0:0:0:
256,160,6548,1,8,0:0:0:0:
256,192,6641,1,0,0:0:0:0:
256,192,6826,1,8,0:0:0:0:
256,192,6918,1,0,0:0:0:0:
256,192,7011,1,8,0:0:0:0:
256,192,7104,1,0,0:0:0:0:
256,192,7196,1,8,0:0:0:0:
256,192,7381,1,0,0:0:0:0:
256,192,7567,1,0,0:0:0:0:
256,192,7752,1,8,0:0:0:0:
256,192,7844,1,0,0:0:0:0:
256,192,7937,1,8,0:0:0:0:
256,128,8030,1,8,0:0:0:0:
256,192,8122,1,0,0:0:0:0:
256,192,8307,1,8,0:0:0:0:
256,192,8493,1,8,0:0:0:0:
256,192,8585,1,0,0:0:0:0:
256,192,8678,1,8,0:0:0:0:
256,192,8863,1,0,0:0:0:0:
256,192,9048,1,0,0:0:0:0:
256,192,9141,1,0,0:0:0:0:
256,192,9233,1,8,0:0:0:0:
256,192,9326,1,0,0:0:0:0:
256,192,9418,1,8,0:0:0:0:
256,192,9604,1,0,0:0:0:0:
256,192,9789,1,8,0:0:0:0:
256,192,9974,1,0,0:0:0:0:
256,192,10067,1,8,0:0:0:0:
256,192,10159,1,0,0:0:0:0:
256,192,10344,1,12,0:0:0:0:
256,192,10530,1,0,0:0:0:0:
256,192,10715,1,8,0:0:0:0:
256,192,10807,1,8,0:0:0:0:
256,192,10900,1,0,0:0:0:0:
256,192,11085,1,8,0:0:0:0:
256,192,11270,1,0,0:0:0:0:
224,96,11363,1,0,0:0:0:0:
256,192,11455,1,8,0:0:0:0:
256,192,11548,1,0,0:0:0:0:
256,192,11641,1,8,0:0:0:0:
256,192,11826,1,0,0:0:0:0:
256,192,12011,1,8,0:0:0:0:
256,192,12104,1,0,0:0:0:0:
256,192,12196,1,8,0:0:0:0:
256,192,12289,1,0,0:0:0:0:
256,192,12381,1,8,0:0:0:0:
256,160,12474,1,8,0:0:0:0:
256,192,12567,1,0,0:0:0:0:
256,192,12752,1,8,0:0:0:0:
256,192,12844,1,0,0:0:0:0:
256,192,12937,1,8,0:0:0:0:
256,192,13030,1,8,0:0:0:0:
256,192,13122,1,0,0:0:0:0:
256,192,13307,1,8,0:0:0:0:
256,192,13493,1,0,0:0:0:0:
256,192,13678,1,8,0:0:0:0:
256,192,13770,1,8,0:0:0:0:
256,192,13863,1,8,0:0:0:0:
256,128,13955,1,8,0:0:0:0:
256,192,14048,1,0,0:0:0:0:
256,192,14233,1,8,0:0:0:0:
256,192,14418,1,0,0:0:0:0:
256,192,14511,1,0,0:0:0:0:
256,192,14604,1,8,0:0:0:0:
256,192,14789,1,0,0:0:0:0:
256,192,14974,1,8,0:0:0:0:
256,192,15067,1,0,0:0:0:0:
256,192,15159,1,8,0:0:0:0:
256,192,15252,1,0,0:0:0:0:
256,192,15344,1,8,0:0:0:0:
256,192,15530,1,0,0:0:0:0:
256,192,15715,1,0,0:0:0:0:
256,192,15900,1,0,0:0:0:0:
256,192,16085,1,0,0:0:0:0:
256,192,16270,1,12,0:0:0:0:
256,192,16455,1,0,0:0:0:0:
256,192,16641,1,8,0:0:0:0:
256,192,16733,1,8,0:0:0:0:
256,192,16826,1,0,0:0:0:0:
256,192,16918,1,0,0:0:0:0:
256,192,17011,1,8,0:0:0:0:
256,192,17196,1,0,0:0:0:0:
256,192,17381,1,8,0:0:0:0:
256,192,17474,1,0,0:0:0:0:
256,192,17567,1,0,0:0:0:0:
256,192,17752,1,8,0:0:0:0:
256,192,17937,1,0,0:0:0:0:
256,192,18030,1,0,0:0:0:0:
256,192,18122,1,8,0:0:0:0:
256,192,18215,1,0,0:0:0:0:
256,192,18307,1,8,0:0:0:0:
256,160,18400,1,8,0:0:0:0:
256,192,18493,1,0,0:0:0:0:
256,192,18678,1,8,0:0:0:0:
256,192,18770,1,0,0:0:0:0:
256,192,18863,1,8,0:0:0:0:
256,192,18955,1,0,0:0:0:0:
256,192,19048,1,8,0:0:0:0:
256,192,19233,1,0,0:0:0:0:
256,192,19418,1,0,0:0:0:0:
256,192,19604,1,8,0:0:0:0:
256,192,19696,1,0,0:0:0:0:
256,192,19789,1,8,0:0:0:0:
256,128,19881,1,8,0:0:0:0:
256,192,19974,1,0,0:0:0:0:
256,192,20159,1,8,0:0:0:0:
256,192,20344,1,8,0:0:0:0:
256,192,20437,1,0,0:0:0:0:
256,192,20530,1,8,0:0:0:0:
256,192,20715,1,0,0:0:0:0:
256,192,20900,1,0,0:0:0:0:
256,192,20993,1,0,0:0:0:0:
256,192,21085,1,8,0:0:0:0:
256,192,21178,1,0,0:0:0:0:
256,192,21270,1,8,0:0:0:0:
256,192,21455,1,0,0:0:0:0:
256,192,21641,1,8,0:0:0:0:
256,192,21826,1,0,0:0:0:0:
256,192,21918,1,8,0:0:0:0:
256,192,22011,1,0,0:0:0:0:
256,192,22196,1,12,0:0:0:0:
256,192,22381,1,0,0:0:0:0:
256,192,22567,1,8,0:0:0:0:
256,192,22659,1,8,0:0:0:0:
256,192,22752,1,0,0:0:0:0:
256,192,22937,1,8,0:0:0:0:
256,192,23122,1,0,0:0:0:0:
224,96,23215,1,0,0:0:0:0:
256,192,23307,1,8,0:0:0:0:
256,192,23400,1,0,0:0:0:0:
256,192,23493,1,8,0:0:0:0:
256,192,23678,1,0,0:0:0:0:
256,192,23863,1,8,0:0:0:0:
256,192,23955,1,0,0:0:0:0:
256,192,24048,1,8,0:0:0:0:
256,192,24141,1,0,0:0:0:0:
256,192,24233,1,8,0:0:0:0:
256,160,24326,1,8,0:0:0:0:
256,192,24418,1,0,0:0:0:0:
256,192,24604,1,8,0:0:0:0:
256,192,24696,1,0,0:0:0:0:
256,192,24789,1,8,0:0:0:0:
256,192,24881,1,8,0:0:0:0:
256,192,24974,1,0,0:0:0:0:
256,192,25159,1,8,0:0:0:0:
256,192,25344,1,0,0:0:0:0:
256,192,25530,1,8,0:0:0:0:
256,192,25622,1,8,0:0:0:0:
256,192,25715,1,8,0:0:0:0:
256,128,25807,1,8,0:0:0:0:
256,192,25900,1,0,0:0:0:0:
256,192,26085,1,8,0:0:0:0:
256,192,26270,1,0,0:0:0:0:
256,192,26363,1,0,0:0:0:0:
256,192,26455,1,8,0:0:0:0:
256,192,26641,1,0,0:0:0:0:
256,192,26733,1,0,0:0:0:0:
256,192,26826,1,8,0:0:0:0:
256,192,26918,1,0,0:0:0:0:
256,192,27011,1,8,0:0:0:0:
256,192,27104,1,8,0:0:0:0:
256,192,27196,1,0,0:0:0:0:
256,192,27289,1,0,0:0:0:0:
256,192,27381,1,8,0:0:0:0:
256,192,27567,1,0,0:0:0:0:
256,192,27752,1,8,0:0:0:0:
256,192,27844,1,0,0:0:0:0:
256,192,27937,1,8,0:0:0:0:
256,192,28030,1,8,0:0:0:0:
256,192,28122,1,4,0:0:0:0:
288,192,28400,1,0,0:0:0:0:
256,192,28493,1,8,0:0:0:0:
256,192,28678,1,8,0:0:0:0:
256,192,28770,1,8,0:0:0:0:
256,192,28863,1,0,0:0:0:0:
256,192,29048,1,8,0:0:0:0:
256,192,29233,1,8,0:0:0:0:
256,192,29418,1,0,0:0:0:0:
256,192,29511,1,8,0:0:0:0:
256,192,29604,1,0,0:0:0:0:
256,192,29881,1,0,0:0:0:0:
256,192,29974,1,8,0:0:0:0:
256,192,30159,1,8,0:0:0:0:
256,192,30252,1,8,0:0:0:0:
256,192,30344,1,0,0:0:0:0:
256,192,30437,1,0,0:0:0:0:
256,192,30530,1,0,0:0:0:0:
256,192,30715,1,8,0:0:0:0:
256,192,30900,1,8,0:0:0:0:
256,192,30993,1,0,0:0:0:0:
256,192,31085,1,8,0:0:0:0:
256,192,31270,1,8,0:0:0:0:
256,192,31363,1,0,0:0:0:0:
256,192,31548,1,0,0:0:0:0:
256,192,31641,1,8,0:0:0:0:
256,192,31733,1,8,0:0:0:0:
256,192,31826,1,0,0:0:0:0:
256,192,32011,1,8,0:0:0:0:
256,192,32196,1,0,0:0:0:0:
256,192,32289,1,0,0:0:0:0:
256,192,32381,1,8,0:0:0:0:
256,192,32567,1,8,0:0:0:0:
224,160,32659,1,0,0:0:0:0:
256,192,32844,1,0,0:0:0:0:
256,192,32937,1,8,0:0:0:0:
224,160,33122,1,8,0:0:0:0:
224,160,33215,1,8,0:0:0:0:
224,160,33307,1,8,0:0:0:0:
224,160,33400,1,8,0:0:0:0:
224,160,33493,1,0,0:0:0:0:
224,160,33678,1,8,0:0:0:0:
224,160,33863,1,8,0:0:0:0:
224,160,33955,1,8,0:0:0:0:
224,160,34048,1,4,0:0:0:0:
288,192,34326,1,0,0:0:0:0:
256,192,34418,1,8,0:0:0:0:
256,192,34604,1,0,0:0:0:0:
256,192,34696,1,8,0:0:0:0:
256,192,34789,1,0,0:0:0:0:
256,192,34974,1,0,0:0:0:0:
256,192,35159,1,8,0:0:0:0:
256,192,35344,1,8,0:0:0:0:
256,192,35437,1,8,0:0:0:0:
256,192,35530,1,0,0:0:0:0:
256,192,35807,1,0,0:0:0:0:
256,192,35900,1,8,0:0:0:0:
256,192,36085,1,0,0:0:0:0:
256,192,36178,1,0,0:0:0:0:
256,192,36270,1,8,0:0:0:0:
256,192,36363,1,0,0:0:0:0:
256,192,36455,1,0,0:0:0:0:
256,192,36641,1,8,0:0:0:0:
256,192,36826,1,0,0:0:0:0:
256,192,37011,1,8,0:0:0:0:
256,192,37196,1,0,0:0:0:0:
256,192,37289,1,8,0:0:0:0:
256,192,37474,1,8,0:0:0:0:
256,192,37567,1,8,0:0:0:0:
256,192,37659,1,0,0:0:0:0:
256,192,37752,1,0,0:0:0:0:
256,192,37937,1,8,0:0:0:0:
256,192,38122,1,8,0:0:0:0:
256,192,38215,1,0,0:0:0:0:
256,192,38307,1,8,0:0:0:0:
256,192,38493,1,0,0:0:0:0:
192,160,38585,1,0,0:0:0:0:
224,160,38678,1,8,0:0:0:0:
256,192,38770,1,8,0:0:0:0:
256,192,38863,1,0,0:0:0:0:
224,160,38955,1,8,0:0:0:0:
224,160,39048,1,8,0:0:0:0:
224,160,39141,1,8,0:0:0:0:
224,160,39233,1,0,0:0:0:0:
224,160,39418,1,8,0:0:0:0:
224,160,39604,1,8,0:0:0:0:
224,160,39696,1,8,0:0:0:0:
224,160,39789,1,0,0:0:0:0:
224,160,39881,1,0,0:0:0:0:
256,192,39974,1,12,0:0:0:0:
256,192,40159,1,0,0:0:0:0:
256,192,40344,1,8,0:0:0:0:
256,192,40437,1,8,0:0:0:0:
256,192,40530,1,0,0:0:0:0:
256,192,40622,1,0,0:0:0:0:
256,192,40715,1,8,0:0:0:0:
256,192,40900,1,0,0:0:0:0:
256,192,41085,1,8,0:0:0:0:
256,192,41178,1,0,0:0:0:0:
256,192,41270,1,0,0:0:0:0:
256,192,41455,1,8,0:0:0:0:
256,192,41641,1,0,0:0:0:0:
256,192,41733,1,0,0:0:0:0:
256,192,41826,1,8,0:0:0:0:
256,192,41918,1,0,0:0:0:0:
256,192,42011,1,8,0:0:0:0:
256,160,42104,1,8,0:0:0:0:
256,192,42196,1,0,0:0:0:0:
256,192,42381,1,8,0:0:0:0:
256,192,42474,1,0,0:0:0:0:
256,192,42567,1,8,0:0:0:0:
256,192,42659,1,0,0:0:0:0:
256,192,42752,1,8,0:0:0:0:
256,192,42937,1,0,0:0:0:0:
256,192,43122,1,0,0:0:0:0:
256,192,43307,1,8,0:0:0:0:
256,192,43400,1,0,0:0:0:0:
256,192,43493,1,8,0:0:0:0:
256,128,43585,1,8,0:0:0:0:
256,192,43678,1,0,0:0:0:0:
256,192,43863,1,8,0:0:0:0:
256,192,44048,1,8,0:0:0:0:
256,192,44141,1,0,0:0:0:0:
256,192,44233,1,8,0:0:0:0:
256,192,44418,1,0,0:0:0:0:
256,192,44604,1,0,0:0:0:0:
256,192,44696,1,0,0:0:0:0:
256,192,44789,1,8,0:0:0:0:
256,192,44881,1,0,0:0:0:0:
256,192,44974,1,8,0:0:0:0:
256,192,45159,1,8,0:0:0:0:
352,192,45252,1,8,0:0:0:0:
256,192,45344,1,0,0:0:0:0:
256,160,45437,1,8,0:0:0:0:
256,192,45530,1,0,0:0:0:0:
256,192,45622,1,0,0:0:0:0:
256,192,45715,1,8,0:0:0:0:
256,192,45900,1,12,0:0:0:0:
256,192,46085,1,0,0:0:0:0:
256,192,46270,1,8,0:0:0:0:
256,192,46363,1,8,0:0:0:0:
256,192,46455,1,0,0:0:0:0:
256,192,46641,1,8,0:0:0:0:
256,192,46826,1,0,0:0:0:0:
224,96,46918,1,0,0:0:0:0:
256,192,47011,1,8,0:0:0:0:
256,192,47104,1,0,0:0:0:0:
256,192,47196,1,8,0:0:0:0:
256,192,47381,1,0,0:0:0:0:
256,192,47567,1,8,0:0:0:0:
256,192,47659,1,0,0:0:0:0:
256,192,47752,1,8,0:0:0:0:
256,192,47844,1,0,0:0:0:0:
256,192,47937,1,8,0:0:0:0:
256,160,48030,1,8,0:0:0:0:
256,192,48122,1,0,0:0:0:0:
256,192,48307,1,8,0:0:0:0:
256,192,48400,1,0,0:0:0:0:
256,192,48493,1,8,0:0:0:0:
256,192,48585,1,8,0:0:0:0:
256,192,48678,1,0,0:0:0:0:
256,192,48863,1,8,0:0:0:0:
256,192,49048,1,0,0:0:0:0:
256,192,49233,1,8,0:0:0:0:
256,192,49326,1,8,0:0:0:0:
256,192,49418,1,8,0:0:0:0:
256,128,49511,1,8,0:0:0:0:
256,192,49604,1,0,0:0:0:0:
256,192,49789,1,8,0:0:0:0:
256,192,49974,1,0,0:0:0:0:
256,192,50067,1,0,0:0:0:0:
256,192,50159,1,8,0:0:0:0:
256,192,50344,1,0,0:0:0:0:
256,192,50530,1,8,0:0:0:0:
256,192,50622,1,0,0:0:0:0:
256,192,50715,1,8,0:0:0:0:
256,192,50807,1,0,0:0:0:0:
256,192,50900,1,8,0:0:0:0:
256,192,51085,1,0,0:0:0:0:
256,192,51270,1,8,0:0:0:0:
256,192,51455,1,0,0:0:0:0:
256,192,51826,1,12,0:0:0:0:
288,192,52104,1,0,0:0:0:0:
256,192,52196,1,8,0:0:0:0:
256,192,52381,1,0,0:0:0:0:
256,192,52474,1,8,0:0:0:0:
256,192,52567,1,0,0:0:0:0:
256,192,52752,1,0,0:0:0:0:
256,192,52937,1,8,0:0:0:0:
256,192,53122,1,8,0:0:0:0:
256,192,53215,1,8,0:0:0:0:
256,192,53307,1,0,0:0:0:0:
256,192,53585,1,0,0:0:0:0:
256,192,53678,1,8,0:0:0:0:
256,192,53863,1,8,0:0:0:0:
256,192,53955,1,8,0:0:0:0:
256,192,54048,1,8,0:0:0:0:
256,192,54141,1,8,0:0:0:0:
256,192,54233,1,0,0:0:0:0:
256,192,54418,1,8,0:0:0:0:
256,192,54604,1,8,0:0:0:0:
256,192,54696,1,8,0:0:0:0:
256,192,54789,1,0,0:0:0:0:
256,192,54974,1,0,0:0:0:0:
256,192,55067,1,8,0:0:0:0:
256,192,55252,1,8,0:0:0:0:
256,192,55344,1,0,0:0:0:0:
256,192,55437,1,0,0:0:0:0:
256,192,55530,1,8,0:0:0:0:
256,192,55715,1,0,0:0:0:0:
256,192,55900,1,8,0:0:0:0:
256,192,55993,1,0,0:0:0:0:
256,192,56085,1,8,0:0:0:0:
256,192,56270,1,0,0:0:0:0:
224,160,56363,1,8,0:0:0:0:
256,192,56548,1,8,0:0:0:0:
256,192,56641,1,0,0:0:0:0:
224,160,56826,1,8,0:0:0:0:
224,160,56918,1,0,0:0:0:0:
224,160,57011,1,8,0:0:0:0:
224,160,57104,1,8,0:0:0:0:
224,160,57196,1,0,0:0:0:0:
224,160,57381,1,8,0:0:0:0:
224,160,57567,1,8,0:0:0:0:
224,160,57659,1,8,0:0:0:0:
224,160,57752,1,4,0:0:0:0:
288,192,58030,1,0,0:0:0:0:
256,192,58122,1,8,0:0:0:0:
256,192,58307,1,8,0:0:0:0:
256,192,58400,1,8,0:0:0:0:
256,192,58493,1,0,0:0:0:0:
256,192,58678,1,0,0:0:0:0:
256,192,58863,1,8,0:0:0:0:
256,192,59048,1,0,0:0:0:0:
256,192,59141,1,8,0:0:0:0:
256,192,59233,1,0,0:0:0:0:
256,192,59511,1,0,0:0:0:0:
256,192,59604,1,8,0:0:0:0:
256,192,59789,1,0,0:0:0:0:
256,192,59881,1,0,0:0:0:0:
256,192,59974,1,8,0:0:0:0:
256,192,60067,1,8,0:0:0:0:
256,192,60159,1,0,0:0:0:0:
256,192,60344,1,8,0:0:0:0:
256,192,60530,1,0,0:0:0:0:
224,128,60622,1,0,0:0:0:0:
256,192,60715,1,8,0:0:0:0:
256,192,60900,1,8,0:0:0:0:
256,192,60993,1,0,0:0:0:0:
256,192,61178,1,0,0:0:0:0:
256,192,61270,1,8,0:0:0:0:
256,192,61363,1,8,0:0:0:0:
256,192,61455,1,0,0:0:0:0:
256,192,61641,1,8,0:0:0:0:
256,192,61826,1,0,0:0:0:0:
256,192,61918,1,0,0:0:0:0:
256,192,62011,1,8,0:0:0:0:
256,192,62196,1,8,0:0:0:0:
192,160,62289,1,0,0:0:0:0:
224,160,62381,1,0,0:0:0:0:
256,192,62474,1,8,0:0:0:0:
256,192,62567,1,0,0:0:0:0:
224,160,62659,1,0,0:0:0:0:
224,160,62752,1,8,0:0:0:0:
224,160,62937,1,0,0:0:0:0:
224,160,63122,1,8,0:0:0:0:
224,160,63307,1,8,0:0:0:0:
224,160,63400,1,8,0:0:0:0:
224,160,63493,1,0,0:0:0:0:
256,192,63678,1,4,0:0:0:0:
224,192,63955,1,0,0:0:0:0:
224,192,64048,1,8,0:0:0:0:
224,192,64233,1,0,0:0:0:0:
224,192,64326,1,0,0:0:0:0:
224,192,64418,1,8,0:0:0:0:
224,192,64511,1,0,0:0:0:0:
224,192,64696,1,0,0:0:0:0:
224,192,64789,1,8,0:0:0:0:
224,192,64974,1,0,0:0:0:0:
224,192,65067,1,8,0:0:0:0:
224,192,65159,1,0,0:0:0:0:
224,192,65252,1,0,0:0:0:0:
224,192,65437,1,0,0:0:0:0:
224,192,65530,1,8,0:0:0:0:
224,192,65715,1,8,0:0:0:0:
224,192,65807,1,0,0:0:0:0:
224,192,65900,1,8,0:0:0:0:
224,192,65993,1,8,0:0:0:0:
224,192,66085,1,0,0:0:0:0:
224,192,66178,1,8,0:0:0:0:
224,192,66270,1,0,0:0:0:0:
224,192,66455,1,8,0:0:0:0:
224,192,66548,1,0,0:0:0:0:
224,192,66641,1,8,0:0:0:0:
224,192,66733,1,8,0:0:0:0:
224,192,66918,1,0,0:0:0:0:
224,192,67011,1,8,0:0:0:0:
224,192,67196,1,0,0:0:0:0:
224,192,67289,1,8,0:0:0:0:
224,192,67381,1,0,0:0:0:0:
224,192,67474,1,0,0:0:0:0:
224,192,67659,1,0,0:0:0:0:
224,192,67752,1,8,0:0:0:0:
224,192,67937,1,8,0:0:0:0:
224,192,68030,1,0,0:0:0:0:
224,192,68122,1,8,0:0:0:0:
224,192,68215,1,0,0:0:0:0:
224,192,68400,1,0,0:0:0:0:
224,192,68493,1,8,0:0:0:0:
224,192,68678,1,8,0:0:0:0:
224,192,68770,1,0,0:0:0:0:
224,192,68863,1,8,0:0:0:0:
224,192,68955,1,8,0:0:0:0:
224,192,69048,1,0,0:0:0:0:
224,192,69141,1,0,0:0:0:0:
224,192,69233,1,8,0:0:0:0:
224,192,69418,1,8,0:0:0:0:
224,192,69511,1,8,0:0:0:0:
224,192,69604,1,4,0:0:0:0:
224,192,69881,1,0,0:0:0:0:
224,192,69974,1,8,0:0:0:0:
224,192,70159,1,8,0:0:0:0:
224,192,70252,1,0,0:0:0:0:
224,192,70344,1,8,0:0:0:0:
224,192,70437,1,8,0:0:0:0:
224,192,70622,1,0,0:0:0:0:
224,192,70715,1,8,0:0:0:0:
224,192,70900,1,8,0:0:0:0:
224,192,70993,1,0,0:0:0:0:
224,192,71085,1,8,0:0:0:0:
224,192,71178,1,0,0:0:0:0:
224,192,71363,1,0,0:0:0:0:
224,192,71455,1,8,0:0:0:0:
224,192,71641,1,8,0:0:0:0:
224,192,71733,1,0,0:0:0:0:
224,192,71826,1,8,0:0:0:0:
224,192,71918,1,8,0:0:0:0:
224,192,72011,1,0,0:0:0:0:
224,192,72104,1,8,0:0:0:0:
224,192,72196,1,0,0:0:0:0:
224,192,72381,1,8,0:0:0:0:
224,192,72474,1,8,0:0:0:0:
224,192,72567,1,0,0:0:0:0:
224,192,72752,1,8,0:0:0:0:
224,192,72937,1,8,0:0:0:0:
192,160,73122,1,0,0:0:0:0:
224,192,73307,1,0,0:0:0:0:
224,192,73400,1,8,0:0:0:0:
224,192,73493,1,0,0:0:0:0:
224,160,73585,1,0,0:0:0:0:
224,192,73678,1,8,0:0:0:0:
224,192,73863,1,0,0:0:0:0:
224,192,74048,1,12,0:0:0:0:
224,192,74233,1,0,0:0:0:0:
224,192,74326,1,8,0:0:0:0:
224,192,74418,1,0,0:0:0:0:
224,192,74511,1,0,0:0:0:0:
224,192,74604,1,8,0:0:0:0:
224,192,74696,1,8,0:0:0:0:
224,192,74789,1,0,0:0:0:0:
224,192,74881,1,8,0:0:0:0:
224,192,74974,1,8,0:0:0:0:
224,192,75067,1,8,0:0:0:0:
224,192,75159,1,0,0:0:0:0:
224,192,75252,1,0,0:0:0:0:
224,192,75344,1,8,0:0:0:0:
224,192,75437,1,8,0:0:0:0:
224,192,75530,1,4,0:0:0:0:
224,160,75715,1,0,0:0:0:0:
224,160,75807,1,8,0:0:0:0:
192,160,75993,1,0,0:0:0:0:
192,160,76085,1,8,0:0:0:0:
192,160,76178,1,8,0:0:0:0:
192,160,76270,1,0,0:0:0:0:
192,160,76455,1,0,0:0:0:0:
192,160,76641,1,8,0:0:0:0:
192,160,76733,1,0,0:0:0:0:
192,160,76826,1,8,0:0:0:0:
224,128,76918,1,0,0:0:0:0:
192,160,77011,1,8,0:0:0:0:
192,160,77104,1,8,0:0:0:0:
192,160,77196,1,0,0:0:0:0:
192,160,77289,1,8,0:0:0:0:
192,160,77381,1,0,0:0:0:0:
192,160,77567,1,8,0:0:0:0:
192,160,77659,1,0,0:0:0:0:
192,160,77752,1,8,0:0:0:0:
192,160,77937,1,0,0:0:0:0:
192,160,78030,1,0,0:0:0:0:
192,160,78122,1,8,0:0:0:0:
192,160,78307,1,0,0:0:0:0:
192,160,78400,1,8,0:0:0:0:
192,160,78493,1,0,0:0:0:0:
192,160,78678,1,8,0:0:0:0:
192,160,78770,1,0,0:0:0:0:
192,160,78955,1,8,0:0:0:0:
192,160,79048,1,8,0:0:0:0:
192,160,79141,1,0,0:0:0:0:
192,160,79233,1,0,0:0:0:0:
160,160,79418,1,0,0:0:0:0:
192,128,79511,1,0,0:0:0:0:
160,160,79604,1,8,0:0:0:0:
160,160,79696,1,0,0:0:0:0:
160,160,79789,1,8,0:0:0:0:
224,160,79881,1,8,0:0:0:0:
160,160,79974,1,0,0:0:0:0:
160,160,80067,1,0,0:0:0:0:
160,160,80252,1,0,0:0:0:0:
160,160,80344,1,8,0:0:0:0:
160,160,80530,1,8,0:0:0:0:
160,160,80622,1,0,0:0:0:0:
160,160,80715,1,8,0:0:0:0:
224,160,80807,1,0,0:0:0:0:
160,160,80900,1,0,0:0:0:0:
160,160,80993,1,0,0:0:0:0:
160,160,81085,1,8,0:0:0:0:
160,160,81270,1,8,0:0:0:0:
160,160,81363,1,8,0:0:0:0:
160,160,81455,1,4,0:0:0:0:
192,160,81641,1,8,0:0:0:0:
192,160,81733,1,8,0:0:0:0:
192,160,81918,1,0,0:0:0:0:
192,160,82011,1,8,0:0:0:0:
192,128,82104,1,8,0:0:0:0:
192,128,82196,1,0,0:0:0:0:
192,128,82381,1,8,0:0:0:0:
192,128,82567,1,0,0:0:0:0:
192,128,82659,1,8,0:0:0:0:
192,128,82752,1,0,0:0:0:0:
192,128,82937,1,8,0:0:0:0:
192,128,83030,1,0,0:0:0:0:
192,128,83122,1,0,0:0:0:0:
192,128,83215,1,8,0:0:0:0:
192,128,83307,1,0,0:0:0:0:
192,128,83400,1,0,0:0:0:0:
192,128,83493,1,8,0:0:0:0:
192,128,83585,1,0,0:0:0:0:
192,128,83678,1,8,0:0:0:0:
192,128,83863,1,0,0:0:0:0:
224,96,83955,1,0,0:0:0:0:
192,128,84048,1,8,0:0:0:0:
192,128,84233,1,8,0:0:0:0:
192,128,84326,1,0,0:0:0:0:
192,128,84418,1,8,0:0:0:0:
192,128,84511,1,0,0:0:0:0:
192,128,84696,1,0,0:0:0:0:
192,128,84789,1,8,0:0:0:0:
192,128,84974,1,8,0:0:0:0:
192,128,85067,1,0,0:0:0:0:
192,128,85159,1,8,0:0:0:0:
192,128,85252,1,0,0:0:0:0:
192,128,85344,1,0,0:0:0:0:
192,128,85530,1,8,0:0:0:0:
192,128,85715,1,8,0:0:0:0:
192,128,85807,1,0,0:0:0:0:
192,128,85900,1,8,0:0:0:0:
192,128,85993,1,8,0:0:0:0:
192,128,86178,1,0,0:0:0:0:
192,128,86270,1,8,0:0:0:0:
192,128,86455,1,8,0:0:0:0:
192,128,86548,1,0,0:0:0:0:
192,128,86641,1,8,0:0:0:0:
192,128,86733,1,8,0:0:0:0:
192,128,86826,1,0,0:0:0:0:
192,128,87011,1,8,0:0:0:0:
192,128,87104,1,8,0:0:0:0:
192,128,87196,1,8,0:0:0:0:
192,128,87289,1,8,0:0:0:0:
192,128,87381,1,4,0:0:0:0:
224,160,87567,1,8,0:0:0:0:
224,160,87659,1,8,0:0:0:0:
192,160,87844,1,0,0:0:0:0:
192,160,87937,1,8,0:0:0:0:
192,160,88030,1,8,0:0:0:0:
192,160,88122,1,0,0:0:0:0:
192,160,88307,1,8,0:0:0:0:
192,160,88400,1,0,0:0:0:0:
192,160,88493,1,8,0:0:0:0:
192,160,88678,1,0,0:0:0:0:
192,160,88863,1,8,0:0:0:0:
192,160,88955,1,8,0:0:0:0:
192,160,89048,1,0,0:0:0:0:
192,160,89141,1,8,0:0:0:0:
192,160,89233,1,0,0:0:0:0:
192,128,89326,1,0,0:0:0:0:
192,160,89418,1,8,0:0:0:0:
192,160,89511,1,0,0:0:0:0:
192,160,89604,1,8,0:0:0:0:
192,160,89789,1,0,0:0:0:0:
192,160,89881,1,0,0:0:0:0:
192,160,89974,1,8,0:0:0:0:
192,160,90159,1,0,0:0:0:0:
192,160,90252,1,8,0:0:0:0:
192,160,90344,1,0,0:0:0:0:
192,160,90530,1,0,0:0:0:0:
192,160,90622,1,8,0:0:0:0:
192,160,90807,1,8,0:0:0:0:
192,160,90900,1,8,0:0:0:0:
192,160,90993,1,0,0:0:0:0:
192,160,91085,1,0,0:0:0:0:
160,160,91270,1,0,0:0:0:0:
192,128,91363,1,0,0:0:0:0:
160,160,91455,1,8,0:0:0:0:
160,160,91548,1,0,0:0:0:0:
160,160,91641,1,8,0:0:0:0:
224,160,91733,1,8,0:0:0:0:
160,160,91826,1,0,0:0:0:0:
160,160,92011,1,0,0:0:0:0:
160,160,92104,1,8,0:0:0:0:
224,96,92289,1,0,0:0:0:0:
160,160,92381,1,8,0:0:0:0:
160,160,92474,1,0,0:0:0:0:
160,160,92567,1,8,0:0:0:0:
224,160,92659,1,8,0:0:0:0:
160,160,92752,1,0,0:0:0:0:
160,160,92844,1,0,0:0:0:0:
160,160,92937,1,8,0:0:0:0:
160,160,93122,1,8,0:0:0:0:
160,160,93215,1,8,0:0:0:0:
160,160,93307,1,4,0:0:0:0:
192,160,93493,1,8,0:0:0:0:
192,160,93585,1,0,0:0:0:0:
192,160,93770,1,0,0:0:0:0:
192,160,93863,1,8,0:0:0:0:
192,128,93955,1,8,0:0:0:0:
192,128,94048,1,0,0:0:0:0:
192,128,94233,1,0,0:0:0:0:
192,128,94418,1,8,0:0:0:0:
192,128,94511,1,0,0:0:0:0:
192,128,94604,1,8,0:0:0:0:
192,128,94696,1,8,0:0:0:0:
192,128,94789,1,0,0:0:0:0:
192,128,94881,1,8,0:0:0:0:
192,128,94974,1,0,0:0:0:0:
192,128,95067,1,8,0:0:0:0:
192,128,95159,1,0,0:0:0:0:
192,128,95344,1,8,0:0:0:0:
192,128,95437,1,0,0:0:0:0:
192,128,95530,1,8,0:0:0:0:
192,128,95715,1,0,0:0:0:0:
192,96,95807,1,0,0:0:0:0:
192,128,95900,1,8,0:0:0:0:
192,128,96085,1,8,0:0:0:0:
192,128,96178,1,0,0:0:0:0:
192,128,96270,1,8,0:0:0:0:
192,128,96363,1,0,0:0:0:0:
192,128,96548,1,0,0:0:0:0:
192,128,96641,1,8,0:0:0:0:
192,128,96826,1,8,0:0:0:0:
192,128,96918,1,0,0:0:0:0:
192,128,97011,1,8,0:0:0:0:
192,128,97104,1,0,0:0:0:0:
192,128,97196,1,0,0:0:0:0:
192,128,97381,1,8,0:0:0:0:
192,128,97567,1,8,0:0:0:0:
192,128,97659,1,0,0:0:0:0:
192,128,97752,1,8,0:0:0:0:
192,128,97844,1,8,0:0:0:0:
192,128,98030,1,0,0:0:0:0:
192,128,98122,1,8,0:0:0:0:
192,128,98307,1,8,0:0:0:0:
192,128,98400,1,8,0:0:0:0:
192,128,98493,1,0,0:0:0:0:
192,128,98585,1,8,0:0:0:0:
192,128,98678,1,0,0:0:0:0:
192,128,98863,1,8,0:0:0:0:
192,128,98955,1,8,0:0:0:0:
192,128,99048,1,8,0:0:0:0:
192,128,99233,1,0,0:0:0:0:
192,128,99326,1,0,0:0:0:0:
192,128,99418,1,0,0:0:0:0:
192,128,99604,1,12,0:0:0:0:
256,192,99789,1,0,0:0:0:0:
256,192,99881,1,0,0:0:0:0:
256,192,99974,1,8,0:0:0:0:
256,192,100159,1,0,0:0:0:0:
256,192,100344,1,8,0:0:0:0:
256,192,100437,1,0,0:0:0:0:
256,192,100530,1,0,0:0:0:0:
256,192,100715,1,8,0:0:0:0:
256,192,100900,1,0,0:0:0:0:
256,192,100993,1,0,0:0:0:0:
256,192,101085,1,8,0:0:0:0:
256,192,101178,1,0,0:0:0:0:
256,192,101270,1,8,0:0:0:0:
256,160,101363,1,8,0:0:0:0:
256,192,101455,1,0,0:0:0:0:
256,192,101641,1,8,0:0:0:0:
256,192,101733,1,0,0:0:0:0:
256,192,101826,1,8,0:0:0:0:
256,192,101918,1,0,0:0:0:0:
256,192,102011,1,8,0:0:0:0:
256,192,102196,1,0,0:0:0:0:
256,192,102381,1,0,0:0:0:0:
256,192,102567,1,8,0:0:0:0:
256,192,102659,1,0,0:0:0:0:
256,192,102752,1,8,0:0:0:0:
256,128,102844,1,8,0:0:0:0:
256,192,102937,1,0,0:0:0:0:
256,192,103122,1,8,0:0:0:0:
256,192,103307,1,8,0:0:0:0:
256,192,103400,1,0,0:0:0:0:
256,192,103493,1,8,0:0:0:0:
256,192,103678,1,0,0:0:0:0:
256,192,103863,1,0,0:0:0:0:
256,192,103955,1,0,0:0:0:0:
256,192,104048,1,8,0:0:0:0:
256,192,104141,1,0,0:0:0:0:
256,192,104233,1,8,0:0:0:0:
256,192,104418,1,0,0:0:0:0:
256,192,104604,1,8,0:0:0:0:
256,192,104789,1,0,0:0:0:0:
256,192,104881,1,8,0:0:0:0:
256,192,104974,1,0,0:0:0:0:
256,192,105159,1,12,0:0:0:0:
256,192,105344,1,0,0:0:0:0:
256,192,105530,1,8,0:0:0:0:
256,192,105622,1,8,0:0:0:0:
256,192,105715,1,0,0:0:0:0:
256,192,105900,1,8,0:0:0:0:
256,192,106085,1,0,0:0:0:0:
224,96,106178,1,0,0:0:0:0:
256,192,106270,1,8,0:0:0:0:
256,192,106363,1,0,0:0:0:0:
256,192,106455,1,8,0:0:0:0:
256,192,106641,1,0,0:0:0:0:
256,192,106826,1,8,0:0:0:0:
256,192,106918,1,0,0:0:0:0:
256,192,107011,1,8,0:0:0:0:
256,192,107104,1,0,0:0:0:0:
256,192,107196,1,8,0:0:0:0:
256,160,107289,1,8,0:0:0:0:
256,192,107381,1,0,0:0:0:0:
256,192,107567,1,8,0:0:0:0:
256,192,107659,1,0,0:0:0:0:
256,192,107752,1,8,0:0:0:0:
256,192,107844,1,8,0:0:0:0:
256,192,107937,1,0,0:0:0:0:
256,192,108122,1,8,0:0:0:0:
256,192,108307,1,0,0:0:0:0:
256,192,108493,1,8,0:0:0:0:
256,192,108585,1,8,0:0:0:0:
256,192,108678,1,8,0:0:0:0:
256,128,108770,1,8,0:0:0:0:
256,192,108863,1,0,0:0:0:0:
256,192,109048,1,8,0:0:0:0:
256,192,109233,1,0,0:0:0:0:
256,192,109326,1,0,0:0:0:0:
256,192,109418,1,8,0:0:0:0:
256,192,109604,1,0,0:0:0:0:
256,192,109696,1,0,0:0:0:0:
256,192,109789,1,8,0:0:0:0:
256,192,109881,1,0,0:0:0:0:
256,192,109974,1,8,0:0:0:0:
256,192,110067,1,8,0:0:0:0:
256,192,110159,1,0,0:0:0:0:
256,192,110252,1,0,0:0:0:0:
256,192,110344,1,8,0:0:0:0:
256,192,110530,1,0,0:0:0:0:
256,192,110715,1,8,0:0:0:0:
224,128,110807,1,0,0:0:0:0:
256,192,110900,1,8,0:0:0:0:
224,128,110993,1,8,0:0:0:0:
256,192,111085,1,4,0:0:0:0:
256,192,111363,1,0,0:0:0:0:
256,192,111641,1,0,0:0:0:0:
256,192,112011,1,0,0:0:0:0:
256,192,112196,1,8,0:0:0:0:
256,192,112567,1,0,0:0:0:0:
256,192,112844,1,0,0:0:0:0:
256,192,113122,1,8,0:0:0:0:
256,192,113493,1,0,0:0:0:0:
256,192,113678,1,8,0:0:0:0:
256,192,113863,1,8,0:0:0:0:
256,192,114048,1,0,0:0:0:0:
256,192,114326,1,0,0:0:0:0:
256,192,114604,1,0,0:0:0:0:
256,192,114974,1,0,0:0:0:0:
256,192,115159,1,8,0:0:0:0:
256,192,115530,1,8,0:0:0:0:
256,192,115807,1,8,0:0:0:0:
256,192,116085,1,0,0:0:0:0:
224,192,116455,1,0,0:0:0:0:
224,192,116641,1,8,0:0:0:0:
224,192,116826,1,8,0:0:0:0:
224,192,117011,1,4,0:0:0:0:
288,160,117196,1,0,0:0:0:0:
224,160,117289,1,0,0:0:0:0:
224,160,117381,1,8,0:0:0:0:
224,160,117567,1,0,0:0:0:0:
224,160,117752,1,8,0:0:0:0:
224,160,117937,1,0,0:0:0:0:
224,160,118122,1,8,0:0:0:0:
224,160,118307,1,8,0:0:0:0:
224,160,118493,1,0,0:0:0:0:
256,128,118678,1,0,0:0:0:0:
224,160,118770,1,8,0:0:0:0:
224,160,118863,1,0,0:0:0:0:
224,160,119048,1,0,0:0:0:0:
224,160,119233,1,8,0:0:0:0:
224,160,119418,1,0,0:0:0:0:
192,128,119511,1,0,0:0:0:0:
224,160,119604,1,8,0:0:0:0:
224,160,119789,1,0,0:0:0:0:
224,160,119974,1,12,0:0:0:0:
256,192,122567,1,8,0:0:0:0:
256,192,122659,1,8,0:0:0:0:
256,192,122752,1,8,0:0:0:0:
256,192,122844,1,8,0:0:0:0:
256,192,122937,1,4,0:0:0:0:
224,192,123215,1,0,0:0:0:0:
224,192,123307,1,8,0:0:0:0:
224,192,123493,1,0,0:0:0:0:
224,192,123585,1,0,0:0:0:0:
224,192,123678,1,8,0:0:0:0:
224,192,123770,1,0,0:0:0:0:
224,192,123955,1,0,0:0:0:0:
224,192,124048,1,8,0:0:0:0:
224,192,124233,1,8,0:0:0:0:
224,192,124326,1,0,0:0:0:0:
224,192,124418,1,8,0:0:0:0:
224,192,124511,1,0,0:0:0:0:
224,192,124696,1,0,0:0:0:0:
224,192,124789,1,8,0:0:0:0:
224,192,124974,1,8,0:0:0:0:
224,192,125067,1,0,0:0:0:0:
224,192,125159,1,8,0:0:0:0:
224,192,125252,1,8,0:0:0:0:
224,192,125344,1,0,0:0:0:0:
224,192,125437,1,8,0:0:0:0:
224,192,125530,1,0,0:0:0:0:
224,192,125715,1,8,0:0:0:0:
224,192,125807,1,0,0:0:0:0:
224,192,125900,1,8,0:0:0:0:
224,192,125993,1,8,0:0:0:0:
224,192,126178,1,0,0:0:0:0:
224,192,126270,1,8,0:0:0:0:
224,192,126455,1,0,0:0:0:0:
224,192,126548,1,0,0:0:0:0:
224,192,126641,1,8,0:0:0:0:
224,192,126733,1,0,0:0:0:0:
224,192,126918,1,0,0:0:0:0:
224,192,127011,1,8,0:0:0:0:
224,192,127196,1,8,0:0:0:0:
224,192,127289,1,0,0:0:0:0:
224,192,127381,1,8,0:0:0:0:
224,192,127474,1,0,0:0:0:0:
224,192,127659,1,0,0:0:0:0:
224,192,127752,1,8,0:0:0:0:
224,192,127937,1,8,0:0:0:0:
224,192,128030,1,0,0:0:0:0:
224,192,128122,1,8,0:0:0:0:
224,192,128215,1,8,0:0:0:0:
224,192,128307,1,0,0:0:0:0:
224,192,128400,1,0,0:0:0:0:
224,192,128493,1,8,0:0:0:0:
224,192,128678,1,8,0:0:0:0:
224,192,128770,1,8,0:0:0:0:
224,192,128863,1,4,0:0:0:0:
224,192,129141,1,0,0:0:0:0:
224,192,129233,1,8,0:0:0:0:
224,192,129418,1,8,0:0:0:0:
224,192,129511,1,0,0:0:0:0:
224,192,129604,1,8,0:0:0:0:
224,192,129696,1,8,0:0:0:0:
224,192,129881,1,0,0:0:0:0:
224,192,129974,1,8,0:0:0:0:
224,192,130159,1,8,0:0:0:0:
224,192,130252,1,0,0:0:0:0:
224,192,130344,1,8,0:0:0:0:
224,192,130437,1,0,0:0:0:0:
224,192,130622,1,0,0:0:0:0:
224,192,130715,1,8,0:0:0:0:
224,192,130900,1,8,0:0:0:0:
224,192,130993,1,0,0:0:0:0:
224,192,131085,1,8,0:0:0:0:
224,192,131178,1,8,0:0:0:0:
224,192,131270,1,0,0:0:0:0:
224,192,131363,1,8,0:0:0:0:
224,192,131455,1,0,0:0:0:0:
224,192,131641,1,8,0:0:0:0:
224,192,131733,1,8,0:0:0:0:
224,192,131826,1,0,0:0:0:0:
224,192,132011,1,8,0:0:0:0:
224,192,132196,1,8,0:0:0:0:
192,160,132381,1,0,0:0:0:0:
224,192,132567,1,0,0:0:0:0:
224,192,132659,1,8,0:0:0:0:
224,192,132752,1,0,0:0:0:0:
224,160,132844,1,0,0:0:0:0:
224,192,132937,1,8,0:0:0:0:
224,192,133122,1,0,0:0:0:0:
224,192,133307,1,12,0:0:0:0:
224,192,133493,1,0,0:0:0:0:
224,192,133585,1,8,0:0:0:0:
224,192,133678,1,0,0:0:0:0:
224,192,133770,1,0,0:0:0:0:
224,192,133863,1,8,0:0:0:0:
224,192,133955,1,8,0:0:0:0:
224,192,134048,1,0,0:0:0:0:
224,192,134141,1,8,0:0:0:0:
224,192,134233,1,8,0:0:0:0:
224,192,134326,1,8,0:0:0:0:
224,192,134418,1,0,0:0:0:0:
224,192,134511,1,0,0:0:0:0:
224,192,134604,1,8,0:0:0:0:
224,192,134696,1,8,0:0:0:0:
224,192,134789,1,4,0:0:0:0:
224,160,134974,1,0,0:0:0:0:
224,160,135067,1,8,0:0:0:0:
192,160,135252,1,0,0:0:0:0:
192,160,135344,1,8,0:0:0:0:
192,160,135437,1,8,0:0:0:0:
192,160,135530,1,0,0:0:0:0:
192,160,135715,1,0,0:0:0:0:
192,160,135900,1,8,0:0:0:0:
192,160,135993,1,0,0:0:0:0:
192,160,136085,1,8,0:0:0:0:
224,128,136178,1,0,0:0:0:0:
192,160,136270,1,8,0:0:0:0:
192,160,136363,1,8,0:0:0:0:
192,160,136455,1,0,0:0:0:0:
192,160,136548,1,8,0:0:0:0:
192,160,136641,1,0,0:0:0:0:
192,160,136826,1,8,0:0:0:0:
192,160,136918,1,0,0:0:0:0:
192,160,137011,1,8,0:0:0:0:
192,160,137196,1,0,0:0:0:0:
192,160,137289,1,0,0:0:0:0:
192,160,137381,1,8,0:0:0:0:
192,160,137567,1,0,0:0:0:0:
192,160,137659,1,8,0:0:0:0:
192,160,137752,1,0,0:0:0:0:
192,160,137937,1,8,0:0:0:0:
192,160,138030,1,0,0:0:0:0:
192,160,138215,1,8,0:0:0:0:
192,160,138307,1,8,0:0:0:0:
192,160,138400,1,0,0:0:0:0:
192,160,138493,1,0,0:0:0:0:
160,160,138678,1,0,0:0:0:0:
192,128,138770,1,0,0:0:0:0:
160,160,138863,1,8,0:0:0:0:
160,160,138955,1,0,0:0:0:0:
160,160,139048,1,8,0:0:0:0:
224,160,139141,1,8,0:0:0:0:
160,160,139233,1,0,0:0:0:0:
160,160,139326,1,0,0:0:0:0:
160,160,139511,1,0,0:0:0:0:
160,160,139604,1,8,0:0:0:0:
160,160,139789,1,8,0:0:0:0:
160,160,139881,1,0,0:0:0:0:
160,160,139974,1,8,0:0:0:0:
224,160,140067,1,0,0:0:0:0:
160,160,140159,1,0,0:0:0:0:
160,160,140252,1,0,0:0:0:0:
160,160,140344,1,8,0:0:0:0:
160,160,140530,1,8,0:0:0:0:
160,160,140622,1,8,0:0:0:0:
160,160,140715,1,4,0:0:0:0:
192,160,140900,1,8,0:0:0:0:
192,160,140993,1,8,0:0:0:0:
192,160,141178,1,0,0:0:0:0:
192,160,141270,1,8,0:0:0:0:
192,128,141363,1,8,0:0:0:0:
192,128,141455,1,0,0:0:0:0:
192,128,141641,1,8,0:0:0:0:
192,128,141826,1,0,0:0:0:0:
192,128,141918,1,8,0:0:0:0:
192,128,142011,1,0,0:0:0:0:
192,128,142196,1,8,0:0:0:0:
192,128,142289,1,0,0:0:0:0:
192,128,142381,1,0,0:0:0:0:
192,128,142474,1,8,0:0:0:0:
192,128,142567,1,0,0:0:0:0:
192,128,142659,1,0,0:0:0:0:
192,128,142752,1,8,0:0:0:0:
192,128,142844,1,0,0:0:0:0:
192,128,142937,1,8,0:0:0:0:
192,128,143122,1,0,0:0:0:0:
224,128,143215,1,0,0:0:0:0:
192,128,143307,1,8,0:0:0:0:
192,128,143493,1,8,0:0:0:0:
192,128,143585,1,0,0:0:0:0:
192,128,143678,1,8,0:0:0:0:
192,128,143770,1,0,0:0:0:0:
192,128,143955,1,0,0:0:0:0:
192,128,144048,1,8,0:0:0:0:
192,128,144233,1,8,0:0:0:0:
192,128,144326,1,0,0:0:0:0:
192,128,144418,1,8,0:0:0:0:
192,128,144511,1,0,0:0:0:0:
192,128,144604,1,0,0:0:0:0:
192,128,144789,1,8,0:0:0:0:
192,128,144974,1,8,0:0:0:0:
192,128,145067,1,0,0:0:0:0:
192,128,145159,1,8,0:0:0:0:
192,128,145252,1,8,0:0:0:0:
192,128,145437,1,0,0:0:0:0:
192,128,145530,1,8,0:0:0:0:
192,128,145715,1,8,0:0:0:0:
192,128,145807,1,0,0:0:0:0:
192,128,145900,1,8,0:0:0:0:
192,128,145993,1,8,0:0:0:0:
192,128,146085,1,0,0:0:0:0:
192,128,146270,1,8,0:0:0:0:
192,128,146363,1,8,0:0:0:0:
192,128,146455,1,8,0:0:0:0:
192,128,146548,1,8,0:0:0:0:
192,128,146641,1,4,0:0:0:0:
224,160,146826,1,8,0:0:0:0:
224,160,146918,1,8,0:0:0:0:
192,160,147104,1,0,0:0:0:0:
192,160,147196,1,8,0:0:0:0:
192,160,147289,1,8,0:0:0:0:
192,160,147381,1,0,0:0:0:0:
192,160,147567,1,8,0:0:0:0:
192,160,147752,1,8,0:0:0:0:
192,160,147844,1,0,0:0:0:0:
192,160,147937,1,8,0:0:0:0:
192,160,148122,1,8,0:0:0:0:
192,160,148215,1,8,0:0:0:0:
192,160,148307,1,0,0:0:0:0:
192,160,148400,1,8,0:0:0:0:
192,160,148493,1,0,0:0:0:0:
192,128,148585,1,0,0:0:0:0:
192,160,148678,1,8,0:0:0:0:
192,160,148770,1,0,0:0:0:0:
192,160,148863,1,8,0:0:0:0:
192,160,149048,1,0,0:0:0:0:
192,160,149141,1,0,0:0:0:0:
192,160,149233,1,8,0:0:0:0:
192,160,149418,1,0,0:0:0:0:
192,160,149511,1,8,0:0:0:0:
192,160,149604,1,0,0:0:0:0:
192,160,149789,1,0,0:0:0:0:
192,160,149881,1,8,0:0:0:0:
192,160,150067,1,8,0:0:0:0:
192,160,150159,1,0,0:0:0:0:
192,160,150252,1,0,0:0:0:0:
192,160,150344,1,8,0:0:0:0:
160,160,150530,1,0,0:0:0:0:
192,128,150622,1,0,0:0:0:0:
160,160,150715,1,8,0:0:0:0:
160,160,150807,1,0,0:0:0:0:
160,160,150900,1,8,0:0:0:0:
224,160,150993,1,8,0:0:0:0:
160,160,151085,1,0,0:0:0:0:
160,160,151270,1,0,0:0:0:0:
160,160,151363,1,8,0:0:0:0:
192,64,151548,1,0,0:0:0:0:
160,160,151641,1,8,0:0:0:0:
160,160,151733,1,0,0:0:0:0:
160,160,151826,1,8,0:0:0:0:
224,160,151918,1,8,0:0:0:0:
160,160,152011,1,0,0:0:0:0:
160,160,152104,1,0,0:0:0:0:
160,160,152196,1,8,0:0:0:0:
160,160,152381,1,8,0:0:0:0:
160,160,152474,1,8,0:0:0:0:
160,160,152567,1,4,0:0:0:0:
192,160,152752,1,8,0:0:0:0:
192,160,152844,1,0,0:0:0:0:
192,160,153030,1,0,0:0:0:0:
192,160,153122,1,8,0:0:0:0:
192,128,153215,1,8,0:0:0:0:
192,128,153307,1,0,0:0:0:0:
192,128,153493,1,0,0:0:0:0:
192,128,153678,1,8,0:0:0:0:
192,128,153770,1,0,0:0:0:0:
192,128,153863,1,8,0:0:0:0:
192,128,153955,1,8,0:0:0:0:
192,128,154048,1,0,0:0:0:0:
192,128,154141,1,8,0:0:0:0:
192,128,154233,1,0,0:0:0:0:
192,128,154326,1,8,0:0:0:0:
192,128,154418,1,0,0:0:0:0:
192,128,154604,1,8,0:0:0:0:
192,128,154696,1,0,0:0:0:0:
192,128,154789,1,8,0:0:0:0:
192,128,154974,1,0,0:0:0:0:
192,96,155067,1,0,0:0:0:0:
192,128,155159,1,8,0:0:0:0:
192,128,155344,1,8,0:0:0:0:
192,128,155437,1,0,0:0:0:0:
192,128,155530,1,8,0:0:0:0:
192,128,155715,1,0,0:0:0:0:
192,128,155900,1,8,0:0:0:0:
192,128,156085,1,0,0:0:0:0:
192,128,156178,1,8,0:0:0:0:
192,128,156270,1,8,0:0:0:0:
192,128,156363,1,8,0:0:0:0:
192,128,156455,1,0,0:0:0:0:
192,128,156548,1,8,0:0:0:0:
192,128,156641,1,0,0:0:0:0:
192,96,156733,1,8,0:0:0:0:
192,128,156826,1,0,0:0:0:0:
192,128,156918,1,0,0:0:0:0:
192,128,157011,1,12,0:0:0:0:
192,128,157381,1,4,0:0:0:0:
192,128,157752,1,12,0:0:0:0:
192,128,158122,1,4,0:0:0:0:
192,128,158307,1,0,0:0:0:0:
192,128,158400,1,0,0:0:0:0:
192,128,158493,1,8,0:0:0:0:
192,160,158678,1,0,0:0:0:0:
192,160,159418,1,0,0:0:0:0:
192,160,159511,1,0,0:0:0:0:
192,160,159604,1,8,0:0:0:0:
192,128,159789,1,0,0:0:0:0:
192,160,160530,1,0,0:0:0:0:
192,160,160622,1,0,0:0:0:0:
192,160,160715,1,8,0:0:0:0:
192,160,160900,1,8,0:0:0:0:
192,160,161085,1,0,0:0:0:0:
192,160,161270,1,0,0:0:0:0:
192,160,161363,1,0,0:0:0:0:
192,160,161455,1,8,0:0:0:0:
192,160,161641,1,8,0:0:0:0:
192,160,162381,1,0,0:0:0:0:
192,160,162474,1,0,0:0:0:0:
192,160,162567,1,8,0:0:0:0:
192,160,162752,1,8,0:0:0:0:
192,160,163493,1,0,0:0:0:0:
192,160,163585,1,0,0:0:0:0:
192,160,163678,1,8,0:0:0:0:
192,160,163955,1,8,0:0:0:0:
192,160,164233,1,8,0:0:0:0:
192,160,164418,1,4,0:0:0:0:
192,160,164789,1,8,0:0:0:0:
192,160,164974,1,0,0:0:0:0:
199,126,165067,1,8,0:0:0:0:
192,160,165159,1,0,0:0:0:0:
192,160,165344,1,0,0:0:0:0:
192,160,165530,1,8,0:0:0:0:
192,160,165715,1,8,0:0:0:0:
192,160,165900,1,0,0:0:0:0:
192,160,166178,1,8,0:0:0:0:
192,160,166455,1,0,0:0:0:0:
192,160,166548,1,0,0:0:0:0:
192,160,166641,1,8,0:0:0:0:
192,160,166826,1,8,0:0:0:0:
192,160,167011,1,0,0:0:0:0:
192,160,167196,1,8,0:0:0:0:
192,160,167381,1,0,0:0:0:0:
192,160,167659,1,0,0:0:0:0:
192,160,167752,1,8,0:0:0:0:
192,160,167937,1,8,0:0:0:0:
192,160,168122,1,0,0:0:0:0:
192,160,168215,1,0,0:0:0:0:
192,160,168307,1,0,0:0:0:0:
192,160,168493,1,8,0:0:0:0:
192,160,168678,1,0,0:0:0:0:
192,160,168863,1,12,0:0:0:0:
192,160,169048,1,0,0:0:0:0:
192,160,169233,1,8,0:0:0:0:
192,160,169418,1,0,0:0:0:0:
192,160,169604,1,8,0:0:0:0:
192,160,169789,1,0,0:0:0:0:
192,160,169974,1,8,0:0:0:0:
192,160,170159,1,8,0:0:0:0:
192,160,170252,1,8,0:0:0:0:
192,128,170344,1,4,0:0:0:0:
224,160,170530,1,8,0:0:0:0:
224,160,170622,1,8,0:0:0:0:
192,160,170807,1,0,0:0:0:0:
192,160,170900,1,8,0:0:0:0:
192,160,170993,1,8,0:0:0:0:
192,160,171085,1,0,0:0:0:0:
192,160,171270,1,8,0:0:0:0:
192,160,171363,1,0,0:0:0:0:
192,160,171455,1,8,0:0:0:0:
192,160,171641,1,0,0:0:0:0:
192,160,171826,1,8,0:0:0:0:
192,160,171918,1,8,0:0:0:0:
192,160,172011,1,0,0:0:0:0:
192,160,172104,1,8,0:0:0:0:
192,160,172196,1,0,0:0:0:0:
224,96,172289,1,0,0:0:0:0:
192,160,172381,1,8,0:0:0:0:
192,160,172474,1,0,0:0:0:0:
192,160,172567,1,8,0:0:0:0:
192,160,172752,1,0,0:0:0:0:
192,160,172844,1,0,0:0:0:0:
192,160,172937,1,8,0:0:0:0:
224,128,173030,1,8,0:0:0:0:
192,160,173122,1,0,0:0:0:0:
192,160,173215,1,8,0:0:0:0:
192,160,173307,1,0,0:0:0:0:
192,160,173493,1,0,0:0:0:0:
192,160,173585,1,8,0:0:0:0:
192,160,173770,1,8,0:0:0:0:
192,160,173863,1,8,0:0:0:0:
192,160,173955,1,8,0:0:0:0:
192,160,174048,1,0,0:0:0:0:
160,160,174233,1,8,0:0:0:0:
192,128,174326,1,0,0:0:0:0:
160,160,174418,1,8,0:0:0:0:
160,160,174511,1,0,0:0:0:0:
160,160,174604,1,8,0:0:0:0:
224,160,174696,1,8,0:0:0:0:
160,160,174789,1,0,0:0:0:0:
160,160,174974,1,0,0:0:0:0:
160,160,175067,1,8,0:0:0:0:
192,128,175252,1,0,0:0:0:0:
160,160,175344,1,8,0:0:0:0:
160,160,175437,1,0,0:0:0:0:
160,160,175530,1,8,0:0:0:0:
224,160,175622,1,8,0:0:0:0:
160,160,175715,1,0,0:0:0:0:
160,160,175807,1,0,0:0:0:0:
160,160,175900,1,8,0:0:0:0:
160,160,176085,1,8,0:0:0:0:
160,160,176178,1,8,0:0:0:0:
160,160,176270,1,4,0:0:0:0:
192,160,176455,1,8,0:0:0:0:
192,160,176548,1,0,0:0:0:0:
192,160,176733,1,0,0:0:0:0:
192,160,176826,1,8,0:0:0:0:
192,128,176918,1,8,0:0:0:0:
192,128,177011,1,0,0:0:0:0:
192,128,177196,1,0,0:0:0:0:
192,128,177381,1,8,0:0:0:0:
192,128,177474,1,0,0:0:0:0:
192,128,177567,1,8,0:0:0:0:
192,128,177659,1,8,0:0:0:0:
192,128,177752,1,0,0:0:0:0:
160,128,177844,1,8,0:0:0:0:
192,128,177937,1,0,0:0:0:0:
192,128,178030,1,8,0:0:0:0:
192,96,178122,1,0,0:0:0:0:
192,128,178307,1,8,0:0:0:0:
192,128,178400,1,0,0:0:0:0:
192,128,178493,1,8,0:0:0:0:
224,96,178585,1,8,0:0:0:0:
192,128,178678,1,0,0:0:0:0:
192,96,178770,1,0,0:0:0:0:
192,128,178863,1,8,0:0:0:0:
192,128,179048,1,8,0:0:0:0:
192,128,179141,1,0,0:0:0:0:
192,128,179233,1,8,0:0:0:0:
192,128,179326,1,0,0:0:0:0:
192,128,179511,1,0,0:0:0:0:
192,128,179604,1,8,0:0:0:0:
192,128,179789,1,8,0:0:0:0:
192,128,179881,1,0,0:0:0:0:
192,128,179974,1,8,0:0:0:0:
192,128,180067,1,0,0:0:0:0:
192,128,180159,1,0,0:0:0:0:
192,128,180252,1,0,0:0:0:0:
192,128,180344,1,8,0:0:0:0:
192,128,180530,1,8,0:0:0:0:
192,128,180622,1,0,0:0:0:0:
192,128,180715,1,8,0:0:0:0:
192,128,180807,1,8,0:0:0:0:
192,128,180993,1,0,0:0:0:0:
192,128,181085,1,8,0:0:0:0:
192,128,181270,1,8,0:0:0:0:
192,128,181363,1,0,0:0:0:0:
192,128,181455,1,8,0:0:0:0:
192,128,181548,1,8,0:0:0:0:
192,128,181641,1,0,0:0:0:0:
192,128,181733,1,0,0:0:0:0:
192,128,181826,1,8,0:0:0:0:
192,128,181918,1,0,0:0:0:0:
192,128,182011,1,0,0:0:0:0:
192,128,182196,1,8,0:0:0:0:
192,128,182289,1,8,0:0:0:0:
192,128,182381,1,8,0:0:0:0:
192,96,182474,1,0,0:0:0:0:
192,128,182752,1,8,0:0:0:0:
192,128,182844,1,8,0:0:0:0:
192,128,182937,1,8,0:0:0:0:
192,128,183030,1,0,0:0:0:0:
192,128,183307,1,8,0:0:0:0:
256,192,183678,1,12,0:0:0:0:
256,192,183863,1,0,0:0:0:0:
256,192,184048,1,8,0:0:0:0:
256,192,184141,1,8,0:0:0:0:
256,192,184233,1,0,0:0:0:0:
256,192,184326,1,0,0:0:0:0:
256,192,184418,1,8,0:0:0:0:
256,192,184604,1,0,0:0:0:0:
256,192,184789,1,8,0:0:0:0:
256,192,184881,1,0,0:0:0:0:
256,192,184974,1,0,0:0:0:0:
256,192,185159,1,8,0:0:0:0:
256,192,185344,1,0,0:0:0:0:
256,192,185437,1,0,0:0:0:0:
256,192,185530,1,8,0:0:0:0:
256,192,185622,1,0,0:0:0:0:
256,192,185715,1,8,0:0:0:0:
256,160,185807,1,8,0:0:0:0:
256,192,185900,1,0,0:0:0:0:
256,192,186085,1,8,0:0:0:0:
256,192,186178,1,0,0:0:0:0:
256,192,186270,1,8,0:0:0:0:
256,192,186363,1,0,0:0:0:0:
256,192,186455,1,8,0:0:0:0:
256,192,186641,1,0,0:0:0:0:
256,192,186826,1,0,0:0:0:0:
256,192,187011,1,8,0:0:0:0:
256,192,187104,1,0,0:0:0:0:
256,192,187196,1,8,0:0:0:0:
256,128,187289,1,8,0:0:0:0:
256,192,187381,1,0,0:0:0:0:
256,192,187567,1,8,0:0:0:0:
256,192,187752,1,8,0:0:0:0:
256,192,187844,1,0,0:0:0:0:
256,192,187937,1,8,0:0:0:0:
256,192,188122,1,0,0:0:0:0:
256,192,188307,1,0,0:0:0:0:
256,192,188400,1,0,0:0:0:0:
256,192,188493,1,8,0:0:0:0:
256,192,188585,1,0,0:0:0:0:
256,192,188678,1,8,0:0:0:0:
256,192,188863,1,0,0:0:0:0:
256,192,189048,1,8,0:0:0:0:
256,192,189233,1,0,0:0:0:0:
256,192,189326,1,8,0:0:0:0:
256,192,189418,1,0,0:0:0:0:
256,192,189604,1,12,0:0:0:0:
256,192,189789,1,0,0:0:0:0:
256,192,189974,1,8,0:0:0:0:
256,192,190067,1,8,0:0:0:0:
256,192,190159,1,0,0:0:0:0:
256,192,190344,1,8,0:0:0:0:
256,192,190530,1,0,0:0:0:0:
224,96,190622,1,0,0:0:0:0:
256,192,190715,1,8,0:0:0:0:
256,192,190807,1,0,0:0:0:0:
256,192,190900,1,8,0:0:0:0:
256,192,191085,1,0,0:0:0:0:
256,192,191270,1,8,0:0:0:0:
256,192,191363,1,0,0:0:0:0:
256,192,191455,1,8,0:0:0:0:
256,192,191548,1,0,0:0:0:0:
256,192,191641,1,8,0:0:0:0:
256,160,191733,1,8,0:0:0:0:
256,192,191826,1,0,0:0:0:0:
256,192,192011,1,8,0:0:0:0:
256,192,192104,1,0,0:0:0:0:
256,192,192196,1,8,0:0:0:0:
256,192,192289,1,8,0:0:0:0:
256,192,192381,1,0,0:0:0:0:
256,192,192567,1,8,0:0:0:0:
256,192,192752,1,0,0:0:0:0:
256,192,192937,1,8,0:0:0:0:
256,192,193030,1,8,0:0:0:0:
256,192,193122,1,8,0:0:0:0:
256,128,193215,1,8,0:0:0:0:
256,192,193307,1,0,0:0:0:0:
256,192,193493,1,8,0:0:0:0:
256,192,193678,1,0,0:0:0:0:
256,192,193770,1,0,0:0:0:0:
256,192,193863,1,8,0:0:0:0:
256,192,194048,1,0,0:0:0:0:
256,192,194233,1,8,0:0:0:0:
256,192,194326,1,0,0:0:0:0:
256,192,194418,1,8,0:0:0:0:
256,192,194511,1,0,0:0:0:0:
256,192,194604,1,8,0:0:0:0:
256,192,194789,1,0,0:0:0:0:
256,192,194974,1,0,0:0:0:0:
256,192,195159,1,0,0:0:0:0:
256,192,195344,1,0,0:0:0:0:
256,192,195530,1,12,0:0:0:0:
256,192,195715,1,0,0:0:0:0:
256,192,195900,1,8,0:0:0:0:
256,192,195993,1,8,0:0:0:0:
256,192,196085,1,0,0:0:0:0:
256,192,196178,1,0,0:0:0:0:
256,192,196270,1,8,0:0:0:0:
256,192,196455,1,0,0:0:0:0:
256,192,196641,1,8,0:0:0:0:
256,192,196733,1,0,0:0:0:0:
256,192,196826,1,0,0:0:0:0:
256,192,197011,1,8,0:0:0:0:
256,192,197196,1,0,0:0:0:0:
256,192,197289,1,0,0:0:0:0:
256,192,197381,1,8,0:0:0:0:
256,192,197474,1,0,0:0:0:0:
256,192,197567,1,8,0:0:0:0:
256,160,197659,1,8,0:0:0:0:
256,192,197752,1,0,0:0:0:0:
256,192,197937,1,8,0:0:0:0:
256,192,198030,1,0,0:0:0:0:
256,192,198122,1,8,0:0:0:0:
256,192,198215,1,0,0:0:0:0:
256,192,198307,1,8,0:0:0:0:
256,192,198493,1,0,0:0:0:0:
256,192,198678,1,0,0:0:0:0:
256,192,198863,1,8,0:0:0:0:
256,192,198955,1,0,0:0:0:0:
256,192,199048,1,8,0:0:0:0:
256,128,199141,1,8,0:0:0:0:
256,192,199233,1,0,0:0:0:0:
256,192,199418,1,8,0:0:0:0:
256,192,199604,1,8,0:0:0:0:
256,192,199696,1,0,0:0:0:0:
256,192,199789,1,8,0:0:0:0:
256,192,199974,1,0,0:0:0:0:
256,192,200159,1,0,0:0:0:0:
256,192,200252,1,0,0:0:0:0:
256,192,200344,1,8,0:0:0:0:
256,192,200437,1,0,0:0:0:0:
256,192,200530,1,8,0:0:0:0:
256,192,200715,1,0,0:0:0:0:
256,192,200900,1,8,0:0:0:0:
256,192,201085,1,0,0:0:0:0:
256,192,201178,1,8,0:0:0:0:
256,192,201270,1,0,0:0:0:0:
256,192,201455,1,12,0:0:0:0:
256,192,201641,1,0,0:0:0:0:
256,192,201826,1,8,0:0:0:0:
256,192,201918,1,8,0:0:0:0:
256,192,202011,1,0,0:0:0:0:
256,192,202196,1,8,0:0:0:0:
256,192,202381,1,0,0:0:0:0:
224,96,202474,1,0,0:0:0:0:
256,192,202567,1,8,0:0:0:0:
256,192,202659,1,0,0:0:0:0:
256,192,202752,1,8,0:0:0:0:
256,192,202937,1,0,0:0:0:0:
256,192,203122,1,8,0:0:0:0:
256,192,203215,1,0,0:0:0:0:
256,192,203307,1,8,0:0:0:0:
256,192,203400,1,0,0:0:0:0:
256,192,203493,1,8,0:0:0:0:
256,160,203585,1,8,0:0:0:0:
256,192,203678,1,0,0:0:0:0:
256,192,203863,1,8,0:0:0:0:
256,192,203955,1,0,0:0:0:0:
256,192,204048,1,8,0:0:0:0:
256,192,204141,1,8,0:0:0:0:
256,192,204233,1,0,0:0:0:0:
256,192,204418,1,8,0:0:0:0:
256,192,204604,1,0,0:0:0:0:
256,192,204789,1,8,0:0:0:0:
256,192,204881,1,8,0:0:0:0:
256,192,204974,1,8,0:0:0:0:
256,128,205067,1,8,0:0:0:0:
256,192,205159,1,0,0:0:0:0:
256,192,205344,1,8,0:0:0:0:
256,192,205530,1,0,0:0:0:0:
256,192,205622,1,0,0:0:0:0:
256,192,205715,1,8,0:0:0:0:
256,192,205900,1,0,0:0:0:0:
256,192,205993,1,0,0:0:0:0:
256,192,206085,1,8,0:0:0:0:
256,192,206178,1,0,0:0:0:0:
256,192,206270,1,8,0:0:0:0:
256,192,206363,1,8,0:0:0:0:
256,192,206455,1,0,0:0:0:0:
256,192,206548,1,0,0:0:0:0:
256,192,206641,1,8,0:0:0:0:
256,192,206826,1,0,0:0:0:0:
256,192,207011,1,8,0:0:0:0:
256,192,207104,1,0,0:0:0:0:
256,192,207196,1,8,0:0:0:0:
256,192,207289,1,8,0:0:0:0:
256,192,207381,5,0,0:0:0:0:
256,192,207567,1,0,0:0:0:0:
256,192,207752,1,8,0:0:0:0:
256,160,207844,1,8,0:0:0:0:
246,204,207937,1,8,0:0:0:0:
256,160,208030,1,8,0:0:0:0:
256,192,208122,1,0,0:0:0:0:
256,192,208307,1,0,0:0:0:0:
256,192,208493,1,8,0:0:0:0:
256,192,208585,1,8,0:0:0:0:
256,192,208678,1,8,0:0:0:0:
256,192,208770,1,8,0:0:0:0:
246,204,208863,1,0,0:0:0:0:
256,192,209048,1,0,0:0:0:0:
256,192,209233,1,8,0:0:0:0:
256,192,209326,1,8,0:0:0:0:
256,192,209418,1,8,0:0:0:0:
256,192,209511,1,8,0:0:0:0:
256,192,209604,1,0,0:0:0:0:
246,204,209974,1,0,0:0:0:0:
256,192,210344,5,0,0:0:0:0:
256,192,210530,1,0,0:0:0:0:
256,192,210715,1,8,0:0:0:0:
256,160,210807,1,8,0:0:0:0:
246,204,210900,1,8,0:0:0:0:
256,160,210993,1,8,0:0:0:0:
256,192,211085,1,0,0:0:0:0:
256,192,211270,1,0,0:0:0:0:
256,192,211455,1,8,0:0:0:0:
256,192,211548,1,8,0:0:0:0:
256,192,211641,1,8,0:0:0:0:
256,192,211733,1,8,0:0:0:0:
246,204,211826,1,0,0:0:0:0:
256,192,212011,1,0,0:0:0:0:
256,192,212196,1,8,0:0:0:0:
256,192,212289,1,8,0:0:0:0:
256,192,212381,1,8,0:0:0:0:
256,192,212474,1,8,0:0:0:0:
256,192,212567,1,0,0:0:0:0:
