osu file format v14

[General]
AudioFilename: audio.mp3
AudioLeadIn: 0
PreviewTime: 50393
Countdown: 0
SampleSet: Soft
StackLeniency: 0.7
Mode: 0
LetterboxInBreaks: 0
WidescreenStoryboard: 1

[Editor]
Bookmarks: 7878,14072,26459,38846,51233,76007,79104,89943
DistanceSpacing: 1
BeatDivisor: 6
GridSize: 32
TimelineZoom: 3.200002

[Metadata]
Title:Law-evading Rock
TitleUnicode:脱法ロック
Artist:Neru feat. Kagamine Len
ArtistUnicode:Neru feat. 鏡音レン
Creator:Mafumafu
Version:Seto's Insane
Source:
Tags:Vocaloid regraz noffy seto kousuke seto_kousuke dorothy3242 dappo rock CYNICISM novelty japanese
BeatmapID:2164686
BeatmapSetID:1022767

[Difficulty]
HPDrainRate:5
CircleSize:4
OverallDifficulty:8
ApproachRate:9
SliderMultiplier:1.8
SliderTickRate:1

[Events]
//Background and Video events
0,0,"97e4780e21a43d5965397bc12c812bb0.jpg",0,0
//Break Periods
//Storyboard Layer 0 (Background)
//Storyboard Layer 1 (Fail)
//Storyboard Layer 2 (Pass)
//Storyboard Layer 3 (Foreground)
//Storyboard Layer 4 (Overlay)
//Storyboard Sound Samples

[TimingPoints]
84,387.096774193548,4,2,1,60,1,0
1632,-133.333333333333,4,2,1,60,0,0
7813,387.096774193548,4,2,1,60,1,0
7813,-100,4,2,1,60,0,0
14006,-90.9090909090909,4,2,1,83,0,0
26393,-117.647058823529,4,2,1,83,0,0
41877,-100,4,2,1,83,0,0
51167,-83.3333333333333,4,2,1,98,0,1
63167,-100,4,2,1,98,0,0
63554,-100,4,2,1,98,0,1
75950,387.096774193548,4,2,1,60,1,0
75950,-100,4,2,1,98,0,0
77111,-200,4,2,1,98,0,0
79064,387.096774193548,4,2,1,60,1,0
79064,-90.9090909090909,4,2,1,83,0,1
79160,-90.9090909090909,4,2,1,83,0,0
91858,387.096774193548,4,2,1,60,1,0
91858,-181.818181818181,4,2,1,47,0,0

[Colours]
Combo1 : 205,61,107
Combo2 : 171,154,31
Combo3 : 46,164,226

[HitObjects]
93,109,1632,6,0,L|182:116,1,67.5000025749208,2|0,0:0|0:0,0:0:0:0:
187,134,1922,1,0,0:0:0:0:
187,134,2019,2,0,L|183:219,1,67.5000025749208,2|0,0:0|0:0,0:0:0:0:
334,83,2406,2,0,L|340:166,1,67.5000025749208,2|0,0:0|0:0,0:0:0:0:
359,176,2696,2,0,L|447:161,1,67.5000025749208,2|0,0:0|0:0,0:0:0:0:
452,143,2987,6,0,P|428:203|460:291,1,135.000005149842,2|2,0:0|0:0,0:0:0:0:
443,269,3567,1,2,0:0:0:0:
278,232,3761,2,0,B|236:237|236:237|194:215|194:215|129:221,1,135.000005149842,2|2,0:0|0:0,0:0:0:0:
24,364,4342,1,0,0:0:0:0:
27,256,4535,1,2,0:0:0:0:
27,256,4632,1,0,0:0:0:0:
27,256,4729,6,0,L|25:165,1,67.5000025749208,2|0,0:0|0:0,0:0:0:0:
110,362,5116,2,0,L|108:271,1,67.5000025749208,2|0,0:0|0:0,0:0:0:0:
195,187,5503,2,0,L|196:254,1,67.5000025749208,2|0,0:0|0:0,0:0:0:0:
212,284,5793,2,0,L|292:281,1,67.5000025749208,2|0,0:0|0:0,0:0:0:0:
323,304,6083,6,0,P|303:238|349:173,1,135.000005149842,2|2,0:0|0:0,0:0:0:0:
431,90,6664,1,0,0:0:0:0:
431,90,6858,2,0,B|367:112|367:65|296:85,1,135.000005149842,2|2,0:0|0:0,0:0:0:0:
268,98,7342,1,0,0:0:0:0:
248,124,7438,2,0,P|238:158|256:210,1,67.5000025749208,2|0,0:0|0:0,0:0:0:0:
425,313,7813,6,0,L|301:326,1,90,4|0,0:0|0:0,0:0:0:0:
211,374,8201,2,0,L|87:361,1,90,4|2,0:3|0:0,0:0:0:0:
21,195,8588,1,4,0:3:0:0:
79,264,8781,1,0,0:0:0:0:
79,264,8878,2,0,P|108:225|101:168,1,90,2|0,0:0|0:0,0:0:0:0:
21,195,9168,6,0,L|213:201,1,180,2|0,0:0|0:0,0:0:0:0:
249,30,9749,1,4,0:3:0:0:
249,30,9846,1,0,0:0:0:0:
249,30,9942,2,0,P|230:70|340:124,1,180,2|0,0:0|0:0,0:0:0:0:
459,122,10523,1,4,0:3:0:0:
492,256,10717,1,2,0:0:0:0:
492,256,10910,6,0,P|399:266|282:263,1,180,4|4,0:3|0:3,0:0:0:0:
147,341,11491,2,0,P|187:367|176:286,1,180,2|0,0:0|0:0,0:0:0:0:
16,221,12071,1,0,1:0:0:0:
61,221,12168,1,0,1:0:0:0:
96,193,12265,1,4,0:3:0:0:
101,148,12361,1,4,0:3:0:0:
74,111,12459,5,0,1:0:0:0:
329,68,12652,1,0,1:0:0:0:
350,85,13426,5,4,0:3:0:0:
350,85,13523,1,4,0:3:0:0:
350,85,13620,2,0,B|372:165|325:165|354:227,1,135,0|0,1:0|0:0,0:0:0:0:
403,285,14006,6,0,P|342:276|289:326,1,99.0000030212403,4|0,0:0|0:0,0:0:0:0:
109,292,14394,2,0,P|170:301|223:251,1,99.0000030212403,0|0,1:0|0:0,0:0:0:0:
136,54,14781,2,0,B|153:107|153:107|127:148|127:148|147:236,1,148.50000453186,4|0,0:3|0:0,0:0:0:0:
143,212,15168,1,0,1:0:0:0:
44,102,15362,1,0,0:0:0:0:
229,167,15555,6,0,L|353:163,1,99.0000030212403,4|0,0:3|0:0,0:0:0:0:
456,13,15942,2,0,L|454:127,1,99.0000030212403,0|0,1:0|0:0,0:0:0:0:
460,335,16330,2,0,P|433:286|361:284,1,99.0000030212403,4|0,0:3|1:0,0:0:0:0:
369,271,16620,1,0,0:0:0:0:
369,271,16717,2,0,L|371:371,1,99.0000030212403,0|0,1:0|0:0,0:0:0:0:
467,201,17104,6,0,P|373:182|266:198,1,198.000006042481,4|0,0:3|1:0,0:0:0:0:
203,91,17684,1,0,0:0:0:0:
63,203,17878,2,0,P|53:253|75:350,1,148.50000453186,4|0,0:3|0:0,0:0:0:0:
89,358,18265,1,0,1:0:0:0:
207,282,18459,1,0,0:0:0:0:
118,119,18652,6,0,P|67:113|-9:133,1,99.0000030212403,4|0,0:3|0:0,0:0:0:0:
222,293,19039,2,0,P|273:289|333:195,1,148.50000453186,0|0,1:0|0:0,0:0:0:0:
344,169,19426,2,0,L|221:170,1,99.0000030212403,4|0,0:3|1:0,0:0:0:0:
200,191,19717,1,0,0:0:0:0:
200,191,19813,1,0,1:0:0:0:
159,27,20007,1,0,0:0:0:0:
41,164,20201,6,0,P|113:225|205:182,1,198.000006042481,4|0,0:0|1:0,0:0:0:0:
295,97,20781,1,0,0:0:0:0:
321,259,20975,2,0,P|371:266|473:259,1,148.50000453186,4|0,0:3|0:0,0:0:0:0:
485,241,21362,1,0,1:0:0:0:
420,348,21555,1,0,0:0:0:0:
362,182,21748,6,0,P|314:179|223:190,1,99.0000030212403,4|0,0:3|0:0,0:0:0:0:
152,24,22135,2,0,P|133:77|139:139,1,99.0000030212403,0|0,1:0|0:0,0:0:0:0:
27,302,22522,2,0,P|40:242|19:176,1,99.0000030212403,4|0,0:3|1:0,0:0:0:0:
7,163,22812,1,0,0:0:0:0:
7,163,22909,1,0,1:0:0:0:
40,28,23103,1,0,0:0:0:0:
149,134,23296,6,0,P|248:142|377:123,1,198.000006042481,4|0,0:3|1:0,0:0:0:0:
442,32,23877,1,0,0:0:0:0:
495,181,24070,2,0,L|488:294,1,99.0000030212403,4|0,0:3|0:0,0:0:0:0:
345,130,24458,2,0,L|339:229,1,99.0000030212403,0|0,1:0|0:0,0:0:0:0:
179,313,24845,5,4,0:3:0:0:
306,353,25038,1,0,0:0:0:0:
221,191,25232,2,0,P|151:178|75:223,1,148.50000453186,0|0,1:0|0:0,0:0:0:0:
53,250,25619,2,0,L|61:120,1,99.0000030212403,4|0,0:3|1:0,0:0:0:0:
193,23,26007,1,4,0:3:0:0:
217,24,26103,1,4,0:3:0:0:
242,26,26200,1,0,1:0:0:0:
267,28,26297,1,0,1:0:0:0:
291,30,26394,6,0,L|291:197,1,153.000002918243,4|0,0:0|1:0,0:0:0:0:
269,207,27168,1,4,0:3:0:0:
127,37,27459,1,4,0:3:0:0:
127,37,27555,1,0,1:0:0:0:
11,145,27749,2,0,P|59:121|100:213,1,153.000002918243,4|4,0:3|0:3,0:0:0:0:
250,98,28330,1,0,1:0:0:0:
216,256,28523,2,0,P|198:222|206:184,1,76.5000014591217,4|0,0:3|0:0,0:0:0:0:
296,214,28910,1,4,0:3:0:0:
124,362,29104,1,0,1:0:0:0:
97,351,29491,6,0,B|174:376|174:326|255:357,1,153.000002918243,4|0,0:3|1:0,0:0:0:0:
271,367,30265,1,4,0:3:0:0:
461,259,30555,1,4,0:3:0:0:
461,259,30652,1,0,1:0:0:0:
377,367,30846,6,0,B|383:319|383:319|358:275|358:275|370:208,1,153.000002918243,4|4,0:3|0:3,0:0:0:0:
475,358,31426,1,0,1:0:0:0:
431,143,31620,2,0,P|364:119|280:168,1,153.000002918243,4|4,0:3|0:3,0:0:0:0:
185,251,32201,2,0,P|190:226|188:180,1,38.2500007295609,0|0,1:0|1:0,0:0:0:0:
111,74,32394,1,4,0:3:0:0:
111,74,32588,6,0,P|94:145|119:232,1,153.000002918243,4|0,0:3|1:0,0:0:0:0:
96,248,33362,1,4,0:3:0:0:
266,122,33652,1,4,0:3:0:0:
266,122,33749,1,0,1:0:0:0:
202,241,33942,1,4,0:3:0:0:
202,241,34039,6,0,P|252:241|310:251,1,76.5000014591217,0|0,0:0|0:0,0:0:0:0:
304,261,34330,1,4,0:3:0:0:
369,131,34523,1,0,1:0:0:0:
416,231,34717,2,0,L|413:322,1,76.5000014591217,4|0,0:3|0:0,0:0:0:0:
493,150,35104,1,4,0:3:0:0:
250,116,35297,1,0,1:0:0:0:
250,116,35684,6,0,P|193:130|93:94,1,153.000002918243,4|0,0:3|1:0,0:0:0:0:
11,276,36265,1,0,0:0:0:0:
11,276,36362,1,0,0:0:0:0:
11,276,36459,1,4,0:3:0:0:
219,313,36652,2,0,L|267:290,1,38.2500007295609,0|0,1:0|1:0,0:0:0:0:
130,297,36846,2,0,L|82:320,1,38.2500007295609,4|4,0:3|0:3,0:0:0:0:
348,325,37039,5,0,1:0:0:0:
348,325,37426,1,4,0:3:0:0:
355,297,37522,1,4,0:3:0:0:
362,269,37620,2,0,B|397:169|319:153|360:45,1,229.500004377365,0|0,1:0|1:0,0:0:0:0:
375,33,38297,1,0,1:0:0:0:
395,30,38394,5,4,0:3:0:0:
364,52,38490,1,4,0:3:0:0:
327,62,38587,1,4,0:3:0:0:
290,57,38684,1,0,0:0:0:0:
257,38,38781,5,4,0:3:0:0:
258,247,38975,1,4,0:3:0:0:
249,267,40136,5,4,0:3:0:0:
78,115,40523,1,4,0:3:0:0:
424,108,40910,1,4,0:3:0:0:
71,314,41297,5,4,0:3:0:0:
71,314,41394,1,4,0:3:0:0:
71,314,41491,2,0,P|122:303|168:321,1,76.5000014591217,0|0,1:0|0:0,0:0:0:0:
368,294,41878,6,0,P|282:296|245:260,1,135,4|0,0:0|0:0,0:0:0:0:
224,254,42265,2,0,L|238:131,1,90,0|0,1:0|0:0,0:0:0:0:
439,207,42652,1,4,0:3:0:0:
219,91,42846,1,0,0:0:0:0:
219,91,42942,2,0,P|269:93|305:133,1,90,4|0,0:3|0:0,0:0:0:0:
234,164,43233,2,0,L|75:161,1,135,4|0,0:0|0:0,0:0:0:0:
78,176,43620,1,4,0:3:0:0:
95,60,43813,6,0,L|78:15,2,30,0|0|0,1:0|0:0|1:0,0:0:0:0:
140,55,44007,1,4,0:3:0:0:
188,49,44104,1,0,0:0:0:0:
229,39,44201,6,0,L|312:37,2,60,4|4|4,0:3|0:3|0:3,0:0:0:0:
84,31,44588,1,0,1:0:0:0:
423,36,44975,5,4,0:3:0:0:
416,231,45168,1,4,0:3:0:0:
131,145,46330,5,4,0:3:0:0:
262,305,46717,1,4,0:3:0:0:
452,116,47104,1,4,0:3:0:0:
97,38,47491,6,0,L|159:42,2,45,4|4|0,0:3|0:3|1:0,0:0:0:0:
70,44,48071,6,0,P|54:132|70:227,1,180,4|0,0:0|1:0,0:0:0:0:
127,301,48652,1,0,1:0:0:0:
236,231,48846,2,0,L|244:129,1,90,0|0,1:0|1:0,0:0:0:0:
400,24,49233,1,0,1:0:0:0:
397,77,49330,1,0,1:0:0:0:
394,130,49426,1,0,1:0:0:0:
398,134,49813,6,0,L|445:136,2,45,0|0|4,0:0|0:0|0:0,0:0:0:0:
396,340,50588,5,4,0:3:0:0:
439,255,50781,1,0,1:0:0:0:
439,243,50877,1,0,0:0:0:0:
439,232,50974,1,4,0:3:0:0:
439,221,51071,1,0,0:0:0:0:
439,210,51168,6,0,P|345:184|276:231,1,161.999995056153,4|0,0:0|0:0,0:0:0:0:
289,64,51555,2,0,P|263:158|310:227,1,161.999995056153,0|0,1:0|0:0,0:0:0:0:
292,358,51942,2,0,P|318:264|271:195,1,161.999995056153,4|0,0:3|0:0,0:0:0:0:
199,291,52330,5,0,1:0:0:0:
181,130,52523,1,0,0:0:0:0:
351,140,52717,1,4,0:3:0:0:
351,140,52910,2,0,L|483:142,1,107.999996704102,2|0,0:0|1:0,0:0:0:0:
267,65,53297,5,0,0:0:0:0:
156,215,53491,1,4,0:3:0:0:
156,215,53684,2,0,L|46:213,1,107.999996704102,2|0,1:2|1:0,0:0:0:0:
149,68,54071,1,0,0:0:0:0:
287,228,54265,6,0,P|370:262|440:204,1,161.999995056153,4|0,0:3|0:0,0:0:0:0:
426,71,54652,2,0,P|355:36|286:71,1,161.999995056153,0|0,1:0|0:0,0:0:0:0:
78,143,55039,2,0,P|161:177|231:119,1,161.999995056153,4|0,0:3|0:0,0:0:0:0:
149,68,55426,5,0,1:0:0:0:
308,149,55620,1,0,0:0:0:0:
189,284,55813,1,4,0:3:0:0:
189,284,56007,2,0,L|76:287,1,107.999996704102,2|0,0:0|1:0,0:0:0:0:
274,350,56394,1,0,0:0:0:0:
372,219,56588,1,4,0:3:0:0:
372,219,56781,2,0,L|496:220,1,107.999996704102,2|0,1:2|1:0,0:0:0:0:
424,38,57168,1,0,0:0:0:0:
287,120,57362,6,0,B|212:144|212:92|128:124,1,161.999995056153,4|0,0:0|0:0,0:0:0:0:
128,284,57749,2,0,B|212:316|212:264|287:288,1,161.999995056153,0|0,1:0|0:0,0:0:0:0:
512,200,58136,2,0,B|437:224|437:172|353:204,1,161.999995056153,4|0,0:3|0:0,0:0:0:0:
404,291,58523,5,0,1:0:0:0:
479,113,58717,1,0,0:0:0:0:
287,120,58910,1,4,0:3:0:0:
287,120,59104,2,0,L|169:120,1,107.999996704102,2|0,0:0|1:0,0:0:0:0:
131,304,59491,1,0,0:0:0:0:
24,175,59684,1,4,0:3:0:0:
24,175,59878,2,0,L|24:54,1,107.999996704102,2|0,1:2|1:0,0:0:0:0:
234,38,60265,5,0,0:0:0:0:
285,223,60459,2,0,P|227:230|176:218,1,107.999996704102,4|2,0:3|0:0,0:0:0:0:
362,97,60846,1,0,1:0:0:0:
398,294,61039,1,2,0:0:0:0:
498,121,61233,1,4,0:0:0:0:
290,233,61426,1,2,0:0:0:0:
363,76,61620,1,4,0:3:0:0:
364,49,61716,1,4,0:3:0:0:
366,22,61813,6,0,P|248:-5|158:42,1,215.999993408203,2|4,1:2|0:3,0:0:0:0:
34,61,62394,1,4,0:3:0:0:
34,87,62490,1,4,0:3:0:0:
35,114,62587,1,0,1:0:0:0:
36,141,62684,1,0,1:0:0:0:
37,168,62781,2,0,L|45:228,1,53.9999983520508,4|0,0:3|0:0,0:0:0:0:
151,191,62975,2,0,L|143:251,1,53.9999983520508,4|0,0:3|0:0,0:0:0:0:
0,317,63168,2,0,P|54:301|119:355,1,135,0|0,1:0|0:0,0:0:0:0:
221,372,63555,6,0,P|227:311|295:277,1,135,4|0,0:0|0:0,0:0:0:0:
386,335,63942,2,0,P|321:331|286:276,1,135,0|0,1:0|0:0,0:0:0:0:
336,171,64330,2,0,P|337:236|286:275,1,135,4|0,0:3|0:0,0:0:0:0:
237,185,64717,5,0,1:0:0:0:
420,119,64910,1,0,0:0:0:0:
281,27,65104,1,4,0:3:0:0:
281,27,65297,2,0,L|159:30,1,90,2|0,0:0|1:0,0:0:0:0:
18,173,65684,1,0,0:0:0:0:
84,19,65878,1,4,0:3:0:0:
84,19,66071,2,0,L|84:128,1,90,2|0,1:2|1:0,0:0:0:0:
35,307,66459,1,0,0:0:0:0:
148,190,66652,6,0,P|200:190|253:265,1,135,4|0,0:3|0:0,0:0:0:0:
369,247,67039,2,0,P|323:273|240:234,1,135,0|0,1:0|0:0,0:0:0:0:
211,359,67426,2,0,P|201:307|266:242,1,135,4|0,0:3|0:0,0:0:0:0:
306,176,67813,5,0,1:0:0:0:
415,314,68007,1,0,0:0:0:0:
499,201,68201,1,4,0:3:0:0:
499,201,68394,2,0,L|492:90,1,90,2|0,0:0|1:0,0:0:0:0:
331,7,68781,1,0,0:0:0:0:
187,125,68975,1,4,0:3:0:0:
187,125,69168,2,0,L|194:236,1,90,2|0,1:2|1:0,0:0:0:0:
267,359,69555,1,0,0:0:0:0:
410,303,69749,6,0,P|435:241|394:172,1,135,4|0,0:0|0:0,0:0:0:0:
287,184,70136,2,0,P|349:209|418:168,1,135,0|0,1:0|0:0,0:0:0:0:
405,61,70523,2,0,P|380:123|421:192,1,135,4|0,0:3|0:0,0:0:0:0:
482,121,70910,5,0,1:0:0:0:
323,16,71104,1,0,0:0:0:0:
221,149,71297,1,4,0:3:0:0:
221,149,71491,2,0,L|97:143,1,90,2|0,0:0|1:0,0:0:0:0:
55,27,71878,1,0,0:0:0:0:
24,219,72071,1,4,0:3:0:0:
24,219,72265,2,0,L|31:95,1,90,2|0,1:2|1:0,0:0:0:0:
180,55,72652,5,0,0:0:0:0:
211,248,72846,1,4,0:3:0:0:
354,164,73039,1,2,0:0:0:0:
130,143,73233,1,0,1:0:0:0:
281,29,73426,1,2,0:0:0:0:
440,248,73620,5,0,1:0:0:0:
423,276,73716,1,0,1:0:0:0:
395,295,73813,1,4,0:3:0:0:
362,301,73910,1,0,1:0:0:0:
330,292,74007,1,4,0:3:0:0:
360,51,74201,6,0,L|362:202,1,135,2|0,1:2|0:0,0:0:0:0:
364,216,74588,1,4,0:3:0:0:
454,122,74781,1,0,1:0:0:0:
233,121,74975,1,4,0:3:0:0:
442,19,75168,1,0,1:0:0:0:
364,216,75362,1,4,0:3:0:0:
262,38,75555,2,0,P|197:36|150:92,1,135,2|0,1:2|0:0,0:0:0:0:
165,181,75950,6,0,B|191:203|191:203|265:204,1,90,4|0,0:0|0:0,0:0:0:0:
274,384,76240,2,0,B|247:361|247:361|174:361,1,90,4|0,0:0|0:0,0:0:0:0:
36,285,76530,2,0,L|136:284,1,90,4|0,0:0|0:0,0:0:0:0:
302,283,76820,2,0,L|202:282,1,90,4|0,0:0|0:0,0:0:0:0:
382,351,77111,6,0,B|438:251|351:236|388:130,1,225,4|0,0:0|0:0,0:0:0:0:
465,27,78272,1,4,0:3:0:0:
172,29,78466,1,4,0:3:0:0:
172,29,79064,6,0,L|168:130,1,99.0000030212403,4|0,0:0|0:0,0:0:0:0:
68,304,79451,2,0,L|71:205,1,99.0000030212403,0|0,1:0|0:0,0:0:0:0:
273,184,79838,2,0,L|265:371,1,148.50000453186,4|0,0:3|0:0,0:0:0:0:
258,355,80226,1,0,1:0:0:0:
176,247,80394,1,0,0:0:0:0:
363,219,80588,6,0,L|462:219,1,99.0000030212403,4|0,0:3|0:0,0:0:0:0:
221,108,80975,2,0,L|122:108,1,99.0000030212403,0|0,1:0|0:0,0:0:0:0:
320,0,81362,2,0,L|322:126,1,99.0000030212403,4|0,0:3|1:0,0:0:0:0:
311,147,81652,1,0,0:0:0:0:
311,147,81749,1,0,1:0:0:0:
455,61,81942,1,0,0:0:0:0:
497,272,82136,6,0,P|438:330|346:286,1,198.000006042481,4|0,0:3|1:0,0:0:0:0:
247,189,82717,1,0,0:0:0:0:
171,338,82910,2,0,L|13:335,1,148.50000453186,4|0,0:3|0:0,0:0:0:0:
2,350,83297,1,0,1:0:0:0:
108,192,83491,1,0,0:0:0:0:
247,285,83684,2,0,L|353:286,1,99.0000030212403,4|0,0:3|0:0,0:0:0:0:
347,93,84071,2,0,L|186:93,1,148.50000453186,0|0,1:0|0:0,0:0:0:0:
173,110,84459,5,4,0:3:0:0:
267,9,84652,1,0,1:0:0:0:
313,195,84846,1,0,1:0:0:0:
439,20,85039,1,0,0:0:0:0:
439,20,85136,1,0,0:0:0:0:
439,20,85233,6,0,P|467:94|443:217,1,198.000006042481,4|0,0:0|1:0,0:0:0:0:
458,343,85813,1,0,0:0:0:0:
308,280,86007,2,0,P|238:265|147:293,1,148.50000453186,4|0,0:3|0:0,0:0:0:0:
146,302,86394,1,0,1:0:0:0:
28,198,86588,1,0,0:0:0:0:
141,98,86781,6,0,L|137:229,1,99.0000030212403,4|0,0:3|0:0,0:0:0:0:
61,24,87168,2,0,P|124:-1|209:19,1,148.50000453186,0|0,1:0|0:0,0:0:0:0:
241,31,87555,2,0,L|241:147,1,99.0000030212403,4|0,0:3|1:0,0:0:0:0:
228,311,87942,1,0,1:0:0:0:
120,218,88136,1,0,0:0:0:0:
337,165,88330,6,0,L|453:164,1,99.0000030212403,4|0,0:3|0:0,0:0:0:0:
433,331,88717,2,0,L|317:330,1,99.0000030212403,0|0,1:0|0:0,0:0:0:0:
228,162,89104,2,0,L|228:321,1,148.50000453186,4|0,0:3|0:0,0:0:0:0:
216,334,89491,1,0,1:0:0:0:
323,246,89684,1,0,0:0:0:0:
119,214,89878,5,4,0:3:0:0:
97,225,89974,1,0,0:0:0:0:
80,243,90071,1,0,0:0:0:0:
70,266,90168,1,4,0:3:0:0:
69,290,90265,1,0,1:0:0:0:
228,162,90459,5,4,0:3:0:0:
235,138,90555,1,4,0:3:0:0:
233,112,90652,2,0,P|212:91|179:84,1,49.5000015106202,4|0,0:3|0:0,0:0:0:0:
161,11,90846,2,0,P|138:20|121:38,1,49.5000015106202,0|0,1:0|0:0,0:0:0:0:
119,214,91039,5,4,0:0:0:0:
338,132,91233,1,0,0:0:0:0:
338,132,91330,1,0,0:0:0:0:
338,132,91426,5,4,0:3:0:0:
85,123,91620,1,4,0:3:0:0:
85,123,91858,6,0,L|86:227,1,99.0000030212403,2|2,0:0|0:0,0:0:0:0:
122,310,92632,1,2,0:0:0:0:
122,310,93019,2,0,L|57:310,2,49.5000015106202,2|2|2,0:0|0:0|0:0,0:0:0:0:
217,351,93793,2,0,B|325:391|324:327|415:354,1,198.000006042481,2|0,0:0|0:0,0:0:0:0:
