osu file format v14

[General]
AudioFilename: audio.mp3
AudioLeadIn: 0
PreviewTime: 50393
Countdown: 0
SampleSet: Soft
StackLeniency: 0.7
Mode: 0
LetterboxInBreaks: 0
WidescreenStoryboard: 1

[Editor]
Bookmarks: 1685,7878,14072,26459,38846,51233,63620,76007,79104,91491
DistanceSpacing: 1
BeatDivisor: 4
GridSize: 32
TimelineZoom: 1.1

[Metadata]
Title:Law-evading Rock
TitleUnicode:脱法ロック
Artist:Neru feat. Kagamine Len
ArtistUnicode:Neru feat. 鏡音レン
Creator:Mafumafu
Version:Noffy's Normal
Source:
Tags:Vocaloid regraz noffy seto kousuke seto_kousuke dorothy3242 dappo rock CYNICISM novelty japanese
BeatmapID:2164337
BeatmapSetID:1022767

[Difficulty]
HPDrainRate:3
CircleSize:3
OverallDifficulty:4
ApproachRate:5
SliderMultiplier:1.2
SliderTickRate:1

[Events]
//Background and Video events
0,0,"97e4780e21a43d5965397bc12c812bb0.jpg",0,0
//Break Periods
//Storyboard Layer 0 (Background)
//Storyboard Layer 1 (Fail)
//Storyboard Layer 2 (Pass)
//Storyboard Layer 3 (Foreground)
//Storyboard Layer 4 (Overlay)
//Storyboard Sound Samples

[TimingPoints]
84,387.096774193548,4,2,1,60,1,0
1632,-133.333333333333,4,2,1,60,0,0
7813,387.096774193548,4,2,1,60,1,0
14006,-100,4,2,1,83,0,0
51167,-80,4,2,1,98,0,1
63167,-80,4,2,1,98,0,0
63554,-80,4,2,1,98,0,1
75950,387.096774193548,4,2,1,60,1,0
75950,-100,4,2,1,98,0,0
79064,387.096774193548,4,2,1,60,1,0
79064,-100,4,2,1,83,0,1
79160,-100,4,2,1,83,0,0
91858,387.096774193548,4,2,1,60,1,0

[Colours]
Combo1 : 205,61,107
Combo2 : 171,154,31
Combo3 : 46,164,226

[HitObjects]
20,111,14006,5,4,0:0:0:0:
73,218,14393,2,0,P|133:213|206:233,1,120,0|4,1:0|0:3,0:0:0:0:
264,321,15167,2,0,P|306:342|340:347,1,60,0|0,1:0|0:0,0:0:0:0:
378,345,15554,2,0,P|407:341|435:330,1,60,4|0,0:3|0:0,0:0:0:0:
486,299,15941,1,0,1:0:0:0:
472,171,16329,2,0,P|381:207|246:165,1,240,4|4,0:3|0:3,0:0:0:0:
236,48,17490,6,0,L|361:58,1,120,0|4,1:0|0:3,0:0:0:0:
475,64,18264,1,0,1:0:0:0:
415,168,18651,2,0,L|436:246,1,60,4|0,0:3|0:0,0:0:0:0:
448,282,19038,1,0,1:0:0:0:
330,262,19425,2,0,B|296:257|296:257|213:279,1,120,4|0,0:3|1:0,0:0:0:0:
103,328,20200,5,4,0:0:0:0:
46,221,20587,2,0,P|33:155|51:93,1,120,0|4,1:0|0:3,0:0:0:0:
153,53,21361,2,0,P|174:95|179:129,1,60,0|0,1:0|0:0,0:0:0:0:
177,167,21748,2,0,P|173:196|162:224,1,60,4|0,0:3|0:0,0:0:0:0:
131,275,22135,1,0,1:0:0:0:
250,286,22522,2,0,P|292:172|265:48,1,240,4|4,0:3|0:3,0:0:0:0:
158,27,23683,6,0,L|162:151,1,120,0|4,1:0|0:3,0:0:0:0:
172,266,24457,1,0,1:0:0:0:
256,351,24845,2,0,P|291:329|317:301,1,60,4|0,0:3|0:0,0:0:0:0:
340,266,25231,1,0,1:0:0:0:
257,181,25619,1,4,0:3:0:0:
406,35,26393,5,4,0:0:0:0:
406,35,26780,1,0,1:0:0:0:
368,149,27167,2,0,L|259:173,1,90,4|4,0:3|0:3,0:0:0:0:
274,258,27748,2,0,B|369:234|369:234|455:279,1,180,4|0,0:3|1:0,0:0:0:0:
491,305,28522,1,4,0:3:0:0:
402,383,28909,1,4,0:3:0:0:
222,379,29490,5,4,0:3:0:0:
222,379,29877,1,0,1:0:0:0:
166,272,30264,2,0,L|57:296,1,90,4|4,0:3|0:3,0:0:0:0:
77,201,30845,2,0,B|172:179|172:179|228:100,1,180,4|0,0:3|1:0,0:0:0:0:
249,59,31619,1,4,0:3:0:0:
310,162,32006,1,4,0:3:0:0:
253,333,32587,5,4,0:3:0:0:
253,333,32974,1,0,1:0:0:0:
368,365,33361,2,0,L|352:276,1,90,4|4,0:3|0:3,0:0:0:0:
333,188,33941,2,0,B|429:205|429:205|499:162,1,180,4|0,0:3|1:0,0:0:0:0:
501,101,34716,1,4,0:3:0:0:
399,37,35103,1,4,0:3:0:0:
289,85,35490,6,0,L|217:68,1,60,2|4,0:0|0:3,0:0:0:0:
54,35,36264,1,2,0:0:0:0:
114,138,36651,2,0,L|172:151,2,60,0|4|0,1:0|0:3|1:0,0:0:0:0:
33,226,37425,1,4,0:3:0:0:
33,226,37619,1,0,1:0:0:0:
169,344,38200,2,0,P|222:300|208:246,1,120,0|4,1:0|0:3,0:0:0:0:
184,204,38780,5,4,0:3:0:0:
212,150,38974,1,4,0:3:0:0:
256,38,39361,1,2,0:0:0:0:
256,38,40135,5,4,0:3:0:0:
283,154,40522,1,4,0:3:0:0:
382,220,40909,1,4,0:3:0:0:
490,168,41296,2,0,P|501:139|503:96,1,60,4|0,0:3|1:0,0:0:0:0:
447,4,41877,6,0,P|362:43|265:48,1,180,4|0,0:0|0:0,0:0:0:0:
216,54,42651,1,4,0:3:0:0:
126,49,42941,1,4,0:3:0:0:
46,7,43232,2,0,L|25:142,1,120,4|4,0:0|0:3,0:0:0:0:
37,184,43812,2,0,P|81:222|150:251,1,120,0|4,1:0|0:3,0:0:0:0:
256,257,44587,1,0,1:0:0:0:
376,247,44974,5,4,0:3:0:0:
406,298,45168,1,4,0:3:0:0:
493,384,45554,1,2,0:0:0:0:
493,384,46329,5,4,0:3:0:0:
406,298,46716,1,4,0:3:0:0:
318,380,47103,1,4,0:3:0:0:
218,312,47490,2,0,P|207:283|205:240,1,60,4|0,0:3|1:0,0:0:0:0:
229,137,48070,5,4,0:0:0:0:
127,72,48458,1,0,1:0:0:0:
27,138,48845,1,0,1:0:0:0:
42,257,49232,2,0,P|65:285|101:298,1,60,0|0,1:0|1:0,0:0:0:0:
263,325,50006,2,0,B|276:283|276:283|299:266|299:266|317:203,1,120,4|0,0:0|0:0,0:0:0:0:
368,201,50587,2,0,B|381:159|381:159|404:142|404:142|422:79,1,120,4|4,0:3|0:3,0:0:0:0:
389,43,51167,5,4,0:0:0:0:
245,86,51554,1,0,1:0:0:0:
101,25,51941,2,0,P|145:94|141:173,1,150,4|0,0:3|1:0,0:0:0:0:
121,231,52522,5,2,0:0:0:0:
136,304,52716,2,0,L|150:396,1,75,4|2,0:3|0:0,0:0:0:0:
295,352,53296,1,2,0:0:0:0:
265,283,53490,2,0,L|232:191,1,75,4|0,0:3|1:0,0:0:0:0:
89,155,54070,5,0,0:0:0:0:
70,227,54264,1,4,0:3:0:0:
30,371,54651,1,0,1:0:0:0:
161,299,55038,2,0,P|242:335|327:329,1,150,4|0,0:3|1:0,0:0:0:0:
377,328,55619,5,2,0:0:0:0:
387,253,55813,2,0,L|396:175,1,75,4|2,0:3|0:0,0:0:0:0:
500,70,56393,1,2,0:0:0:0:
504,146,56587,2,0,L|508:224,1,75,4|0,0:3|1:0,0:0:0:0:
489,369,57167,5,0,0:0:0:0:
424,330,57361,1,4,0:0:0:0:
281,377,57748,1,0,1:0:0:0:
135,342,58135,2,0,P|172:273|178:186,1,150,4|0,0:3|1:0,0:0:0:0:
167,128,58716,5,2,0:0:0:0:
93,142,58910,2,0,L|4:152,1,75,4|2,0:3|0:0,0:0:0:0:
100,24,59490,1,2,0:0:0:0:
175,23,59684,2,0,L|264:28,1,75,4|0,0:3|1:0,0:0:0:0:
361,125,60264,6,0,P|392:172|428:185,1,75,2|4,0:0|0:3,0:0:0:0:
482,187,60651,1,2,0:0:0:0:
499,38,61038,1,2,0:0:0:0:
349,53,61425,1,2,0:0:0:0:
238,154,61812,1,0,1:0:0:0:
241,304,62200,1,4,0:3:0:0:
176,341,62393,2,0,P|139:348|98:341,1,75,4|0,0:3|1:0,0:0:0:0:
37,305,62780,2,0,P|12:276|-2:237,1,75,4|4,0:3|0:3,0:0:0:0:
14,168,63167,1,0,1:0:0:0:
156,215,63554,5,4,0:0:0:0:
300,254,63941,1,0,1:0:0:0:
415,158,64328,2,0,L|268:127,1,150,4|0,0:3|0:0,0:0:0:0:
200,95,64909,5,2,0:0:0:0:
180,167,65103,2,0,P|160:206|109:239,1,75,4|2,0:3|0:0,0:0:0:0:
285,244,65683,1,2,0:0:0:0:
278,318,65877,2,0,P|265:359|220:401,1,75,4|2,0:3|0:0,0:0:0:0:
95,375,66457,5,0,0:0:0:0:
111,301,66651,1,4,0:3:0:0:
30,174,67038,1,0,1:0:0:0:
106,45,67425,2,0,L|276:70,1,150,4|0,0:3|0:0,0:0:0:0:
329,65,68006,5,2,0:0:0:0:
349,137,68200,2,0,P|369:176|420:209,1,75,4|2,0:3|0:0,0:0:0:0:
244,214,68780,1,2,0:0:0:0:
251,288,68974,2,0,P|263:329|308:371,1,75,4|0,0:3|1:0,0:0:0:0:
429,325,69554,5,0,0:0:0:0:
470,262,69748,1,4,0:0:0:0:
448,113,70135,1,0,1:0:0:0:
307,60,70522,2,0,L|334:237,1,150,4|0,0:3|0:0,0:0:0:0:
341,282,71103,5,2,0:0:0:0:
274,317,71297,2,0,P|230:311|182:274,1,75,4|2,0:3|0:0,0:0:0:0:
150,156,71877,1,2,0:0:0:0:
91,202,72071,2,0,P|47:204|-6:176,1,75,4|0,0:3|1:0,0:0:0:0:
8,44,72651,6,0,P|43:54|80:51,1,75,2|0,0:0|0:0,0:0:0:0:
151,25,73038,1,2,0:0:0:0:
300,27,73425,1,2,0:0:0:0:
254,170,73812,1,4,0:3:0:0:
106,194,74199,1,0,1:0:0:0:
202,309,74587,1,4,0:3:0:0:
263,351,74780,2,0,P|300:358|341:351,1,75,0|0,1:0|0:0,0:0:0:0:
407,327,75167,2,0,P|432:298|446:259,1,75,0|0,1:0|0:0,0:0:0:0:
443,188,75554,1,0,1:0:0:0:
334,238,75950,5,4,0:0:0:0:
256,192,76240,1,4,0:0:0:0:
178,238,76530,1,4,0:0:0:0:
256,282,76820,1,4,0:0:0:0:
256,192,77111,12,4,78272,0:3:0:0:
256,192,79064,5,4,0:0:0:0:
375,193,79451,2,0,P|380:133|360:60,1,120,0|4,1:0|0:3,0:0:0:0:
249,50,80225,2,0,L|187:61,1,60,0|0,1:0|0:0,0:0:0:0:
153,109,80612,2,0,L|91:120,1,60,4|0,0:3|0:0,0:0:0:0:
60,169,80999,1,0,1:0:0:0:
98,282,81386,2,0,P|208:241|320:285,1,240,4|4,0:3|0:3,0:0:0:0:
417,349,82547,6,0,L|428:219,1,120,0|4,1:0|0:3,0:0:0:0:
444,110,83321,1,0,1:0:0:0:
325,125,83708,2,0,L|319:206,1,60,4|0,0:3|0:0,0:0:0:0:
318,244,84095,1,0,1:0:0:0:
303,363,84482,2,0,P|242:371|181:344,1,120,4|0,0:3|1:0,0:0:0:0:
202,230,85257,5,4,0:0:0:0:
82,231,85644,2,0,P|68:172|81:114,1,120,0|4,1:0|0:3,0:0:0:0:
165,29,86418,2,0,L|227:40,1,60,0|0,1:0|0:0,0:0:0:0:
261,88,86806,2,0,L|323:99,1,60,4|0,0:3|0:0,0:0:0:0:
354,148,87192,1,0,1:0:0:0:
471,124,87579,2,0,P|492:240|450:351,1,240,4|4,0:3|0:3,0:0:0:0:
340,303,88740,6,0,L|336:183,1,120,0|4,1:0|0:3,0:0:0:0:
260,90,89514,1,0,1:0:0:0:
176,183,89902,2,0,L|174:250,1,60,4|0,0:3|0:0,0:0:0:0:
170,302,90288,1,0,1:0:0:0:
256,384,90676,1,4,0:3:0:0:
