osu file format v14

[General]
AudioFilename: audio.mp3
AudioLeadIn: 0
PreviewTime: 71998
Countdown: 1
SampleSet: Soft
StackLeniency: 0.7
Mode: 0
LetterboxInBreaks: 0
WidescreenStoryboard: 1

[Editor]
Bookmarks: 106228,106613,106998,107382,107767,108151,108536,108921,109305,109690,110075,110459,110844,111228,111613,111998,112382,112767,113151,113536,113921,114305,114690,115075,115459,115844,116228,116613,116998,117382,117767,118536,246228
DistanceSpacing: 1
BeatDivisor: 4
GridSize: 4
TimelineZoom: 1.799999

[Metadata]
Title:Justitia of Life
TitleUnicode:命のユースティティア
Artist:Neru feat. Kagamine Len
ArtistUnicode:Neru feat. 鏡音レン
Creator:rui
Version:Naryuga's Normal
Source:
Tags:vocaloid Satellite wring Naryuga inochi no justitia
BeatmapID:1601115
BeatmapSetID:761424

[Difficulty]
HPDrainRate:4
CircleSize:3.5
OverallDifficulty:4.5
ApproachRate:6
SliderMultiplier:1.2
SliderTickRate:1

[Events]
//Background and Video events
0,0,"39091117_p0.jpg",0,0
//Break Periods
2,106418,117326
2,174111,178865
//Storyboard Layer 0 (Background)
//Storyboard Layer 1 (Fail)
//Storyboard Layer 2 (Pass)
//Storyboard Layer 3 (Foreground)
//Storyboard Sound Samples

[TimingPoints]
65,384.615384615385,4,2,2,75,1,0
7757,-100,4,2,2,70,0,0
16988,-100,4,2,1,60,0,0
20065,-125,4,2,1,50,0,0
25834,-125,4,2,2,50,0,0
27565,-125,4,2,1,50,0,0
32372,-100,4,2,2,60,0,0
64295,-100,4,2,1,50,0,0
65065,-100,4,2,2,60,0,0
71026,-100,4,2,2,65,0,0
72372,-100,4,2,2,75,0,1
75930,-100,4,2,1,75,0,1
76122,-100,4,2,2,75,0,1
77180,-100,4,2,1,75,0,1
77661,-100,4,2,2,75,0,1
79488,-100,4,2,1,75,0,1
79968,-100,4,2,2,75,0,1
82180,-100,4,2,1,75,0,1
84295,-100,4,2,2,75,0,0
84680,-100,4,2,2,75,0,1
89488,-100,4,2,1,75,0,1
89968,-100,4,2,2,75,0,1
91507,-100,4,2,1,75,0,1
91988,-100,4,2,2,75,0,1
93815,-100,4,2,1,75,0,1
95449,-100,4,2,2,75,0,1
100930,-100,4,2,1,75,0,1
101122,-100,4,2,2,75,0,1
102468,-100,4,2,1,75,0,1
102661,-100,4,2,2,75,0,1
104007,-100,4,2,1,75,0,1
104199,-100,4,2,2,75,0,1
106218,-100,4,2,2,75,0,0
118526,-100,4,2,2,65,0,0
131507,-100,4,2,1,65,0,0
133430,-100,4,2,2,65,0,0
133815,-100,4,2,1,65,0,0
135353,-100,4,2,2,65,0,0
146218,-100,4,2,2,70,0,1
146315,-100,4,2,2,70,0,0
148718,-100,4,2,1,70,0,0
149199,-100,4,2,2,70,0,0
149488,-100,4,2,1,70,0,0
149968,-100,4,2,2,70,0,0
157180,-100,4,2,1,70,0,0
157661,-100,4,2,2,70,0,0
173911,-100,4,2,2,50,0,0
180065,-100,4,2,2,60,0,0
183141,-100,4,2,2,65,0,0
184680,-100,4,2,2,40,0,0
184872,-100,4,2,2,70,0,0
186218,-100,4,2,2,75,0,1
189776,-100,4,2,1,75,0,1
189968,-100,4,2,2,75,0,1
191026,-100,4,2,1,75,0,1
191507,-100,4,2,2,75,0,1
193334,-100,4,2,1,75,0,1
193815,-100,4,2,2,75,0,1
196122,-100,4,2,1,75,0,1
198141,-100,4,2,2,75,0,0
198526,-100,4,2,2,75,0,1
203334,-100,4,2,1,75,0,1
204007,-100,4,2,2,75,0,1
205353,-100,4,2,1,75,0,1
205834,-100,4,2,2,75,0,1
207949,-100,4,2,1,75,0,1
209199,-100,4,2,2,75,0,1
214776,-100,4,2,1,75,0,1
214968,-100,4,2,2,75,0,1
216315,-100,4,2,1,75,0,1
216507,-100,4,2,2,75,0,1
217853,-100,4,2,1,75,0,1
218045,-100,4,2,2,75,0,1
219391,-100,4,2,1,75,0,1
219584,-100,4,2,2,75,0,1
220930,-100,4,2,1,75,0,1
221122,-100,4,2,2,75,0,1
222468,-100,4,2,1,75,0,1
222661,-100,4,2,2,75,0,1
224103,-100,4,2,1,75,0,1
224584,-100,4,2,2,75,0,1
229295,-100,4,2,2,75,0,0
229872,-100,4,2,2,70,0,0
246218,-100,4,2,2,15,0,0

[Colours]
Combo1 : 154,78,78
Combo2 : 0,210,210
Combo3 : 255,53,53
Combo4 : 199,199,141

[HitObjects]
120,132,1603,6,0,L|104:44,2,90,4|4|4,1:2|1:2|1:2,0:0:0:0:
92,249,2565,1,0,0:0:0:0:
92,249,2757,2,0,P|124:253|152:248,1,60
196,208,3141,6,0,B|256:192|256:192|300:216|372:192,1,180,4|2,1:2|0:0,0:0:0:0:
424,160,3911,2,0,L|444:68,2,90,4|0|0,1:0|0:0|0:0,0:0:0:0:
460,208,4680,6,0,L|480:300,2,90,4|0|0,2:0|0:0|2:0,0:0:0:0:
424,160,5449,2,0,L|360:140,1,60,8|0,0:0|0:0,0:0:0:0:
332,92,5834,2,0,L|268:72,1,60,2|0,0:0|0:0,0:0:0:0:
240,24,6218,5,4,1:1:0:0:
68,192,6988,1,0,0:0:0:0:
128,296,7372,1,0,0:0:0:0:
228,228,7757,6,0,P|300:232|340:256,1,120,4|8,0:0|0:0,0:0:0:0:
388,292,8334,1,0,0:0:0:0:
444,272,8526,2,0,L|464:152,1,120,2|8,0:0|0:0,0:0:0:0:
392,56,9295,6,0,P|312:40|276:52,1,120,2|8,0:0|0:0,0:0:0:0:
236,92,9872,1,0,0:0:0:0:
192,52,10065,2,0,P|112:36|76:48,1,120,2|8,0:0|0:0,0:0:0:0:
44,164,10834,5,2,0:0:0:0:
80,212,11026,2,0,L|60:272,1,60,0|8,0:0|0:0,0:0:0:0:
148,352,11603,1,2,0:0:0:0:
236,269,11988,2,0,L|217:212,1,60,8|0,0:0|0:0,0:0:0:0:
200,156,12372,6,0,P|192:124|200:96,1,60,2|0,0:0|0:0,0:0:0:0:
228,44,12757,2,0,P|292:60|344:48,1,120,8|2,0:0|0:0,0:0:0:0:
400,24,13334,1,0,0:0:0:0:
400,24,13526,2,0,L|440:72,1,60,8|0,0:0|0:0,0:0:0:0:
480,112,13911,6,0,L|464:232,1,120,4|8,0:0|0:0,0:0:0:0:
456,292,14488,1,4,0:0:0:0:
344,248,14872,1,8,0:0:0:0:
252,328,15257,1,0,0:0:0:0:
252,328,15449,6,0,P|228:272|228:212,1,120,4|8,0:0|0:0,0:0:0:0:
248,156,16026,1,4,0:0:0:0:
132,120,16411,1,8,0:0:0:0:
76,16,16795,1,0,0:0:0:0:
76,16,16988,5,4,0:0:0:0:
256,192,17180,12,2,18526,0:0:0:0:
256,192,19295,5,0,0:0:0:0:
75,255,20065,6,0,P|47:191|76:128,1,144,4|0,0:1|0:0,0:0:0:0:
76,80,20834,1,0,0:0:0:0:
212,36,21411,1,0,0:0:0:0:
212,36,21603,6,0,P|248:32|288:36,1,72
356,28,22180,2,0,B|364:56|340:100|352:124,2,96
396,0,23141,6,0,P|444:12|484:92,1,144,2|0,0:0|0:0,0:0:0:0:
472,140,23911,1,0,0:0:0:0:
484,284,24488,1,0,0:0:0:0:
484,284,24680,6,0,L|384:264,1,96
340,348,25449,2,0,L|240:328,1,96,2|0,0:0|0:0,0:0:0:0:
156,300,26218,6,0,P|128:232|128:208,1,96,2|0,0:0|0:0,0:0:0:0:
140,164,26795,1,0,0:0:0:0:
140,164,26988,2,0,L|204:128,2,72
127,210,27757,6,0,P|145:254|178:289,1,96,2|0,0:0|0:0,0:0:0:0:
256,232,28526,2,0,P|300:249|335:282,1,96
360,324,29103,1,0,0:0:0:0:
372,372,29295,5,2,0:0:0:0:
444,308,29680,1,0,0:0:0:0:
412,216,30065,1,0,0:0:0:0:
444,124,30449,1,0,0:0:0:0:
372,60,30834,5,4,0:1:0:0:
132,44,32372,6,0,P|100:112|104:156,1,120,4|8,0:0|0:0,0:0:0:0:
136,208,32949,1,0,0:0:0:0:
136,208,33141,2,0,P|168:276|164:320,1,120,2|8,0:0|0:0,0:0:0:0:
208,360,33718,1,0,0:0:0:0:
208,360,33911,6,0,L|328:352,1,120,2|8,0:0|0:0,0:0:0:0:
344,292,34488,2,0,L|464:284,1,120
488,228,35065,1,8,0:0:0:0:
368,208,35449,6,0,L|404:92,1,120,2|8,0:0|0:0,0:0:0:0:
364,48,36026,1,0,0:0:0:0:
364,48,36218,2,0,P|280:36|248:44,1,120,2|8,0:0|0:0,0:0:0:0:
200,80,36795,1,0,0:0:0:0:
200,80,36987,6,0,P|116:92|84:84,1,120,2|8,0:0|0:0,0:0:0:0:
32,192,37757,2,0,L|16:252,1,60,2|0,0:0|0:0,0:0:0:0:
72,276,38141,2,0,L|92:336,1,60,8|0,0:0|0:0,0:0:0:0:
148,356,38526,6,0,P|192:344|244:292,1,120,4|8,0:0|0:0,0:0:0:0:
228,236,39103,1,0,0:0:0:0:
228,236,39295,2,0,L|208:148,2,90,2|0|0,0:0|0:0|0:0,0:0:0:0:
243,292,40065,6,0,P|282:336|338:355,1,120,4|8,0:0|0:0,0:0:0:0:
440,288,40834,1,2,0:0:0:0:
388,180,41218,2,0,P|392:144|400:120,1,60,8|0,0:0|0:0,0:0:0:0:
416,64,41603,6,0,B|360:44|360:44|300:44,1,120,4|8,0:0|0:0,0:0:0:0:
252,80,42180,1,4,0:0:0:0:
300,188,42565,1,4,0:0:0:0:
320,244,42757,1,8,0:0:0:0:
340,300,42949,6,0,B|292:336|292:336|232:336,1,120,4|4,0:0|0:0,0:0:0:0:
180,304,43526,1,8,0:0:0:0:
128,332,43718,2,0,B|72:316|72:316|36:264,1,120,4|0,0:0|0:0,0:0:0:0:
16,208,44295,2,0,B|8:148|8:148|16:88,1,120,12|4,0:0|0:0,0:0:0:0:
124,40,45065,5,8,0:0:0:0:
176,68,45257,2,0,P|240:76|296:68,1,120,2|2,0:0|0:0,0:0:0:0:
348,40,45834,2,0,P|384:36|408:40,1,60,8|0,0:0|0:0,0:0:0:0:
460,72,46218,6,0,L|444:192,1,120,2|8,0:0|0:0,0:0:0:0:
392,224,46795,1,2,0:0:0:0:
344,192,46988,2,0,L|276:180,2,60,0|2|8,0:0|0:0|0:0,0:0:0:0:
320,308,47757,6,0,L|252:320,1,60,2|0,0:0|0:0,0:0:0:0:
208,292,48141,1,8,0:0:0:0:
208,292,48334,2,0,B|144:304,1,60,2|0,0:0|0:0,0:0:0:0:
100,272,48718,2,0,L|40:256,1,60,2|8,0:0|0:0,0:0:0:0:
24,200,49103,1,0,0:0:0:0:
48,144,49295,6,0,P|80:72|112:68,1,120,2|8,0:0|0:0,0:0:0:0:
172,80,49872,1,2,0:0:0:0:
232,68,50065,2,0,L|220:8,2,60,0|2|8,0:0|0:0|0:0,0:0:0:0:
292,172,50834,1,2,0:0:0:0:
172,172,51218,6,0,L|172:292,1,120,4|0,0:0|0:0,0:0:0:0:
220,328,51795,1,2,0:0:0:0:
268,292,51988,1,8,0:0:0:0:
372,352,52372,1,2,0:0:0:0:
372,232,52757,6,0,L|372:112,1,120,4|0,0:0|0:0,0:0:0:0:
326,72,53334,1,2,0:0:0:0:
268,92,53526,2,0,P|236:88|208:68,1,60,8|0,0:0|0:0,0:0:0:0:
168,32,53911,6,0,P|87:-5|63:4,1,120,2|8,0:0|0:0,0:0:0:0:
12,36,54488,2,0,L|28:156,1,120,2|2,0:0|0:0,0:0:0:0:
36,216,55065,1,8,0:0:0:0:
88,244,55257,6,0,P|120:264|200:272,1,120,4|2,0:0|0:0,0:0:0:0:
240,228,55834,1,8,0:0:0:0:
232,168,56026,2,0,P|200:148|120:140,1,120,4|2,0:0|0:0,0:0:0:0:
72,100,56603,2,0,P|44:120|28:144,1,60,8|0,0:0|0:0,0:0:0:0:
0,192,56988,5,4,0:0:0:0:
56,304,57372,1,8,0:0:0:0:
56,304,57565,2,0,P|132:336|168:332,1,120,2|2,0:0|0:0,0:0:0:0:
216,300,58141,2,0,P|252:288|276:288,1,60,8|0,0:0|0:0,0:0:0:0:
332,304,58526,5,2,0:0:0:0:
444,260,58911,2,0,P|448:224|444:196,1,60,8|2,0:0|0:0,0:0:0:0:
388,184,59295,2,0,P|384:148|388:120,1,60,0|2,0:0|0:0,0:0:0:0:
328,112,59680,2,0,P|332:76|328:48,1,60,8|0,0:0|0:0,0:0:0:0:
272,28,60065,6,0,P|192:16|152:24,1,120,2|8,0:0|0:0,0:0:0:0:
104,56,60641,2,0,L|80:112,1,60,2|0,0:0|0:0,0:0:0:0:
120,156,61026,2,0,P|160:168|184:168,2,60,2|8|0,0:0|0:0|0:0,0:0:0:0:
80,200,61603,5,2,0:0:0:0:
44,316,61988,1,8,0:0:0:0:
156,356,62372,2,0,P|192:356|224:344,1,60,0|2,0:0|0:0,0:0:0:0:
264,316,62757,2,0,P|328:304|380:316,1,120,8|4,0:0|0:1,0:0:0:0:
400,200,64680,5,2,0:0:0:0:
368,60,65449,5,4,1:2:0:0:
256,16,65834,1,4,1:2:0:0:
32,104,66603,2,0,P|28:136|32:164,1,60,4|0,2:2|0:0,0:0:0:0:
52,220,66988,2,0,P|56:256|48:308,2,90,4|4|4,2:2|2:2|2:2,0:0:0:0:
108,196,67757,6,0,P|164:180|220:200,1,120,4|8,0:2|0:0,0:0:0:0:
268,236,68334,1,0,0:0:0:0:
280,296,68526,1,2,0:0:0:0:
392,248,68911,1,8,0:0:0:0:
372,132,69295,6,0,L|428:52,2,90,4|4|4,0:0|0:0|0:0,0:0:0:0:
312,132,70065,2,0,L|256:212,2,90,4|4|4,0:0|0:0|0:0,0:0:0:0:
372,132,70834,5,0,0:0:0:0:
302,34,71218,2,0,P|246:14|126:30,1,180,4|0,1:0|0:0,0:0:0:0:
72,52,71988,1,2,0:0:0:0:
40,168,72372,6,0,P|36:204|40:232,1,60,4|0,0:2|0:0,0:0:0:0:
60,284,72757,2,0,P|112:256|132:200,1,120,8|2,0:0|0:0,0:0:0:0:
120,144,73334,1,0,0:0:0:0:
136,84,73526,2,0,P|156:56|176:40,1,60,8|0,0:0|0:0,0:0:0:0:
236,40,73911,6,0,P|256:68|276:84,1,60,2|0,0:0|0:0,0:0:0:0:
336,84,74295,2,0,P|358:64|375:40,1,60,8|0,0:0|0:0,0:0:0:0:
436,40,74680,1,2,0:0:0:0:
464,156,75065,2,0,P|464:188|456:220,1,60,8|0,0:0|0:0,0:0:0:0:
400,236,75449,6,0,P|400:268|408:296,2,60,2|0|8,0:0|0:0|0:0,0:0:0:0:
368,184,76026,2,0,L|252:132,1,120,2|0,0:0|0:0,0:0:0:0:
200,128,76603,2,0,P|192:160|200:184,1,60,8|0,0:0|0:0,0:0:0:0:
180,240,76988,6,0,B|172:268|172:268|216:312,2,90,2|2|2,0:0|0:0|0:0,0:0:0:0:
200,184,77757,1,4,0:0:0:0:
128,88,78141,1,8,0:0:0:0:
220,12,78526,6,0,P|252:16|280:12,1,60,4|0,0:0|0:0,0:0:0:0:
331,43,78911,2,0,P|363:39|391:43,1,60,8|0,0:0|0:0,0:0:0:0:
440,76,79295,2,0,B|464:108|424:136|440:164,2,90,2|2|2,0:0|0:0|0:0,0:0:0:0:
391,43,80065,6,0,P|347:35|299:43,1,90,4|4,0:0|0:0,0:0:0:0:
236,104,80641,2,0,P|192:112|116:104,1,120,4|4,0:0|0:0,0:0:0:0:
60,120,81218,2,0,L|38:60,2,60,8|2|4,0:0|0:0|0:0,0:0:0:0:
32,240,81988,5,8,0:0:0:0:
136,300,82372,2,0,P|188:312|224:300,1,90,2|2,0:0|0:0,0:0:0:0:
296,252,82949,1,0,0:0:0:0:
296,252,83141,6,0,L|280:164,1,90,2|2,0:0|0:0,0:0:0:0:
356,116,83718,1,0,0:0:0:0:
356,116,83911,2,0,P|312:80|248:80,1,120,2|8,0:0|0:0,0:0:0:0:
140,124,84680,5,4,0:0:0:0:
148,244,85065,2,0,P|120:268|96:276,1,60,8|0,0:0|0:0,0:0:0:0:
40,276,85449,2,0,L|20:332,2,60,2|0|8,0:0|0:0|0:0,0:0:0:0:
56,156,86218,6,0,L|0:136,2,60,2|0|8,0:0|0:0|0:0,0:0:0:0:
112,140,86795,1,0,0:0:0:0:
156,96,86988,2,0,B|155:79|147:65|147:65|182:39|232:42,1,120,2|8,0:0|0:0,0:0:0:0:
344,84,87757,6,0,P|372:108|384:132,1,60,2|0,0:0|0:0,0:0:0:0:
400,184,88141,2,0,P|392:212|372:240,1,60,8|0,0:0|0:0,0:0:0:0:
324,268,88526,1,2,0:0:0:0:
324,268,88718,2,0,P|292:260|264:264,2,60,0|8|0,0:0|0:0|0:0,0:0:0:0:
336,328,89295,6,0,P|356:360|404:376,2,90,2|2|2,0:0|0:0|0:0,0:0:0:0:
324,268,90065,1,4,0:0:0:0:
396,172,90449,1,8,0:0:0:0:
352,60,90834,5,4,0:0:0:0:
352,60,91026,2,0,P|312:56|292:60,1,60,0|8,0:0|0:0,0:0:0:0:
240,84,91411,1,0,0:0:0:0:
200,128,91603,2,0,P|144:116|120:92,1,90,2|2,0:0|0:0,0:0:0:0:
128,4,92180,6,0,P|72:20|36:72,1,120,4|2,0:0|0:0,0:0:0:0:
44,128,92757,1,8,0:0:0:0:
76,176,92949,2,0,P|96:244|76:288,1,120,4|2,0:0|0:0,0:0:0:0:
36,332,93526,1,8,0:0:0:0:
156,316,93911,6,0,P|200:356|232:360,2,90,4|2|2,0:0|0:0|0:0,0:0:0:0:
140,260,94680,1,4,0:0:0:0:
228,272,94968,1,2,0:0:0:0:
268,192,95257,1,2,0:0:0:0:
268,192,95449,6,0,P|292:128|336:96,1,120,4|8,0:0|0:0,0:0:0:0:
384,72,96026,1,0,0:0:0:0:
436,100,96218,2,0,P|481:137|499:194,1,120,4|8,0:0|0:0,0:0:0:0:
480,252,96795,1,0,0:0:0:0:
424,272,96988,6,0,L|304:272,1,120,4|8,0:0|0:0,0:0:0:0:
192,312,97757,1,2,0:0:0:0:
136,332,97949,1,0,0:0:0:0:
80,312,98141,1,8,0:0:0:0:
44,196,98526,6,0,P|32:144|12:112,2,90,4|4|4,0:0|0:0|0:0,0:0:0:0:
164,212,99488,2,0,P|216:184|236:128,1,120,4|0,0:0|0:0,0:0:0:0:
260,76,100065,6,0,B|320:64|320:64|380:76,1,120,4|8,0:0|0:0,0:0:0:0:
432,96,100641,1,4,0:0:0:0:
364,192,101026,1,2,0:0:0:0:
432,288,101411,1,0,0:0:0:0:
377,308,101603,6,0,B|320:320|320:320|260:308,1,120,4|8,0:0|0:0,0:0:0:0:
204,292,102180,1,4,0:0:0:0:
152,184,102565,1,2,0:0:0:0:
68,268,102949,1,0,0:0:0:0:
28,224,103141,6,0,P|28:188|36:164,1,60,4|0,0:0|0:0,0:0:0:0:
68,116,103526,1,8,0:0:0:0:
48,60,103718,1,4,0:0:0:0:
168,84,104103,2,0,L|228:80,2,60,2|0|4,0:0|0:0|0:0,0:0:0:0:
256,192,104680,12,4,106218,0:1:0:0:
252,88,118526,6,0,P|204:48|148:32,1,120,4|8,0:0|0:0,0:0:0:0:
96,64,119103,1,0,0:0:0:0:
96,64,119295,2,0,P|84:124|96:184,1,120,2|8,0:0|0:0,0:0:0:0:
120,236,119872,1,0,0:0:0:0:
120,236,120065,6,0,L|232:284,1,120,2|8,0:0|0:0,0:0:0:0:
280,248,120641,2,0,L|392:296,1,120
440,260,121218,1,8,0:0:0:0:
468,144,121603,6,0,P|432:100|372:80,1,120,2|8,0:0|0:0,0:0:0:0:
328,44,122180,1,0,0:0:0:0:
328,44,122372,2,0,L|208:72,1,120,2|8,0:0|0:0,0:0:0:0:
180,124,122949,1,0,0:0:0:0:
180,124,123141,6,0,P|168:184|180:244,1,120,2|8,0:0|0:0,0:0:0:0:
284,184,123911,2,0,L|324:232,1,60,2|0,0:0|0:0,0:0:0:0:
380,252,124295,2,0,L|353:308,1,60,8|0,0:0|0:0,0:0:0:0:
316,352,124680,6,0,B|252:368|200:352|200:352,1,120,4|8,0:0|0:0,0:0:0:0:
144,324,125257,1,0,0:0:0:0:
128,268,125449,2,0,P|112:268|44:300,2,90,2|0|0,0:0|0:0|0:0,0:0:0:0:
168,224,126218,5,2,0:0:0:0:
284,200,126603,1,8,0:0:0:0:
208,108,126988,2,0,P|176:112|148:108,1,60,2|0,0:0|0:0,0:0:0:0:
116,60,127372,2,0,P|84:56|56:60,1,60,8|0,0:0|0:0,0:0:0:0:
8,92,127757,6,0,P|4:152|20:212,1,120,4|8,0:0|0:0,0:0:0:0:
60,252,128334,2,0,P|80:276|88:308,1,60,0|2,0:0|0:0,0:0:0:0:
124,352,128718,1,0,0:0:0:0:
184,360,128911,2,0,L|244:360,1,60,8|0,0:0|0:0,0:0:0:0:
300,336,129295,6,0,L|324:216,1,120,2|8,0:0|0:0,0:0:0:0:
408,132,130065,1,2,0:0:0:0:
408,132,130257,2,0,L|384:76,1,60,0|8,0:0|0:0,0:0:0:0:
332,48,130641,1,0,0:0:0:0:
272,40,130834,6,0,P|216:40|152:64,1,120,4|8,0:0|0:0,0:0:0:0:
112,100,131411,1,0,0:0:0:0:
84,152,131603,2,0,P|64:184|60:236,1,90,2|2,0:0|0:0,0:0:0:0:
148,216,132180,1,2,0:0:0:0:
148,216,132372,6,0,P|168:248|172:300,1,90,2|2,0:0|0:0,0:0:0:0:
256,336,132949,2,0,B|296:352|336:320|376:336,1,120,2|0,0:0|0:0,0:0:0:0:
404,284,133526,1,8,0:0:0:0:
380,228,133718,1,0,0:0:0:0:
408,172,133911,6,0,L|320:144,1,90,2|2,0:0|0:0,0:0:0:0:
292,60,134488,1,2,0:0:0:0:
292,60,134680,2,0,L|204:32,1,90,2|2,0:0|0:0,0:0:0:0:
140,96,135257,1,2,0:0:0:0:
140,96,135449,6,0,B|120:156|120:156|136:212,1,120,2|8,0:0|0:0,0:0:0:0:
240,272,136218,2,0,B|260:212|260:212|244:156,1,120,2|8,0:0|0:0,0:0:0:0:
135,210,136988,5,4,0:0:0:0:
136,328,137372,2,0,P|164:320|196:296,1,60,8|0,0:0|0:0,0:0:0:0:
240,272,137757,2,0,P|284:272|328:288,2,90,2|0|0,0:0|0:0|0:0,0:0:0:0:
216,216,138526,6,0,L|204:152,1,60,4|0,0:0|0:0,0:0:0:0:
260,132,138911,2,0,L|276:72,1,60,8|0,0:0|0:0,0:0:0:0:
324,36,139295,1,2,0:0:0:0:
444,52,139680,1,8,0:0:0:0:
412,168,140065,6,0,P|404:216|436:280,1,120,4|8,0:0|0:0,0:0:0:0:
384,312,140641,1,0,0:0:0:0:
332,344,140834,2,0,P|292:336|256:304,2,90,2|0|0,0:0|0:0|0:0,0:0:0:0:
384,312,141603,5,4,0:0:0:0:
360,196,141988,1,8,0:0:0:0:
244,228,142372,2,0,P|208:228|184:220,1,60,4|0,0:0|0:0,0:0:0:0:
132,196,142757,1,8,0:0:0:0:
120,76,143141,6,0,P|172:44|232:44,1,120,4|8,0:0|0:0,0:0:0:0:
280,76,143718,1,0,0:0:0:0:
332,44,143911,1,4,0:0:0:0:
412,132,144295,1,8,0:0:0:0:
432,188,144488,1,0,0:0:0:0:
408,244,144680,6,0,P|383:258|348:265,1,60,4|0,0:0|0:0,0:0:0:0:
320,216,145065,2,0,P|305:191|279:167,1,60,8|0,0:0|0:0,0:0:0:0:
227,191,145449,2,0,P|202:205|167:212,1,60,4|0,0:0|0:0,0:0:0:0:
139,163,145834,2,0,P|124:138|98:114,1,60,8|0,0:0|0:0,0:0:0:0:
52,84,146218,6,0,P|84:28|136:8,1,120,6|8,0:0|0:0,0:0:0:0:
248,48,146988,2,0,L|312:48,1,60,2|0,0:0|0:0,0:0:0:0:
364,32,147372,1,8,0:0:0:0:
420,52,147565,1,0,0:0:0:0:
476,72,147757,6,0,P|484:104|484:136,1,60,2|0,0:0|0:0,0:0:0:0:
480,192,148141,2,0,P|479:221|471:250,1,60,8|0,0:0|0:0,0:0:0:0:
428,292,148526,2,0,P|432:328|456:364,2,80,2|2|2,0:0|0:0|0:0,0:0:0:0:
352,272,149295,6,0,P|308:276|272:272,2,80,2|2|2,0:0|0:0|0:0,0:0:0:0:
384,200,150065,2,0,P|380:144|368:80,1,120,2|8,0:0|0:0,0:0:0:0:
268,148,150834,5,2,0:0:0:0:
212,40,151218,1,8,0:0:0:0:
136,132,151603,2,0,P|93:89|56:42,2,120,2|8|6,0:0|0:0|0:0,0:0:0:0:
68,232,152757,5,8,0:0:0:0:
124,336,153141,2,0,B|183:343|183:343|243:335,1,120,2|8,0:0|0:0,0:0:0:0:
248,216,153911,6,0,B|308:208|308:208|372:216,1,120,2|8,0:0|0:0,0:0:0:0:
424,228,154488,1,0,0:0:0:0:
472,192,154680,2,0,L|456:128,1,60,2|0,0:0|0:0,0:0:0:0:
404,112,155065,2,0,L|371:54,1,60,8|0,0:0|0:0,0:0:0:0:
320,36,155449,6,0,P|260:24|200:36,1,120,6|8,0:0|0:0,0:0:0:0:
152,68,156026,1,0,0:0:0:0:
152,68,156218,2,0,L|180:184,1,120,6|8,0:0|0:0,0:0:0:0:
160,244,156795,1,0,0:0:0:0:
116,284,156988,6,0,B|64:240|64:240|64:228,2,80,6|2|2,0:0|0:0|0:0,0:0:0:0:
172,340,157757,2,0,P|228:336|292:344,1,120,6|8,0:0|0:0,0:0:0:0:
360,248,158526,5,6,0:0:0:0:
456,324,158911,2,0,L|472:264,1,60,8|0,0:0|0:0,0:0:0:0:
444,212,159295,1,2,0:0:0:0:
444,152,159488,1,0,0:0:0:0:
420,96,159680,2,0,L|404:36,1,60,8|0,0:0|0:0,0:0:0:0:
348,20,160065,6,0,P|292:40|256:88,1,120,2|8,0:0|0:0,0:0:0:0:
292,136,160641,1,0,0:0:0:0:
280,196,160834,2,0,P|332:220|392:212,1,120,2|8,0:0|0:0,0:0:0:0:
392,332,161603,6,0,P|333:323|279:347,1,120,2|8,0:0|0:0,0:0:0:0:
224,320,162180,1,0,0:0:0:0:
172,348,162372,2,0,P|136:352|108:348,1,60,2|0,0:0|0:0,0:0:0:0:
64,316,162757,2,0,P|60:280|64:252,1,60,8|0,0:0|0:0,0:0:0:0:
96,208,163141,6,0,P|144:200|196:148,1,120,2|8,0:0|0:0,0:0:0:0:
188,92,163718,1,0,0:0:0:0:
180,32,163911,2,0,P|148:16|120:12,2,60,2|0|8,0:0|0:0|0:0,0:0:0:0:
288,84,164680,5,6,0:0:0:0:
364,176,165065,2,0,L|364:116,1,60,8|0,0:0|0:0,0:0:0:0:
416,84,165449,2,0,L|416:20,2,60,2|0|8,0:0|0:0|0:0,0:0:0:0:
416,204,166218,5,2,0:0:0:0:
312,264,166603,2,0,L|312:204,1,60,8|0,0:0|0:0,0:0:0:0:
260,172,166987,2,0,L|260:108,2,60,2|0|8,0:0|0:0|0:0,0:0:0:0:
192,272,167757,6,0,P|140:312|88:324,1,120,6|0,0:0|0:0,0:0:0:0:
28,312,168334,1,2,0:0:0:0:
8,192,168718,1,0,0:0:0:0:
28,72,169103,1,0,0:0:0:0:
87,59,169295,6,0,P|145:74|192:112,1,120,2|0,0:0|0:0,0:0:0:0:
188,172,169872,1,2,0:0:0:0:
256,72,170257,1,0,0:0:0:0:
324,172,170641,1,0,0:0:0:0:
286,219,170834,6,0,P|306:255|350:275,2,90,6|0|2,0:0|0:0|0:0,0:0:0:0:
226,219,171603,2,0,P|206:255|162:275,2,90
256,168,172372,5,2,0:0:0:0:
256,192,172565,12,4,173911,2:1:0:0:
256,64,180065,5,4,0:0:0:0:
200,168,180449,1,2,0:0:0:0:
320,152,180834,2,0,P|352:160|372:180,1,60,2|0,0:0|0:0,0:0:0:0:
392,236,181218,2,0,P|388:268|372:300,1,60,2|0,0:0|0:0,0:0:0:0:
340,340,181603,5,2,0:0:0:0:
264,248,181988,1,2,0:0:0:0:
196,348,182372,2,0,P|156:352|136:348,1,60,2|0,0:0|0:0,0:0:0:0:
84,320,182757,2,0,P|60:300|48:272,1,60,2|0,0:0|0:0,0:0:0:0:
72,220,183141,6,0,L|52:128,2,90,4|4|4,0:0|0:0|0:0,0:0:0:0:
128,240,183911,1,4,0:0:0:0:
180,168,184199,1,4,0:0:0:0:
268,192,184488,2,0,L|336:192,1,60,4|0,0:0|0:0,0:0:0:0:
415,274,185065,6,0,P|448:192|415:110,1,180,4|0,1:0|0:0,0:0:0:0:
368,76,185834,1,2,0:0:0:0:
256,120,186218,6,0,P|252:152|256:180,1,60,4|0,0:0|0:0,0:0:0:0:
316,192,186603,2,0,P|328:244|316:312,2,120,8|2|8,0:0|0:0|0:0,0:0:0:0:
340,76,187757,6,0,P|316:60|284:52,1,60,2|0,0:0|0:0,0:0:0:0:
232,76,188141,2,0,P|188:88|116:76,1,120,8|2,0:0|0:0,0:0:0:0:
88,192,188911,2,0,P|88:224|96:252,1,60,8|0,0:0|0:0,0:0:0:0:
116,308,189295,6,0,P|88:316|64:336,2,60,2|0|8,0:0|0:0|0:0,0:0:0:0:
168,336,189872,2,0,P|188:276|172:224,1,120,2|0,0:0|0:0,0:0:0:0:
148,168,190449,2,0,P|128:144|104:128,1,60,8|0,0:0|0:0,0:0:0:0:
48,108,190834,6,0,B|40:80|40:80|64:56|68:20,2,90,2|2|2,0:0|0:0|0:0,0:0:0:0:
8,152,191603,1,4,0:0:0:0:
52,264,191988,1,8,0:0:0:0:
160,212,192372,6,0,P|172:184|176:152,1,60,4|0,0:0|0:0,0:0:0:0:
152,100,192757,2,0,P|156:70|168:42,1,60,8|0,0:0|0:0,0:0:0:0:
224,24,193141,2,0,P|276:16|312:24,2,90,2|2|2,0:0|0:0|0:0,0:0:0:0:
232,84,193911,6,0,L|260:172,1,90,4|4,0:0|0:0,0:0:0:0:
303,248,194488,2,0,P|344:206|348:148,1,120,4|4,0:0|0:0,0:0:0:0:
324,92,195065,2,0,L|304:32,2,60,8|2|4,0:0|0:0|0:0,0:0:0:0:
436,52,195834,5,8,0:0:0:0:
468,168,196218,2,0,P|476:208|468:256,1,90,2|2,0:0|0:0,0:0:0:0:
392,212,196795,1,0,0:0:0:0:
392,212,196988,6,0,P|352:220|304:212,1,90,2|2,0:0|0:0,0:0:0:0:
348,132,197565,1,0,0:0:0:0:
348,132,197757,2,0,P|348:108|296:28,1,120,2|8,0:0|0:0,0:0:0:0:
180,48,198526,5,4,0:0:0:0:
112,144,198911,2,0,P|100:176|100:208,1,60,8|0,0:0|0:0,0:0:0:0:
116,260,199295,2,0,L|148:316,2,60,2|0|8,0:0|0:0|0:0,0:0:0:0:
212,188,200065,6,0,L|244:244,2,60,2|0|8,0:0|0:0|0:0,0:0:0:0:
212,128,200641,2,0,L|182:75,2,60,0|2|0,0:0|0:0|0:0,0:0:0:0:
264,96,201218,1,8,0:0:0:0:
384,88,201603,6,0,P|401:111|414:140,1,60,2|0,0:0|0:0,0:0:0:0:
408,200,201988,2,0,P|385:217|356:230,1,60,8|0,0:0|0:0,0:0:0:0:
301,236,202373,1,2,0:0:0:0:
301,236,202565,2,0,P|301:276|293:296,2,60,0|8|0,0:0|0:0|0:0,0:0:0:0:
248,208,203141,6,0,P|204:200|160:208,2,90,2|2|2,0:0|0:0|0:0,0:0:0:0:
301,236,203911,1,4,0:0:0:0:
301,355,204295,1,8,0:0:0:0:
204,284,204680,5,4,0:0:0:0:
204,284,204872,2,0,P|176:292|144:292,1,60,0|8,0:0|0:0,0:0:0:0:
86,279,205257,1,0,0:0:0:0:
56,228,205449,2,0,L|48:136,1,90,2|2,0:0|0:0,0:0:0:0:
8,60,206026,6,0,P|56:48|116:84,1,120,4|2,0:0|0:0,0:0:0:0:
148,132,206603,1,8,0:0:0:0:
180,184,206795,2,0,P|232:196|288:160,1,120,4|2,0:0|0:0,0:0:0:0:
296,104,207372,1,8,0:0:0:0:
392,32,207757,6,0,P|356:24|304:28,2,90,4|2|2,0:0|0:0|0:0,0:0:0:0:
436,76,208526,1,4,0:0:0:0:
364,132,208815,1,2,0:0:0:0:
412,208,209103,1,2,0:0:0:0:
412,208,209295,6,0,P|404:266|369:314,1,120,4|8,0:0|0:0,0:0:0:0:
308,308,209872,1,0,0:0:0:0:
268,264,210065,2,0,P|272:216|312:156,1,120,4|8,0:0|0:0,0:0:0:0:
300,96,210641,1,0,0:0:0:0:
252,60,210834,6,0,P|172:44|140:60,1,120,4|8,0:0|0:0,0:0:0:0:
36,116,211603,1,2,0:0:0:0:
56,172,211795,1,0,0:0:0:0:
36,228,211988,1,8,0:0:0:0:
80,340,212372,6,0,P|112:360|168:364,2,90,4|4|4,0:0|0:0|0:0,0:0:0:0:
156,244,213334,2,0,P|192:212|264:208,1,120,4|0,0:0|0:0,0:0:0:0:
320,220,213911,6,0,P|372:192|392:136,1,120,4|8,0:0|0:0,0:0:0:0:
376,80,214488,1,4,0:0:0:0:
260,52,214872,2,0,P|196:44|140:52,1,120,2|0,0:0|0:0,0:0:0:0:
100,8,215449,6,0,L|84:128,1,120,4|8,0:0|0:0,0:0:0:0:
40,168,216026,1,4,0:0:0:0:
152,212,216411,2,0,L|136:332,1,120,2|0,0:0|0:0,0:0:0:0:
188,364,216988,6,4,P|241:362|300:333,1,120,4|8,0:0|0:0,0:0:0:0:
336,284,217565,1,4,0:0:0:0:
260,192,217949,1,2,0:0:0:0:
336,100,218334,1,0,0:0:0:0:
300,50,218526,6,4,P|247:23|188:20,1,120,4|8,0:0|0:0,0:0:0:0:
132,40,219103,1,4,0:0:0:0:
156,156,219488,1,2,0:0:0:0:
60,228,219872,1,0,0:0:0:0:
60,228,220065,5,4,0:0:0:0:
128,328,220449,1,8,0:0:0:0:
128,328,220641,1,4,0:0:0:0:
220,252,221026,1,2,0:0:0:0:
292,352,221411,1,0,0:0:0:0:
348,332,221603,5,4,0:0:0:0:
348,212,221988,1,8,0:0:0:0:
404,192,222180,1,4,0:0:0:0:
480,100,222565,1,2,0:0:0:0:
404,8,222949,1,0,0:0:0:0:
344,0,223141,6,0,P|320:4|256:72,1,120,4|8,0:0|0:0,0:0:0:0:
216,184,223911,2,0,B|194:210|151:221|151:221|151:238,2,90,2|2|2,0:0|0:0|0:0,0:0:0:0:
212,124,224680,5,4,0:0:0:0:
328,96,225065,1,8,0:0:0:0:
292,212,225449,1,4,0:0:0:0:
212,124,225834,1,8,0:0:0:0:
176,240,226218,6,0,P|196:288|256:328,1,120,4|8,0:0|0:0,0:0:0:0:
308,304,226795,1,0,0:0:0:0:
364,328,226988,2,0,P|413:295|438:241,1,120,4|8,0:0|0:0,0:0:0:0:
420,184,227565,1,0,0:0:0:0:
360,172,227757,6,0,L|312:132,1,60,4|0,0:0|0:0,0:0:0:0:
316,72,228141,2,0,L|252:48,1,60,8|0,0:0|0:0,0:0:0:0:
200,52,228526,2,0,L|136:76,1,60,4|0,0:0|0:0,0:0:0:0:
88,96,228911,2,0,P|36:72|16:16,1,120,8|4,0:0|0:1,0:0:0:0:
8,252,230065,5,0,0:0:0:0:
108,316,230449,1,0,0:0:0:0:
160,208,230834,6,0,P|216:184|272:196,1,120,4|8,0:0|0:0,0:0:0:0:
312,240,231411,1,0,0:0:0:0:
352,284,231603,2,0,P|409:295|463:271,1,120,2|8,0:0|0:0,0:0:0:0:
464,152,232372,6,0,L|424:36,1,120,2|8,0:0|0:0,0:0:0:0:
368,16,232949,1,0,0:0:0:0:
312,40,233141,2,0,P|256:56|196:40,1,120,2|8,0:0|0:0,0:0:0:0:
128,140,233911,5,2,0:0:0:0:
128,140,234103,2,0,P|160:156|188:160,1,60,0|8,0:0|0:0,0:0:0:0:
304,160,234680,1,2,0:0:0:0:
404,92,235065,2,0,P|412:120|412:152,1,60,8|0,0:0|0:0,0:0:0:0:
396,208,235449,6,0,P|376:232|352:248,1,60,2|0,0:0|0:0,0:0:0:0:
292,236,235834,2,0,P|256:288|248:344,1,120,8|2,0:0|0:0,0:0:0:0:
192,364,236411,1,0,0:0:0:0:
192,364,236603,2,0,L|132:356,1,60,8|0,0:0|0:0,0:0:0:0:
88,316,236988,6,0,L|68:196,1,120,4|8,0:0|0:0,0:0:0:0:
60,140,237565,1,4,0:0:0:0:
180,156,237949,1,8,0:0:0:0:
252,60,238334,1,2,0:0:0:0:
252,60,238526,6,0,P|320:48|368:60,1,120,4|8,0:0|0:0,0:0:0:0:
384,120,239103,1,4,0:0:0:0:
404,240,239488,1,8,0:0:0:0:
284,240,239872,1,2,0:0:0:0:
228,260,240065,6,0,B|168:272|168:272|108:260,1,120,4|8,0:0|0:0,0:0:0:0:
80,208,240641,2,0,L|16:228,2,60,4|0|8,0:0|0:0|0:0,0:0:0:0:
112,156,241218,6,0,L|228:120,1,120,4|8,0:0|0:0,0:0:0:0:
284,104,241795,2,0,P|296:68|296:44,2,60,4|0|8,0:0|0:0|0:0,0:0:0:0:
316,156,242372,6,0,P|328:192|328:216,1,60,4|0,0:0|0:0,0:0:0:0:
300,268,242757,2,0,L|184:236,1,120,8|4,0:0|1:1,0:0:0:0:
256,192,243334,12,0,246218,0:0:0:0:
