osu file format v14

[General]
AudioFilename: audio.mp3
AudioLeadIn: 0
PreviewTime: 71998
Countdown: 1
SampleSet: Soft
StackLeniency: 0.7
Mode: 0
LetterboxInBreaks: 0
WidescreenStoryboard: 1

[Editor]
Bookmarks: 1036,7767,20075,32382,44690,56998,72382,84690,106228,106613,106998,107382,107767,108151,108536,108921,109305,109690,110075,110459,110844,111228,111613,111998,112382,112767,113151,113536,113921,114305,114690,115075,115459,115844,116228,116613,116998,117382,117767,118536,130844,146228,158536,173921,186228,198536,220075,229305,246228
DistanceSpacing: 1
BeatDivisor: 4
GridSize: 4
TimelineZoom: 1.1

[Metadata]
Title:Justitia of Life
TitleUnicode:命のユースティティア
Artist:Neru feat. Kagamine Len
ArtistUnicode:Neru feat. 鏡音レン
Creator:rui
Version:Easy
Source:
Tags:vocaloid Satellite wring Naryuga inochi no justitia
BeatmapID:1601112
BeatmapSetID:761424

[Difficulty]
HPDrainRate:2
CircleSize:3
OverallDifficulty:2
ApproachRate:4
SliderMultiplier:0.899999999999999
SliderTickRate:1

[Events]
//Background and Video events
0,0,"39091117_p0.jpg",0,0
//Break Periods
2,106418,116966
2,174110,178505
//Storyboard Layer 0 (Background)
//Storyboard Layer 1 (Fail)
//Storyboard Layer 2 (Pass)
//Storyboard Layer 3 (Foreground)
//Storyboard Sound Samples

[TimingPoints]
65,384.615384615385,4,2,1,65,1,0
7757,-100,4,2,2,80,0,0
18526,-100,4,2,1,80,0,0
32372,-100,4,2,2,80,0,0
62372,-100,4,2,1,80,0,0
65449,-100,4,2,2,80,0,0
72372,-100,4,2,2,85,0,1
84488,-100,4,2,1,85,0,0
84680,-100,4,2,2,85,0,1
105449,-100,4,2,1,65,0,1
106218,-100,4,2,1,85,0,0
118526,-100,4,2,2,80,0,0
144295,-100,4,2,1,80,0,0
146218,-100,4,2,2,80,0,0
186218,-100,4,2,2,85,0,1
198334,-100,4,2,1,85,0,0
198526,-100,4,2,2,85,0,1
229295,-100,4,2,1,80,0,0
230834,-100,4,2,2,80,0,0
246218,-100,4,2,2,10,0,0

[Colours]
Combo1 : 154,78,78
Combo2 : 0,210,210
Combo3 : 255,53,53
Combo4 : 199,199,141

[HitObjects]
128,76,1603,6,0,P|160:64|200:56,2,67.4999999999999,4|0|0,1:0|1:0|1:0,0:0:0:0:
24,276,3141,2,0,P|104:324|192:316,1,180,4|4,1:0|1:0,0:0:0:0:
348,240,4680,6,0,B|436:234|507:278|507:278|504:216|472:180|472:180|436:164|381:162,1,360,4|4,1:0|1:0,0:0:0:0:
268,28,6988,2,0,P|232:52|200:92,1,89.9999999999999,2|2,0:0|0:0,0:0:0:0:
168,172,7757,6,0,P|240:228|268:316,1,180,4|2,0:0|0:0,0:0:0:0:
204,376,8911,1,0,1:0:0:0:
116,364,9295,2,0,P|44:308|16:220,1,180,2|2,0:0|0:0,0:0:0:0:
80,160,10449,1,0,1:0:0:0:
168,172,10834,6,0,B|208:176|260:196|260:196|312:200|356:184|356:184|304:116,1,270,2|0,0:0|1:0,0:0:0:0:
224,92,12372,2,0,P|182:77|134:82,2,89.9999999999999,2|0|2,0:0|1:0|0:0,0:0:0:0:
309,122,13526,1,0,1:0:0:0:
400,120,13911,6,0,P|440:172|468:240,1,135,4|4,0:0|0:0,0:0:0:0:
448,324,14872,1,2,0:0:0:0:
320,372,15449,2,0,P|280:320|252:252,1,135,4|4,0:0|0:0,0:0:0:0:
264,168,16410,1,2,0:0:0:0:
188,56,16988,6,0,B|136:144|124:236|124:236|120:284|72:316|16:300|0:252,1,360,4|2,0:0|0:0,0:0:0:0:
16,80,19295,1,2,0:0:0:0:
124,224,20065,5,4,0:0:0:0:
388,224,23141,5,2,0:0:0:0:
124,224,26218,5,2,0:0:0:0:
124,224,27757,5,2,0:0:0:0:
124,224,29295,6,0,B|168:244|197:286|197:286|224:280|249:264|249:264|267:319|311:352|370:352|414:315,1,360,2|4,0:0|0:0,0:0:0:0:
413,315,32372,6,0,P|460:244|452:140,1,180,4|2,0:0|0:0,0:0:0:0:
416,68,33526,1,0,1:0:0:0:
332,40,33911,2,0,P|288:48|232:68,2,89.9999999999999,2|0|2,0:0|1:0|0:0,0:0:0:0:
416,68,35065,1,0,1:0:0:0:
452,148,35449,6,0,B|409:162|368:164|368:164|344:204|316:244,1,180,2|2,0:0|0:0,0:0:0:0:
248,300,36603,1,0,1:0:0:0:
188,232,36988,2,0,L|96:224,1,89.9999999999999,2|0,0:0|1:0,0:0:0:0:
92,136,37757,2,0,L|0:128,2,89.9999999999999,2|0|4,0:0|1:0|0:0,0:0:0:0:
172,92,38911,5,0,1:0:0:0:
248,44,39295,2,0,L|340:36,2,89.9999999999999,2|0|4,0:0|1:0|0:0,0:0:0:0:
160,28,40449,1,0,1:0:0:0:
80,72,40834,1,2,0:0:0:0:
96,160,41218,1,0,1:0:0:0:
180,192,41603,6,0,P|248:188|316:232,1,135,6|2,1:0|1:0,0:0:0:0:
396,224,42565,2,0,P|380:265|348:297,1,89.9999999999999,2|2,1:0|1:0,0:0:0:0:
276,348,43334,1,2,1:0:0:0:
190,324,43718,2,0,P|174:252|182:184,1,135,2|0,1:0|0:0,0:0:0:0:
216,108,44680,6,0,P|278:68|344:52,1,135,4|2,0:0|0:0,0:0:0:0:
424,84,45641,1,2,0:0:0:0:
428,176,46026,2,0,P|365:215|299:231,1,135,0|8,0:0|0:0,0:0:0:0:
216,244,46988,1,0,0:0:0:0:
152,308,47372,1,8,0:0:0:0:
64,288,47757,6,0,P|40:220|40:152,1,135,2|2,0:0|0:0,0:0:0:0:
52,68,48718,1,2,0:0:0:0:
128,24,49103,2,0,L|264:48,1,135,0|8,0:0|0:0,0:0:0:0:
344,84,50065,2,0,L|444:64,2,89.9999999999999,2|8|2,0:0|0:0|0:0,0:0:0:0:
256,100,51218,5,4,0:0:0:0:
164,100,51603,2,0,P|104:152|140:240,1,180,2|2,0:0|0:0,0:0:0:0:
216,276,52757,1,4,0:0:0:0:
256,196,53141,6,0,P|304:256|264:352,1,180,2|2,0:0|0:0,0:0:0:0:
152,280,54488,2,8,P|105:225|144:132,1,180,2|4,0:0|0:0,0:0:0:0:
288,36,56026,2,0,P|312:96|312:168,1,135,4|2,0:0|0:0,0:0:0:0:
284,252,56988,6,0,P|236:284|160:292,1,135,4|2,0:0|0:0,0:0:0:0:
76,264,57949,1,2,0:0:0:0:
52,176,58334,2,0,P|100:144|176:136,1,135,0|8,0:0|0:0,0:0:0:0:
264,140,59295,2,0,P|307:131|345:106,1,89.9999999999999,0|8,0:0|0:0,0:0:0:0:
408,40,60065,6,0,B|452:84|452:84|460:164,1,135,2|2,0:0|0:0,0:0:0:0:
380,196,61026,2,0,L|391:330,1,135,2|2,0:0|0:0,0:0:0:0:
216,364,62372,5,2,0:0:0:0:
223,274,62757,1,2,0:0:0:0:
231,186,63141,1,2,0:0:0:0:
231,186,64680,5,2,0:0:0:0:
360,60,65449,6,0,L|460:84,1,89.9999999999999,4|4,1:1|1:1,0:0:0:0:
484,256,66603,1,4,1:0:0:0:
460,344,66988,2,0,P|380:312|272:292,1,180,0|0,1:0|1:0,0:0:0:0:
216,232,68141,2,8,P|194:279|195:321,2,89.9999999999999,8|2|8,0:0|0:0|0:0,0:0:0:0:
300,200,69295,6,0,B|357:239|420:231|420:231|446:199|446:199|444:126|386:90|386:90|328:112,1,360,4|0,0:0|0:0,0:0:0:0:
244,132,71218,1,4,0:2:0:0:
36,308,72372,6,0,P|56:220|100:140,1,180,4|2,0:0|0:0,0:0:0:0:
168,84,73526,1,8,0:0:0:0:
252,120,73911,2,0,P|287:145|333:153,2,89.9999999999999,2|8|2,0:0|0:0|0:0,0:0:0:0:
324,64,75065,1,8,0:0:0:0:
412,84,75449,6,0,P|432:128|436:176,1,89.9999999999999,2|8,0:0|0:0,0:0:0:0:
388,244,76218,2,0,P|346:259|309:285,1,89.9999999999999,2|8,0:0|0:0,0:0:0:0:
240,344,76988,1,2,0:0:0:0:
160,300,77372,1,8,0:0:0:0:
152,216,77757,2,0,P|194:201|231:175,1,89.9999999999999,4|8,0:0|0:0,0:0:0:0:
288,104,78526,5,4,0:0:0:0:
240,28,78911,2,0,B|196:36|160:64|160:64|112:52|64:64,1,180,8|8,0:0|0:0,0:0:0:0:
80,152,80065,6,0,P|46:146|13:140,2,67.4999999999999,4|4|4,0:0|0:0|0:0,0:0:0:0:
116,236,81026,2,0,P|184:216|256:216,1,135,2|4,0:0|0:0,0:0:0:0:
336,240,81988,5,8,0:0:0:0:
360,152,82372,2,0,P|348:104|328:64,1,89.9999999999999,2|8,0:0|0:0,0:0:0:0:
240,64,83141,2,0,P|193:46|156:21,2,89.9999999999999,2|8|2,2:0|0:0|2:0,0:0:0:0:
80,152,84680,6,0,P|76:240|128:316,1,180,4|2,0:0|0:0,0:0:0:0:
212,336,85834,1,8,0:0:0:0:
300,316,86218,2,0,P|338:236|319:146,1,180,2|2,0:0|0:0,0:0:0:0:
252,88,87372,1,8,0:0:0:0:
168,60,87757,6,0,P|125:74|86:97,1,89.9999999999999,2|8,0:0|0:0,0:0:0:0:
100,188,88526,2,0,P|142:173|181:150,1,89.9999999999999,2|8,0:0|0:0,0:0:0:0:
252,88,89295,1,2,0:0:0:0:
340,104,89680,1,8,0:0:0:0:
424,140,90065,2,8,P|444:184|444:232,1,89.9999999999999,4|4,0:0|0:0,0:0:0:0:
360,200,90834,6,0,B|302:173|248:192|248:192|176:224|104:164,1,270,4|8,0:0|0:0,0:0:0:0:
84,124,92180,2,0,P|36:139|-3:160,2,89.9999999999999,4|2|4,0:0|0:0|0:0,0:0:0:0:
212,84,93526,1,8,0:0:0:0:
296,120,93911,6,0,B|328:136|360:136|360:136|412:120|412:120|448:128|476:156,2,180,4|4|4,0:0|0:0|0:0,0:0:0:0:
224,68,95834,1,8,0:0:0:0:
148,24,96218,2,0,B|132:60|140:100|140:100|108:136|96:192,1,180,4|4,0:0|0:0,0:0:0:0:
68,276,97372,1,8,0:0:0:0:
12,344,97757,2,0,P|52:364|96:360,1,89.9999999999999,2|8,0:0|0:0,0:0:0:0:
152,288,98526,6,0,B|187:267|231:270|231:270|280:309,1,135,4|4,0:0|0:0,0:0:0:0:
336,368,99488,1,4,0:0:0:0:
388,240,100065,6,0,B|424:184|400:104|400:104|352:112|328:144,1,225,4|2,0:0|0:0,0:0:0:0:
232,52,101603,2,0,B|165:48|108:109|108:109|139:147|178:151,1,225,4|2,0:0|0:0,0:0:0:0:
160,284,103141,6,0,B|178:319|227:331|227:331|264:296,1,135,4|4,0:0|0:0,0:0:0:0:
292,212,104103,1,2,0:0:0:0:
312,124,104488,1,4,0:0:0:0:
112,24,105449,5,2,0:0:0:0:
90,111,105834,1,2,0:0:0:0:
68,200,106218,1,4,0:0:0:0:
68,200,118526,6,0,P|92:280|184:296,1,180,4|2,0:0|0:0,0:0:0:0:
268,280,119680,1,0,1:0:0:0:
284,368,120065,2,0,P|320:348|356:304,1,89.9999999999999,2|0,0:0|1:0,0:0:0:0:
428,268,120834,2,0,L|412:172,1,89.9999999999999,2|0,0:0|1:0,0:0:0:0:
324,160,121603,6,0,B|298:29|298:29|268:76,1,180,2|2,0:0|0:0,0:0:0:0:
236,152,122757,1,0,1:0:0:0:
168,212,123141,2,0,P|120:208|72:200,1,89.9999999999999,2|0,0:0|1:0,0:0:0:0:
32,124,123911,6,0,P|75:103|118:79,2,89.9999999999999,2|0|4,0:0|1:0|0:0,0:0:0:0:
188,212,125449,6,0,P|208:255|225:301,2,89.9999999999999,2|0|2,0:0|1:0|0:0,0:0:0:0:
148,132,126603,1,0,1:0:0:0:
176,48,126988,1,2,0:0:0:0:
260,20,127372,1,0,1:0:0:0:
332,76,127757,6,0,B|384:80|440:56|440:56|460:104|448:152|448:152|380:164,1,270,4|0,0:0|1:0,0:0:0:0:
304,192,129295,2,0,B|274:235|267:295|267:295|215:288|180:254|180:254|203:189,1,270,2|2,0:0|0:0,0:0:0:0:
236,112,130834,6,0,P|192:44|100:68,1,180,4|2,0:0|0:0,0:0:0:0:
44,128,131988,1,0,1:0:0:0:
44,216,132372,2,0,P|68:248|88:308,1,89.9999999999999,2|0,0:0|1:0,0:0:0:0:
172,320,133141,2,0,P|202:287|241:264,1,89.9999999999999,2|0,0:0|1:0,0:0:0:0:
332,280,133911,6,0,P|363:248|387:210,1,89.9999999999999,2|0,0:0|1:0,0:0:0:0:
333,138,134680,2,0,P|291:155|254:181,1,89.9999999999999,2|0,0:0|1:0,0:0:0:0:
240,272,135449,1,2,0:0:0:0:
152,252,135834,1,0,1:0:0:0:
120,168,136218,2,0,B|40:212,2,89.9999999999999,2|0|4,0:0|1:0|0:0,0:0:0:0:
208,184,137372,6,0,B|248:160|248:160|340:188|340:188|376:168,1,180,0|0,1:0|1:0,0:0:0:0:
464,176,138526,2,0,P|457:131|422:94,1,89.9999999999999,4|0,0:0|1:0,0:0:0:0:
340,84,139295,1,2,0:0:0:0:
372,169,139680,1,0,1:0:0:0:
408,252,140065,1,4,0:0:0:0:
367,329,140449,6,0,B|315:348|315:348|281:297|278:230,1,180,0|0,1:0|1:0,0:0:0:0:
320,152,141603,2,0,P|312:108|300:60,1,89.9999999999999,4|0,0:0|1:0,0:0:0:0:
212,64,142372,2,0,P|201:107|193:151,1,89.9999999999999,4|0,0:0|1:0,0:0:0:0:
108,180,143141,6,0,P|144:264|164:352,1,180,4|4,0:0|0:0,0:0:0:0:
252,352,144295,5,2,0:0:0:0:
240,264,144680,1,4,0:0:0:0:
330,264,145065,2,0,L|342:356,1,89.9999999999999,2|4,0:0|0:0,0:0:0:0:
428,319,145834,1,2,0:0:0:0:
444,232,146218,6,0,P|440:190|432:133,1,89.9999999999999,4|8,0:0|0:0,0:0:0:0:
354,99,146988,2,0,P|319:121|273:157,1,89.9999999999999,2|8,0:0|0:0,0:0:0:0:
212,212,147757,1,2,0:0:0:0:
124,204,148141,1,8,0:0:0:0:
68,132,148526,2,0,P|40:168|52:260,1,135,2|2,0:0|0:0,0:0:0:0:
76,288,149295,6,0,L|168:296,1,89.9999999999999,2|8,0:0|0:0,0:0:0:0:
224,224,150065,2,0,L|313:216,1,89.9999999999999,2|8,0:0|0:0,0:0:0:0:
404,212,150834,1,2,0:0:0:0:
472,152,151218,1,8,0:0:0:0:
432,72,151603,1,2,0:0:0:0:
364,132,151988,1,8,0:0:0:0:
404,212,152372,6,0,P|344:268|248:260,1,180,4|2,0:0|0:0,0:0:0:0:
216,180,153526,1,8,0:0:0:0:
180,96,153911,2,0,P|92:87|27:145,1,180,2|2,0:0|0:0,0:0:0:0:
44,236,155065,1,8,0:0:0:0:
24,324,155449,6,0,P|108:300|133:251,1,135,4|0,0:0|0:0,0:0:0:0:
142,218,156218,2,0,P|196:181|261:191,1,135,4|0,0:0|0:0,0:0:0:0:
304,212,156988,2,0,P|388:224|450:150,1,180,4|4,0:0|0:0,0:0:0:0:
296,60,158526,6,0,P|256:44|208:48,1,89.9999999999999,4|8,0:0|0:0,0:0:0:0:
152,116,159295,2,0,P|192:132|240:128,1,89.9999999999999,2|8,0:0|0:0,0:0:0:0:
328,148,160065,2,0,B|372:128|392:80|392:80|456:156|424:248,1,270,2|8,0:0|0:0,0:0:0:0:
372,316,161603,6,0,P|348:276|336:228,1,89.9999999999999,2|8,0:0|0:0,0:0:0:0:
256,192,162372,2,0,P|232:230|220:273,1,89.9999999999999,2|8,0:0|0:0,0:0:0:0:
152,332,163141,1,2,0:0:0:0:
140,244,163526,1,8,0:0:0:0:
56,216,163911,1,2,0:0:0:0:
68,128,164296,1,8,0:0:0:0:
152,96,164680,6,0,P|264:48|360:148,1,270,4|8,0:0|0:0,0:0:0:0:
368,232,166218,2,0,P|279:323|161:276,1,270,2|4,0:0|0:0,0:0:0:0:
140,188,167757,6,0,L|112:48,1,135,4|2,0:0|0:0,0:0:0:0:
336,96,169295,2,0,L|471:141,1,135,2|2,0:0|0:0,0:0:0:0:
296,288,170834,2,0,L|188:382,1,135,4|2,0:0|0:0,0:0:0:0:
140,188,172372,6,0,P|106:38|231:109,1,360,2|2,0:0|0:0,0:0:0:0:
230,93,180065,6,0,L|200:192,1,89.9999999999999,4|8,0:0|0:0,0:0:0:0:
272,240,180834,2,0,L|302:141,1,89.9999999999999,2|8,0:0|0:0,0:0:0:0:
388,140,181603,2,0,L|358:239,1,89.9999999999999,2|8,0:0|0:0,0:0:0:0:
430,287,182372,2,0,L|460:188,1,89.9999999999999,2|8,0:0|0:0,0:0:0:0:
480,116,183141,6,0,B|444:32|344:28|300:96|300:96|252:88|212:112,1,315,4|2,0:0|0:0,0:0:0:0:
92,168,185065,1,4,0:0:0:0:
92,168,186218,6,0,P|168:124|256:144,1,180,4|2,0:0|0:0,0:0:0:0:
320,204,187372,1,8,0:0:0:0:
396,252,187757,2,0,P|440:244|484:228,2,89.9999999999999,2|8|2,0:0|0:0|0:0,0:0:0:0:
312,288,188911,1,8,0:0:0:0:
240,340,189295,6,0,P|216:300|200:248,1,89.9999999999999,2|8,0:0|0:0,0:0:0:0:
120,292,190065,2,0,P|119:245|131:192,1,89.9999999999999,2|8,0:0|0:0,0:0:0:0:
144,116,190834,1,2,0:0:0:0:
216,60,191218,1,8,0:0:0:0:
292,108,191603,2,0,P|336:96|380:76,1,89.9999999999999,4|8,0:0|0:0,0:0:0:0:
464,100,192372,5,4,0:0:0:0:
456,188,192757,2,0,P|376:228|276:244,1,180,8|8,0:0|0:0,0:0:0:0:
212,196,193911,6,0,P|196:232|196:280,2,67.4999999999999,4|4|4,0:0|0:0|0:0,0:0:0:0:
144,140,194872,2,0,P|116:196|104:276,1,135,2|4,0:0|0:0,0:0:0:0:
144,348,195834,6,0,P|229:333|329:281,1,180,8|8,0:0|0:0,0:0:0:0:
400,268,196988,2,0,P|447:287|484:313,2,89.9999999999999,2|8|2,0:0|0:0|0:0,0:0:0:0:
248,172,198526,6,0,P|179:228|92:214,1,180,4|2,0:0|0:0,0:0:0:0:
24,156,199680,1,8,0:0:0:0:
52,72,200065,2,0,P|120:15|207:29,1,180,2|2,0:0|0:0,0:0:0:0:
276,80,201218,1,8,0:0:0:0:
364,88,201603,6,0,P|409:73|456:64,1,89.9999999999999,2|8,0:0|0:0,0:0:0:0:
488,148,202372,2,0,P|502:193|512:240,1,89.9999999999999,2|8,0:0|0:0,0:0:0:0:
472,316,203141,1,2,0:0:0:0:
384,288,203526,1,8,0:0:0:0:
316,348,203911,2,0,P|270:332|228:311,1,89.9999999999999,4|4,0:0|0:0,0:0:0:0:
164,372,204680,6,0,B|132:316|160:260|160:260|76:224|60:144,1,270,4|2,0:0|0:0,0:0:0:0:
48,108,206026,2,0,P|53:57|64:13,2,89.9999999999999,4|2|4,0:0|0:0|0:0,0:0:0:0:
172,160,207372,1,8,0:0:0:0:
220,84,207757,6,0,B|280:120|340:88|340:88|364:104|396:112,2,180,4|4|4,0:0|0:0|0:0,0:0:0:0:
136,112,209680,1,8,0:0:0:0:
92,192,210065,2,0,P|120:256|236:256,1,180,4|4,0:0|0:0,0:0:0:0:
292,212,211218,1,8,0:0:0:0:
368,260,211603,2,0,P|380:220|368:164,1,89.9999999999999,2|8,0:0|0:0,0:0:0:0:
300,120,212372,6,0,B|256:120|224:144|224:144|168:120,1,135,4|4,0:0|0:0,0:0:0:0:
96,80,213334,1,4,0:0:0:0:
132,208,213911,6,0,B|171:236|215:238|215:238|235:287|277:312|277:312|279:264,1,225,4|2,0:0|0:0,0:0:0:0:
412,308,215449,2,0,B|416:259|396:220|396:220|429:178|429:129|429:129|386:151,1,225,4|2,0:0|0:0,0:0:0:0:
356,16,216988,6,0,B|311:35|287:73|287:73|235:65|192:89|192:89|233:115,1,225,4|2,0:0|0:0,0:0:0:0:
136,207,218526,2,0,B|96:243|54:260|54:260|34:300|46:330|46:330|116:340,1,225,4|2,0:0|0:0,0:0:0:0:
236,340,220065,6,0,P|328:312|296:208,1,225,4|2,0:0|0:0,0:0:0:0:
172,160,221603,2,0,P|139:63|234:29,1,225,4|2,0:0|0:0,0:0:0:0:
360,76,223141,6,0,P|404:68|452:48,1,89.9999999999999,4|8,0:0|0:0,0:0:0:0:
484,136,223911,2,0,P|440:144|392:164,1,89.9999999999999,2|8,0:0|0:0,0:0:0:0:
332,224,224680,1,4,0:0:0:0:
244,200,225065,1,4,0:0:0:0:
160,236,225449,1,4,0:0:0:0:
100,168,225834,1,4,0:0:0:0:
12,192,226218,6,0,P|56:88|184:132,1,270,4|8,0:0|0:0,0:0:0:0:
220,212,227757,2,0,P|382:268|464:132,1,360,4|12,0:0|1:0,0:0:0:0:
304,45,230065,2,0,P|259:51|219:72,1,89.9999999999999,2|2,0:0|0:0,0:0:0:0:
152,132,230834,6,0,P|148:224|192:312,1,180,4|2,0:0|0:0,0:0:0:0:
268,332,231988,1,0,1:0:0:0:
356,324,232372,2,0,P|392:242|388:153,1,180,2|2,0:0|0:0,0:0:0:0:
356,68,233526,1,0,1:0:0:0:
272,36,233911,6,0,B|231:38|177:26|177:26|125:30|84:53|84:53|146:112,1,270,2|0,0:0|1:0,0:0:0:0:
229,123,235449,2,0,P|272:131|319:118,2,89.9999999999999,2|0|2,0:0|1:0|0:0,0:0:0:0:
140,106,236603,1,0,1:0:0:0:
72,164,236988,6,0,P|117:214|160:272,1,135,4|4,0:0|0:0,0:0:0:0:
212,340,237949,1,2,0:0:0:0:
348,364,238526,2,0,P|345:296|350:224,1,135,4|4,0:0|0:0,0:0:0:0:
357,141,239487,1,2,0:0:0:0:
298,19,240065,6,0,P|232:32|160:56,1,135,4|4,0:0|0:0,0:0:0:0:
284,120,241218,2,0,P|233:164|182:221,1,135,4|4,0:0|0:0,0:0:0:0:
324,216,242372,2,0,B|284:272|288:337|288:337|316:328|336:312,1,180,4|4,0:0|1:0,0:0:0:0:
256,192,243526,12,0,246218,0:0:0:0:
