osu file format v14

[General]
AudioFilename: audio.mp3
AudioLeadIn: 0
PreviewTime: 71998
Countdown: 1
SampleSet: Soft
StackLeniency: 0.7
Mode: 0
LetterboxInBreaks: 0
WidescreenStoryboard: 1

[Editor]
Bookmarks: 1036,7767,20075,32382,44690,56998,72382,84690,106228,106613,106998,107382,107767,108151,108536,108921,109305,109690,110075,110459,110844,111228,111613,111998,112382,112767,113151,113536,113921,114305,114690,115075,115459,115844,116228,116613,116998,117382,117767,118536,128151,130844,146228,158536,173921,174305,174690,175075,175459,175844,176228,176613,176998,177382,177767,178151,178536,178921,179305,186228,198536,220075,229305,246228
DistanceSpacing: 2.8
BeatDivisor: 4
GridSize: 4
TimelineZoom: 4.299997

[Metadata]
Title:Justitia of Life
TitleUnicode:命のユースティティア
Artist:Neru feat. Kagamine Len
ArtistUnicode:Neru feat. 鏡音レン
Creator:rui
Version:Insane
Source:
Tags:vocaloid Satellite wring Naryuga inochi no justitia
BeatmapID:1601113
BeatmapSetID:761424

[Difficulty]
HPDrainRate:7
CircleSize:4
OverallDifficulty:7
ApproachRate:9
SliderMultiplier:1.6
SliderTickRate:1

[Events]
//Background and Video events
0,0,"39091117_p0.jpg",0,0
//Break Periods
2,106418,117734
2,174111,179272
//Storyboard Layer 0 (Background)
//Storyboard Layer 1 (Fail)
//Storyboard Layer 2 (Pass)
//Storyboard Layer 3 (Foreground)
//Storyboard Sound Samples

[TimingPoints]
65,384.615384615385,4,2,2,80,1,0
1026,-100,4,2,2,60,0,0
1603,-90.9090909090909,4,2,2,80,0,0
6988,-90.9090909090909,4,2,1,65,0,0
7757,-100,4,2,2,80,0,0
16603,-100,4,2,1,80,0,0
16988,-166.666666666667,4,2,1,80,0,0
20065,-166.666666666667,4,2,1,65,0,0
31026,-100,4,2,1,80,0,0
32372,-100,4,2,2,80,0,0
51218,-90.9090909090909,4,2,2,80,0,0
51603,-100,4,2,2,80,0,0
52757,-90.9090909090909,4,2,2,80,0,0
53141,-100,4,2,2,80,0,0
62372,-100,4,2,1,80,0,0
67757,-100,4,2,2,80,0,0
71218,-100,4,2,1,80,0,0
72372,-100,4,2,2,85,0,1
80065,-83.3333333333333,4,2,2,85,0,1
84488,-83.3333333333333,4,2,2,85,0,0
84680,-100,4,2,2,85,0,1
98526,-83.3333333333333,4,2,2,85,0,1
99872,-100,4,2,2,85,0,1
104103,-100,4,2,1,85,0,1
104488,-133.333333333333,4,2,1,85,0,1
105449,-133.333333333333,4,2,1,65,0,1
106218,-100,4,2,2,80,0,0
147372,-100,4,2,1,80,0,0
148141,-100,4,2,2,80,0,0
148526,-100,4,2,1,80,0,0
149295,-100,4,2,2,80,0,0
154680,-100,4,2,1,80,0,0
155449,-100,4,2,1,80,0,0
158526,-100,4,2,2,80,0,0
183141,-80,4,2,2,80,0,0
185065,-90.9090909090909,4,2,2,80,0,0
185449,-100,4,2,1,80,0,0
186218,-100,4,2,2,85,0,1
193911,-83.3333333333333,4,2,2,85,0,1
198334,-83.3333333333333,4,2,2,85,0,0
198526,-100,4,2,2,85,0,1
212372,-83.3333333333333,4,2,2,85,0,1
213718,-100,4,2,2,85,0,1
229295,-90.9090909090909,4,2,2,80,0,0
230065,-90.9090909090909,4,2,1,80,0,0
230834,-100,4,2,2,80,0,0
239680,-100,4,2,1,80,0,0
240065,-100,4,2,2,80,0,0
246218,-100,4,2,2,10,0,0

[Colours]
Combo1 : 154,78,78
Combo2 : 0,210,210
Combo3 : 255,53,53
Combo4 : 199,199,141

[HitObjects]
136,88,1026,5,0,1:0:0:0:
136,88,1218,2,0,L|220:112,1,80,0|0,1:0|1:0,0:0:0:0:
296,140,1603,6,0,B|332:128|332:128|392:132|392:132|432:118,2,132.00000402832,4|4|4,1:2|1:2|1:2,0:0:0:0:
176,324,3141,2,4,P|100:349|108:218,1,264.000008056641,4|2,1:2|0:2,0:2:0:0:
188,180,3911,2,0,L|336:208,2,132.00000402832,4|2|2,1:2|0:0|0:0,0:0:0:0:
144,192,4584,1,2,0:0:0:0:
112,164,4680,5,4,0:0:0:0:
116,120,4776,2,0,P|78:97|34:91,1,88.000002685547,0|2,0:0|0:0,0:0:0:0:
12,132,5065,1,0,0:0:0:0:
0,180,5161,1,0,0:0:0:0:
16,220,5257,1,2,0:0:0:0:
52,244,5353,1,2,0:0:0:0:
96,256,5449,6,0,L|103:300,1,44.0000013427735,2|0,0:0|0:0,0:0:0:0:
175,359,5641,2,0,L|182:315,1,44.0000013427735,2|0,0:0|0:0,0:0:0:0:
248,228,5834,2,0,L|255:272,1,44.0000013427735,2|2,0:0|0:0,0:0:0:0:
331,331,6026,2,0,L|338:287,1,44.0000013427735,2|2,0:0|0:0,0:0:0:0:
350,159,6218,1,4,0:0:0:0:
350,159,6988,2,0,P|394:228|337:287,1,176.000005371094,2|2,0:0|0:0,0:0:0:0:
337,287,7757,6,0,P|280:268|216:264,1,120,4|0,0:0|0:0,0:0:0:0:
188,268,8141,2,0,P|152:248|120:220,1,80,0|0,1:0|0:0,0:0:0:0:
40,147,8526,2,0,P|73:125|111:113,1,80,2|0,0:0|0:0,0:0:0:0:
200,44,8911,1,0,1:0:0:0:
288,116,9103,1,0,0:0:0:0:
288,116,9199,1,0,0:0:0:0:
288,116,9295,2,0,P|339:184|331:256,1,160,2|0,0:0|1:0,0:0:0:0:
96,332,10065,2,0,P|44:263|52:191,1,160,2|0,0:0|1:0,0:0:0:0:
228,20,10834,5,2,0:0:0:0:
288,116,11026,2,0,P|312:84|343:58,1,80,2|0,0:0|0:0,0:0:0:0:
468,100,11603,2,0,P|440:124|408:165,1,80,2|0,0:0|0:0,0:0:0:0:
372,152,11891,2,0,P|359:186|352:238,1,80,2|0,0:0|0:0,0:0:0:0:
348,268,12180,1,2,0:0:0:0:
168,44,12372,2,0,P|215:107|225:185,1,160,2|8,0:0|0:0,0:0:0:0:
188,292,12949,1,2,0:0:0:0:
188,292,13045,1,8,0:0:0:0:
188,292,13141,6,0,L|200:336,1,40,2|2,0:0|0:0,0:0:0:0:
260,256,13334,2,0,L|292:288,1,40,2|2,0:0|0:0,0:0:0:0:
364,328,13526,2,0,L|376:284,1,40,8|2,0:0|0:0,0:0:0:0:
436,364,13719,2,0,L|468:331,1,40,8|2,0:0|0:0,0:0:0:0:
456,240,13911,6,0,L|444:160,1,80,4|0,0:0|0:0,0:0:0:0:
148,24,14295,2,0,L|136:104,1,80,0|4,1:0|0:0,0:0:0:0:
136,103,14872,1,2,0:0:0:0:
200,156,15065,1,2,0:0:0:0:
276,180,15257,1,2,0:0:0:0:
356,192,15449,6,0,L|448:176,1,80,4|0,0:0|0:0,0:0:0:0:
212,236,15834,2,0,L|120:252,1,80,0|4,1:0|0:0,0:0:0:0:
92,96,16411,2,0,L|8:80,2,80,0|2|2,1:0|0:0|0:0,0:0:0:0:
172,112,16988,6,0,B|260:104|324:156|324:156|376:104|376:104|324:56|244:40,1,383.99998828125,4|2,0:0|0:0,0:0:0:0:
244,40,19295,1,2,0:0:0:0:
244,40,19872,1,0,0:0:0:0:
244,40,19968,1,0,0:0:0:0:
244,40,20065,6,0,P|256:88|256:136,1,95.9999970703126,2|0,0:0|0:0,0:0:0:0:
268,344,20834,2,0,P|256:296|256:248,1,95.9999970703126,2|0,0:0|0:0,0:0:0:0:
288,180,21411,1,0,0:0:0:0:
288,180,21603,2,0,P|329:151|384:128,1,95.9999970703126,2|0,0:0|0:0,0:0:0:0:
332,68,22180,2,0,P|288:88|249:115,1,95.9999970703126,2|2,0:0|0:0,0:0:0:0:
116,192,22949,5,0,0:0:0:0:
116,192,23045,1,0,0:0:0:0:
116,192,23141,2,0,P|120:240|136:288,1,95.9999970703126,2|0,0:0|0:0,0:0:0:0:
208,304,23718,1,0,0:0:0:0:
252,240,23911,2,0,P|268:256|284:280,1,47.9999985351563,2|0,0:0|0:0,0:0:0:0:
320,268,24199,2,0,P|328:232|332:192,1,71.9999978027344,2|0,0:0|0:0,0:0:0:0:
292,132,24680,1,2,0:0:0:0:
292,132,25449,6,0,L|196:176,1,95.9999970703126,2|2,0:0|0:0,0:0:0:0:
136,204,26026,1,0,0:0:0:0:
68,80,26218,1,2,0:0:0:0:
68,80,26795,1,0,0:0:0:0:
68,80,26891,1,0,0:0:0:0:
68,80,26988,6,0,L|94:148,2,71.9999978027344,2|0|0,0:0|0:0|0:0,0:0:0:0:
144,72,27757,2,0,L|188:180,1,95.9999970703126,2|2,0:0|0:0,0:0:0:0:
396,268,28526,2,0,L|359:179,1,95.9999970703126,2|2,0:0|0:0,0:0:0:0:
364,104,29103,2,0,L|392:80,1,23.9999992675781
333,33,29295,6,0,L|288:69,1,47.9999985351563,2|0,0:0|0:0,0:0:0:0:
284,74,29584,1,0,0:0:0:0:
272,84,29680,1,2,0:0:0:0:
259,93,29776,1,0,0:0:0:0:
246,103,29872,1,0,0:0:0:0:
233,112,29968,1,0,0:0:0:0:
220,122,30065,1,2,0:0:0:0:
208,132,30161,1,0,0:0:0:0:
195,141,30257,1,0,0:0:0:0:
182,151,30353,1,0,0:0:0:0:
169,161,30449,1,2,0:0:0:0:
156,170,30545,1,0,0:0:0:0:
144,180,30641,1,0,0:0:0:0:
131,189,30738,1,0,0:0:0:0:
118,199,30834,1,4,0:0:0:0:
96,352,31026,5,0,0:0:0:0:
96,352,31122,1,0,0:0:0:0:
96,352,31218,2,0,P|136:336|173:318,1,80,2|0,0:0|0:0,0:0:0:0:
296,220,31603,2,0,L|388:236,1,80,2|0,0:0|0:0,0:0:0:0:
160,116,31988,2,0,L|68:132,1,80,2|0,0:0|0:0,0:0:0:0:
300,20,32372,6,0,P|292:60|272:100,1,80,4|0,0:0|0:0,0:0:0:0:
196,236,32757,2,0,P|160:208|128:168,1,80,0|0,1:0|0:0,0:0:0:0:
248,36,33141,2,0,P|302:92|332:175,1,160,2|0,0:0|1:0,0:0:0:0:
316,248,33718,1,0,0:0:0:0:
192,164,33911,2,0,P|137:220|107:303,1,160,2|0,0:0|1:0,0:0:0:0:
324,348,34488,2,0,P|312:280|292:224,1,120,2|0,0:0|0:0,0:0:0:0:
280,196,34872,1,0,0:0:0:0:
328,76,35065,1,0,1:0:0:0:
212,132,35257,1,0,0:0:0:0:
212,132,35353,1,0,0:0:0:0:
212,132,35449,6,0,P|176:120|132:100,1,80,2|0,0:0|0:0,0:0:0:0:
328,76,35834,2,0,P|364:88|408:108,1,80,0|0,1:0|0:0,0:0:0:0:
280,196,36218,2,0,P|280:252|248:312,1,120,2|0,0:0|0:0,0:0:0:0:
220,336,36603,2,0,L|124:312,1,80,0|0,1:0|0:0,0:0:0:0:
24,224,36988,2,0,L|188:180,1,160,2|0,0:0|1:0,0:0:0:0:
332,232,37757,6,0,B|372:216|372:216|444:220|444:220|496:196,2,160,2|0|4,0:0|1:0|0:0,0:0:0:0:
180,184,38911,1,0,1:0:0:0:
284,136,39103,1,0,0:0:0:0:
284,136,39199,1,0,0:0:0:0:
284,136,39295,2,0,P|296:96|316:32,1,80,2|0,0:0|0:0,0:0:0:0:
148,110,39680,2,0,P|164:148|190:210,1,80,0|0,1:0|0:0,0:0:0:0:
284,240,40065,5,2,0:0:0:0:
292,260,40161,1,0,0:0:0:0:
296,280,40257,1,0,0:0:0:0:
296,300,40353,1,0,0:0:0:0:
292,320,40449,1,0,1:0:0:0:
284,340,40545,1,0,0:0:0:0:
272,356,40641,1,0,0:0:0:0:
256,368,40738,1,0,0:0:0:0:
236,376,40834,1,2,0:0:0:0:
216,380,40930,1,0,0:0:0:0:
196,380,41026,1,0,0:0:0:0:
176,372,41122,1,0,0:0:0:0:
160,360,41218,6,0,L|140:340,6,20,0|0|2|0|2|0|2,1:0|0:0|0:0|0:0|0:0|0:0|0:0,0:0:0:0:
216,296,41603,6,0,L|240:124,1,160,2|8,1:0|0:0,0:0:0:0:
156,64,42180,2,0,P|212:36|288:44,1,120,2|0,1:0|0:0,0:0:0:0:
350,110,42565,2,0,P|294:138|218:130,1,120,2|0,1:0|0:0,0:0:0:0:
156,64,42949,2,0,P|128:136|160:216,1,160,2|2,1:0|1:0,0:0:0:0:
224,300,43526,1,8,0:0:0:0:
308,372,43718,2,0,B|328:344|336:320|336:320|328:268|328:268|348:216,1,160,2|0,1:0|0:0,0:0:0:0:
420,80,44295,1,8,0:0:0:0:
420,80,44391,1,8,0:0:0:0:
420,80,44488,1,8,0:0:0:0:
420,80,44584,1,8,0:0:0:0:
420,80,44680,6,0,P|344:76|272:120,1,160,4|8,0:0|0:0,0:0:0:0:
128,188,45257,2,0,P|204:184|276:228,1,160,2|0,0:0|0:0,0:0:0:0:
360,296,45834,2,0,P|376:268|384:208,1,80,8|0,0:0|0:0,0:0:0:0:
364,144,46122,1,0,0:0:0:0:
364,144,46218,6,0,P|288:153|225:209,1,160,2|8,0:0|0:0,0:0:0:0:
89,269,46795,2,0,P|164:259|227:203,1,160,2|0,0:0|0:0,0:0:0:0:
300,124,47372,2,0,P|320:152|336:200,1,80,8|0,0:0|0:0,0:0:0:0:
226,206,47757,2,0,P|148:228|48:272,1,160,2|8,0:0|0:0,0:0:0:0:
195,362,48334,2,0,P|214:283|226:174,1,160,2|0,0:0|0:0,0:0:0:0:
156,136,48911,2,0,P|172:100|188:52,1,80,8|0,0:0|0:0,0:0:0:0:
276,36,49199,1,0,0:0:0:0:
276,36,49295,2,0,P|340:76|420:60,1,160,2|8,0:0|0:0,0:0:0:0:
492,200,50065,5,2,0:0:0:0:
268,228,50449,1,8,0:0:0:0:
44,256,50834,1,2,0:0:0:0:
44,256,51218,6,0,B|76:248|76:248|104:256|104:256|140:248|140:248|172:256,1,132.00000402832,4|0,0:0|0:0,0:0:0:0:
204,264,51603,2,0,L|296:240,1,80,2|0,0:0|0:0,0:0:0:0:
352,156,51988,1,8,0:0:0:0:
488,232,52180,1,0,0:0:0:0:
488,232,52276,1,0,0:0:0:0:
488,232,52372,1,8,0:0:0:0:
488,232,52757,6,0,B|456:224|456:224|428:232|428:232|392:224|392:224|360:232,1,132.00000402832,4|0,0:0|0:0,0:0:0:0:
328,240,53141,2,0,L|224:216,1,80,2|0,0:0|0:0,0:0:0:0:
113,258,53526,2,0,L|172:204,1,80,8|0,0:0|0:0,0:0:0:0:
228,144,53815,1,8,0:0:0:0:
228,144,53911,6,0,P|204:64|144:0,1,160,4|8,0:0|0:0,0:0:0:0:
38,124,54488,2,0,P|99:180|184:204,1,160,2|0,0:0|0:0,0:0:0:0:
252,216,55065,1,8,0:0:0:0:
440,232,55257,2,0,P|388:176|294:152,1,160,4|0,0:0|0:0,0:0:0:0:
228,144,55834,1,8,0:0:0:0:
136,52,56026,2,0,P|108:112|120:212,1,160,4|0,0:0|0:0,0:0:0:0:
156,308,56603,1,2,0:0:0:0:
156,308,56699,1,0,0:0:0:0:
156,308,56795,1,2,0:0:0:0:
156,308,56891,1,0,0:0:0:0:
156,308,56988,6,0,P|224:260|300:232,1,160,4|8,0:0|0:0,0:0:0:0:
408,168,57565,2,0,P|330:150|259:114,1,160,2|0,0:0|0:0,0:0:0:0:
184,32,58141,2,0,P|164:60|144:108,1,80,8|0,0:0|0:0,0:0:0:0:
208,172,58430,1,0,0:0:0:0:
208,172,58526,2,0,P|240:240|232:324,1,160,2|8,0:0|0:0,0:0:0:0:
24,383,59103,2,0,P|58:312|124:268,1,160,2|0,0:0|0:0,0:0:0:0:
152,160,59680,2,0,P|189:172|232:200,1,80,8|0,0:0|0:0,0:0:0:0:
312,264,60065,6,0,B|356:260|384:236|384:236|432:240|468:224,1,160,2|8,0:0|0:0,0:0:0:0:
308,156,60641,2,0,B|264:160|236:184|236:184|188:180|152:192,1,160,2|0,0:0|0:0,0:0:0:0:
68,260,61218,2,0,P|102:280|138:296,1,80,8|0,0:0|0:0,0:0:0:0:
236,299,61507,1,0,0:0:0:0:
236,299,61603,2,0,P|280:240|312:147,1,160,2|8,0:0|0:0,0:0:0:0:
196,72,62372,6,0,B|160:80|128:100|128:100|80:96|36:80,2,160,2|2|2,0:0|0:0|0:0,0:0:0:0:
196,72,64680,1,2,0:0:0:0:
196,72,65449,5,4,0:1:0:0:
316,312,65834,1,4,0:1:0:0:
316,312,66603,6,0,P|374:335|437:320,1,120,4|0,1:2|0:0,0:0:0:0:
383,247,66988,2,0,P|353:225|302:220,1,80,0|0,1:0|0:0,0:0:0:0:
227,196,67276,2,0,P|244:163|287:136,1,80,0|0,1:0|0:0,0:0:0:0:
356,100,67565,1,0,1:0:0:0:
216,36,67757,6,0,P|140:88|108:148,1,160,4|8,0:0|0:0,0:0:0:0:
296,348,68526,2,0,P|372:296|404:236,1,160,2|8,0:0|0:0,0:0:0:0:
252,32,69295,5,4,0:0:0:0:
76,112,69584,1,4,0:0:0:0:
216,244,69872,1,4,0:0:0:0:
208,116,70065,5,4,0:0:0:0:
32,196,70353,1,4,0:0:0:0:
172,328,70641,1,4,0:0:0:0:
172,328,71218,6,0,L|292:308,1,120,4|0,0:0|0:0,0:0:0:0:
372,280,71603,6,0,L|342:238,1,40,2|2,0:0|0:0,0:0:0:0:
456,224,71795,2,0,L|407:211,1,40,2|2,0:0|0:0,0:0:0:0:
492,132,71988,2,0,L|446:153,1,40,2|2,0:0|0:0,0:0:0:0:
464,40,72180,2,0,L|435:81,1,40,2|2,0:0|0:0,0:0:0:0:
352,128,72372,6,0,P|294:119|235:84,1,120,4|0,0:0|0:0,0:0:0:0:
188,28,72757,2,0,P|164:64|158:107,1,80,8|0,0:0|0:0,0:0:0:0:
68,188,73141,1,2,0:0:0:0:
108,309,73334,2,0,P|96:327|88:345,1,40
165,363,73526,2,0,P|203:351|238:332,1,80,8|0,0:0|0:0,0:0:0:0:
400,304,73911,6,0,P|404:264|404:220,1,80,2|0,0:0|0:0,0:0:0:0:
320,88,74295,2,0,P|291:116|262:149,1,80,8|0,0:0|0:0,0:0:0:0:
108,116,74680,2,0,P|104:192|152:256,1,160,2|8,0:0|0:0,0:0:0:0:
256,332,75257,1,0,0:0:0:0:
256,332,75353,1,0,0:0:0:0:
256,332,75449,6,0,P|272:293|282:244,1,80,2|0,0:0|0:0,0:0:0:0:
272,128,75834,1,8,0:0:0:0:
356,280,76026,1,0,0:0:0:0:
212,72,76218,2,0,P|196:104|188:156,1,80,2|0,0:0|0:0,0:0:0:0:
356,280,76603,2,0,P|340:248|332:196,1,80,8|0,0:0|0:0,0:0:0:0:
291,82,76988,6,0,P|248:72|200:72,1,80,4|0,0:0|0:0,0:0:0:0:
184,148,77276,1,0,0:0:0:0:
184,148,77372,2,0,P|247:150|308:165,1,120,4|0,0:0|0:0,0:0:0:0:
380,200,77757,1,4,0:0:0:0:
68,320,78141,1,8,0:0:0:0:
428,352,78526,1,4,0:0:0:0:
96,180,78911,6,0,P|60:148|24:76,1,120,8|0,0:0|0:0,0:0:0:0:
72,20,79295,2,0,P|112:32|152:56,1,80,2|0,0:0|0:0,0:0:0:0:
204,108,79584,1,0,0:0:0:0:
204,108,79680,2,0,P|238:88|277:77,1,80,8|0,0:0|0:0,0:0:0:0:
372,196,80065,6,0,P|416:204|460:244,1,95.9999970703126,4|0,0:0|0:0,0:0:0:0:
372,300,80353,2,0,P|343:334|286:352,1,95.9999970703126,4|0,0:0|0:0,0:0:0:0:
284,252,80641,2,0,P|268:209|281:151,1,95.9999970703126,4|0,0:0|0:0,0:0:0:0:
134,85,81026,2,0,P|128:62|120:40,1,47.9999985351563,4|0,0:0|0:0,0:0:0:0:
44,91,81218,2,0,P|20:132|12:188,1,95.9999970703126,2|0,0:0|0:0,0:0:0:0:
12,216,81507,1,0,0:0:0:0:
20,252,81603,1,4,0:0:0:0:
196,200,81988,6,0,B|248:180|248:180|300:180|340:208,1,143.999995605469,8|0,0:0|0:0,0:0:0:0:
380,284,82372,2,8,P|420:240|412:160,1,143.999995605469,2|0,0:0|0:0,0:0:0:0:
384,112,82757,1,8,0:0:0:0:
276,72,82949,1,0,0:0:0:0:
164,44,83141,6,0,L|92:36,3,47.9999985351563,2|0|0|0,0:0|0:0|0:0|0:0,0:0:0:0:
112,200,83526,2,0,L|184:192,3,47.9999985351563,8|0|0|0,0:0|0:0|0:0|0:0,0:0:0:0:
20,148,83911,1,2,0:0:0:0:
50,134,84007,1,0,0:0:0:0:
81,126,84103,1,0,0:0:0:0:
112,121,84199,1,0,0:0:0:0:
143,117,84295,1,8,0:0:0:0:
174,117,84391,1,0,0:0:0:0:
205,121,84488,1,2,0:0:0:0:
233,130,84584,1,0,0:0:0:0:
262,142,84680,6,0,P|322:130|375:105,1,120,4|0,0:0|0:0,0:0:0:0:
423,40,85065,2,0,P|443:66|457:117,1,80,8|0,0:0|0:0,0:0:0:0:
432,300,85449,1,2,0:0:0:0:
315,190,85641,2,0,L|279:208,1,40
261,286,85834,2,0,P|222:277|185:264,1,80,8|0,0:0|0:0,0:0:0:0:
117,221,86122,1,0,0:0:0:0:
117,221,86218,6,0,P|78:206|28:196,1,80,2|0,0:0|0:0,0:0:0:0:
196,224,86603,2,0,P|234:238|284:248,1,80,8|0,0:0|0:0,0:0:0:0:
430,273,86988,2,0,L|446:222,1,40,2|0,0:0|0:0,0:0:0:0:
450,155,87180,2,0,L|434:104,1,40
360,97,87372,2,0,P|364:139|379:182,1,80,8|0,0:0|0:0,0:0:0:0:
328,240,87661,1,0,0:0:0:0:
328,240,87757,5,2,0:0:0:0:
224,280,87949,1,0,0:0:0:0:
120,240,88141,1,8,0:0:0:0:
16,284,88334,1,0,0:0:0:0:
116,319,88526,2,0,P|120:280|120:224,1,80,2|0,0:0|0:0,0:0:0:0:
316,76,88911,2,0,P|312:115|312:171,1,80,8|0,0:0|0:0,0:0:0:0:
168,224,89295,6,0,P|181:184|192:142,1,80,4|0,0:0|0:0,0:0:0:0:
122,102,89584,1,0,0:0:0:0:
122,102,89680,2,0,L|84:220,1,120,4|0,0:0|0:0,0:0:0:0:
56,292,90065,1,4,0:0:0:0:
428,136,90449,1,8,0:0:0:0:
200,360,90834,6,0,P|164:308|160:236,1,120,4|0,0:0|0:0,0:0:0:0:
76,240,91218,2,0,P|100:200|128:176,1,80,8|0,0:0|0:0,0:0:0:0:
232,92,91603,2,0,L|360:116,1,120,2|0,0:0|0:0,0:0:0:0:
428,132,91988,1,8,0:0:0:0:
480,284,92180,6,0,B|420:308|420:308|324:284,1,160,4|2,0:0|0:0,0:0:0:0:
176,340,92757,2,0,P|164:300|148:264,1,80,8|4,0:0|0:0,0:0:0:0:
72,236,93045,2,0,P|113:191|176:189,1,120
319,252,93526,1,10,0:0:0:0:
272,116,93718,1,0,0:0:0:0:
272,116,93815,1,0,0:0:0:0:
272,116,93911,6,0,P|291:54|349:25,1,120,4|0,0:0|0:0,0:0:0:0:
348,106,94295,2,0,P|372:132|405:179,1,80,8|0,0:0|0:0,0:0:0:0:
327,351,94680,2,0,P|390:344|430:293,1,120,4|0,0:0|0:0,0:0:0:0:
352,279,95065,2,0,P|331:249|291:206,1,80,8|0,0:0|0:0,0:0:0:0:
220,120,95449,2,0,B|188:104|164:104|164:104|60:136,1,160,4|8,0:0|0:0,0:0:0:0:
88,248,96026,1,0,0:0:0:0:
88,248,96122,1,0,0:0:0:0:
88,248,96218,6,0,L|164:224,1,80,6|0,0:0|0:0,0:0:0:0:
204,212,96507,1,0,0:0:0:0:
240,192,96603,1,8,0:0:0:0:
260,156,96699,1,0,0:0:0:0:
256,116,96795,1,0,0:0:0:0:
232,84,96891,1,0,0:0:0:0:
196,68,96988,6,0,P|140:64|80:96,1,120,6|0,0:0|0:0,0:0:0:0:
4,96,97372,2,0,P|16:136|44:164,1,80,8|0,0:0|0:0,0:0:0:0:
140,220,97757,1,2,0:0:0:0:
244,256,97949,1,0,0:0:0:0:
120,308,98141,1,8,0:0:0:0:
192,192,98334,1,0,0:0:0:0:
324,160,98526,6,0,P|360:200|400:220,1,95.9999970703126,4|0,0:0|0:0,0:0:0:0:
499,90,98815,2,0,P|452:99|412:124,1,95.9999970703126,4|0,0:0|0:0,0:0:0:0:
258,8,99103,2,0,P|290:45|332:67,1,95.9999970703126,4|0,0:0|0:0,0:0:0:0:
332,67,99488,6,0,P|296:96|264:136,1,95.9999970703126,4|8,0:0|0:0,0:0:0:0:
212,252,99872,1,0,0:0:0:0:
212,252,99968,1,0,0:0:0:0:
212,252,100065,6,0,P|128:248|88:184,1,160,4|8,0:0|0:0,0:0:0:0:
16,96,100641,2,0,B|72:72|72:72|132:80,1,120,4|0,0:0|0:0,0:0:0:0:
180,92,101026,1,2,0:0:0:0:
248,172,101218,1,8,0:0:0:0:
300,264,101411,1,2,0:0:0:0:
300,264,101507,1,0,0:0:0:0:
300,264,101603,6,0,P|384:260|424:196,1,160,4|8,0:0|0:0,0:0:0:0:
500,108,102180,2,0,B|444:84|444:84|384:92,1,120,4|0,0:0|0:0,0:0:0:0:
332,100,102565,1,2,0:0:0:0:
268,184,102757,1,8,0:0:0:0:
224,280,102949,1,0,0:0:0:0:
224,280,103045,1,0,0:0:0:0:
224,280,103141,6,0,L|140:304,1,80,4|0,0:0|0:0,0:0:0:0:
20,148,103526,2,0,L|104:124,1,80,8|4,0:0|0:0,0:0:0:0:
364,48,104103,5,2,0:0:0:0:
391,64,104199,1,2,0:0:0:0:
419,80,104295,1,2,0:0:0:0:
446,100,104391,1,2,0:0:0:0:
476,121,104488,2,0,B|522:153|522:153|466:234|466:234|346:148,1,300.000011444092,4|2,0:0|0:0,0:0:0:0:
255,171,105834,5,2,0:0:0:0:
160,170,106218,5,4,0:0:0:0:
104,184,118334,5,0,0:0:0:0:
104,184,118430,1,0,0:0:0:0:
104,184,118526,2,0,P|136:204|184:224,1,80,4|0,0:0|0:0,0:0:0:0:
284,316,118911,2,0,P|306:283|320:245,1,80,0|0,1:0|0:0,0:0:0:0:
460,136,119295,2,0,L|304:84,1,160,2|0,0:0|1:0,0:0:0:0:
192,28,119872,1,0,0:0:0:0:
132,144,120065,2,0,P|212:148|272:196,1,160,2|0,0:0|1:0,0:0:0:0:
412,240,120641,2,0,P|351:244|303:280,1,120,2|0,0:0|0:0,0:0:0:0:
276,304,121026,1,0,0:0:0:0:
184,216,121218,1,0,1:0:0:0:
124,340,121411,1,0,0:0:0:0:
124,340,121507,1,0,0:0:0:0:
124,340,121603,6,0,L|32:316,1,80,2|0,0:0|0:0,0:0:0:0:
168,248,121988,2,0,P|204:232|244:200,1,80,0|0,1:0|0:0,0:0:0:0:
184,32,122372,2,0,P|160:88|160:152,1,120,2|0,0:0|0:0,0:0:0:0:
160,188,122757,2,0,L|244:212,1,80,0|0,1:0|0:0,0:0:0:0:
500,160,123141,2,0,L|340:114,1,160,2|0,0:0|1:0,0:0:0:0:
184,248,123911,6,0,B|136:232|136:232|72:232|72:232|24:216,2,160,2|0|4,0:0|1:0|0:0,0:0:0:0:
384,188,125065,1,0,1:0:0:0:
324,300,125257,1,0,0:0:0:0:
324,300,125353,1,0,0:0:0:0:
324,300,125449,2,0,P|303:262|275:227,1,80,2|0,0:0|0:0,0:0:0:0:
192,132,125834,2,0,P|164:160|148:196,1,80,0|0,1:0|0:0,0:0:0:0:
271,336,126218,6,0,P|299:308|315:272,1,80,2|0,0:0|0:0,0:0:0:0:
210,54,126603,2,0,P|199:92|191:132,1,80,0|0,1:0|0:0,0:0:0:0:
384,336,126988,2,0,P|395:298|403:258,1,80,2|0,0:0|0:0,0:0:0:0:
440,120,127372,2,0,L|316:152,1,120,0|0,1:0|0:0,0:0:0:0:
300,120,127757,2,0,L|216:92,1,80,4|0,0:0|0:0,0:0:0:0:
48,160,128141,2,0,L|132:188,1,80,0|0,1:0|0:0,0:0:0:0:
176,276,128526,5,2,0:0:0:0:
285,242,128718,1,0,0:0:0:0:
384,294,128911,1,2,0:0:0:0:
484,242,129103,1,0,0:0:0:0:
404,176,129295,5,2,0:0:0:0:
373,163,129391,1,0,0:0:0:0:
342,158,129488,1,0,0:0:0:0:
309,160,129584,1,0,0:0:0:0:
279,168,129680,1,2,0:0:0:0:
246,171,129776,1,0,0:0:0:0:
215,166,129872,1,0,0:0:0:0:
184,153,129968,1,0,0:0:0:0:
159,137,130065,6,0,L|133:120,14,20,2|0|0|0|0|0|0|0|2|0|0|0|0|0|0,0:0|0:0|0:0|0:0|0:0|0:0|0:0|0:0|0:0|0:0|0:0|0:0|0:0|0:0|0:0,0:0:0:0:
244,64,130834,6,0,P|268:116|260:184,1,120,4|0,0:0|0:0,0:0:0:0:
248,212,131218,2,0,P|252:252|272:304,1,80,0|0,1:0|0:0,0:0:0:0:
96,356,131603,2,0,P|120:304|112:236,1,120,2|0,0:0|0:0,0:0:0:0:
100,204,131988,2,0,P|87:166|83:126,1,80,0|0,1:0|0:0,0:0:0:0:
200,40,132372,6,0,L|328:64,1,120,2|0,0:0|0:0,0:0:0:0:
360,60,132757,2,0,L|452:40,1,80,0|0,1:0|0:0,0:0:0:0:
472,192,133141,2,0,L|344:168,1,120,2|0,0:0|0:0,0:0:0:0:
316,176,133526,2,0,L|224:196,1,80,0|0,1:0|0:0,0:0:0:0:
88,160,133911,6,0,P|72:192|68:240,1,80,2|0,0:0|0:0,0:0:0:0:
80,272,134199,1,0,0:0:0:0:
100,304,134295,2,0,L|184:320,1,80,0|0,1:0|0:0,0:0:0:0:
400,144,134680,2,0,P|397:179|377:223,1,80,2|0,0:0|0:0,0:0:0:0:
356,252,134968,1,0,0:0:0:0:
319,268,135065,2,0,L|238:239,1,80,0|0,1:0|0:0,0:0:0:0:
142,46,135449,2,0,L|301:102,1,160,2|0,0:0|1:0,0:0:0:0:
484,204,136218,6,0,B|428:192|428:192|404:208|360:208,1,120,2|0,0:0|0:0,0:0:0:0:
328,200,136603,2,0,P|288:206|250:217,1,80,0|0,1:0|0:0,0:0:0:0:
68,332,136988,2,0,P|148:320|244:288,1,160,4|0,0:0|1:0,0:0:0:0:
372,176,137565,1,0,0:0:0:0:
372,176,137661,1,0,0:0:0:0:
372,176,137757,2,0,P|320:144|264:128,1,120,2|0,0:0|0:0,0:0:0:0:
224,120,138141,1,0,1:0:0:0:
144,196,138334,1,0,0:0:0:0:
96,296,138526,6,0,P|160:304|212:280,1,120,6|0,0:0|0:0,0:0:0:0:
240,272,138911,2,0,P|279:280|317:305,1,80,0|0,1:0|0:0,0:0:0:0:
440,316,139295,2,0,L|492:300,3,40,2|0|0|0,0:0|0:0|0:0|0:0,0:0:0:0:
428,236,139680,2,0,L|480:220,3,40,0|0|0|0,1:0|0:0|0:0|0:0,0:0:0:0:
444,148,140065,2,0,L|324:184,1,120,6|0,0:0|0:0,0:0:0:0:
296,192,140449,1,0,1:0:0:0:
192,92,140641,1,0,0:0:0:0:
192,92,140738,1,0,0:0:0:0:
192,92,140834,6,0,P|160:152|156:224,1,120,2|0,0:0|0:0,0:0:0:0:
156,244,141218,2,0,P|164:284|184:320,1,80,0|0,1:0|0:0,0:0:0:0:
296,260,141603,1,6,0:0:0:0:
368,136,141795,1,0,0:0:0:0:
368,136,141891,1,0,0:0:0:0:
368,136,141988,2,0,L|388:224,1,80,0|0,1:0|0:0,0:0:0:0:
280,84,142372,2,0,L|268:168,1,80,4|0,0:0|0:0,0:0:0:0:
160,40,142757,2,0,L|172:124,1,80,0|0,1:0|0:0,0:0:0:0:
24,192,143141,6,0,L|108:208,1,80,4|0,0:0|0:0,0:0:0:0:
132,232,143430,1,0,0:0:0:0:
160,260,143526,2,0,L|252:244,1,80,0|0,1:0|0:0,0:0:0:0:
368,136,143911,1,4,0:0:0:0:
240,40,144103,2,0,L|184:-4,2,40,0|0|0,0:0|0:0|1:0,0:0:0:0:
368,136,144488,2,0,L|424:180,2,40,2|0|4,0:0|0:0|1:2,0:0:0:0:
192,164,144872,2,0,L|136:120,2,40,2|0|0,0:0|0:0|1:0,0:0:0:0:
340,236,145257,5,0,0:0:0:0:
371,259,145353,1,0,0:0:0:0:
386,296,145449,1,4,1:2:0:0:
379,335,145545,1,0,0:0:0:0:
353,365,145641,1,2,0:0:0:0:
316,377,145738,1,0,0:0:0:0:
277,368,145834,1,0,1:0:0:0:
248,344,145930,1,0,0:0:0:0:
212,328,146026,1,2,0:0:0:0:
172,316,146122,1,0,0:0:0:0:
132,324,146218,6,0,P|84:284|88:220,1,120,4|0,0:0|0:0,0:0:0:0:
101,194,146603,2,0,L|189:174,1,80,8|0,0:0|0:0,0:0:0:0:
308,280,146988,2,0,L|224:256,1,80,2|0,0:0|0:0,0:0:0:0:
312,160,147372,1,2,0:0:0:0:
324,132,147468,1,0,0:0:0:0:
328,100,147565,1,0,0:0:0:0:
324,68,147661,1,0,0:0:0:0:
312,40,147757,1,2,0:0:0:0:
312,40,148141,6,0,B|256:32|256:32|192:52,1,106.666666666667,4|0,0:0|0:0,0:0:0:0:
164,64,148526,5,2,0:0:0:0:
116,252,148782,1,2,0:0:0:0:
300,196,149039,1,2,0:0:0:0:
112,156,149295,6,0,L|24:132,1,80,2|0,0:0|0:0,0:0:0:0:
76,68,149584,1,0,0:0:0:0:
76,68,149680,2,0,L|164:92,1,80,8|0,0:0|0:0,0:0:0:0:
300,128,150065,6,0,L|276:60,2,53.3333333333333,2|0|0,0:0|0:0|0:0,0:0:0:0:
464,136,150449,2,0,L|444:200,2,53.3333333333333,8|0|0,0:0|0:0|0:0,0:0:0:0:
408,48,150834,5,2,0:0:0:0:
368,96,150962,1,0,0:0:0:0:
364,160,151090,1,0,0:0:0:0:
384,220,151218,5,8,0:0:0:0:
380,284,151347,1,0,0:0:0:0:
340,332,151475,1,0,0:0:0:0:
276,348,151603,6,0,L|212:340,2,53.3333333333333,2|0|0,0:0|0:0|0:0,0:0:0:0:
104,265,151988,6,0,L|216:240,1,106.666666666667,8|0,0:0|0:0,0:0:0:0:
316,280,152372,2,0,P|320:232|288:152,1,120,6|0,0:0|0:0,0:0:0:0:
184,36,152757,2,0,P|180:84|212:164,1,120,8|0,0:0|0:0,0:0:0:0:
288,200,153141,6,0,P|300:168|312:128,2,53.3333333333333,2|0|0,0:0|0:0|0:0,0:0:0:0:
192,312,153526,2,0,P|180:344|168:384,2,53.3333333333333,8|0|0,0:0|0:0|0:0,0:0:0:0:
320,284,153911,6,0,P|360:248|384:180,1,106.666666666667,2|0,0:0|0:0,0:0:0:0:
356,120,154295,6,0,L|377:70,2,53.3333333333333,8|0|0,0:0|0:0|0:0,0:0:0:0:
272,144,154680,6,0,L|256:180,3,40,2|0|2|0,0:0|0:0|0:0|0:0,0:0:0:0:
148,112,155065,2,0,L|132:76,3,40,2|0|2|0,0:0|0:0|0:0|0:0,0:0:0:0:
140,240,155449,6,0,P|138:279|150:330,1,80,4|0,0:0|0:0,0:0:0:0:
237,321,155706,2,0,P|271:302|310:266,1,80,2|0,0:0|0:0,0:0:0:0:
260,194,155962,2,0,P|226:173|176:157,1,80,2|0,0:0|0:0,0:0:0:0:
240,84,156218,2,0,P|293:107|337:138,1,106.666666666667,4|0,0:0|0:0,0:0:0:0:
432,220,156603,5,2,0:0:0:0:
441,256,156699,1,0,0:0:0:0:
440,295,156795,1,2,0:0:0:0:
428,332,156891,1,0,0:0:0:0:
404,364,156988,6,0,L|312:352,1,80,4|0,0:0|0:0,0:0:0:0:
303,277,157244,2,0,L|223:287,1,80,2|0,0:0|0:0,0:0:0:0:
208,204,157500,2,0,L|119:233,1,80,2|0,0:0|0:0,0:0:0:0:
108,144,157757,2,0,P|81:158|57:168,1,40,4|0,0:0|0:0,0:0:0:0:
76,60,157949,6,0,L|57:49,10,20
177,84,158526,5,4,0:0:0:0:
203,105,158622,1,0,0:0:0:0:
226,127,158718,1,0,0:0:0:0:
245,152,158815,1,0,0:0:0:0:
259,183,158911,2,0,L|290:249,3,40,8|0|0|0,0:0|0:0|0:0|0:0,0:0:0:0:
270,250,159295,5,2,0:0:0:0:
237,247,159391,1,0,0:0:0:0:
204,248,159488,1,0,0:0:0:0:
173,253,159584,1,0,0:0:0:0:
142,266,159680,2,0,L|73:293,3,40,8|0|0|0,0:0|0:0|0:0|0:0,0:0:0:0:
44,328,160065,6,0,P|28:292|60:216,1,120,2|0,0:0|0:0,0:0:0:0:
108,160,160449,2,0,B|164:132|164:132|232:144,1,120,8|0,0:0|0:0,0:0:0:0:
280,196,160834,2,0,B|336:205|336:205|388:180|388:180|440:184,1,160,2|8,0:0|0:0,0:0:0:0:
164,76,161603,6,0,L|44:60,1,120,2|0,0:0|0:0,0:0:0:0:
12,156,161988,2,0,P|44:160|100:148,1,80,8|0,0:0|0:0,0:0:0:0:
224,200,162372,2,0,P|282:212|342:207,1,120,2|0,0:0|0:0,0:0:0:0:
368,112,162757,2,0,P|328:112|288:124,1,80,8|0,0:0|0:0,0:0:0:0:
144,208,163141,6,0,P|116:256|116:320,1,120,2|0,0:0|0:0,0:0:0:0:
216,288,163526,2,0,L|300:264,1,80,8|0,0:0|0:0,0:0:0:0:
444,180,163911,2,0,P|472:132|472:68,1,120,2|0,0:0|0:0,0:0:0:0:
372,100,164295,2,0,L|288:124,1,80,8|0,0:0|0:0,0:0:0:0:
156,152,164680,5,4,0:0:0:0:
127,165,164776,1,0,0:0:0:0:
104,187,164872,1,0,0:0:0:0:
90,215,164968,1,0,0:0:0:0:
86,247,165065,1,8,0:0:0:0:
93,278,165161,1,0,0:0:0:0:
110,305,165257,1,0,0:0:0:0:
136,328,165353,1,0,0:0:0:0:
168,340,165449,6,0,L|228:328,3,40,2|0|0|0,0:0|0:0|0:0|0:0,0:0:0:0:
256,232,165834,2,0,L|296:240,3,40,8|0|0|0,0:0|0:0|0:0|0:0,0:0:0:0:
328,236,166218,5,2,0:0:0:0:
347,210,166315,1,0,0:0:0:0:
357,180,166411,1,0,0:0:0:0:
356,149,166507,1,0,0:0:0:0:
345,119,166603,1,8,0:0:0:0:
324,95,166699,1,0,0:0:0:0:
296,79,166795,1,0,0:0:0:0:
263,71,166891,1,0,0:0:0:0:
232,72,166988,6,0,L|208:24,3,40,2|0|0|0,0:0|0:0|0:0|0:0,0:0:0:0:
152,152,167372,2,0,L|176:200,3,40,8|0|0|0,0:0|0:0|0:0|0:0,0:0:0:0:
188,224,167757,5,6,0:0:0:0:
188,264,167853,1,0,0:0:0:0:
160,292,167949,1,0,0:0:0:0:
124,304,168045,1,0,0:0:0:0:
84,296,168141,1,2,0:0:0:0:
56,268,168238,1,0,0:0:0:0:
48,228,168334,1,8,0:0:0:0:
40,188,168430,1,0,0:0:0:0:
32,148,168526,6,0,L|24:104,3,40,2|0|0|0,0:0|0:0|0:0|0:0,0:0:0:0:
156,92,168911,2,0,L|148:48,3,40,2|0|0|0,0:0|0:0|0:0|0:0,0:0:0:0:
184,224,169295,6,0,L|176:268,3,40,8|0|0|0,0:0|0:0|0:0|0:0,0:0:0:0:
308,280,169680,2,0,L|300:324,3,40,2|0|8|0,0:0|0:0|0:0|0:0,0:0:0:0:
344,120,170065,6,0,L|336:76,3,40,2|0|0|0,0:0|0:0|0:0|0:0,0:0:0:0:
468,64,170449,2,0,L|460:20,3,40,2|0|0|0,0:0|0:0|0:0|0:0,0:0:0:0:
488,236,170834,6,0,P|468:284|400:288,1,120,4|0,0:0|0:0,0:0:0:0:
336,252,171218,2,0,L|240:268,1,80,2|8,0:0|0:0,0:0:0:0:
24,148,171603,6,0,P|44:100|112:96,1,120,2|0,0:0|0:0,0:0:0:0:
176,132,171988,2,0,L|272:116,1,80,0|2,0:0|0:0,0:0:0:0:
412,96,172372,1,2,0:0:0:0:
256,192,172468,12,0,173911,0:0:0:0:
104,104,179872,5,0,0:0:0:0:
104,104,179968,1,0,0:0:0:0:
104,104,180065,2,0,P|92:160|100:232,1,120,4|0,0:0|0:0,0:0:0:0:
108,260,180449,1,0,1:0:0:0:
260,312,180641,1,0,0:0:0:0:
260,312,180738,1,0,0:0:0:0:
260,312,180834,2,0,L|276:232,1,80,2|0,0:0|0:0,0:0:0:0:
312,220,181122,1,0,0:0:0:0:
348,204,181218,2,0,L|332:124,1,80,0|0,1:0|0:0,0:0:0:0:
220,40,181603,6,0,P|140:44|64:76,1,160,2|0,0:0|1:0,0:0:0:0:
64,188,182180,1,0,0:0:0:0:
158,254,182372,2,0,P|238:250|314:218,1,160,2|0,0:0|1:0,0:0:0:0:
488,64,183141,6,0,P|440:84|388:92,1,100,4|0,1:2|0:0,0:0:0:0:
308,36,183430,2,0,P|288:72|296:128,1,100,4|0,1:2|0:0,0:0:0:0:
313,231,183718,2,0,L|264:224,1,50,4|0,1:2|0:0,0:0:0:0:
184,284,183911,2,0,P|164:248|172:192,1,100,4|0,0:2|0:0,0:0:0:0:
208,96,184199,2,0,P|156:96|108:116,1,100,4|0,1:2|0:0,0:0:0:0:
87,301,184488,2,0,P|139:301|187:281,1,100,4|0,1:2|0:0,0:0:0:0:
456,192,185065,6,0,B|416:180|416:180|368:188|368:188|320:168,1,132.00000402832,4|0,0:0|0:0,0:0:0:0:
257,69,185449,6,0,L|284:100,1,40,2|2,0:0|0:0,0:0:0:0:
208,132,185641,2,0,L|215:171,1,40,2|2,0:0|0:0,0:0:0:0:
132,180,185834,2,0,L|132:219,1,40,2|2,0:0|0:0,0:0:0:0:
54,195,186026,2,0,L|34:230,1,40,2|2,0:0|0:0,0:0:0:0:
10,333,186218,6,0,P|80:324|117:294,1,120,4|0,0:0|0:0,0:0:0:0:
196,309,186603,2,0,P|192:268|168:232,1,80,8|0,0:0|0:0,0:0:0:0:
56,124,186988,1,2,0:0:0:0:
191,24,187180,2,0,L|215:72,1,40
287,44,187372,2,0,P|284:79|262:120,1,80,8|0,0:0|0:0,0:0:0:0:
393,224,187757,6,0,P|407:185|435:146,1,80,2|0,0:0|0:0,0:0:0:0:
224,220,188141,2,0,P|239:256|262:289,1,80,8|0,0:0|0:0,0:0:0:0:
504,262,188526,2,0,P|438:307|360:308,1,160,2|8,0:0|0:0,0:0:0:0:
224,220,189103,1,0,0:0:0:0:
224,220,189199,1,0,0:0:0:0:
224,220,189295,6,0,P|184:225|136:240,1,80,2|0,0:0|0:0,0:0:0:0:
276,140,189680,2,0,L|196:128,1,80,8|0,0:0|0:0,0:0:0:0:
416,32,190065,2,0,P|456:26|504:12,1,80,2|0,0:0|0:0,0:0:0:0:
364,112,190449,2,0,L|444:124,1,80,8|0,0:0|0:0,0:0:0:0:
296,188,190834,6,0,P|252:196|216:212,1,80,4|0,0:0|0:0,0:0:0:0:
168,148,191122,1,0,0:0:0:0:
168,148,191218,2,0,P|228:120|288:108,1,120,4|0,0:0|0:0,0:0:0:0:
360,92,191603,1,4,0:0:0:0:
172,368,191988,1,8,0:0:0:0:
24,32,192372,1,4,0:0:0:0:
352,264,192757,6,0,P|408:260|472:228,1,120,8|0,0:0|0:0,0:0:0:0:
504,164,193141,2,0,P|498:127|486:85,1,80,2|0,0:0|0:0,0:0:0:0:
420,44,193430,1,0,0:0:0:0:
420,44,193526,2,0,P|383:38|341:26,1,80,8|0,0:0|0:0,0:0:0:0:
228,120,193911,6,0,P|180:124|136:152,1,95.9999970703126,4|0,0:0|0:0,0:0:0:0:
188,310,194199,2,0,P|208:267|208:220,1,95.9999970703126,4|0,0:0|0:0,0:0:0:0:
43,181,194488,2,0,P|70:220|112:244,1,95.9999970703126,4|0,0:0|0:0,0:0:0:0:
228,120,194872,2,0,L|244:72,1,47.9999985351563,4|0,0:0|0:0,0:0:0:0:
316,136,195065,2,0,P|312:184|328:232,1,95.9999970703126,0|2,0:0|0:0,0:0:0:0:
340,264,195353,1,0,0:0:0:0:
360,296,195449,1,4,0:0:0:0:
168,344,195834,6,0,B|136:312|128:281|128:281|152:208,1,143.999995605469,8|0,0:0|0:0,0:0:0:0:
76,152,196218,2,0,P|140:116|216:144,1,143.999995605469,2|0,0:0|0:0,0:0:0:0:
244,160,196603,1,8,0:0:0:0:
324,244,196795,1,0,0:0:0:0:
432,200,196988,6,0,L|493:161,3,47.9999985351563,2|0|0|0,0:0|0:0|0:0|0:0,0:0:0:0:
376,45,197372,2,0,L|324:95,3,47.9999985351563,8|0|0|0,0:0|0:0|0:0|0:0,0:0:0:0:
472,64,197757,1,2,0:0:0:0:
443,82,197853,1,0,0:0:0:0:
421,104,197949,1,0,0:0:0:0:
400,128,198045,1,0,0:0:0:0:
381,153,198141,1,8,0:0:0:0:
365,179,198238,1,0,0:0:0:0:
350,206,198334,1,2,0:0:0:0:
337,235,198430,1,0,0:0:0:0:
329,265,198526,6,0,P|273:293|217:281,1,120,4|0,0:0|0:0,0:0:0:0:
163,340,198911,2,0,P|141:305|138:264,1,80,8|0,0:0|0:0,0:0:0:0:
119,60,199295,1,2,0:0:0:0:
274,110,199488,2,0,P|284:123|295:143,1,40
221,173,199680,2,0,P|221:218|229:255,1,80,8|0,0:0|0:0,0:0:0:0:
300,288,199968,1,0,0:0:0:0:
300,288,200065,6,0,P|332:256|352:224,1,80,2|0,0:0|0:0,0:0:0:0:
510,64,200449,2,0,P|474:82|436:91,1,80,8|0,0:0|0:0,0:0:0:0:
272,141,200834,2,0,L|223:132,1,40,2|0,0:0|0:0,0:0:0:0:
235,214,201026,2,0,L|203:252,1,40
278,286,201218,2,0,P|286:330|310:366,1,80,8|0,0:0|0:0,0:0:0:0:
360,300,201507,1,0,0:0:0:0:
360,300,201603,5,2,0:0:0:0:
332,192,201795,1,0,0:0:0:0:
174,128,201988,1,8,0:0:0:0:
146,236,202180,1,0,0:0:0:0:
252,112,202372,2,0,P|212:124|164:128,1,80,2|0,0:0|0:0,0:0:0:0:
56,292,202757,2,0,P|97:294|144:307,1,80,8|0,0:0|0:0,0:0:0:0:
362,155,203141,6,0,P|323:146|284:144,1,80,4|0,0:0|0:0,0:0:0:0:
296,224,203430,1,0,0:0:0:0:
296,224,203526,2,0,P|356:232|424:252,1,120,4|0,0:0|0:0,0:0:0:0:
488,280,203911,1,4,0:0:0:0:
160,344,204295,1,8,0:0:0:0:
412,52,204680,6,0,P|352:56|288:80,1,120,4|0,0:0|0:0,0:0:0:0:
212,28,205065,2,0,P|196:60|200:112,1,80,8|0,0:0|0:0,0:0:0:0:
76,208,205449,2,0,P|117:250|175:259,1,120,2|0,0:0|0:0,0:0:0:0:
256,248,205834,1,8,0:0:0:0:
404,312,206026,6,0,P|440:244|416:148,1,160,4|0,0:0|0:0,0:0:0:0:
276,131,206603,2,0,P|247:157|237:196,1,80,8|4,0:0|0:0,0:0:0:0:
319,201,206891,2,0,P|378:198|426:163,1,120
276,131,207372,1,8,0:0:0:0:
204,276,207565,1,0,0:0:0:0:
204,276,207661,1,0,0:0:0:0:
204,276,207757,6,0,P|148:280|96:240,1,120,4|0,0:0|0:0,0:0:0:0:
32,200,208141,2,0,P|60:176|108:168,1,80,8|0,0:0|0:0,0:0:0:0:
256,140,208526,2,0,P|312:156|384:144,1,120,4|0,0:0|0:0,0:0:0:0:
453,161,208911,2,0,P|448:121|428:88,1,80,8|0,0:0|0:0,0:0:0:0:
256,140,209295,6,0,P|220:200|236:288,1,160,4|8,0:0|0:0,0:0:0:0:
400,360,209872,1,0,0:0:0:0:
400,360,209968,1,0,0:0:0:0:
400,360,210065,2,0,P|416:328|428:284,1,80,6|0,0:0|0:0,0:0:0:0:
460,248,210353,1,0,0:0:0:0:
460,208,210449,1,8,0:0:0:0:
452,168,210545,1,0,0:0:0:0:
440,132,210641,1,0,0:0:0:0:
436,92,210738,1,0,0:0:0:0:
440,52,210834,6,0,P|380:12|288:44,1,160,4|8,0:0|0:0,0:0:0:0:
200,128,211411,1,0,0:0:0:0:
156,212,211603,2,0,L|168:292,1,80,2|0,0:0|0:0,0:0:0:0:
340,276,211988,2,0,L|328:356,1,80,8|0,0:0|0:0,0:0:0:0:
96,152,212372,6,0,P|140:132|192:136,1,95.9999970703126,4|0,0:0|0:0,0:0:0:0:
320,56,212661,2,0,P|315:103|289:143,1,95.9999970703126,4|0,0:0|0:0,0:0:0:0:
292,296,212949,2,0,P|253:268|231:226,1,95.9999970703126,4|0,0:0|0:0,0:0:0:0:
231,226,213334,6,0,P|240:176|232:128,1,95.9999970703126,4|8,0:0|0:0,0:0:0:0:
116,24,213718,1,0,0:0:0:0:
116,24,213815,1,0,0:0:0:0:
116,24,213911,6,0,P|64:84|88:168,1,160,4|8,0:0|0:0,0:0:0:0:
68,260,214488,2,0,B|127:247|127:247|176:208,1,120,4|0,0:0|0:0,0:0:0:0:
208,168,214872,1,2,0:0:0:0:
308,132,215065,1,8,0:0:0:0:
408,156,215257,1,0,0:0:0:0:
408,156,215353,1,0,0:0:0:0:
408,156,215449,6,0,P|418:234|353:292,1,160,4|8,0:0|0:0,0:0:0:0:
332,384,216026,2,0,B|288:341|288:341|269:281,1,120,4|0,0:0|0:0,0:0:0:0:
260,236,216411,1,2,0:0:0:0:
280,132,216603,1,8,0:0:0:0:
360,64,216795,1,0,0:0:0:0:
360,64,216891,1,0,0:0:0:0:
360,64,216988,6,0,B|378:114|378:114|371:161|371:161|395:221,1,160,4|8,0:0|0:0,0:0:0:0:
236,340,217565,2,0,L|204:224,1,120,4|0,0:0|0:0,0:0:0:0:
200,172,217949,1,2,0:0:0:0:
220,72,218141,1,8,0:0:0:0:
312,20,218334,1,0,0:0:0:0:
312,20,218430,1,0,0:0:0:0:
312,20,218526,6,0,P|352:84|336:176,1,160,4|8,0:0|0:0,0:0:0:0:
78,186,219103,2,0,P|120:132|176:128,1,120,4|0,0:0|0:0,0:0:0:0:
220,140,219488,1,2,0:0:0:0:
308,192,219680,1,8,0:0:0:0:
404,80,219872,1,0,0:0:0:0:
404,80,219968,1,0,0:0:0:0:
404,80,220065,6,0,B|328:36|252:85,1,160,4|8,0:0|0:0,0:0:0:0:
152,136,220641,2,0,P|188:180|256:192,1,120,4|0,0:0|0:0,0:0:0:0:
360,216,221026,2,0,P|327:239|296:264,1,80,2|8,0:0|0:0,0:0:0:0:
176,372,221411,1,0,0:0:0:0:
176,372,221507,1,0,0:0:0:0:
176,372,221603,6,0,B|116:304|149:222,1,160,4|8,0:0|0:0,0:0:0:0:
64,152,222180,2,0,P|113:119|175:119,1,120,4|0,0:0|0:0,0:0:0:0:
284,116,222565,2,0,P|266:157|242:194,1,80,2|8,0:0|0:0,0:0:0:0:
124,288,222949,1,0,0:0:0:0:
124,288,223045,1,0,0:0:0:0:
124,288,223141,6,0,P|180:340|268:336,1,160,4|8,0:0|0:0,0:0:0:0:
376,288,223718,1,2,0:0:0:0:
216,248,223911,2,0,P|200:208|200:168,1,80,2|0,0:0|0:0,0:0:0:0:
100,32,224295,2,0,P|116:72|116:112,1,80,8|0,0:0|0:0,0:0:0:0:
60,260,224680,5,4,0:0:0:0:
148,332,224872,1,0,0:0:0:0:
200,180,225065,1,4,0:0:0:0:
244,276,225257,1,0,0:0:0:0:
360,164,225449,1,4,0:0:0:0:
356,268,225641,1,0,0:0:0:0:
512,228,225834,1,4,0:0:0:0:
456,316,226026,1,0,0:0:0:0:
284,200,226218,6,0,P|203:203|154:272,1,160,4|4,0:0|0:0,0:0:0:0:
128,360,226795,1,0,0:0:0:0:
364,252,226988,2,0,P|372:173|312:113,1,160,4|4,0:0|0:0,0:0:0:0:
224,80,227565,1,0,0:0:0:0:
68,220,227757,5,4,0:0:0:0:
79,257,227853,1,0,0:0:0:0:
105,291,227949,1,0,0:0:0:0:
136,315,228045,1,0,0:0:0:0:
173,331,228141,1,4,0:0:0:0:
215,338,228238,1,0,0:0:0:0:
255,333,228334,1,0,0:0:0:0:
293,321,228430,1,0,0:0:0:0:
327,300,228526,6,0,L|352:280,14,20,4|0|0|0|0|0|0|0|4|0|0|0|0|0|0,0:0|0:0|0:0|0:0|0:0|0:0|0:0|0:0|0:0|0:0|0:0|0:0|0:0|0:0|0:0,0:0:0:0:
200,188,229295,5,12,1:0:0:0:
200,188,230065,6,0,P|135:138|168:63,1,176.000005371094,2|2,0:0|0:0,0:0:0:0:
167,63,230834,6,0,P|224:40|284:44,1,120,4|0,0:0|0:0,0:0:0:0:
312,56,231218,2,0,P|356:56|404:44,1,80,0|0,1:0|0:0,0:0:0:0:
264,140,231603,2,0,P|234:166|200:186,1,80,2|0,0:0|0:0,0:0:0:0:
244,340,231988,2,0,P|266:301|279:254,1,80,0|0,1:0|0:0,0:0:0:0:
388,52,232372,2,0,P|364:124|388:220,1,160,2|0,0:0|1:0,0:0:0:0:
112,352,233141,2,0,P|136:280|112:184,1,160,2|0,0:0|1:0,0:0:0:0:
312,28,233911,5,2,0:0:0:0:
412,80,234103,2,0,P|426:117|435:156,1,80,0|8,0:0|0:0,0:0:0:0:
316,348,234680,2,0,P|307:309|290:266,1,80,2|0,0:0|0:0,0:0:0:0:
268,244,234968,2,0,P|274:205|288:161,1,80,2|0,0:0|0:0,0:0:0:0:
300,128,235257,1,2,0:0:0:0:
120,40,235449,2,0,P|152:112|136:196,1,160,2|8,0:0|0:0,0:0:0:0:
20,296,236026,1,2,0:0:0:0:
20,296,236122,1,8,0:0:0:0:
20,296,236218,6,0,L|32:340,1,40,2|2,0:0|0:0,0:0:0:0:
92,260,236411,2,0,L|124:292,1,40,2|2,0:0|0:0,0:0:0:0:
196,332,236603,2,0,L|208:288,1,40,8|2,0:0|0:0,0:0:0:0:
268,368,236796,2,0,L|300:335,1,40,2|2,0:0|0:0,0:0:0:0:
368,276,236988,6,0,L|472:304,1,80,4|0,0:0|0:0,0:0:0:0:
312,104,237372,2,0,L|208:132,1,80,0|4,1:0|0:0,0:0:0:0:
234,124,237949,5,2,0:0:0:0:
180,64,238141,1,8,0:0:0:0:
100,64,238334,1,2,0:0:0:0:
36,116,238526,2,0,L|24:204,1,80,4|0,0:0|0:0,0:0:0:0:
262,283,238911,2,0,L|252:204,1,80,0|4,1:0|0:0,0:0:0:0:
396,132,239488,6,0,L|406:52,2,80,0|2|2,1:0|0:0|0:0,0:0:0:0:
360,256,240065,5,4,0:0:0:0:
280,156,240257,1,0,0:0:0:0:
184,244,240449,1,8,0:0:0:0:
272,280,240641,5,12,0:0:0:0:
204,172,240834,1,0,0:0:0:0:
96,240,241026,1,8,0:0:0:0:
176,296,241218,5,12,0:0:0:0:
204,172,241411,1,0,0:0:0:0:
308,308,241603,1,8,0:0:0:0:
440,188,241795,5,12,0:0:0:0:
412,64,241988,1,0,0:0:0:0:
308,200,242180,1,8,0:0:0:0:
156,76,242372,5,12,0:0:0:0:
360,112,242565,1,8,0:0:0:0:
224,272,242757,1,8,0:0:0:0:
248,156,243141,5,4,0:0:0:0:
256,192,243238,12,0,246218,0:0:0:0:
