osu file format v14

[General]
AudioFilename: IA - Enmei Chiryou.mp3
AudioLeadIn: 1996
PreviewTime: 76292
Countdown: 0
SampleSet: Soft
StackLeniency: 0.7
Mode: 2
LetterboxInBreaks: 0
EpilepsyWarning: 1
WidescreenStoryboard: 1

[Editor]
DistanceSpacing: 1.8
BeatDivisor: 4
GridSize: 4
TimelineZoom: 2.3

[Metadata]
Title:Enmei Chiryou
TitleUnicode:延命治療
Artist:Neru feat. IA
ArtistUnicode:Neru feat. IA
Creator:puxtu
Version:toybot's Rain
Source:太鼓の達人
Tags:vocaloid IA Life Prolonging Treatment Takane6 combinatorix Kuo_Kyoka nowsmart Blocko lordraika Julie toybot winda Quick_Draw JBHyperion Agka Sun Rainbow pxt
BeatmapID:479746
BeatmapSetID:195210

[Difficulty]
HPDrainRate:6
CircleSize:4
OverallDifficulty:9
ApproachRate:9
SliderMultiplier:2.5
SliderTickRate:1

[Events]
//Background and Video events
0,0,"Vocaloid.full.1384459.jpg",0,0
//Break Periods
2,104709,114576
//Storyboard Layer 0 (Background)
//Storyboard Layer 1 (Fail)
//Storyboard Layer 2 (Pass)
//Storyboard Layer 3 (Foreground)
//Storyboard Sound Samples

[TimingPoints]
518,444.444444444444,4,2,2,50,1,0
5851,444.444444444444,3,2,2,50,1,0
6184,-66.6666666666667,3,1,3,50,0,0
7184,444.444444444444,4,2,2,50,1,0
12517,444.444444444444,3,2,2,50,1,0
13850,444.444444444444,4,2,2,50,1,0
19183,444.444444444444,3,2,2,50,1,0
20071,-66.6666666666667,3,1,3,50,0,0
21849,444.444444444444,4,2,2,50,1,0
23626,-133.333333333333,4,1,3,50,0,0
37848,-83.3333333333333,4,1,3,50,0,0
39626,-100,4,2,2,50,0,0
41404,-100,4,1,3,50,0,0
43182,-100,4,2,2,50,0,0
44960,-100,4,1,3,50,0,0
46737,-100,4,2,2,50,0,0
48293,-100,4,1,3,50,0,0
50293,-100,4,2,2,50,0,0
51182,-100,4,1,3,50,0,0
69404,-66.6666666666667,4,1,3,50,0,0
71626,444.444444444444,3,2,2,50,1,0
71737,-66.6666666666667,3,1,3,50,0,0
74292,333.333333333333,4,2,2,50,1,0
75458,-100,4,1,3,50,0,0
76792,-100,4,1,3,60,0,1
87125,-100,4,1,3,50,0,0
87458,-100,4,1,3,60,0,1
95624,-100,4,1,3,60,0,1
98291,-100,4,1,3,50,0,0
100308,333.333333333333,4,2,2,65,1,0
100308,-133.333333333333,4,1,3,50,0,0
100954,444.444444444444,4,2,2,50,1,0
104509,-100,4,2,3,5,0,0
115176,-100,4,1,3,45,0,0
141842,-200,4,1,3,50,0,0
143620,-100,4,1,3,50,0,0
150733,333.333333333333,4,1,3,50,1,0
151899,-100,4,1,3,50,0,0
152732,-200,4,1,3,50,0,0
153233,-100,4,1,3,60,0,1
163566,-100,4,1,3,50,0,0
163899,-100,4,1,3,60,0,1
174232,-100,4,1,3,50,0,0
174566,-100,4,1,0,60,0,1
174732,-100,4,1,3,60,0,1
184899,-100,4,1,3,50,0,0
185232,-100,4,1,3,60,0,1
190566,-100,4,1,3,50,0,0
190732,-100,4,1,3,50,0,0
192046,-100,4,1,3,50,0,0
203232,-83.3333333333333,4,1,3,50,0,0

[Colours]
Combo1 : 128,255,0
Combo2 : 255,0,128
Combo3 : 5,5,240
Combo4 : 255,255,0

[HitObjects]
256,244,518,5,8,0:0:0:0:
256,244,1851,1,12,0:0:0:0:
104,180,2073,1,12,0:0:0:0:
412,184,2295,5,8,0:0:0:0:
396,184,3629,2,0,L|320:176,1,62.5,12|0,0:0|0:0,0:0:0:0:
175,178,3851,2,0,L|112:184,1,62.5,12|0,0:0|0:0,0:0:0:0:
256,164,4073,1,8,0:0:0:0:
256,164,5406,5,8,0:0:0:0:
416,152,5629,2,0,L|508:160,1,62.5,8|0,0:0|0:0,0:0:0:0:
276,312,5962,6,0,L|428:300,1,125,6|8,0:0|0:0,0:0:0:0:
484,220,6295,2,0,L|288:236,1,187.500007152558,6|8,0:0|0:0,0:0:0:0:
188,172,6628,6,0,L|396:152,1,187.500007152558,6|8,0:0|0:0,0:0:0:0:
392,228,6962,2,0,L|299:237,1,93.7500035762788,6|0,0:0|0:0,0:0:0:0:
112,144,7184,5,14,0:0:0:0:
96,180,7295,1,0,0:0:0:0:
112,212,7406,1,8,0:0:0:0:
316,164,7628,1,10,0:0:0:0:
464,176,7850,1,0,0:0:0:0:
472,224,7961,1,0,0:0:0:0:
484,268,8072,1,0,0:0:0:0:
424,288,8183,1,0,0:0:0:0:
364,308,8295,1,0,0:0:0:0:
424,324,8406,1,0,0:0:0:0:
484,336,8517,1,10,0:0:0:0:
152,312,8739,1,0,0:0:0:0:
252,272,8961,5,0,0:0:0:0:
276,232,9072,1,0,0:0:0:0:
252,192,9183,2,0,P|312:168|328:80,1,125,0|8,0:0|0:0,0:0:0:0:
124,120,9628,2,0,L|60:88,1,62.5,0|0,0:0|0:0,0:0:0:0:
128,208,9850,2,0,L|64:176,1,62.5,8|0,0:0|0:0,0:0:0:0:
132,296,10072,2,0,L|68:264,1,62.5,8|0,0:0|0:0,0:0:0:0:
140,376,10295,1,10,0:0:0:0:
200,340,10406,1,0,0:0:0:0:
264,320,10517,1,8,0:0:0:0:
332,320,10628,1,10,0:0:0:0:
392,340,10739,5,12,0:0:0:0:
384,296,10850,1,0,0:0:0:0:
376,252,10961,1,0,0:0:0:0:
512,164,11183,1,10,0:0:0:0:
368,88,11406,1,0,0:0:0:0:
436,120,11517,1,0,0:0:0:0:
504,152,11628,1,0,0:0:0:0:
440,192,11739,1,0,0:0:0:0:
372,224,11850,1,0,0:0:0:0:
64,272,12072,1,10,0:0:0:0:
352,188,12295,1,8,0:0:0:0:
224,184,12517,6,0,L|244:244,1,62.5,8|12,0:0|0:0,0:0:0:0:
372,224,12850,2,0,L|348:148,1,62.5,8|12,0:0|0:0,0:0:0:0:
125,193,13183,2,0,L|144:256,1,62.5,8|12,0:0|0:0,0:0:0:0:
464,208,13516,2,0,L|440:132,1,62.5,8|12,0:0|0:0,0:0:0:0:
36,320,13850,6,0,P|24:256|104:96,1,250,12|10,0:0|0:0,0:0:0:0:
304,108,14516,1,0,0:0:0:0:
296,184,14627,1,0,0:0:0:0:
284,260,14738,1,0,0:0:0:0:
212,288,14849,1,0,0:0:0:0:
140,312,14961,1,0,0:0:0:0:
208,340,15072,1,0,0:0:0:0:
276,372,15183,1,10,0:0:0:0:
64,280,15405,1,0,0:0:0:0:
276,372,15627,6,0,L|396:312,2,125,0|0|10,0:0|0:0|0:0,0:0:0:0:
432,268,16294,1,0,0:0:0:0:
420,192,16405,1,0,0:0:0:0:
408,116,16516,2,0,L|428:32,1,62.5
292,96,16738,2,0,L|284:4,1,62.5
168,96,16961,2,0,L|176:4,1,62.5,10|0,0:0|0:0,0:0:0:0:
52,116,17183,2,0,L|24:28,1,62.5,8|8,0:0|0:0,0:0:0:0:
52,116,17405,5,12,0:0:0:0:
240,196,17627,1,0,0:0:0:0:
28,248,17849,1,10,0:0:0:0:
208,324,18072,1,0,0:0:0:0:
284,320,18183,1,0,0:0:0:0:
344,272,18294,1,0,0:0:0:0:
344,196,18405,1,0,0:0:0:0:
296,136,18516,1,0,0:0:0:0:
220,124,18627,1,0,0:0:0:0:
160,172,18738,1,10,0:0:0:0:
380,232,18961,1,0,0:0:0:0:
176,324,19183,5,8,0:0:0:0:
168,248,19294,1,0,0:0:0:0:
160,172,19405,1,6,0:0:0:0:
312,288,19516,1,8,0:0:0:0:
304,212,19627,1,0,0:0:0:0:
296,136,19738,1,6,0:0:0:0:
452,244,19849,1,8,0:0:0:0:
444,168,19960,1,0,0:0:0:0:
436,92,20071,6,0,L|320:84,1,93.7500035762788,12|0,0:0|0:0,0:0:0:0:
216,144,20294,2,0,L|332:152,1,93.7500035762788,12|0,0:0|0:0,0:0:0:0:
344,88,20516,5,8,0:0:0:0:
320,80,20627,1,12,0:0:0:0:
160,192,20849,1,8,0:0:0:0:
204,180,20960,1,12,0:0:0:0:
368,248,21182,5,8,0:0:0:0:
316,232,21294,1,12,0:0:0:0:
140,344,21516,1,8,0:0:0:0:
224,328,21627,1,12,0:0:0:0:
404,328,21849,5,2,0:0:0:0:
44,328,23404,1,10,0:0:0:0:
368,304,23626,6,0,L|352:152,1,140.625005364418,4|0,0:0|0:0,0:0:0:0:
224,224,24071,2,0,L|116:216,2,93.7500035762788,10|0|0,0:0|0:0|0:0,0:0:0:0:
408,168,24960,1,10,0:0:0:0:
284,144,25182,1,0,0:0:0:0:
160,116,25404,6,0,L|148:280,1,140.625005364418
300,320,25848,2,0,L|284:208,1,93.7500035762788,10|0,0:0|0:0,0:0:0:0:
480,256,26293,1,0,0:0:0:0:
288,228,26737,1,10,0:0:0:0:
396,208,26960,1,0,0:0:0:0:
500,184,27182,6,0,L|504:40,1,140.625005364418,0|0,0:0|0:0,0:0:0:0:
388,96,27626,2,0,L|276:88,1,93.7500035762788,10|0,0:0|0:0,0:0:0:0:
96,164,28071,2,0,P|152:176|264:272,1,187.500007152558,0|10,0:0|0:0,0:0:0:0:
416,312,28737,1,0,0:0:0:0:
424,256,28848,1,0,0:0:0:0:
432,200,28960,5,0,0:0:0:0:
200,204,29182,1,0,0:0:0:0:
192,148,29293,1,0,0:0:0:0:
184,92,29404,2,0,L|288:96,1,93.7500035762788,10|0,0:0|0:0,0:0:0:0:
140,192,29848,2,0,L|244:196,1,93.7500035762788,0|0,0:0|0:0,0:0:0:0:
96,292,30293,2,0,L|200:296,1,93.7500035762788,10|8,0:0|0:0,0:0:0:0:
260,296,30626,1,8,0:0:0:0:
484,292,30737,6,0,P|488:196|460:116,1,140.625005364418,4|0,0:0|0:0,0:0:0:0:
348,184,31182,2,0,L|356:64,1,93.7500035762788,10|0,0:0|0:0,0:0:0:0:
140,144,31626,2,0,L|152:352,1,187.500007152558,0|10,0:0|0:0,0:0:0:0:
352,200,32293,1,0,0:0:0:0:
192,76,32515,6,0,P|140:60|92:72,1,93.7500035762788
352,200,32960,2,0,P|404:216|452:204,1,93.7500035762788,10|0,0:0|0:0,0:0:0:0:
204,184,33404,2,0,L|196:332,1,140.625005364418
328,276,33848,2,8,L|316:164,1,93.7500035762788,10|8,0:0|0:0,0:0:0:0:
180,104,34182,1,8,0:0:0:0:
108,136,34293,6,0,L|24:128,2,46.8750017881394,0|0|0,0:0|0:0|0:0,0:0:0:0:
312,96,34737,2,0,L|196:88,1,93.7500035762788,2|8,0:0|0:0,0:0:0:0:
404,160,35182,2,0,L|504:168,2,93.7500035762788,8|0|10,0:0|0:0|0:0,0:0:0:0:
464,268,35848,1,2,0:0:0:0:
96,328,36071,6,0,P|64:232|96:164,1,140.625005364418,8|0,0:0|0:0,0:0:0:0:
192,176,36515,2,0,L|200:64,1,93.7500035762788,14|0,0:0|0:0,0:0:0:0:
456,160,36960,1,8,0:0:0:0:
464,216,37071,1,8,0:0:0:0:
472,272,37182,1,8,0:0:0:0:
284,224,37404,1,14,0:0:0:0:
112,256,37626,1,8,0:0:0:0:
120,200,37737,1,8,0:0:0:0:
132,144,37848,6,0,L|292:120,1,149.999995422363,12|8,0:0|0:0,0:0:0:0:
456,176,38182,2,0,L|204:216,1,224.999993133545,10|12,0:0|0:0,0:0:0:0:
228,280,38960,1,0,0:0:0:0:
152,272,39071,1,0,0:0:0:0:
100,216,39182,1,10,0:0:0:0:
92,140,39293,1,0,0:0:0:0:
132,76,39404,1,8,0:0:0:0:
200,48,39515,1,10,0:0:0:0:
276,52,39626,6,0,L|260:164,3,62.5,4|0|2|0,0:0|0:0|0:0|0:0,0:0:0:0:
376,152,40071,2,0,L|360:264,3,62.5,0|0|2|0,1:0|0:0|0:0|0:0,0:0:0:0:
244,304,40515,6,0,L|252:242,3,62.5,0|0|2|0,0:0|0:0|0:0|0:0,0:0:0:0:
144,204,40960,2,0,L|152:142,2,62.5,0|0|0,1:0|0:0|1:0,0:0:0:0:
348,236,41293,1,0,1:0:0:0:
408,196,41404,6,0,L|380:24,1,125,14|8,0:0|0:0,0:0:0:0:
168,36,41737,2,0,L|200:256,1,187.5,10|14,0:0|0:0,0:0:0:0:
188,300,42515,1,0,0:0:0:0:
261,322,42626,1,0,0:0:0:0:
341,314,42737,1,10,0:0:0:0:
405,274,42848,1,0,0:0:0:0:
425,202,42960,1,8,0:0:0:0:
428,128,43071,1,10,0:0:0:0:
396,60,43182,6,0,L|384:140,3,62.5,4|0|2|0,0:0|0:0|0:0|0:0,0:0:0:0:
256,140,43626,2,0,L|244:220,3,62.5,0|0|2|0,1:0|0:0|0:0|0:0,0:0:0:0:
116,212,44071,6,0,L|128:292,3,62.5,0|0|2|0,0:0|0:0|0:0|0:0,0:0:0:0:
256,292,44515,2,0,L|268:372,2,62.5,0|0|0,1:0|0:0|1:0,0:0:0:0:
56,268,44848,1,0,1:0:0:0:
0,240,44960,6,0,L|32:76,1,125,12|10,0:0|0:0,0:0:0:0:
264,236,45293,2,0,L|232:72,1,125,8|8,0:0|0:0,0:0:0:0:
4,36,45626,1,12,0:0:0:0:
4,36,46071,1,0,0:0:0:0:
72,68,46182,1,0,0:0:0:0:
140,96,46293,1,10,0:0:0:0:
208,124,46404,1,0,0:0:0:0:
280,152,46515,1,8,0:0:0:0:
352,180,46626,1,10,0:0:0:0:
424,204,46737,6,0,L|416:112,1,62.5,4|0,0:0|0:0,0:0:0:0:
336,180,46960,2,0,L|328:88,1,62.5,2|0,0:0|0:0,0:0:0:0:
156,208,47182,2,0,L|164:116,1,62.5,0|0,1:0|0:0,0:0:0:0:
244,184,47404,2,0,L|252:92,1,62.5,2|0,0:0|0:0,0:0:0:0:
432,204,47626,6,0,L|424:112,1,62.5
344,180,47848,2,0,L|336:88,1,62.5,2|0,0:0|0:0,0:0:0:0:
148,208,48071,2,0,L|156:116,1,62.5,0|0,1:0|0:0,0:0:0:0:
236,184,48293,2,0,L|244:92,1,62.5,10|8,0:0|0:0,0:0:0:0:
448,56,48515,6,0,P|476:120|452:220,1,125,12|10,0:0|0:0,0:0:0:0:
200,336,48848,2,0,P|208:224|288:128,1,187.5,8|14,0:0|0:0,0:0:0:0:
246,161,49626,1,0,0:0:0:0:
318,185,49737,1,0,0:0:0:0:
366,245,49848,1,10,0:0:0:0:
342,317,49960,1,0,0:0:0:0:
282,361,50071,1,8,0:0:0:0:
210,345,50182,1,10,0:0:0:0:
162,289,50293,6,0,L|168:208,1,62.5,4|0,0:0|0:0,0:0:0:0:
364,244,50515,2,0,L|370:163,1,62.5,2|0,0:0|0:0,0:0:0:0:
400,112,50737,2,0,L|394:31,1,62.5,0|0,1:0|0:0,0:0:0:0:
198,67,50960,2,0,L|192:-14,1,62.5,2|0,0:0|0:0,0:0:0:0:
88,108,51182,5,0,0:0:0:0:
80,140,51293,1,0,0:0:0:0:
72,172,51404,1,2,0:0:0:0:
64,204,51515,1,0,0:0:0:0:
56,236,51626,5,10,0:0:0:0:
156,248,51737,1,8,0:0:0:0:
256,264,51848,1,8,0:0:0:0:
356,276,51960,1,8,0:0:0:0:
456,292,52071,6,0,P|484:212|448:72,1,187.5,12|0,0:0|0:0,0:0:0:0:
280,168,52515,2,0,L|296:40,1,125,10|0,0:0|0:0,0:0:0:0:
208,44,53182,1,0,0:0:0:0:
124,44,53626,1,0,0:0:0:0:
40,44,53848,6,0,P|20:128|72:240,1,187.5,14|0,0:0|0:0,0:0:0:0:
260,288,54293,2,0,L|272:144,1,125,10|12,0:0|0:0,0:0:0:0:
464,96,54737,1,8,0:0:0:0:
460,144,54848,1,8,0:0:0:0:
456,192,54960,1,8,0:0:0:0:
268,164,55182,2,0,L|392:120,1,125,10|8,0:0|0:0,0:0:0:0:
168,80,55626,6,0,L|152:284,1,187.5,12|0,0:0|0:0,0:0:0:0:
392,312,56071,2,0,L|400:172,1,125,10|12,0:0|0:0,0:0:0:0:
272,192,56737,1,0,0:0:0:0:
400,184,57182,1,0,0:0:0:0:
272,192,57404,6,0,P|196:188|124:64,1,187.5,12|0,0:0|0:0,0:0:0:0:
324,316,57848,1,10,0:0:0:0:
348,296,57960,1,0,0:0:0:0:
368,280,58071,2,0,L|320:84,1,187.5,12|0,0:0|0:0,0:0:0:0:
412,64,58515,2,0,L|484:80,2,62.5,0|0|10,0:0|0:0|0:0,0:0:0:0:
236,180,58960,1,10,0:0:0:0:
64,300,59182,6,0,P|92:224|84:96,1,187.5,12|0,0:0|0:0,0:0:0:0:
408,136,59626,2,0,P|396:248|356:292,1,125,10|12,0:0|0:0,0:0:0:0:
256,280,60293,1,0,0:0:0:0:
120,256,60737,1,0,0:0:0:0:
424,92,60960,6,0,L|444:288,1,187.5,12|0,0:0|0:0,0:0:0:0:
248,268,61404,2,0,P|188:252|120:260,1,125,10|12,0:0|0:0,0:0:0:0:
324,184,61848,2,0,P|264:168|196:176,1,125,0|0,0:0|0:0,0:0:0:0:
52,120,62293,1,10,0:0:0:0:
232,80,62515,1,8,0:0:0:0:
140,100,62626,1,8,0:0:0:0:
52,120,62737,6,0,L|76:320,1,187.5,12|0,0:0|0:0,0:0:0:0:
268,248,63182,2,0,B|336:240|336:240|420:252,1,125,10|12,0:0|0:0,0:0:0:0:
412,264,63848,1,0,0:0:0:0:
432,280,64293,1,0,0:0:0:0:
112,344,64515,6,0,P|100:240|140:116,1,187.5,10|0,0:0|0:0,0:0:0:0:
396,84,64960,2,0,P|424:176|420:228,1,125,12|0,0:0|0:0,0:0:0:0:
80,120,65404,2,0,P|148:52|200:52,1,125,10|8,0:0|0:0,0:0:0:0:
360,152,65848,2,0,L|280:152,1,62.5,12|0,0:0|0:0,0:0:0:0:
144,192,66071,1,8,0:0:0:0:
212,192,66182,1,8,0:0:0:0:
280,192,66293,1,0,0:0:0:0:
96,192,67626,5,8,0:0:0:0:
256,192,67848,1,8,0:0:0:0:
416,192,68071,1,0,0:0:0:0:
452,176,69404,6,0,L|340:148,1,93.7500035762788,8|0,0:0|0:0,0:0:0:0:
256,176,69626,2,0,L|152:152,1,93.7500035762788,8|0,0:0|0:0,0:0:0:0:
60,176,69848,1,0,0:0:0:0:
60,176,71182,5,8,0:0:0:0:
452,176,71404,1,8,0:0:0:0:
344,284,71737,6,0,P|404:176|488:144,1,187.500007152558,12|10,0:0|0:0,0:0:0:0:
288,24,72070,2,0,P|228:132|144:164,1,187.500007152558,12|10,0:0|0:0,0:0:0:0:
360,284,72403,2,0,P|420:176|504:144,1,187.500007152558,12|10,0:0|0:0,0:0:0:0:
268,24,72737,2,0,P|208:132|124:164,1,187.500007152558,12|10,0:0|0:0,0:0:0:0:
40,156,73070,5,12,0:0:0:0:
288,156,73403,1,12,0:0:0:0:
48,240,73737,1,12,0:0:0:0:
280,240,74070,1,12,0:0:0:0:
256,192,74292,12,4,75458,0:0:0:0:
180,300,75792,5,8,0:0:0:0:
348,300,75958,1,8,0:0:0:0:
180,300,76125,1,8,0:0:0:0:
350,300,76292,2,0,L|464:368,1,125,0|0,0:0|0:0,0:0:0:0:
420,332,76792,6,0,L|192:184,1,250,12|0,0:0|0:0,0:0:0:0:
356,132,77292,2,0,L|488:132,1,125,10|0,0:0|0:0,0:0:0:0:
320,48,77625,1,8,0:0:0:0:
252,64,77708,1,8,0:0:0:0:
196,104,77792,1,8,0:0:0:0:
164,164,77875,1,8,0:0:0:0:
164,232,77958,1,10,0:0:0:0:
464,280,78125,6,0,L|256:132,1,250,12|0,0:0|0:0,0:0:0:0:
96,160,78625,2,0,L|76:308,1,125,10|0,0:0|0:0,0:0:0:0:
256,136,78958,1,8,0:0:0:0:
96,160,79125,1,8,0:0:0:0:
88,92,79208,1,8,0:0:0:0:
80,24,79292,1,10,0:0:0:0:
284,48,79458,6,0,P|324:280|364:316,1,250,12|0,0:0|0:0,0:0:0:0:
164,212,79958,2,0,L|32:196,1,125,10|0,0:0|0:0,0:0:0:0:
232,136,80292,1,8,0:0:0:0:
284,180,80375,1,8,0:0:0:0:
352,192,80458,1,10,0:0:0:0:
416,164,80542,1,10,0:0:0:0:
448,104,80625,1,10,0:0:0:0:
256,132,80792,6,0,L|120:152,1,125,12|0,0:0|0:0,0:0:0:0:
292,272,81125,2,0,L|432:300,1,125,0|10,0:0|0:0,0:0:0:0:
416,296,81625,1,8,0:0:0:0:
144,308,81791,2,8,P|112:248|112:168,1,125,8|10,0:0|0:0,0:0:0:0:
408,52,82125,6,0,P|432:164|328:272,1,250,12|0,0:0|0:0,0:0:0:0:
164,268,82625,1,10,0:0:0:0:
156,200,82708,1,0,0:0:0:0:
144,132,82791,1,0,0:0:0:0:
304,84,82958,1,8,0:0:0:0:
452,124,83125,1,8,0:0:0:0:
444,192,83208,1,8,0:0:0:0:
436,260,83291,1,8,0:0:0:0:
312,268,83458,6,0,L|448:260,2,125,12|0|8,0:0|0:0|0:0,0:0:0:0:
188,124,83958,2,0,P|260:120|328:140,1,125,10|0,0:0|0:0,0:0:0:0:
456,192,84291,1,8,0:0:0:0:
312,268,84458,1,8,0:0:0:0:
296,200,84541,1,8,0:0:0:0:
280,132,84625,1,8,0:0:0:0:
88,284,84791,6,0,P|136:212|68:56,1,250,12|0,0:0|0:0,0:0:0:0:
248,152,85291,2,0,L|108:164,1,125,10|0,0:0|0:0,0:0:0:0:
248,252,85625,2,0,L|372:241,1,125,10|8,0:0|0:0,0:0:0:0:
400,176,85875,1,8,0:0:0:0:
428,112,85958,1,8,0:0:0:0:
144,64,86125,6,0,P|64:144|96:312,1,250,12|0,0:0|0:0,0:0:0:0:
192,352,86625,1,10,0:0:0:0:
492,304,86791,1,10,0:0:0:0:
436,284,87125,1,10,0:0:0:0:
384,272,87458,6,0,L|252:280,1,125,12|0,0:0|0:0,0:0:0:0:
112,236,87791,1,0,0:0:0:0:
256,172,87958,2,0,L|392:184,1,125,10|0,0:0|0:0,0:0:0:0:
512,96,88291,1,8,0:0:0:0:
376,24,88458,1,10,0:0:0:0:
308,40,88541,1,10,0:0:0:0:
240,56,88625,1,10,0:0:0:0:
100,24,88791,6,0,P|44:100|52:276,1,250,10|0,0:0|0:0,0:0:0:0:
208,336,89291,2,0,L|392:328,1,125,10|0,0:0|0:0,0:0:0:0:
496,244,89625,1,8,0:0:0:0:
428,232,89708,1,8,0:0:0:0:
360,216,89791,1,8,0:0:0:0:
420,184,89875,1,8,0:0:0:0:
480,152,89958,1,10,0:0:0:0:
352,132,90125,6,0,L|368:4,1,125,8|0,0:0|0:0,0:0:0:0:
224,144,90458,1,0,0:0:0:0:
88,160,90625,2,0,L|72:32,1,125,10|0,0:0|0:0,0:0:0:0:
212,256,90958,2,0,L|372:276,2,125,8|0|10,0:0|0:0|0:0,0:0:0:0:
76,328,91458,6,0,L|348:316,1,250,10|8,0:0|0:0,0:0:0:0:
396,320,91875,1,8,0:0:0:0:
464,328,91958,1,10,0:0:0:0:
312,216,92125,2,0,L|168:232,1,125,0|8,0:0|0:0,0:0:0:0:
56,160,92458,1,8,0:0:0:0:
124,164,92541,1,8,0:0:0:0:
192,168,92625,1,10,0:0:0:0:
424,100,92791,6,0,L|144:80,1,250,12|0,0:0|0:0,0:0:0:0:
320,164,93291,1,10,0:0:0:0:
180,248,93458,2,0,L|324:240,1,125
444,172,93791,2,0,L|316:164,1,125,8|10,0:0|0:0,0:0:0:0:
24,336,94125,6,0,P|100:308|236:208,1,250,12|0,0:0|0:0,0:0:0:0:
404,184,94625,1,10,0:0:0:0:
256,164,94791,1,8,0:0:0:0:
412,168,94958,1,8,0:0:0:0:
264,176,95125,1,8,0:0:0:0:
420,152,95291,2,0,L|388:24,1,125,10|8,0:0|0:0,0:0:0:0:
92,68,95625,6,0,P|56:152|104:336,1,250,12|10,0:0|0:0,0:0:0:0:
420,316,96125,2,0,P|456:232|408:48,1,250,12|10,0:0|0:0,0:0:0:0:
120,156,96625,2,0,L|388:180,1,250,12|10,0:0|0:0,0:0:0:0:
68,244,97125,2,0,L|336:268,1,250,12|10,0:0|0:0,0:0:0:0:
140,336,97625,5,12,0:0:0:0:
392,184,97958,1,2,0:0:0:0:
52,184,98291,1,12,0:0:0:0:
104,188,99291,5,0,0:0:0:0:
256,176,99625,1,0,0:0:0:0:
112,200,99958,1,0,0:0:0:0:
264,192,100308,6,0,L|124:184,2,125.000004768372,10|10|8,0:0|0:0|0:0,0:0:0:0:
372,200,100954,1,4,0:0:0:0:
256,192,101176,12,0,104509,0:0:0:0:
312,256,115176,6,0,P|412:216|424:116,2,187.5,12|0|8,0:0|0:0|0:0,0:0:0:0:
200,256,116065,1,2,0:0:0:0:
428,148,116509,1,0,0:0:0:0:
200,256,116953,6,0,P|100:216|92:112,2,187.5,8|0|8,0:0|0:0|0:0,0:0:0:0:
312,256,117842,1,2,0:0:0:0:
84,148,118287,1,0,0:0:0:0:
312,256,118731,6,0,P|412:208|436:176,1,125,8|0,0:0|0:0,0:0:0:0:
492,144,119065,2,0,L|484:352,1,187.5,8|0,0:0|0:0,0:0:0:0:
200,256,119620,1,2,0:0:0:0:
428,152,120065,1,0,0:0:0:0:
200,256,120509,6,0,P|100:208|76:176,1,125,8|0,0:0|0:0,0:0:0:0:
20,152,120842,2,0,L|28:360,1,187.5,8|0,0:0|0:0,0:0:0:0:
312,256,121398,1,2,0:0:0:0:
84,152,121842,1,0,0:0:0:0:
312,256,122287,6,0,L|500:208,1,187.5,8|0,0:0|0:0,0:0:0:0:
340,152,122953,1,0,0:0:0:0:
256,200,123176,1,2,0:0:0:0:
172,152,123398,1,0,0:0:0:0:
256,104,123620,1,0,0:0:0:0:
340,152,123842,1,0,0:0:0:0:
184,240,124065,6,0,L|-4:192,2,187.5,8|0|0,0:0|0:0|0:0,0:0:0:0:
308,252,124953,2,0,P|360:152|280:20,1,250,2|0,0:0|0:0,0:0:0:0:
84,272,125842,6,0,P|124:204|236:184,2,187.5,8|0|0,0:0|0:0|0:0,0:0:0:0:
200,300,126731,2,0,L|436:220,1,250,2|0,0:0|0:0,0:0:0:0:
312,180,127398,1,0,0:0:0:0:
440,156,127620,6,0,P|400:84|172:192,1,375,8|0,0:0|0:0,0:0:0:0:
252,240,128509,1,2,0:0:0:0:
172,320,128731,1,0,0:0:0:0:
92,240,128953,1,10,0:0:0:0:
424,240,129398,6,0,L|288:232,1,125,12|0,0:0|0:0,0:0:0:0:
244,232,129731,1,0,0:0:0:0:
188,232,129842,2,0,P|176:156|200:84,1,125,10|0,0:0|0:0,0:0:0:0:
352,40,130287,2,0,P|363:101|350:161,1,125,8|0,0:0|0:0,0:0:0:0:
296,164,130620,1,0,0:0:0:0:
240,164,130731,2,0,L|88:176,1,125,10|0,0:0|0:0,0:0:0:0:
8,272,131176,6,0,P|96:264|224:288,1,187.5,8|0,0:0|0:0,0:0:0:0:
376,316,131620,2,0,L|496:276,1,125,10|0,0:0|0:0,0:0:0:0:
376,316,132065,2,0,B|256:288|256:288|396:248,1,250,8|10,0:0|0:0,0:0:0:0:
248,196,132731,1,0,0:0:0:0:
424,184,132953,6,0,P|416:104|372:60,1,125,8|0,0:0|0:0,0:0:0:0:
332,80,133287,1,0,0:0:0:0:
276,92,133398,2,0,L|128:72,1,125,10|0,0:0|0:0,0:0:0:0:
0,160,133842,1,8,0:0:0:0:
140,236,134065,1,0,0:0:0:0:
196,228,134176,1,0,0:0:0:0:
252,216,134287,2,0,L|124:168,1,125,10|0,0:0|0:0,0:0:0:0:
252,216,134731,6,0,B|268:288|256:352|256:352|240:276,1,187.5,8|0,0:0|0:0,0:0:0:0:
368,264,135176,2,0,L|496:268,1,125,10|0,0:0|0:0,0:0:0:0:
368,128,135620,2,0,P|316:88|128:160,1,250,8|10,0:0|0:0,0:0:0:0:
256,200,136287,1,0,0:0:0:0:
376,128,136509,6,0,L|384:0,1,125,8|0,0:0|0:0,0:0:0:0:
172,128,136953,2,0,L|164:0,1,125,10|0,0:0|0:0,0:0:0:0:
392,136,137398,2,0,L|404:4,1,125,8|0,0:0|0:0,0:0:0:0:
160,132,137842,2,0,L|148:0,1,125,10|0,0:0|0:0,0:0:0:0:
400,144,138287,6,0,P|468:112|472:48,2,125,8|0|10,0:0|0:0|0:0,0:0:0:0:
112,143,138953,2,0,P|54:125|34:68,2,125,0|8|0,0:0|0:0|0:0,0:0:0:0:
256,236,139620,1,10,0:0:0:0:
416,144,139842,5,0,0:0:0:0:
96,144,140065,1,12,0:0:0:0:
96,144,141842,6,0,B|96:352|96:352|96:232,1,312.5,0|0,0:0|0:0,0:0:0:0:
448,248,143176,1,10,0:0:0:0:
448,248,143620,5,12,0:0:0:0:
104,268,143842,1,12,0:0:0:0:
284,312,144065,1,8,0:0:0:0:
232,296,144176,1,8,0:0:0:0:
192,252,144287,1,8,0:0:0:0:
180,196,144398,5,12,0:0:0:0:
480,168,144620,1,0,0:0:0:0:
480,168,144731,1,12,0:0:0:0:
288,240,144953,1,8,0:0:0:0:
340,224,145065,1,8,0:0:0:0:
380,180,145176,1,8,0:0:0:0:
392,124,145287,5,12,0:0:0:0:
88,112,145509,1,0,0:0:0:0:
88,112,145620,1,12,0:0:0:0:
256,176,145842,2,0,P|224:116|264:0,1,187.5
448,52,146287,5,12,0:0:0:0:
256,176,146509,1,12,0:0:0:0:
64,52,146731,1,12,0:0:0:0:
64,52,147176,5,12,0:0:0:0:
392,128,147398,1,12,0:0:0:0:
240,288,147620,1,8,0:0:0:0:
292,272,147731,1,8,0:0:0:0:
324,224,147842,1,8,0:0:0:0:
328,168,147953,5,12,0:0:0:0:
36,144,148176,1,0,0:0:0:0:
36,144,148287,1,12,0:0:0:0:
236,288,148509,1,8,0:0:0:0:
184,264,148620,1,8,0:0:0:0:
148,220,148731,1,8,0:0:0:0:
148,164,148842,5,12,0:0:0:0:
448,212,149065,1,0,0:0:0:0:
448,212,149176,1,12,0:0:0:0:
256,344,149398,2,0,L|256:128,1,187.5
184,88,149842,6,0,L|80:64,1,62.5,12|0,0:0|0:0,0:0:0:0:
328,88,150065,2,0,L|432:64,1,62.5,12|0,0:0|0:0,0:0:0:0:
388,73,150287,1,2,0:0:0:0:
324,168,150398,1,10,0:0:0:0:
256,252,150509,1,10,0:0:0:0:
188,168,150620,1,10,0:0:0:0:
123,73,150733,1,6,0:0:0:0:
328,88,151066,5,10,0:0:0:0:
160,72,151399,2,0,L|297:63,1,125,8|8,0:0|0:0,0:0:0:0:
160,72,151733,1,10,0:0:0:0:
280,264,151899,2,0,L|148:244,1,125,12|0,0:0|0:0,0:0:0:0:
156,245,152233,5,8,0:0:0:0:
336,240,152399,1,10,0:0:0:0:
156,244,152566,1,8,0:0:0:0:
336,240,152733,2,0,L|248:240,1,62.5,0|0,0:0|0:0,0:0:0:0:
336,240,153233,6,0,L|56:240,1,250,12|0,0:0|0:0,0:0:0:0:
236,164,153733,2,0,L|100:164,1,125,10|0,0:0|0:0,0:0:0:0:
232,80,154066,1,10,0:0:0:0:
296,108,154149,1,10,0:0:0:0:
364,112,154233,1,8,0:0:0:0:
428,84,154316,1,8,0:0:0:0:
480,36,154399,1,10,0:0:0:0:
248,88,154566,6,0,B|136:144|136:144|252:188,1,250,12|0,0:0|0:0,0:0:0:0:
416,240,155066,2,0,L|276:268,1,125,10|0,0:0|0:0,0:0:0:0:
128,296,155399,1,8,0:0:0:0:
196,284,155483,1,8,0:0:0:0:
264,272,155566,1,8,0:0:0:0:
196,256,155649,1,8,0:0:0:0:
128,236,155733,1,10,0:0:0:0:
356,200,155899,6,0,L|488:176,1,125,12|0,0:0|0:0,0:0:0:0:
478,177,156233,1,0,0:0:0:0:
340,120,156399,2,0,L|192:104,1,125,10|0,0:0|0:0,0:0:0:0:
80,168,156733,1,8,0:0:0:0:
208,260,156899,1,8,0:0:0:0:
276,248,156983,1,8,0:0:0:0:
344,236,157066,1,10,0:0:0:0:
168,96,157233,6,0,B|48:132|48:132|180:172,1,250,12|0,0:0|0:0,0:0:0:0:
292,164,157733,2,0,L|248:40,1,125,10|0,0:0|0:0,0:0:0:0:
412,152,158066,1,8,0:0:0:0:
248,260,158233,1,8,0:0:0:0:
316,272,158316,1,8,0:0:0:0:
384,280,158399,1,8,0:0:0:0:
208,332,158566,6,0,P|80:312|48:172,1,250,12|0,0:0|0:0,0:0:0:0:
400,208,159066,1,10,0:0:0:0:
400,208,159399,1,8,0:0:0:0:
336,232,159483,1,8,0:0:0:0:
272,256,159566,1,8,0:0:0:0:
336,276,159649,1,8,0:0:0:0:
404,296,159733,1,10,0:0:0:0:
256,208,159899,6,0,L|184:72,1,125,12|0,0:0|0:0,0:0:0:0:
360,96,160233,1,0,0:0:0:0:
196,100,160399,2,0,L|120:232,1,125,10|0,0:0|0:0,0:0:0:0:
264,284,160733,1,8,0:0:0:0:
196,296,160816,1,8,0:0:0:0:
128,308,160899,1,8,0:0:0:0:
196,316,160983,1,8,0:0:0:0:
264,324,161066,1,10,0:0:0:0:
400,348,161233,6,0,P|440:276|360:100,1,250,12|0,0:0|0:0,0:0:0:0:
136,136,161733,2,0,L|172:276,1,125,10|0,0:0|0:0,0:0:0:0:
312,248,162066,2,0,L|280:126,1,125,8|0,0:0|0:0,0:0:0:0:
136,140,162399,1,10,0:0:0:0:
312,248,162566,6,0,P|384:220|296:120,1,250,12|0,0:0|0:0,0:0:0:0:
168,184,163066,1,8,0:0:0:0:
312,248,163233,1,10,0:0:0:0:
40,276,163566,1,10,0:0:0:0:
252,348,163899,6,0,L|520:348,1,250,12|0,0:0|0:0,0:0:0:0:
316,268,164399,2,0,L|452:268,1,125,10|0,0:0|0:0,0:0:0:0:
308,172,164733,1,8,0:0:0:0:
452,168,164899,1,8,0:0:0:0:
384,160,164983,1,8,0:0:0:0:
316,156,165066,1,10,0:0:0:0:
140,188,165232,6,0,L|276:180,1,125,8|0,0:0|0:0,0:0:0:0:
440,128,165566,1,0,0:0:0:0:
288,80,165732,1,10,0:0:0:0:
112,128,165899,1,8,0:0:0:0:
148,188,165982,1,8,0:0:0:0:
184,248,166066,1,8,0:0:0:0:
336,240,166232,2,0,L|184:240,1,125,8|10,0:0|0:0,0:0:0:0:
344,328,166566,6,0,P|412:292|328:160,1,250,8|0,0:0|0:0,0:0:0:0:
188,164,167066,2,0,P|172:68|188:32,1,125,10|0,0:0|0:0,0:0:0:0:
359,48,167399,2,0,P|371:109|352:168,1,125,8|8,0:0|0:0,0:0:0:0:
288,200,167649,1,8,0:0:0:0:
228,228,167732,1,8,0:0:0:0:
360,280,167899,6,0,L|76:260,1,250,12|0,0:0|0:0,0:0:0:0:
237,236,168399,2,0,P|243:175|216:120,1,125,10|0,0:0|0:0,0:0:0:0:
40,152,168732,2,0,P|33:213|61:269,1,125,8|8,0:0|0:0,0:0:0:0:
216,120,169066,1,10,0:0:0:0:
44,272,169232,6,0,L|312:296,1,250,12|0,0:0|0:0,0:0:0:0:
168,208,169732,1,10,0:0:0:0:
292,292,169899,2,0,L|448:284,1,125,0|8,0:0|0:0,0:0:0:0:
308,277,170232,2,0,L|184:284,1,125,8|10,0:0|0:0,0:0:0:0:
68,264,170566,6,0,L|348:252,1,250,12|0,0:0|0:0,0:0:0:0:
472,188,171066,2,0,L|328:176,1,125,10|0,0:0|0:0,0:0:0:0:
184,168,171399,1,8,0:0:0:0:
252,152,171482,1,8,0:0:0:0:
320,136,171566,1,8,0:0:0:0:
456,104,171732,1,10,0:0:0:0:
280,48,171899,1,8,0:0:0:0:
104,104,172066,6,0,P|68:220|160:352,1,250,12|2,0:0|0:0,0:0:0:0:
420,328,172566,2,0,P|476:219|441:102,1,250,12|2,0:0|0:0,0:0:0:0:
112,100,173066,2,0,P|100:176|136:244,1,125,12|0,0:0|0:0,0:0:0:0:
224,304,173399,1,10,0:0:0:0:
400,100,173566,2,0,P|412:176|376:244,1,125,12|0,0:0|0:0,0:0:0:0:
288,304,173899,1,10,0:0:0:0:
400,304,174066,5,0,0:0:0:0:
136,180,174232,2,0,L|48:68,1,125,2|2,0:0|0:0,0:0:0:0:
58,81,174566,6,0,L|336:56,1,250,4|0,0:0|0:0,0:0:0:0:
484,144,175066,2,0,L|328:128,1,125,14|0,0:0|0:0,0:0:0:0:
220,192,175399,1,8,0:0:0:0:
364,248,175566,2,0,L|456:240,2,62.5,8|8|10,0:0|0:0|0:0,0:0:0:0:
216,312,175899,6,0,L|344:328,1,125,8|0,0:0|0:0,0:0:0:0:
484,204,176232,1,8,0:0:0:0:
320,152,176399,2,0,L|176:160,1,125,10|0,0:0|0:0,0:0:0:0:
28,112,176732,1,8,0:0:0:0:
92,88,176816,1,8,0:0:0:0:
160,92,176899,1,8,0:0:0:0:
220,124,176982,1,8,0:0:0:0:
252,184,177066,1,10,0:0:0:0:
408,192,177232,6,0,P|348:112|200:76,1,250,8|0,0:0|0:0,0:0:0:0:
44,192,177732,2,0,L|184:180,1,125,10|0,0:0|0:0,0:0:0:0:
36,268,178066,1,8,0:0:0:0:
176,340,178232,1,8,0:0:0:0:
108,340,178316,1,8,0:0:0:0:
40,340,178399,1,10,0:0:0:0:
184,224,178566,6,0,L|336:236,1,125,8|0,0:0|0:0,0:0:0:0:
472,188,178899,1,0,0:0:0:0:
360,112,179066,2,0,L|204:120,1,125,10|0,0:0|0:0,0:0:0:0:
100,36,179399,1,8,0:0:0:0:
68,96,179482,1,8,0:0:0:0:
32,156,179566,1,8,0:0:0:0:
76,208,179649,1,8,0:0:0:0:
124,256,179732,1,10,0:0:0:0:
308,280,179899,6,0,P|332:176|228:52,1,250,12|0,0:0|0:0,0:0:0:0:
136,192,180399,2,0,L|0:184,1,125,10|0,0:0|0:0,0:0:0:0:
192,312,180732,2,0,L|328:304,1,125,10|8,0:0|0:0,0:0:0:0:
456,264,181066,1,10,0:0:0:0:
188,312,181232,6,0,P|124:232|200:112,1,250,8|8,0:0|0:0,0:0:0:0:
392,144,181732,1,10,0:0:0:0:
256,184,181899,1,8,0:0:0:0:
120,144,182066,1,8,0:0:0:0:
392,144,182399,1,10,0:0:0:0:
256,184,182566,6,0,L|100:172,1,125,12|0,0:0|0:0,0:0:0:0:
272,96,182899,1,8,0:0:0:0:
204,88,182982,1,8,0:0:0:0:
136,80,183066,1,10,0:0:0:0:
288,12,183232,1,8,0:0:0:0:
436,80,183399,2,0,L|292:92,1,125,8|0,0:0|0:0,0:0:0:0:
136,80,183732,1,10,0:0:0:0:
440,200,183899,5,12,0:0:0:0:
164,272,184232,2,0,L|176:140,1,125,8|10,0:0|0:0,0:0:0:0:
348,220,184566,1,8,0:0:0:0:
280,224,184649,1,8,0:0:0:0:
216,204,184732,1,8,0:0:0:0:
176,148,184816,1,8,0:0:0:0:
180,80,184899,1,8,0:0:0:0:
196,96,184982,1,8,0:0:0:0:
212,112,185066,1,10,0:0:0:0:
460,24,185232,6,0,P|516:124|396:208,1,250,12|0,0:0|0:0,0:0:0:0:
284,288,185732,2,0,L|428:304,1,125,10|0,0:0|0:0,0:0:0:0:
280,216,186066,2,0,L|136:236,1,125,8|8,0:0|0:0,0:0:0:0:
216,200,186316,1,8,0:0:0:0:
276,172,186399,1,10,0:0:0:0:
48,104,186566,6,0,P|20:200|92:336,1,250,12|0,0:0|0:0,0:0:0:0:
280,248,187066,2,0,L|428:256,1,125,10|0,0:0|0:0,0:0:0:0:
280,172,187399,1,8,0:0:0:0:
412,148,187566,1,8,0:0:0:0:
344,160,187649,1,8,0:0:0:0:
276,168,187732,1,10,0:0:0:0:
108,96,187899,6,0,L|244:104,1,125,12|0,0:0|0:0,0:0:0:0:
364,64,188232,1,8,0:0:0:0:
496,216,188399,2,0,L|332:208,1,125,10|0,0:0|0:0,0:0:0:0:
120,196,188732,1,10,0:0:0:0:
80,252,188816,1,8,0:0:0:0:
100,320,188899,1,8,0:0:0:0:
160,360,188982,1,8,0:0:0:0:
224,328,189066,1,8,0:0:0:0:
476,292,189232,6,0,L|336:280,1,125,12|0,0:0|0:0,0:0:0:0:
168,220,189566,1,0,0:0:0:0:
316,124,189732,2,0,P|229:138|192:130,2,125,12|0|8,0:0|0:0|0:0,0:0:0:0:
444,48,190232,5,10,0:0:0:0:
324,12,190399,1,10,0:0:0:0:
164,32,190566,1,10,0:0:0:0:
16,140,190732,1,0,0:0:0:0:
256,192,192066,12,10,193066,0:0:0:0:
192,192,193399,5,12,0:0:0:0:
320,192,193566,1,8,0:0:0:0:
348,180,194066,5,12,0:0:0:0:
164,180,194232,1,8,0:0:0:0:
136,168,194732,5,12,0:0:0:0:
380,168,194899,1,12,0:0:0:0:
120,276,195232,1,12,0:0:0:0:
392,276,195566,1,14,0:0:0:0:
164,244,195732,5,8,0:0:0:0:
232,224,195816,1,8,0:0:0:0:
300,208,195899,1,8,0:0:0:0:
232,192,195982,1,8,0:0:0:0:
164,176,196066,5,12,0:0:0:0:
348,176,196232,1,8,0:0:0:0:
388,176,196732,5,12,0:0:0:0:
124,176,196899,1,8,0:0:0:0:
80,192,197399,5,12,0:0:0:0:
256,264,197566,1,12,0:0:0:0:
432,192,197732,1,8,0:0:0:0:
256,120,197899,1,12,0:0:0:0:
64,184,198232,5,14,0:0:0:0:
128,208,198316,1,0,0:0:0:0:
192,232,198399,1,8,0:0:0:0:
256,256,198482,1,8,0:0:0:0:
320,232,198566,1,8,0:0:0:0:
384,208,198649,1,8,0:0:0:0:
448,184,198732,6,0,L|288:172,1,125,12|8,0:0|0:0,0:0:0:0:
448,100,199066,1,8,0:0:0:0:
336,92,199232,1,8,0:0:0:0:
448,16,199399,2,0,L|304:8,1,125,12|8,0:0|0:0,0:0:0:0:
212,88,199732,1,8,0:0:0:0:
64,28,199899,2,0,L|200:20,1,125,12|0,0:0|0:0,0:0:0:0:
36,152,200232,2,0,L|172:144,1,125,12|0,0:0|0:0,0:0:0:0:
8,272,200566,5,12,0:0:0:0:
416,271,200899,2,0,P|455:155|417:39,1,250,12|8,0:0|0:0,0:0:0:0:
95,39,201399,6,0,P|56:155|96:272,1,250,12|8,0:0|0:0,0:0:0:0:
256,308,201899,1,8,0:0:0:0:
400,216,202066,2,0,L|360:72,1,125,12|0,0:0|0:0,0:0:0:0:
256,188,202399,1,8,0:0:0:0:
112,216,202566,2,0,L|152:72,1,125,12|0,0:0|0:0,0:0:0:0:
400,216,202899,2,0,L|360:72,1,125,12|0,0:0|0:0,0:0:0:0:
104,268,203232,6,0,L|420:268,1,299.999990844727,12|12,0:0|0:0,0:0:0:0:
88,208,204066,5,8,0:0:0:0:
68,176,204149,1,8,0:0:0:0:
56,140,204232,1,8,0:0:0:0:
68,104,204316,1,8,0:0:0:0:
88,72,204399,1,12,0:0:0:0:
256,144,204566,1,0,0:0:0:0:
424,208,204732,1,8,0:0:0:0:
444,176,204816,1,8,0:0:0:0:
456,140,204899,1,8,0:0:0:0:
444,104,204982,1,8,0:0:0:0:
424,72,205066,1,10,0:0:0:0:
255,235,205232,6,0,L|128:144,1,149.999995422363,12|0,0:0|0:0,0:0:0:0:
256,235,205566,2,0,L|384:144,1,149.999995422363,12|0,0:0|0:0,0:0:0:0:
168,216,205899,1,8,0:0:0:0:
148,200,206066,2,0,P|128:140|148:52,1,149.999995422363,4|0,0:0|0:0,0:0:0:0:
366,56,206399,2,0,P|384:128|364:200,1,149.999995422363,4|0,0:0|0:0,0:0:0:0:
108,236,206732,1,8,0:0:0:0:
108,236,207066,5,12,0:0:0:0:
404,236,207399,1,12,0:0:0:0:
424,236,207732,1,10,0:0:0:0:
88,236,207899,1,14,0:0:0:0:
