osu file format v14

[General]
AudioFilename: IA - Enmei Chiryou.mp3
AudioLeadIn: 1996
PreviewTime: 76292
Countdown: 0
SampleSet: Soft
StackLeniency: 0.7
Mode: 2
LetterboxInBreaks: 0
EpilepsyWarning: 1
WidescreenStoryboard: 1

[Editor]
DistanceSpacing: 1
BeatDivisor: 4
GridSize: 4
TimelineZoom: 2.3

[Metadata]
Title:Enmei Chiryou
TitleUnicode:延命治療
Artist:Neru feat. IA
ArtistUnicode:Neru feat. IA
Creator:puxtu
Version:Winperion's Platter
Source:太鼓の達人
Tags:vocaloid IA Life Prolonging Treatment Takane6 combinatorix Kuo_Kyoka nowsmart Blocko lordraika Julie toybot winda Quick_Draw JBHyperion Agka Sun Rainbow pxt
BeatmapID:481319
BeatmapSetID:195210

[Difficulty]
HPDrainRate:5
CircleSize:4
OverallDifficulty:8
ApproachRate:8
SliderMultiplier:1.6
SliderTickRate:1

[Events]
//Background and Video events
0,0,"Vocaloid.full.1384459.jpg",0,0
//Break Periods
2,104487,114426
//Storyboard Layer 0 (Background)
//Storyboard Layer 1 (Fail)
//Storyboard Layer 2 (Pass)
//Storyboard Layer 3 (Foreground)
//Storyboard Sound Samples

[TimingPoints]
518,444.444444444444,4,2,2,50,1,0
5851,444.444444444444,3,1,3,50,1,0
7184,444.444444444444,4,2,2,50,1,0
12517,444.444444444444,3,1,3,50,1,0
13850,444.444444444444,4,2,2,50,1,0
19183,444.444444444444,3,2,2,50,1,0
20516,-100,3,1,3,50,0,0
21849,444.444444444444,4,2,2,50,1,0
71626,444.444444444444,3,1,3,50,1,0
74292,333.333333333333,4,2,2,50,1,0
74292,-125,4,2,2,50,0,0
75458,-125,4,2,2,50,0,0
76792,-125,4,2,2,50,0,1
87125,-125,4,2,2,50,0,0
87458,-125,4,2,2,50,0,1
95624,-125,4,2,2,50,0,1
98291,-125,4,2,2,50,0,0
100308,333.333333333333,4,1,3,65,1,0
100954,444.444444444444,4,2,2,50,1,0
143176,-100,4,1,3,50,0,0
150733,333.333333333333,4,1,3,50,1,0
151899,-125,4,2,2,50,0,0
153233,-125,4,2,2,50,0,1
163566,-125,4,2,2,50,0,0
163899,-125,4,2,2,50,0,1
174232,-125,4,2,2,50,0,0
174566,-125,4,2,2,50,0,1
184899,-125,4,2,2,50,0,0
185232,-125,4,2,2,50,0,1
190566,-125,4,2,2,50,0,0
190732,-125,4,2,2,50,0,0
192066,-125,4,2,2,50,0,0

[Colours]
Combo1 : 128,255,0
Combo2 : 255,0,128
Combo3 : 5,5,240
Combo4 : 255,255,0

[HitObjects]
192,196,518,6,0,L|168:236,2,40,6|0|0,0:0|0:0|0:0,0:0:0:0:
264,243,851,2,0,L|245:196,2,40,2|0|0,0:0|0:0|0:0,0:0:0:0:
336,243,1184,6,0,L|355:196,2,40,2|0|0,0:0|0:0|0:0,0:0:0:0:
408,196,1517,2,0,L|432:236,2,40,2|0|0,0:0|0:0|0:0,0:0:0:0:
272,100,1851,5,8,0:0:0:0:
392,284,2073,1,8,0:0:0:0:
232,192,2295,5,6,0:0:0:0:
180,140,2406,1,0,0:0:0:0:
232,88,2517,1,0,0:0:0:0:
312,192,2629,2,0,L|336:232,2,40,2|0|0,0:0|0:0|0:0,0:0:0:0:
392,188,2962,5,2,0:0:0:0:
444,136,3073,1,0,0:0:0:0:
392,84,3184,1,0,0:0:0:0:
312,172,3296,2,0,L|280:136,2,40,2|0|0,0:0|0:0|0:0,0:0:0:0:
192,200,3629,6,0,L|152:200,1,40,8|4,0:0|0:0,0:0:0:0:
248,200,3851,2,0,L|296:200,1,40,8|4,0:0|0:0,0:0:0:0:
208,192,4073,6,0,L|180:232,2,40,6|0|0,0:0|0:0|0:0,0:0:0:0:
128,224,4406,2,0,L|104:176,2,40,2|0|0,0:0|0:0|0:0,0:0:0:0:
208,296,4740,6,0,L|192:336,2,40,2|0|0,0:0|0:0|0:0,0:0:0:0:
288,228,5073,1,2,0:0:0:0:
348,228,5184,1,0,0:0:0:0:
408,228,5295,1,0,0:0:0:0:
328,128,5406,5,8,0:0:0:0:
448,128,5629,1,10,0:0:0:0:
248,216,5851,6,0,L|264:176,1,40,2|4,0:0|0:0,0:0:0:0:
404,220,6184,2,0,L|420:176,1,40,2|4,0:0|0:0,0:0:0:0:
256,224,6517,2,8,L|236:176,1,40,2|4,0:0|0:0,0:0:0:0:
76,228,6850,2,8,L|52:180,1,40,2|4,0:0|0:0,0:0:0:0:
340,116,7184,5,4,0:1:0:0:
40,72,7628,2,0,P|79:78|111:100,1,80,8|0,0:0|0:0,0:0:0:0:
232,200,8072,1,2,0:0:0:0:
348,296,8295,1,0,0:0:0:0:
404,296,8406,1,0,0:0:0:0:
308,296,8517,2,0,P|236:292|224:284,1,80,8|0,0:0|0:0,0:0:0:0:
412,224,8961,5,6,0:0:0:0:
468,224,9072,1,0,0:0:0:0:
424,176,9183,1,0,0:0:0:0:
296,176,9406,1,8,0:0:0:0:
408,176,9628,1,0,0:0:0:0:
248,176,9850,5,4,0:0:0:0:
192,176,9961,1,8,0:0:0:0:
148,140,10072,1,0,0:0:0:0:
428,52,10295,1,8,0:0:0:0:
292,52,10517,1,8,0:0:0:0:
420,192,10739,6,0,L|388:228,1,40,6|0,0:0|0:0,0:0:0:0:
268,192,11072,2,0,L|232:144,1,40,0|8,0:0|0:0,0:0:0:0:
360,192,11406,2,0,L|400:216,1,40
304,192,11628,6,0,L|264:252,1,40,6|0,0:0|0:0,0:0:0:0:
368,192,11850,2,0,L|412:168,1,40
316,264,12072,1,10,0:0:0:0:
464,264,12295,1,8,0:0:0:0:
184,68,12517,5,8,0:0:0:0:
188,128,12628,1,4,0:0:0:0:
340,76,12850,1,8,0:0:0:0:
336,140,12961,1,4,0:0:0:0:
200,212,13183,1,8,0:0:0:0:
204,264,13294,1,4,0:0:0:0:
332,216,13516,1,8,0:0:0:0:
328,264,13628,1,4,0:0:0:0:
48,168,13850,5,4,0:1:0:0:
4,216,13961,1,0,0:0:0:0:
4,268,14072,1,0,0:0:0:0:
52,308,14183,1,0,0:0:0:0:
108,328,14294,1,8,0:0:0:0:
164,296,14405,1,0,0:0:0:0:
136,240,14516,1,0,0:0:0:0:
188,200,14627,1,0,0:0:0:0:
284,336,14738,5,2,0:0:0:0:
332,296,14849,1,0,0:0:0:0:
308,236,14961,1,0,0:0:0:0:
360,200,15072,1,0,0:0:0:0:
320,148,15183,1,8,0:0:0:0:
120,148,15405,1,0,0:0:0:0:
246,45,15627,6,0,L|280:24,2,40,6|0|0,0:0|0:0|0:0,0:0:0:0:
196,48,15961,1,0,0:0:0:0:
160,80,16072,2,0,L|112:80,1,40,8|0,0:0|0:0,0:0:0:0:
208,124,16294,2,0,L|256:124,1,40
308,152,16516,5,2,0:0:0:0:
372,172,16627,1,4,0:0:0:0:
328,220,16738,1,2,0:0:0:0:
288,268,16849,1,0,0:0:0:0:
372,304,16961,2,0,L|452:304,1,80,8|8,0:0|0:0,0:0:0:0:
404,360,17294,1,4,0:0:0:0:
304,360,17405,6,0,L|268:328,2,40,6|0|0,0:0|0:0|0:0,0:0:0:0:
432,304,17849,1,8,0:0:0:0:
288,268,18072,2,0,L|236:268,1,40
332,216,18294,6,0,L|372:216,1,40,2|0,0:0|0:0,0:0:0:0:
284,160,18516,2,0,L|232:160,1,40
340,112,18738,1,8,0:0:0:0:
468,112,18961,1,0,0:0:0:0:
188,112,19183,5,8,0:0:0:0:
136,144,19294,1,8,0:0:0:0:
180,192,19405,1,4,0:0:0:0:
236,192,19516,1,4,0:0:0:0:
208,252,19627,1,8,0:0:0:0:
88,248,19849,5,2,0:0:0:0:
248,252,20071,1,2,0:0:0:0:
300,252,20183,1,4,0:0:0:0:
352,252,20294,1,8,0:0:0:0:
72,84,20516,6,0,L|12:84,1,40,8|4,0:0|0:0,0:0:0:0:
224,84,20849,2,0,L|276:84,1,40,8|4,0:0|0:0,0:0:0:0:
104,192,21182,2,0,L|44:192,1,40,8|4,0:0|0:0,0:0:0:0:
208,192,21516,2,0,L|248:192,1,40,8|4,0:0|0:0,0:0:0:0:
448,192,21849,5,4,0:2:0:0:
256,192,23626,5,4,0:1:0:0:
136,300,23848,1,0,0:0:0:0:
336,300,24071,1,8,0:0:0:0:
216,192,24293,1,0,0:0:0:0:
96,84,24515,5,2,0:0:0:0:
256,192,24737,1,0,0:0:0:0:
56,300,24960,1,8,0:0:0:0:
176,192,25182,1,0,0:0:0:0:
296,72,25404,5,2,0:0:0:0:
416,72,25626,1,0,0:0:0:0:
464,152,25737,1,0,0:0:0:0:
408,244,25848,1,8,0:0:0:0:
288,304,26071,1,0,0:0:0:0:
176,236,26293,2,0,B|86:166|314:233|246:150,1,160,2|8,0:0|0:0,0:0:0:0:
128,280,26960,1,0,0:0:0:0:
288,284,27182,5,2,0:0:0:0:
412,284,27404,1,0,0:0:0:0:
472,224,27515,1,0,0:0:0:0:
412,172,27626,1,8,0:0:0:0:
288,172,27848,1,0,0:0:0:0:
144,172,28071,6,0,L|64:140,1,80,2|0,0:0|0:0,0:0:0:0:
244,77,28515,2,0,L|324:45,1,80,8|0,0:0|0:0,0:0:0:0:
220,184,28960,5,2,0:0:0:0:
92,232,29182,1,0,0:0:0:0:
60,232,29293,1,0,0:0:0:0:
140,136,29404,1,8,0:0:0:0:
316,80,29626,2,0,L|388:120,1,80,0|2,0:0|0:0,0:0:0:0:
228,324,30071,5,0,0:0:0:0:
184,288,30182,1,0,0:0:0:0:
228,240,30293,1,8,0:0:0:0:
128,172,30515,1,0,0:0:0:0:
72,172,30626,1,8,0:0:0:0:
164,172,30737,5,4,0:1:0:0:
288,328,30960,1,0,0:0:0:0:
240,328,31071,1,0,0:0:0:0:
200,328,31182,1,10,0:0:0:0:
296,240,31404,1,0,0:0:0:0:
160,164,31626,5,0,0:0:0:0:
256,64,31848,1,0,0:0:0:0:
80,64,32071,1,10,0:0:0:0:
192,164,32293,1,0,0:0:0:0:
312,192,32515,5,2,0:0:0:0:
432,120,32737,1,0,0:0:0:0:
456,88,32848,1,0,0:0:0:0:
480,56,32960,1,10,0:0:0:0:
304,64,33182,1,0,0:0:0:0:
192,164,33404,5,0,0:0:0:0:
272,244,33626,1,0,0:0:0:0:
96,304,33848,1,10,0:0:0:0:
208,304,34071,1,0,0:0:0:0:
336,144,34293,5,4,0:0:0:0:
176,48,34515,1,8,0:0:0:0:
320,48,34737,1,8,0:0:0:0:
424,128,34960,1,0,0:0:0:0:
296,144,35182,5,0,0:0:0:0:
400,248,35404,1,0,0:0:0:0:
456,248,35515,1,0,0:0:0:0:
508,248,35626,1,10,0:0:0:0:
364,248,35848,5,0,0:0:0:0:
312,248,35960,1,0,0:0:0:0:
260,248,36071,1,2,0:0:0:0:
388,48,36293,1,0,0:0:0:0:
328,48,36404,1,0,0:0:0:0:
280,48,36515,1,8,0:0:0:0:
148,192,36737,5,0,0:0:0:0:
88,192,36848,1,0,0:0:0:0:
148,192,36960,1,2,0:0:0:0:
308,292,37182,2,8,L|348:264,4,40,4|4|8|0|8,0:0|0:0|0:0|0:0|0:0,0:0:0:0:
256,192,37848,12,8,39182,0:0:0:0:
256,192,39626,6,0,L|344:192,1,80,2|0,0:0|0:0,0:0:0:0:
152,144,40071,2,0,L|104:68,1,80,8|0,0:0|0:0,0:0:0:0:
268,236,40515,2,0,L|172:296,1,80,2|0,0:0|0:0,0:0:0:0:
360,280,40960,5,2,0:0:0:0:
424,192,41182,1,8,0:0:0:0:
224,192,41404,6,0,L|120:192,1,80,2|0,0:0|0:0,0:0:0:0:
88,168,41737,1,4,0:0:0:0:
56,112,41848,1,4,0:0:0:0:
336,88,42071,1,4,0:1:0:0:
120,304,42515,2,0,L|60:304,1,40,2|0,0:0|0:0,0:0:0:0:
160,304,42737,2,0,L|192:272,2,40,8|0|0,0:0|0:0|0:0,0:0:0:0:
320,192,43182,6,0,L|432:212,1,80,2|0,0:0|0:0,0:0:0:0:
256,256,43626,1,10,0:0:0:0:
96,256,43848,1,2,0:0:0:0:
224,192,44071,2,0,L|308:128,1,80,2|0,0:0|0:0,0:0:0:0:
144,192,44515,2,0,L|88:108,1,80,8|0,0:0|0:0,0:0:0:0:
380,192,44960,6,0,L|472:272,1,120,4|0,0:1|0:0,0:0:0:0:
412,304,45404,1,8,0:0:0:0:
132,192,45626,1,4,0:1:0:0:
356,192,46071,1,2,0:0:0:0:
212,192,46293,2,0,L|144:144,1,80,8|0,0:0|0:0,0:0:0:0:
324,192,46737,6,0,L|372:292,1,80,2|0,0:0|0:0,0:0:0:0:
164,188,47182,1,10,0:0:0:0:
300,192,47404,2,0,L|388:248,2,80,0|6|4,0:0|0:0|0:0,0:0:0:0:
436,244,48071,1,10,0:0:0:0:
308,244,48293,1,0,0:0:0:0:
148,148,48515,5,2,0:0:0:0:
276,88,48737,1,0,0:0:0:0:
176,88,48960,1,8,0:0:0:0:
456,88,49182,1,4,0:1:0:0:
112,296,49626,2,0,L|196:244,1,80,2|8,0:0|0:0,0:0:0:0:
84,296,50071,1,0,0:0:0:0:
260,300,50293,6,0,L|356:244,1,80,2|0,0:0|0:0,0:0:0:0:
228,224,50737,1,10,0:0:0:0:
108,152,50960,2,0,L|20:92,1,80,0|2,0:0|0:0,0:0:0:0:
144,64,51404,1,0,0:0:0:0:
344,64,51626,5,8,0:0:0:0:
388,104,51737,1,0,0:0:0:0:
432,144,51848,1,8,0:0:0:0:
388,184,51960,1,8,0:0:0:0:
292,188,52071,5,4,0:1:0:0:
52,128,52515,2,0,P|124:172|140:188,1,80,8|0,0:0|0:0,0:0:0:0:
4,192,52960,1,0,0:0:0:0:
148,192,53182,2,0,P|200:248|192:272,2,80,0|8|0,0:0|0:0|0:0,0:0:0:0:
336,212,53848,5,2,0:0:0:0:
208,320,54071,2,0,P|220:260|252:240,1,80,0|8,0:0|0:0,0:0:0:0:
364,305,54515,2,0,P|339:274|304:256,1,80
436,252,54960,2,0,P|484:192|492:196,1,80,0|8,0:0|0:0,0:0:0:0:
320,140,55404,1,0,0:0:0:0:
144,40,55626,6,0,P|144:104|176:132,1,80,2|0,0:0|0:0,0:0:0:0:
328,156,56071,2,0,P|396:168|420:200,2,80,8|0|0,0:0|0:0|0:0,0:0:0:0:
208,212,56737,1,0,0:0:0:0:
60,208,56960,2,0,P|24:180|28:136,1,80,8|0,0:0|0:0,0:0:0:0:
164,116,57404,6,0,L|236:160,1,80,2|0,0:0|0:0,0:0:0:0:
392,192,57848,1,8,0:0:0:0:
248,192,58071,2,0,L|172:240,1,80,0|4,0:0|0:0,0:0:0:0:
232,260,58404,1,8,0:0:0:0:
292,260,58515,1,0,0:0:0:0:
148,304,58737,1,8,0:0:0:0:
276,304,58960,1,8,0:0:0:0:
396,192,59182,6,0,P|444:208|448:256,2,80,2|0|8,0:0|0:0|0:0,0:0:0:0:
116,192,59848,2,0,P|36:212|4:280,1,160,4|4,0:1|0:0,0:0:0:0:
124,300,60515,1,8,0:0:0:0:
228,296,60737,1,4,0:0:0:0:
372,192,60960,5,2,0:0:0:0:
256,120,61182,2,0,L|196:120,2,40,0|0|8,0:0|0:0|0:0,0:0:0:0:
384,192,61626,1,0,0:0:0:0:
244,256,61848,1,4,0:0:0:0:
124,256,62071,2,0,L|196:220,1,80,0|8,0:0|0:0,0:0:0:0:
76,192,62515,1,4,0:0:0:0:
236,192,62737,5,6,0:0:0:0:
56,192,63071,1,4,0:0:0:0:
464,192,63404,2,0,P|492:136|428:72,1,160,4|0,0:1|0:0,0:0:0:0:
324,76,64071,5,10,0:0:0:0:
220,76,64293,1,0,0:0:0:0:
340,192,64515,2,0,L|408:264,1,80,2|0,0:0|0:0,0:0:0:0:
232,248,64960,1,8,0:0:0:0:
352,248,65182,2,0,L|412:320,1,80
244,312,65626,1,8,0:0:0:0:
44,316,65848,5,8,0:0:0:0:
0,280,65960,1,0,0:0:0:0:
8,228,66071,1,8,0:0:0:0:
56,200,66182,1,8,0:0:0:0:
128,200,66293,1,4,0:1:0:0:
400,88,67626,5,8,0:0:0:0:
220,152,67848,1,8,0:0:0:0:
360,228,68071,1,4,0:0:0:0:
128,68,69404,6,0,L|64:68,1,40,8|0,0:0|0:0,0:0:0:0:
168,140,69626,1,8,0:0:0:0:
232,140,69737,1,8,0:0:0:0:
412,140,69848,1,4,0:1:0:0:
64,68,71182,6,0,L|168:68,1,80,8|8,0:0|0:0,0:0:0:0:
256,140,71626,2,0,L|256:192,1,40,8|4,0:0|0:0,0:0:0:0:
128,192,71959,2,0,L|120:236,1,40,8|4,0:0|0:0,0:0:0:0:
264,208,72292,2,0,L|280:252,1,40,8|4,0:0|0:0,0:0:0:0:
116,280,72626,2,0,L|92:324,1,40,8|4,0:0|0:0,0:0:0:0:
316,316,72959,6,0,L|348:264,1,40,8|4,0:0|0:0,0:0:0:0:
224,208,73292,2,0,L|200:164,1,40,8|4,0:0|0:0,0:0:0:0:
332,192,73625,2,0,L|348:152,1,40,8|4,0:0|0:0,0:0:0:0:
200,124,73959,2,0,L|192:76,1,40,8|4,0:0|0:0,0:0:0:0:
256,192,74292,12,4,75458,0:1:0:0:
336,108,75792,5,8,0:0:0:0:
224,108,75958,1,8,0:0:0:0:
112,108,76125,1,8,0:0:0:0:
472,108,76792,6,0,L|396:108,1,64,4|0,0:1|0:0,0:0:0:0:
280,240,77125,2,0,L|364:240,1,64,4|8,0:0|0:0,0:0:0:0:
112,240,77625,5,4,0:0:0:0:
16,192,77792,1,4,0:0:0:0:
156,24,77958,1,8,0:0:0:0:
200,68,78042,1,8,0:0:0:0:
156,108,78125,1,4,0:1:0:0:
332,188,78458,5,4,0:0:0:0:
220,296,78625,2,0,L|148:296,1,64,8|0,0:0|0:0,0:0:0:0:
268,140,78958,2,0,L|344:140,1,64,8|0,0:0|0:0,0:0:0:0:
416,136,79292,1,2,0:0:0:0:
192,140,79458,5,4,0:1:0:0:
380,192,79792,1,4,0:0:0:0:
444,280,79958,2,0,L|392:320,1,64,8|0,0:0|0:0,0:0:0:0:
220,280,80292,1,2,0:0:0:0:
40,192,80625,6,0,B|8:192,1,32,4|0,0:0|0:0,0:0:0:0:
40,192,80792,2,0,P|96:188|132:112,1,128,4|0,0:1|0:0,0:0:0:0:
56,84,81292,2,0,L|0:32,1,64,8|0,0:0|0:0,0:0:0:0:
136,44,81625,2,0,L|192:96,1,64,2|0,0:0|0:0,0:0:0:0:
280,184,81958,1,8,0:0:0:0:
56,184,82125,5,4,0:1:0:0:
248,184,82458,2,0,L|312:184,1,64,2|8,0:0|0:0,0:0:0:0:
116,240,82958,6,0,L|56:268,1,64,8|4,0:0|0:0,0:0:0:0:
80,312,83208,1,4,0:0:0:0:
128,344,83291,1,8,0:0:0:0:
192,344,83375,1,8,0:0:0:0:
264,344,83458,1,4,0:1:0:0:
456,192,83791,5,4,0:0:0:0:
312,192,83958,1,8,0:0:0:0:
120,192,84291,2,0,L|48:196,2,64,4|0|8,0:0|0:0|0:0,0:0:0:0:
344,192,84791,5,4,0:1:0:0:
164,192,85125,1,4,0:0:0:0:
68,192,85291,1,8,0:0:0:0:
260,192,85625,1,2,0:0:0:0:
420,192,85791,5,4,0:0:0:0:
464,160,85875,1,4,0:0:0:0:
476,112,85958,1,4,0:0:0:0:
440,72,86041,1,4,0:0:0:0:
384,68,86125,1,8,0:0:0:0:
152,68,86458,6,2,L|92:128,1,64,0|8,0:0|0:0,0:0:0:0:
248,192,86791,1,2,0:0:0:0:
44,192,87125,1,2,0:0:0:0:
456,192,87458,6,0,P|500:248|472:316,1,128,4|0,0:1|0:0,0:0:0:0:
360,304,87958,2,0,L|288:304,1,64,8|0,0:0|0:0,0:0:0:0:
192,260,88291,5,6,0:0:0:0:
292,232,88458,1,4,0:0:0:0:
160,192,88625,2,0,L|96:160,1,64,8|2,0:0|0:0,0:0:0:0:
296,192,89125,1,2,0:0:0:0:
168,192,89291,2,0,L|96:156,1,64,8|0,0:0|0:0,0:0:0:0:
240,100,89625,6,0,L|300:164,1,64,4|4,0:0|0:0,0:0:0:0:
176,100,89958,2,0,L|120:160,1,64,8|0,0:0|0:0,0:0:0:0:
336,156,90458,5,6,0:0:0:0:
220,280,90625,2,0,L|140:280,1,64,8|0,0:0|0:0,0:0:0:0:
252,336,90958,2,0,L|332:336,1,64,4|0,0:0|0:0,0:0:0:0:
444,192,91291,2,0,B|512:96|244:136|436:20,1,256,8|2,0:0|0:0,0:0:0:0:
256,68,92291,5,6,0:0:0:0:
140,68,92458,2,0,L|88:120,1,64,4|8,0:0|0:0,0:0:0:0:
320,196,92791,1,4,0:1:0:0:
168,196,93125,1,4,0:0:0:0:
296,276,93291,2,0,L|372:276,2,64,8|0|0,0:0|0:0|0:0,0:0:0:0:
156,196,93791,5,4,0:0:0:0:
60,124,93958,1,8,0:0:0:0:
284,76,94125,2,0,L|364:76,1,64,4|0,0:1|0:0,0:0:0:0:
428,152,94458,1,0,0:0:0:0:
268,196,94625,1,4,0:1:0:0:
428,192,94958,6,0,L|496:192,1,64,8|0,0:0|0:0,0:0:0:0:
380,244,95291,2,0,L|300:244,1,64,8|0,0:0|0:0,0:0:0:0:
88,244,95625,6,0,L|8:268,2,64,4|4|4,0:1|0:0|0:0,0:0:0:0:
244,244,96125,2,0,P|288:192|264:136,1,128,8|4,0:0|0:0,0:0:0:0:
256,192,96625,12,2,97958,0:0:0:0:
180,140,98291,5,4,0:1:0:0:
408,92,99291,1,2,0:0:0:0:
280,192,99625,6,2,L|176:296,1,128,0|0,0:0|0:0,0:0:0:0:
444,192,100308,1,6,0:0:0:0:
288,192,100530,1,8,0:0:0:0:
416,192,100752,1,8,0:0:0:0:
256,192,100954,12,0,104287,0:0:0:0:
376,100,115176,6,0,L|252:100,2,120,4|4|4,0:1|0:0|0:0,0:0:0:0:
256,196,116065,2,0,L|92:196,1,160,2|0,0:0|0:0,0:0:0:0:
208,264,116731,1,4,0:0:0:0:
336,312,116953,6,4,L|448:260,1,120
276,192,117620,1,4,0:0:0:0:
140,192,117842,2,0,L|52:192,1,80,2|0,0:0|0:0,0:0:0:0:
180,116,118287,2,0,L|268:116,1,80,4|0,0:0|0:0,0:0:0:0:
420,116,118731,6,0,P|468:152|444:208,2,120,4|4|4,0:0|0:0|0:0,0:0:0:0:
276,196,119620,2,0,P|252:240|268:276,1,80,2|0,0:0|0:0,0:0:0:0:
400,348,120065,1,4,0:0:0:0:
272,348,120287,1,4,0:0:0:0:
112,192,120509,6,0,P|77:139|100:83,2,120,4|4|4,0:0|0:0|0:0,0:0:0:0:
224,196,121398,1,2,0:0:0:0:
352,192,121620,2,0,L|432:160,2,80,0|4|4,0:0|0:0|0:0,0:0:0:0:
192,192,122287,6,0,L|74:166,2,120,4|4|4,0:0|0:0|0:0,0:0:0:0:
336,120,123176,1,2,0:0:0:0:
208,260,123398,2,0,L|100:260,2,80,0|6|0,0:0|0:0|0:0,0:0:0:0:
368,260,124065,6,4,P|428:272|468:336,1,120
408,360,124509,2,0,L|328:360,1,80,2|4,0:0|0:0,0:0:0:0:
224,316,124953,2,0,L|144:336,2,80,4|0|2,0:0|0:0|0:0,0:0:0:0:
112,240,125620,1,4,0:0:0:0:
272,192,125842,6,0,L|384:248,1,120,4|4,0:0|0:0,0:0:0:0:
336,248,126287,1,2,0:0:0:0:
208,272,126509,1,4,0:0:0:0:
336,336,126731,2,0,L|416:336,1,80,4|0,0:0|0:0,0:0:0:0:
272,248,127176,5,6,0:0:0:0:
128,248,127398,1,0,0:0:0:0:
308,192,127620,2,0,P|372:176|400:124,2,120,4|4|4,0:0|0:0|0:0,0:0:0:0:
148,192,128509,2,0,P|80:232|84:308,1,160,2|0,0:0|0:0,0:0:0:0:
160,304,129176,1,4,0:0:0:0:
440,192,129398,5,4,0:1:0:0:
264,192,129842,1,4,0:0:0:0:
456,192,130287,1,4,0:0:0:0:
248,192,130731,1,4,0:0:0:0:
148,192,130953,1,0,0:0:0:0:
292,192,131176,6,0,L|404:148,1,120,4|4,0:0|0:0,0:0:0:0:
348,148,131620,1,2,0:0:0:0:
236,148,131842,1,0,0:0:0:0:
180,148,131953,1,0,0:0:0:0:
124,148,132065,6,0,L|68:88,2,80,4|0|4,0:0|0:0|0:0,0:0:0:0:
252,240,132731,1,0,0:0:0:0:
312,220,132842,1,0,0:0:0:0:
348,252,132953,6,0,P|368:320|320:352,2,120,4|2|0,0:0|0:0|0:0,0:0:0:0:
208,192,133842,1,4,0:0:0:0:
336,168,134065,2,0,P|374:157|399:127,2,80,0|4|0,0:0|0:0|0:0,0:0:0:0:
176,172,134731,6,0,B|108:208|152:292,2,120,4|2|0,0:0|0:0|0:0,0:0:0:0:
232,172,135509,1,0,0:0:0:0:
292,172,135620,2,0,P|384:196|432:248,1,160,4|4,0:0|0:0,0:0:0:0:
316,304,136287,2,0,L|264:304,1,40,2|0,0:0|0:0,0:0:0:0:
212,300,136509,6,0,L|116:224,2,120,6|2|0,0:0|0:0|0:0,0:0:0:0:
332,304,137398,1,4,0:0:0:0:
452,236,137620,2,0,L|392:168,1,80,0|4,0:0|0:0,0:0:0:0:
288,176,138065,1,0,0:0:0:0:
428,92,138287,6,0,P|484:80|488:12,2,120,4|2|0,0:0|0:0|0:0,0:0:0:0:
316,96,139176,1,4,0:0:0:0:
196,96,139398,2,0,L|140:152,1,80,0|4,0:0|0:0,0:0:0:0:
244,216,139842,1,0,0:0:0:0:
256,192,140065,12,0,141842,0:0:0:0:
180,188,143176,6,0,P|256:180|340:192,1,160,2|4,0:0|0:0,0:0:0:0:
176,280,143842,1,4,0:0:0:0:
56,280,144065,2,0,L|10:239,2,40,8|0|0,0:0|0:0|0:0,0:0:0:0:
156,280,144398,6,0,L|280:280,1,120,4|4,0:0|0:0,0:0:0:0:
396,280,144953,2,0,L|442:239,2,40,8|0|0,0:0|0:0|0:0,0:0:0:0:
296,280,145287,6,0,L|172:280,1,120,4|4,0:0|0:0,0:0:0:0:
320,192,145842,2,0,L|400:192,1,80,8|0,0:0|0:0,0:0:0:0:
344,128,146176,1,8,0:0:0:0:
244,192,146287,5,8,0:0:0:0:
132,260,146509,1,8,0:0:0:0:
260,316,146731,1,0,0:0:0:0:
320,316,146842,1,0,0:0:0:0:
380,316,146953,1,8,0:0:0:0:
220,192,147176,5,4,0:0:0:0:
92,192,147398,1,4,0:0:0:0:
212,192,147620,2,0,L|252:168,2,40,8|0|8,0:0|0:0|0:0,0:0:0:0:
132,192,147953,6,0,P|88:168|96:100,1,120,4|4,0:0|0:0,0:0:0:0:
212,104,148509,1,8,0:0:0:0:
268,104,148620,1,0,0:0:0:0:
324,104,148731,1,8,0:0:0:0:
252,104,148842,6,0,L|152:184,1,120,4|4,0:0|0:0,0:0:0:0:
320,224,149398,2,0,L|400:224,1,80,8|0,0:0|0:0,0:0:0:0:
200,272,149842,2,0,L|124:224,1,80,4|4,0:0|0:0,0:0:0:0:
416,192,150287,5,0,0:0:0:0:
464,192,150398,1,2,0:0:0:0:
256,192,150733,12,4,151844,0:0:0:0:
140,104,152233,5,4,0:0:0:0:
256,104,152399,1,4,0:0:0:0:
372,104,152566,1,4,0:1:0:0:
96,204,153233,6,0,P|120:164|160:156,1,64,4|0,0:1|0:0,0:0:0:0:
264,192,153566,2,0,P|224:164|200:180,1,64,0|8,0:0|0:0,0:0:0:0:
396,80,154066,1,2,0:0:0:0:
268,148,154233,5,8,0:0:0:0:
216,180,154316,1,8,0:3:0:0:
204,236,154399,1,4,0:0:0:0:
236,284,154483,1,4,0:0:0:0:
292,300,154566,2,0,P|352:300|408:244,1,128,8|0,0:0|0:0,0:0:0:0:
288,224,155066,5,8,0:0:0:0:
192,236,155233,2,0,P|162:224|142:199,2,64,0|6|4,0:0|0:0|0:0,0:0:0:0:
296,192,155733,1,4,0:0:0:0:
72,112,155899,6,0,P|16:80|40:24,1,128,4|0,0:1|0:0,0:0:0:0:
160,28,156399,2,0,P|208:40|236:64,1,64,8|0,0:0|0:0,0:0:0:0:
124,152,156733,1,0,0:0:0:0:
264,152,156899,5,8,0:0:0:0:
328,176,156982,1,8,0:3:0:0:
348,240,157065,1,6,0:0:0:0:
304,292,157149,1,4,0:0:0:0:
240,304,157232,2,0,P|180:304|124:248,1,128,8|0,0:0|0:0,0:0:0:0:
248,228,157733,6,0,L|320:228,1,64,8|0,0:0|0:0,0:0:0:0:
216,152,158066,2,0,P|184:152|160:180,2,64,6|0|4,0:0|0:0|0:0,0:0:0:0:
440,152,158566,5,4,0:1:0:0:
280,152,158899,1,0,0:0:0:0:
176,152,159066,2,0,P|128:176|120:204,1,64,8|0,0:0|0:0,0:0:0:0:
208,240,159399,1,0,0:0:0:0:
356,244,159566,5,10,0:0:0:0:
392,208,159649,1,8,0:0:0:0:
352,184,159733,1,4,0:0:0:0:
312,160,159816,1,4,0:0:0:0:
352,128,159899,1,8,0:0:0:0:
508,104,160233,5,4,0:0:0:0:
396,40,160399,2,0,P|352:44|344:68,1,64,8|0,0:0|0:0,0:0:0:0:
232,100,160733,2,0,L|152:96,2,64,4|4|4,0:0|0:0|0:0,0:0:0:0:
456,188,161233,5,4,0:1:0:0:
256,268,161566,2,0,L|180:268,1,64,4|8,0:0|0:0,0:0:0:0:
372,268,162066,1,0,0:0:0:0:
224,268,162233,5,8,0:0:0:0:
177,262,162316,1,8,0:0:0:0:
142,230,162399,1,4,0:0:0:0:
132,184,162483,1,4,0:0:0:0:
152,141,162566,1,8,0:0:0:0:
408,136,162899,6,0,L|472:192,1,64,4|0,0:0|0:0,0:0:0:0:
328,140,163233,2,0,L|256:172,1,64,8|4,0:0|0:0,0:0:0:0:
416,136,163566,2,0,L|492:136,1,64,8|4,0:0|0:0,0:0:0:0:
256,80,163899,5,4,0:1:0:0:
404,228,164233,1,4,0:0:0:0:
308,228,164399,2,0,L|228:228,1,64,8|0,0:0|0:0,0:0:0:0:
116,232,164733,2,0,L|44:280,2,64,6|4|8,0:0|0:0|0:0,0:0:0:0:
232,232,165232,6,0,L|304:204,1,64,0|2,0:0|0:0,0:0:0:0:
204,192,165565,1,4,0:0:0:0:
88,192,165732,2,0,L|24:144,1,64,8|0,0:0|0:0,0:0:0:0:
140,96,166066,2,0,L|76:48,2,64,6|4|8,0:0|0:0|0:0,0:0:0:0:
268,52,166566,6,0,P|328:72|352:156,1,128,4|4,0:0|0:0,0:0:0:0:
228,136,167066,2,0,L|164:180,1,64,8|0,0:0|0:0,0:0:0:0:
80,192,167399,2,0,L|12:192,2,64,6|4|8,0:0|0:0|0:0,0:0:0:0:
304,192,167899,6,0,L|432:192,1,128,4|4,0:1|0:0,0:0:0:0:
316,264,168399,2,0,L|248:264,1,64,8|0,0:0|0:0,0:0:0:0:
468,264,168899,1,6,0:0:0:0:
60,256,169232,6,0,P|36:200|84:148,1,128,4|4,0:1|0:0,0:0:0:0:
176,152,169732,2,0,L|240:120,1,64,8|0,0:0|0:0,0:0:0:0:
140,80,170066,2,0,L|56:60,2,64,6|4|8,0:0|0:0|0:0,0:0:0:0:
284,36,170566,2,0,L|416:36,1,128,4|4,0:1|0:0,0:0:0:0:
328,112,171066,2,0,L|256:112,1,64,4|0,0:1|0:0,0:0:0:0:
168,148,171399,1,8,0:0:0:0:
296,192,171566,5,4,0:0:0:0:
348,216,171649,1,4,0:0:0:0:
348,272,171732,1,8,0:0:0:0:
300,304,171816,1,8,0:0:0:0:
252,272,171899,1,4,0:0:0:0:
196,272,171982,1,4,0:0:0:0:
112,272,172066,6,0,P|44:228|48:176,1,128,4|8,0:1|0:0,0:0:0:0:
268,112,172566,1,4,0:1:0:0:
256,192,172732,12,0,173566,0:0:0:0:
92,104,174066,5,6,0:0:0:0:
284,132,174399,1,8,0:0:0:0:
444,192,174566,5,4,0:1:0:0:
252,236,174899,1,8,0:0:0:0:
420,304,175232,1,4,0:0:0:0:
312,304,175399,2,0,L|252:328,2,64,8|4|4,0:0|0:0|0:0,0:0:0:0:
184,236,175899,5,4,0:1:0:0:
376,192,176232,1,4,0:0:0:0:
272,140,176399,2,0,L|204:140,1,64,8|0,0:0|0:0,0:0:0:0:
320,64,176732,2,0,L|392:64,2,64,6|4|8,0:0|0:0|0:0,0:0:0:0:
192,64,177232,6,0,P|136:84|120:160,1,128,6|4,0:0|0:0,0:0:0:0:
232,192,177732,2,0,P|264:224|300:208,1,64,8|0,0:0|0:0,0:0:0:0:
132,224,178066,6,0,L|33:305,1,128,6|8,0:0|0:0,0:0:0:0:
156,304,178566,2,0,L|272:208,1,128,2|4,0:0|0:0,0:0:0:0:
356,120,179066,2,0,L|280:96,1,64,8|0,0:0|0:0,0:0:0:0:
180,100,179399,2,0,P|132:72|132:44,2,64,6|4|8,0:0|0:0|0:0,0:0:0:0:
404,100,179899,6,0,P|464:124|464:184,1,128,4|4,0:1|0:0,0:0:0:0:
352,192,180399,2,0,L|288:220,1,64,8|0,0:0|0:0,0:0:0:0:
396,248,180732,2,0,L|456:284,1,64,6|4,0:0|0:0,0:0:0:0:
352,308,181066,1,8,0:0:0:0:
224,308,181232,6,0,L|100:256,1,128,6|0,0:0|0:0,0:0:0:0:
184,192,181732,2,0,L|108:160,1,64,8|0,0:0|0:0,0:0:0:0:
256,60,182066,2,0,P|289:105|361:101,1,128,6|8,0:0|0:0,0:0:0:0:
132,140,182566,6,0,P|76:136|40:192,1,128,4|4,0:1|0:0,0:0:0:0:
136,240,183066,2,0,L|200:240,1,64,8|0,0:0|0:0,0:0:0:0:
96,240,183399,2,0,P|56:288|96:324,1,128,6|0,0:0|0:0,0:0:0:0:
224,324,183899,6,0,P|264:276|224:240,1,128,4|4,0:1|0:0,0:0:0:0:
120,192,184399,2,0,L|60:160,1,64,4|0,0:1|0:0,0:0:0:0:
192,108,184732,1,8,0:0:0:0:
12,68,185066,1,4,0:0:0:0:
236,32,185232,6,0,P|304:52|320:104,1,128,4|4,0:1|0:0,0:0:0:0:
204,192,185732,2,0,P|172:176|144:200,1,64,8|0,0:0|0:0,0:0:0:0:
256,216,186066,2,0,L|328:232,2,64,6|4|8,0:0|0:0|0:0,0:0:0:0:
200,216,186482,1,4,0:0:0:0:
144,216,186566,1,4,0:0:0:0:
336,300,186899,6,4,L|400:324,2,64,4|8|4,0:0|0:0|0:0,0:0:0:0:
220,300,187399,2,0,P|152:284|116:240,1,128,2|8,0:0|0:0,0:0:0:0:
152,196,187816,1,4,0:0:0:0:
212,196,187899,1,4,0:0:0:0:
416,136,188232,6,0,L|344:136,1,64,4|8,0:0|0:0,0:0:0:0:
224,136,188566,1,0,0:0:0:0:
168,124,188649,1,0,0:0:0:0:
128,80,188732,1,2,0:0:0:0:
320,32,189066,5,8,0:0:0:0:
192,32,189232,2,0,L|156:68|92:132,1,128,6|4,0:0|0:0,0:0:0:0:
204,168,189732,2,0,L|272:168,1,64,8|0,0:0|0:0,0:0:0:0:
164,224,190066,1,6,0:0:0:0:
68,272,190232,1,4,0:0:0:0:
180,316,190399,2,0,L|248:316,1,64,8|0,0:0|0:0,0:0:0:0:
468,316,190732,5,4,0:1:0:0:
308,192,191566,2,0,L|384:184,2,64,2|0|0,0:0|0:0|0:0,0:0:0:0:
84,192,192066,6,0,L|8:144,1,64,4|0,0:1|0:0,0:0:0:0:
80,100,192399,1,0,0:0:0:0:
176,100,192566,1,2,0:0:0:0:
356,192,192899,2,0,P|368:248|316:292,1,128
180,192,193399,6,0,L|136:192,2,32,4|0|4,0:0|0:0|0:0,0:0:0:0:
20,192,193899,1,8,0:0:0:0:
148,260,194066,2,0,L|200:260,2,32,4|0|4,0:0|0:0|0:0,0:0:0:0:
308,260,194566,1,8,0:0:0:0:
180,192,194732,5,2,0:0:0:0:
64,192,194899,2,0,L|16:144,1,64,4|0,0:0|0:0,0:0:0:0:
132,148,195232,2,0,L|180:100,1,64,8|0,0:0|0:0,0:0:0:0:
48,104,195566,2,0,P|8:64|52:20,1,128,8|0,0:0|0:0,0:0:0:0:
192,16,196066,6,0,L|240:16,2,32,4|0|4,0:0|0:0|0:0,0:0:0:0:
352,128,196565,1,8,0:0:0:0:
496,128,196732,2,0,L|464:96,2,32,4|0|4,0:0|0:0|0:0,0:0:0:0:
304,192,197232,1,8,0:0:0:0:
432,192,197399,5,2,0:0:0:0:
316,192,197566,2,0,L|268:240,1,64,4|0,0:0|0:0,0:0:0:0:
384,260,197899,2,0,L|336:308,1,64,8|0,0:0|0:0,0:0:0:0:
184,304,198233,2,0,L|104:220,1,96,8|0,0:0|0:0,0:0:0:0:
308,128,198732,6,0,L|364:128,2,32,4|0|4,0:0|0:0|0:0,0:0:0:0:
164,128,199066,2,0,L|88:128,1,64,8|4,0:0|0:0,0:0:0:0:
204,56,199399,2,0,L|276:32,2,64,4|0|4,0:0|0:0|0:0,0:0:0:0:
100,60,199899,1,4,0:0:0:0:
260,56,200066,5,4,0:0:0:0:
360,56,200232,2,0,P|400:88|388:164,2,128,0|8|8,0:0|0:0|0:0,0:0:0:0:
248,192,201066,2,0,L|160:192,1,64,2|0,0:0|0:0,0:0:0:0:
324,268,201399,6,0,L|386:269,2,32,4|0|4,0:0|0:0|0:0,0:0:0:0:
164,300,201899,1,8,0:0:0:0:
292,300,202066,2,0,L|346:301,2,32,4|0|4,0:0|0:0|0:0,0:0:0:0:
112,300,202566,1,8,0:0:0:0:
252,192,202732,5,6,0:0:0:0:
356,192,202899,2,0,P|408:152|392:88,1,128,8|8,0:0|0:0,0:0:0:0:
172,64,203399,2,0,L|100:64,1,64,4|0,0:0|0:0,0:0:0:0:
240,36,203732,2,0,L|312:36,1,64
436,100,204066,6,0,L|496:100,2,32,4|0|4,0:0|0:0|0:0,0:0:0:0:
276,192,204399,1,12,0:0:0:0:
480,192,204732,1,12,0:0:0:0:
288,192,205066,1,6,0:0:0:0:
128,192,205232,6,0,L|56:192,1,64,8|4,0:0|0:0,0:0:0:0:
180,252,205566,2,0,L|252:252,1,64,8|4,0:0|0:0,0:0:0:0:
140,312,205899,1,2,0:0:0:0:
268,316,206066,6,0,L|348:316,1,64,8|4,0:0|0:0,0:0:0:0:
180,252,206399,2,0,L|100:252,1,64,0|4,0:0|0:0,0:0:0:0:
256,192,206732,6,0,L|288:148,2,32,4|0|4,0:0|0:0|0:0,0:0:0:0:
124,192,207066,1,12,0:0:0:0:
340,128,207399,2,0,P|408:104|424:48,1,128,8|4,0:0|0:0,0:0:0:0:
200,56,207899,1,4,0:1:0:0:
