osu file format v14

[General]
AudioFilename: IA - Enmei Chiryou.mp3
AudioLeadIn: 1996
PreviewTime: 76292
Countdown: 0
SampleSet: Soft
StackLeniency: 0.7
Mode: 3
LetterboxInBreaks: 0
EpilepsyWarning: 1
SpecialStyle: 0
WidescreenStoryboard: 1

[Editor]
DistanceSpacing: 0.7
BeatDivisor: 6
GridSize: 4
TimelineZoom: 1.4

[Metadata]
Title:Enmei Chiryou
TitleUnicode:延命治療
Artist:Neru feat. IA
ArtistUnicode:Neru feat. IA
Creator:puxtu
Version:KK's 7K HD
Source:太鼓の達人
Tags:vocaloid IA Life Prolonging Treatment Takane6 combinatorix Kuo_Kyoka nowsmart Blocko lordraika Julie toybot winda Quick_Draw JBHyperion Agka Sun Rainbow pxt
BeatmapID:465002
BeatmapSetID:195210

[Difficulty]
HPDrainRate:8
CircleSize:7
OverallDifficulty:8
ApproachRate:9
SliderMultiplier:1.8
SliderTickRate:1

[Events]
//Background and Video events
0,0,"Vocaloid.full.1384459.jpg",0,0
//Break Periods
//Storyboard Layer 0 (Background)
//Storyboard Layer 1 (Fail)
//Storyboard Layer 2 (Pass)
//Storyboard Layer 3 (Foreground)
//Storyboard Sound Samples

[TimingPoints]
518,444.444444444444,4,2,2,50,1,0
5851,444.444444444444,3,2,2,50,1,0
7184,444.444444444444,4,2,2,50,1,0
12517,444.444444444444,3,2,2,50,1,0
13850,444.444444444444,4,2,2,50,1,0
19183,444.444444444444,3,2,2,50,1,0
21849,444.444444444444,4,2,2,50,1,0
71626,444.444444444444,3,2,2,50,1,0
74292,333.333333333333,4,2,2,50,1,0
76792,-133.333333333333,4,2,2,50,0,1
87125,-133.333333333333,4,2,2,50,0,0
87458,-133.333333333333,4,2,2,50,0,1
98291,-133.333333333333,4,2,2,50,0,0
100308,333.333333333333,4,2,2,50,1,0
100308,-10,4,2,2,50,0,0
100954,444.444444444444,4,2,2,50,1,0
150733,333.333333333333,4,2,2,50,1,0
150734,-133.333333333333,4,2,2,50,0,0
153233,-133.333333333333,4,2,2,50,0,1
163566,-133.333333333333,4,2,2,50,0,0
163899,-133.333333333333,4,2,2,50,0,1
174232,-133.333333333333,4,2,2,50,0,0
174566,-133.333333333333,4,2,2,50,0,1
184899,-133.333333333333,4,2,2,50,0,0
185232,-133.333333333333,4,2,2,50,0,1
190566,-133.333333333333,4,2,2,50,0,0

[Colours]
Combo1 : 128,255,0
Combo2 : 255,0,128
Combo3 : 5,5,240
Combo4 : 255,255,0

[HitObjects]
36,192,518,5,4,1:0:0:0:
475,192,518,1,4,0:0:0:0:
109,192,518,1,8,0:0:0:0:
402,192,629,1,0,0:0:0:0:
329,192,740,1,0,0:0:0:0:
182,192,851,1,0,0:0:0:0:
109,192,962,1,0,0:0:0:0:
402,192,1073,1,0,0:0:0:0:
256,192,1184,1,0,0:0:0:0:
182,192,1295,1,0,0:0:0:0:
36,192,1406,1,0,0:0:0:0:
329,192,1517,1,0,0:0:0:0:
475,192,1629,1,0,0:0:0:0:
182,192,1740,1,0,0:0:0:0:
36,192,1851,1,4,0:0:0:0:
329,192,1851,1,8,0:0:0:0:
475,192,2073,1,8,0:0:0:0:
182,192,2073,1,4,0:0:0:0:
36,192,2295,1,4,1:0:0:0:
329,192,2295,1,8,0:0:0:0:
256,192,2406,1,0,0:0:0:0:
402,192,2517,1,0,0:0:0:0:
475,192,2629,1,0,0:0:0:0:
109,192,2740,1,0,0:0:0:0:
182,192,2851,1,0,0:0:0:0:
256,192,2962,1,0,0:0:0:0:
402,192,3073,1,0,0:0:0:0:
36,192,3184,1,0,0:0:0:0:
109,192,3295,1,0,0:0:0:0:
329,192,3406,1,0,0:0:0:0:
475,192,3517,1,0,0:0:0:0:
256,192,3629,1,8,0:0:0:0:
36,192,3629,1,4,0:0:0:0:
182,192,3740,1,4,0:0:0:0:
109,192,3851,1,4,0:0:0:0:
329,192,3851,1,0,0:0:0:0:
475,192,3962,1,4,0:0:0:0:
36,192,4073,1,8,0:0:0:0:
402,192,4073,1,4,1:0:0:0:
329,192,4184,1,0,0:0:0:0:
182,192,4295,1,0,0:0:0:0:
109,192,4406,1,0,0:0:0:0:
36,192,4517,1,0,0:0:0:0:
402,192,4629,1,0,0:0:0:0:
329,192,4740,1,0,0:0:0:0:
256,192,4851,1,0,0:0:0:0:
109,192,4962,1,0,0:0:0:0:
36,192,5073,1,0,0:0:0:0:
475,192,5184,1,0,0:0:0:0:
402,192,5295,1,0,0:0:0:0:
109,192,5406,1,4,0:0:0:0:
329,192,5406,1,8,0:0:0:0:
256,192,5629,1,4,0:0:0:0:
36,192,5629,1,8,0:0:0:0:
475,192,5851,1,4,0:0:0:0:
329,192,5851,1,0,0:0:0:0:
36,192,5962,1,4,0:0:0:0:
182,192,5962,1,8,0:0:0:0:
256,192,6184,1,4,0:0:0:0:
329,192,6184,1,0,0:0:0:0:
475,192,6295,1,4,0:0:0:0:
109,192,6295,1,8,0:0:0:0:
182,192,6517,1,4,0:0:0:0:
256,192,6517,1,0,0:0:0:0:
402,192,6628,1,8,0:0:0:0:
36,192,6628,1,4,0:0:0:0:
109,192,6850,1,4,0:0:0:0:
182,192,6850,1,0,0:0:0:0:
475,192,6962,1,8,0:0:0:0:
329,192,6962,1,4,0:0:0:0:
256,192,7184,1,4,0:0:0:0:
36,192,7184,1,8,0:0:0:0:
109,192,7184,1,0,0:0:0:0:
402,192,7295,1,0,0:0:0:0:
182,192,7406,1,0,0:0:0:0:
329,192,7517,1,0,0:0:0:0:
475,192,7628,1,8,0:0:0:0:
109,192,7628,1,0,0:0:0:0:
256,192,7739,1,0,0:0:0:0:
36,192,7850,1,0,0:0:0:0:
182,192,7961,1,0,0:0:0:0:
402,192,8072,1,4,0:0:0:0:
256,192,8183,1,0,0:0:0:0:
109,192,8295,1,0,0:0:0:0:
329,192,8406,1,0,0:0:0:0:
475,192,8517,1,4,0:0:0:0:
182,192,8517,1,8,0:0:0:0:
36,192,8628,1,0,0:0:0:0:
256,192,8739,1,4,0:0:0:0:
402,192,8739,1,8,0:0:0:0:
109,192,8850,1,0,0:0:0:0:
329,192,8961,1,4,0:0:0:0:
475,192,8961,1,0,0:0:0:0:
182,192,9072,1,0,0:0:0:0:
36,192,9183,1,0,0:0:0:0:
256,192,9295,1,0,0:0:0:0:
402,192,9406,1,8,0:0:0:0:
475,192,9406,1,0,0:0:0:0:
182,192,9517,1,0,0:0:0:0:
329,192,9628,1,0,0:0:0:0:
109,192,9739,1,0,0:0:0:0:
402,192,9850,1,4,0:0:0:0:
256,192,9961,1,8,0:0:0:0:
36,192,10072,1,0,0:0:0:0:
182,192,10183,1,0,0:0:0:0:
329,192,10295,1,8,0:0:0:0:
475,192,10295,1,0,0:0:0:0:
109,192,10406,1,0,0:0:0:0:
256,192,10517,1,0,0:0:0:0:
402,192,10628,1,0,0:0:0:0:
182,192,10739,1,4,0:0:0:0:
36,192,10739,1,0,0:0:0:0:
329,192,10850,1,0,0:0:0:0:
109,192,10961,1,0,0:0:0:0:
475,192,11072,1,0,0:0:0:0:
256,192,11183,1,8,0:0:0:0:
36,192,11183,1,0,0:0:0:0:
182,192,11295,1,0,0:0:0:0:
402,192,11406,1,0,0:0:0:0:
109,192,11517,1,0,0:0:0:0:
329,192,11628,1,4,0:0:0:0:
475,192,11739,1,0,0:0:0:0:
256,192,11850,1,0,0:0:0:0:
36,192,11961,1,0,0:0:0:0:
182,192,12072,1,4,0:0:0:0:
402,192,12072,1,8,0:0:0:0:
256,192,12183,1,0,0:0:0:0:
109,192,12295,1,4,0:0:0:0:
329,192,12295,1,8,0:0:0:0:
182,192,12406,1,0,0:0:0:0:
256,192,12517,1,4,0:0:0:0:
36,192,12517,1,0,0:0:0:0:
402,192,12628,1,4,0:0:0:0:
475,192,12628,1,8,0:0:0:0:
182,192,12850,1,4,0:0:0:0:
36,192,12850,1,0,0:0:0:0:
329,192,12961,1,4,0:0:0:0:
402,192,12961,1,8,0:0:0:0:
109,192,13183,1,4,0:0:0:0:
36,192,13183,1,0,0:0:0:0:
329,192,13294,1,4,0:0:0:0:
256,192,13294,1,8,0:0:0:0:
36,192,13516,1,4,0:0:0:0:
475,192,13628,1,4,0:0:0:0:
329,192,13628,1,8,0:0:0:0:
182,192,13628,1,0,0:0:0:0:
109,192,13850,1,4,1:0:0:0:
36,192,13850,1,4,0:0:0:0:
256,192,13850,1,0,0:0:0:0:
402,192,13961,1,0,0:0:0:0:
182,192,14072,1,0,0:0:0:0:
36,192,14183,1,0,0:0:0:0:
329,192,14294,1,8,0:0:0:0:
475,192,14294,1,0,0:0:0:0:
109,192,14405,1,0,0:0:0:0:
256,192,14516,1,0,0:0:0:0:
402,192,14627,1,0,0:0:0:0:
182,192,14738,1,4,0:0:0:0:
36,192,14849,1,0,0:0:0:0:
329,192,14961,1,0,0:0:0:0:
475,192,15072,1,0,0:0:0:0:
256,192,15183,1,8,0:0:0:0:
109,192,15183,1,4,0:0:0:0:
402,192,15294,1,0,0:0:0:0:
182,192,15405,1,4,0:0:0:0:
36,192,15405,1,8,0:0:0:0:
329,192,15516,1,0,0:0:0:0:
475,192,15627,1,4,0:0:0:0:
256,192,15627,1,0,0:0:0:0:
182,192,15738,1,0,0:0:0:0:
329,192,15849,1,0,0:0:0:0:
109,192,15961,1,0,0:0:0:0:
256,192,16072,1,8,0:0:0:0:
475,192,16072,1,0,0:0:0:0:
36,192,16183,1,0,0:0:0:0:
182,192,16294,1,0,0:0:0:0:
329,192,16405,1,0,0:0:0:0:
109,192,16516,1,4,0:0:0:0:
402,192,16627,1,8,0:0:0:0:
256,192,16738,1,0,0:0:0:0:
36,192,16849,1,0,0:0:0:0:
329,192,16961,1,8,0:0:0:0:
475,192,16961,1,0,0:0:0:0:
182,192,17072,1,0,0:0:0:0:
109,192,17183,1,0,0:0:0:0:
329,192,17294,1,0,0:0:0:0:
256,192,17405,1,4,0:0:0:0:
36,192,17405,1,0,0:0:0:0:
475,192,17516,1,0,0:0:0:0:
182,192,17627,1,0,0:0:0:0:
402,192,17738,1,0,0:0:0:0:
109,192,17849,1,8,0:0:0:0:
36,192,17849,1,0,0:0:0:0:
329,192,17961,1,0,0:0:0:0:
475,192,18072,1,0,0:0:0:0:
256,192,18183,1,0,0:0:0:0:
36,192,18294,1,4,0:0:0:0:
182,192,18405,1,0,0:0:0:0:
329,192,18516,1,0,0:0:0:0:
109,192,18627,1,0,0:0:0:0:
256,192,18738,1,8,0:0:0:0:
475,192,18738,1,4,0:0:0:0:
36,192,18849,1,0,0:0:0:0:
402,192,18961,1,8,0:0:0:0:
182,192,18961,1,4,0:0:0:0:
256,192,19072,1,4,0:0:0:0:
109,192,19183,1,4,0:0:0:0:
329,192,19183,1,0,0:0:0:0:
475,192,19294,1,4,0:0:0:0:
36,192,19405,1,4,0:0:0:0:
182,192,19516,1,4,0:0:0:0:
402,192,19627,1,4,0:0:0:0:
109,192,19738,1,4,0:0:0:0:
329,192,19849,1,4,0:0:0:0:
475,192,19960,1,4,0:0:0:0:
256,192,20071,1,4,0:0:0:0:
36,192,20183,1,4,0:0:0:0:
182,192,20294,1,4,0:0:0:0:
329,192,20516,1,4,0:0:0:0:
402,192,20516,1,0,0:0:0:0:
36,192,20627,1,4,0:0:0:0:
182,192,20627,1,8,0:0:0:0:
256,192,20849,1,4,0:0:0:0:
329,192,20849,1,0,0:0:0:0:
475,192,20960,1,4,0:0:0:0:
109,192,20960,1,8,0:0:0:0:
182,192,21182,1,4,0:0:0:0:
256,192,21182,1,0,0:0:0:0:
402,192,21294,1,4,0:0:0:0:
36,192,21294,1,8,0:0:0:0:
109,192,21516,1,4,0:0:0:0:
182,192,21516,1,0,0:0:0:0:
475,192,21627,1,4,0:0:0:0:
329,192,21627,1,8,0:0:0:0:
256,192,21849,1,8,0:0:0:0:
36,192,21849,1,0,0:0:0:0:
402,192,21960,1,0,0:0:0:0:
182,192,22071,1,0,0:0:0:0:
329,192,22182,1,0,0:0:0:0:
109,192,22293,1,0,0:0:0:0:
256,192,22404,1,0,0:0:0:0:
36,192,22515,1,0,0:0:0:0:
182,192,22626,1,0,0:0:0:0:
475,192,22737,1,0,0:0:0:0:
109,192,22849,1,0,0:0:0:0:
402,192,22960,1,0,0:0:0:0:
36,192,23071,1,0,0:0:0:0:
182,192,23182,128,4,23626:0:0:0:0:
329,192,23182,128,0,23626:0:0:0:0:
36,192,23626,1,4,1:0:0:0:
475,192,23626,1,4,0:0:0:0:
256,192,23737,1,0,0:0:0:0:
402,192,23848,1,4,0:0:0:0:
182,192,23960,1,0,0:0:0:0:
36,192,24071,1,4,0:0:0:0:
329,192,24071,1,8,0:0:0:0:
475,192,24182,1,0,0:0:0:0:
256,192,24293,1,4,0:0:0:0:
109,192,24404,1,0,0:0:0:0:
329,192,24515,1,4,0:0:0:0:
475,192,24626,1,0,0:0:0:0:
182,192,24737,1,4,0:0:0:0:
329,192,24848,1,0,0:0:0:0:
109,192,24960,1,8,0:0:0:0:
36,192,24960,1,4,0:0:0:0:
256,192,25071,1,0,0:0:0:0:
402,192,25182,1,4,0:0:0:0:
182,192,25293,1,4,0:0:0:0:
36,192,25404,1,4,0:0:0:0:
329,192,25515,1,0,0:0:0:0:
475,192,25626,1,4,0:0:0:0:
256,192,25737,1,0,0:0:0:0:
109,192,25848,1,4,0:0:0:0:
36,192,25848,1,8,0:0:0:0:
329,192,25960,1,0,0:0:0:0:
475,192,26071,1,4,0:0:0:0:
256,192,26182,1,0,0:0:0:0:
402,192,26293,1,4,0:0:0:0:
182,192,26404,1,0,0:0:0:0:
36,192,26515,1,4,0:0:0:0:
256,192,26626,1,0,0:0:0:0:
109,192,26737,1,4,0:0:0:0:
475,192,26737,1,8,0:0:0:0:
329,192,26848,1,0,0:0:0:0:
182,192,26960,1,4,0:0:0:0:
402,192,27071,1,4,0:0:0:0:
109,192,27182,1,4,0:0:0:0:
329,192,27293,1,0,0:0:0:0:
36,192,27404,1,4,0:0:0:0:
256,192,27515,1,0,0:0:0:0:
402,192,27626,1,4,0:0:0:0:
475,192,27626,1,8,0:0:0:0:
182,192,27737,1,0,0:0:0:0:
36,192,27848,1,4,0:0:0:0:
329,192,27960,1,0,0:0:0:0:
475,192,28071,1,4,0:0:0:0:
256,192,28182,1,0,0:0:0:0:
402,192,28293,1,4,0:0:0:0:
182,192,28404,1,0,0:0:0:0:
36,192,28515,1,4,0:0:0:0:
329,192,28515,1,8,0:0:0:0:
475,192,28626,1,0,0:0:0:0:
256,192,28737,1,4,0:0:0:0:
402,192,28848,1,0,0:0:0:0:
182,192,28960,1,4,0:0:0:0:
36,192,28960,1,4,0:0:0:0:
329,192,29071,1,0,0:0:0:0:
475,192,29182,1,4,0:0:0:0:
109,192,29293,1,0,0:0:0:0:
256,192,29404,1,8,0:0:0:0:
402,192,29404,1,4,0:0:0:0:
36,192,29515,1,0,0:0:0:0:
182,192,29626,1,4,0:0:0:0:
329,192,29737,1,0,0:0:0:0:
475,192,29848,1,4,0:0:0:0:
109,192,29960,1,0,0:0:0:0:
256,192,30071,1,4,0:0:0:0:
402,192,30182,1,0,0:0:0:0:
182,192,30293,1,8,0:0:0:0:
36,192,30293,1,4,0:0:0:0:
329,192,30404,1,0,0:0:0:0:
475,192,30515,1,4,0:0:0:0:
109,192,30626,1,4,0:0:0:0:
256,192,30737,1,4,0:0:0:0:
402,192,30737,1,4,1:0:0:0:
36,192,30848,1,0,0:0:0:0:
182,192,30960,1,4,0:0:0:0:
329,192,31071,1,0,0:0:0:0:
109,192,31182,1,4,0:0:0:0:
36,192,31182,1,8,0:0:0:0:
256,192,31293,1,0,0:0:0:0:
402,192,31404,1,4,0:0:0:0:
182,192,31515,1,0,0:0:0:0:
329,192,31626,1,4,0:0:0:0:
109,192,31737,1,0,0:0:0:0:
256,192,31848,1,4,0:0:0:0:
402,192,31960,1,0,0:0:0:0:
182,192,32071,1,8,0:0:0:0:
36,192,32071,1,0,0:0:0:0:
329,192,32182,1,0,0:0:0:0:
475,192,32293,1,4,0:0:0:0:
256,192,32404,1,4,0:0:0:0:
109,192,32515,1,4,0:0:0:0:
329,192,32626,1,0,0:0:0:0:
182,192,32737,1,4,0:0:0:0:
36,192,32848,1,0,0:0:0:0:
256,192,32960,1,8,0:0:0:0:
402,192,32960,1,4,0:0:0:0:
109,192,33071,1,0,0:0:0:0:
329,192,33182,1,4,0:0:0:0:
475,192,33293,1,0,0:0:0:0:
256,192,33404,1,4,0:0:0:0:
402,192,33515,1,0,0:0:0:0:
182,192,33626,1,4,0:0:0:0:
36,192,33737,1,0,0:0:0:0:
475,192,33848,1,8,0:0:0:0:
256,192,33848,1,4,0:0:0:0:
109,192,33960,1,0,0:0:0:0:
329,192,34071,1,4,0:0:0:0:
475,192,34182,1,4,0:0:0:0:
256,192,34293,1,4,0:0:0:0:
36,192,34293,1,4,0:0:0:0:
402,192,34404,1,0,0:0:0:0:
182,192,34515,1,8,0:0:0:0:
36,192,34515,1,4,0:0:0:0:
329,192,34626,1,0,0:0:0:0:
475,192,34737,1,8,0:0:0:0:
36,192,34737,1,4,0:0:0:0:
109,192,34737,1,0,0:0:0:0:
256,192,34848,1,0,0:0:0:0:
402,192,34960,1,4,0:0:0:0:
182,192,35071,1,0,0:0:0:0:
36,192,35182,1,4,0:0:0:0:
329,192,35293,1,0,0:0:0:0:
475,192,35404,1,4,0:0:0:0:
256,192,35515,1,0,0:0:0:0:
402,192,35626,1,4,0:0:0:0:
36,192,35626,1,8,0:0:0:0:
182,192,35737,1,0,0:0:0:0:
329,192,35848,1,4,0:0:0:0:
109,192,35960,1,0,0:0:0:0:
256,192,36071,1,4,0:0:0:0:
182,192,36293,1,4,0:0:0:0:
329,192,36515,1,8,0:0:0:0:
475,192,36515,1,0,0:0:0:0:
256,192,36737,1,4,0:0:0:0:
182,192,36960,1,4,0:0:0:0:
36,192,37071,1,0,0:0:0:0:
256,192,37182,1,4,0:0:0:0:
109,192,37293,1,0,0:0:0:0:
329,192,37404,1,12,0:0:0:0:
475,192,37515,1,4,0:0:0:0:
256,192,37626,1,4,0:0:0:0:
402,192,37737,1,4,0:0:0:0:
182,192,37848,128,4,38293:1:0:0:0:
256,192,37848,128,4,38293:0:0:0:0:
36,192,37848,128,0,38293:0:0:0:0:
475,192,38293,1,2,0:0:0:0:
182,192,38515,1,4,0:0:0:0:
256,192,38515,1,8,0:0:0:0:
36,192,38515,1,4,1:0:0:0:
109,192,38960,1,4,0:0:0:0:
402,192,39071,1,4,0:0:0:0:
36,192,39182,1,8,0:0:0:0:
329,192,39293,1,4,0:0:0:0:
475,192,39404,1,4,0:0:0:0:
256,192,39515,1,4,0:0:0:0:
402,192,39626,1,8,0:0:0:0:
36,192,39626,1,4,0:0:0:0:
402,192,39848,1,8,0:0:0:0:
109,192,39848,1,0,0:0:0:0:
329,192,40071,1,8,0:0:0:0:
182,192,40071,1,0,0:0:0:0:
329,192,40293,1,8,0:0:0:0:
36,192,40293,1,0,0:0:0:0:
109,192,40515,1,4,0:0:0:0:
475,192,40515,1,8,0:0:0:0:
109,192,40737,1,4,0:0:0:0:
402,192,40737,1,8,0:0:0:0:
182,192,40960,1,4,0:0:0:0:
329,192,40960,1,8,0:0:0:0:
182,192,41182,1,8,0:0:0:0:
36,192,41182,1,0,0:0:0:0:
329,192,41404,128,4,41848:0:0:0:0:
475,192,41404,128,0,41848:0:0:0:0:
402,192,41404,128,0,41848:0:0:0:0:
109,192,41848,1,2,0:0:0:0:
329,192,42071,1,8,0:0:0:0:
475,192,42071,1,4,1:0:0:0:
402,192,42071,1,4,0:0:0:0:
36,192,42515,1,4,0:0:0:0:
182,192,42626,1,4,0:0:0:0:
329,192,42737,1,8,0:0:0:0:
475,192,42848,1,4,0:0:0:0:
109,192,42960,1,4,0:0:0:0:
256,192,43071,1,4,0:0:0:0:
402,192,43182,1,4,0:0:0:0:
36,192,43182,1,8,0:0:0:0:
402,192,43404,1,8,0:0:0:0:
109,192,43404,1,0,0:0:0:0:
475,192,43626,1,8,0:0:0:0:
329,192,43626,1,0,0:0:0:0:
475,192,43848,1,8,0:0:0:0:
36,192,43848,1,0,0:0:0:0:
109,192,44071,1,8,0:0:0:0:
256,192,44071,1,4,0:0:0:0:
109,192,44293,1,12,0:0:0:0:
402,192,44293,1,0,0:0:0:0:
36,192,44515,1,8,0:0:0:0:
182,192,44515,1,0,0:0:0:0:
36,192,44737,1,4,0:0:0:0:
329,192,44737,1,8,0:0:0:0:
109,192,44960,128,4,45404:1:0:0:0:
402,192,44960,128,4,45404:0:0:0:0:
182,192,44960,128,0,45404:0:0:0:0:
475,192,45404,1,2,0:0:0:0:
402,192,45626,1,8,0:0:0:0:
182,192,45626,1,4,0:0:0:0:
109,192,45626,1,4,0:0:0:0:
329,192,46071,1,4,0:0:0:0:
36,192,46182,1,4,0:0:0:0:
402,192,46293,1,8,0:0:0:0:
109,192,46404,1,4,0:0:0:0:
475,192,46515,1,4,0:0:0:0:
182,192,46626,1,4,0:0:0:0:
36,192,46737,1,8,0:0:0:0:
329,192,46737,1,4,0:0:0:0:
329,192,46960,1,8,0:0:0:0:
109,192,46960,1,0,0:0:0:0:
475,192,47182,1,8,0:0:0:0:
256,192,47182,1,4,0:0:0:0:
475,192,47404,1,8,0:0:0:0:
36,192,47404,1,0,0:0:0:0:
402,192,47626,1,4,0:0:0:0:
182,192,47626,1,8,0:0:0:0:
36,192,47848,1,0,0:0:0:0:
402,192,47848,1,8,0:0:0:0:
329,192,48071,1,8,0:0:0:0:
182,192,48071,1,4,0:0:0:0:
329,192,48293,1,8,0:0:0:0:
36,192,48293,1,0,0:0:0:0:
256,192,48515,128,4,48960:0:0:0:0:
475,192,48515,128,4,48960:1:0:0:0:
402,192,48515,128,0,48960:0:0:0:0:
36,192,48960,1,2,0:0:0:0:
402,192,49182,1,4,0:0:0:0:
256,192,49182,1,4,1:0:0:0:
475,192,49182,1,8,0:0:0:0:
109,192,49626,1,4,0:0:0:0:
329,192,49737,1,4,0:0:0:0:
36,192,49848,1,8,0:0:0:0:
256,192,49960,1,4,0:0:0:0:
402,192,50071,1,4,0:0:0:0:
182,192,50182,1,4,0:0:0:0:
36,192,50293,1,4,0:0:0:0:
329,192,50293,1,8,0:0:0:0:
256,192,50515,1,8,0:0:0:0:
475,192,50515,1,4,0:0:0:0:
182,192,50737,1,8,0:0:0:0:
402,192,50737,1,4,0:0:0:0:
109,192,50960,1,8,0:0:0:0:
329,192,50960,1,4,0:0:0:0:
256,192,51182,1,4,0:0:0:0:
36,192,51182,1,8,0:0:0:0:
182,192,51404,1,8,0:0:0:0:
475,192,51404,1,4,0:0:0:0:
402,192,51626,1,8,0:0:0:0:
109,192,51626,1,4,0:0:0:0:
256,192,51737,1,4,0:0:0:0:
402,192,51848,1,4,0:0:0:0:
36,192,51848,1,8,0:0:0:0:
182,192,51960,1,4,0:0:0:0:
329,192,52071,1,4,1:0:0:0:
475,192,52071,128,4,53182:0:0:0:0:
256,192,52293,1,0,0:0:0:0:
182,192,52515,1,8,0:0:0:0:
36,192,52515,1,4,0:0:0:0:
329,192,52737,1,4,0:0:0:0:
182,192,52960,1,4,0:0:0:0:
256,192,53182,1,4,0:0:0:0:
329,192,53404,1,4,0:0:0:0:
475,192,53404,1,8,0:0:0:0:
182,192,53515,1,0,0:0:0:0:
36,192,53626,1,4,0:0:0:0:
256,192,53737,1,4,0:0:0:0:
402,192,53848,1,4,0:0:0:0:
329,192,54071,1,4,0:0:0:0:
256,192,54293,1,4,0:0:0:0:
475,192,54293,1,8,0:0:0:0:
182,192,54515,1,4,0:0:0:0:
36,192,54737,128,4,55626:0:0:0:0:
329,192,54960,1,4,0:0:0:0:
182,192,55182,1,4,0:0:0:0:
475,192,55182,1,8,0:0:0:0:
256,192,55404,1,4,0:0:0:0:
329,192,55626,128,4,56737:0:0:0:0:
475,192,55626,1,0,0:0:0:0:
182,192,55848,1,4,0:0:0:0:
475,192,56071,1,4,0:0:0:0:
36,192,56071,1,8,0:0:0:0:
182,192,56293,1,4,0:0:0:0:
475,192,56515,1,4,0:0:0:0:
109,192,56737,1,4,0:0:0:0:
256,192,56960,1,4,0:0:0:0:
475,192,56960,1,8,0:0:0:0:
36,192,57182,1,4,0:0:0:0:
182,192,57293,1,0,0:0:0:0:
329,192,57404,1,4,0:0:0:0:
256,192,57626,1,4,0:0:0:0:
182,192,57848,1,4,0:0:0:0:
36,192,57848,1,8,0:0:0:0:
402,192,58071,1,4,0:0:0:0:
36,192,58293,128,4,59182:0:0:0:0:
329,192,58293,1,0,0:0:0:0:
256,192,58515,1,4,0:0:0:0:
182,192,58737,1,4,0:0:0:0:
475,192,58737,1,12,0:0:0:0:
402,192,58960,1,4,0:0:0:0:
329,192,59182,1,4,0:0:0:0:
109,192,59182,1,0,0:0:0:0:
475,192,59293,1,0,0:0:0:0:
256,192,59404,1,4,0:0:0:0:
402,192,59515,1,0,0:0:0:0:
182,192,59626,1,12,0:0:0:0:
36,192,59737,1,0,0:0:0:0:
256,192,59848,128,4,60293:1:0:0:0:
475,192,59848,128,4,60293:0:0:0:0:
36,192,60293,1,4,0:0:0:0:
402,192,60404,1,0,0:0:0:0:
36,192,60515,1,8,0:0:0:0:
329,192,60626,1,0,0:0:0:0:
36,192,60737,1,4,0:0:0:0:
256,192,60848,1,0,0:0:0:0:
36,192,60960,1,4,0:0:0:0:
182,192,61071,1,0,0:0:0:0:
475,192,61182,1,4,0:0:0:0:
329,192,61293,1,0,0:0:0:0:
182,192,61404,1,4,0:0:0:0:
36,192,61404,1,8,0:0:0:0:
256,192,61626,1,4,0:0:0:0:
109,192,61848,1,4,0:0:0:0:
402,192,62071,1,0,0:0:0:0:
256,192,62293,1,4,0:0:0:0:
475,192,62293,1,8,0:0:0:0:
36,192,62404,1,0,0:0:0:0:
182,192,62515,1,4,0:0:0:0:
329,192,62626,1,0,0:0:0:0:
475,192,62737,1,4,0:0:0:0:
109,192,62848,1,0,0:0:0:0:
256,192,62960,1,4,0:0:0:0:
402,192,63071,1,0,0:0:0:0:
36,192,63182,1,8,0:0:0:0:
182,192,63293,1,0,0:0:0:0:
475,192,63404,1,4,1:0:0:0:
329,192,63404,1,4,0:0:0:0:
256,192,63626,1,4,0:0:0:0:
36,192,63848,1,4,0:0:0:0:
182,192,64071,1,4,0:0:0:0:
402,192,64071,1,8,0:0:0:0:
36,192,64293,1,4,0:0:0:0:
256,192,64515,1,4,0:0:0:0:
475,192,64515,128,0,66293:0:0:0:0:
109,192,64737,1,4,0:0:0:0:
256,192,64960,1,8,0:0:0:0:
402,192,64960,1,4,0:0:0:0:
182,192,65182,1,4,0:0:0:0:
36,192,65404,128,4,66293:0:0:0:0:
109,192,65404,1,4,0:0:0:0:
256,192,65626,1,4,0:0:0:0:
402,192,65848,1,8,0:0:0:0:
329,192,66071,1,8,0:0:0:0:
256,192,66182,1,8,0:0:0:0:
182,192,66293,1,4,0:0:0:0:
109,192,66293,1,8,0:0:0:0:
329,192,66404,1,0,0:0:0:0:
475,192,66515,1,0,0:0:0:0:
256,192,66626,1,0,0:0:0:0:
402,192,66737,1,0,0:0:0:0:
36,192,66848,1,0,0:0:0:0:
182,192,66960,1,0,0:0:0:0:
329,192,67071,1,0,0:0:0:0:
475,192,67182,1,0,0:0:0:0:
256,192,67293,1,0,0:0:0:0:
109,192,67404,1,0,0:0:0:0:
402,192,67515,1,0,0:0:0:0:
36,192,67626,1,4,0:0:0:0:
256,192,67626,1,8,0:0:0:0:
182,192,67848,1,8,0:0:0:0:
329,192,67848,1,4,0:0:0:0:
109,192,68071,1,4,0:0:0:0:
402,192,68071,1,0,0:0:0:0:
256,192,68182,1,0,0:0:0:0:
329,192,68293,1,0,0:0:0:0:
475,192,68404,1,0,0:0:0:0:
109,192,68515,1,0,0:0:0:0:
182,192,68626,1,0,0:0:0:0:
256,192,68737,1,0,0:0:0:0:
402,192,68848,1,0,0:0:0:0:
36,192,68960,1,0,0:0:0:0:
109,192,69071,1,0,0:0:0:0:
329,192,69182,1,0,0:0:0:0:
475,192,69293,1,0,0:0:0:0:
256,192,69404,1,8,0:0:0:0:
36,192,69404,1,4,0:0:0:0:
182,192,69515,1,8,0:0:0:0:
109,192,69626,1,4,0:0:0:0:
329,192,69626,1,0,0:0:0:0:
475,192,69737,1,4,0:0:0:0:
256,192,69848,1,8,0:0:0:0:
36,192,69848,1,4,0:0:0:0:
402,192,69960,1,0,0:0:0:0:
329,192,70071,1,0,0:0:0:0:
182,192,70182,1,0,0:0:0:0:
109,192,70293,1,0,0:0:0:0:
402,192,70404,1,0,0:0:0:0:
256,192,70515,1,0,0:0:0:0:
182,192,70626,1,0,0:0:0:0:
36,192,70737,1,0,0:0:0:0:
329,192,70848,1,0,0:0:0:0:
475,192,70960,1,0,0:0:0:0:
182,192,71071,1,0,0:0:0:0:
329,192,71182,1,4,0:0:0:0:
36,192,71182,1,8,0:0:0:0:
182,192,71404,1,8,0:0:0:0:
475,192,71404,1,4,0:0:0:0:
329,192,71626,1,4,0:0:0:0:
475,192,71626,1,0,0:0:0:0:
36,192,71737,1,4,0:0:0:0:
182,192,71737,1,8,0:0:0:0:
256,192,71959,1,4,0:0:0:0:
329,192,71959,1,0,0:0:0:0:
475,192,72070,1,8,0:0:0:0:
109,192,72070,1,4,0:0:0:0:
182,192,72292,1,4,0:0:0:0:
256,192,72292,1,0,0:0:0:0:
402,192,72403,1,4,0:0:0:0:
36,192,72403,1,8,0:0:0:0:
109,192,72626,1,4,0:0:0:0:
182,192,72626,1,0,0:0:0:0:
475,192,72737,1,8,0:0:0:0:
329,192,72737,1,4,0:0:0:0:
329,192,72959,1,4,0:0:0:0:
402,192,72959,1,0,0:0:0:0:
36,192,73070,1,4,0:0:0:0:
182,192,73070,1,8,0:0:0:0:
256,192,73292,1,4,0:0:0:0:
329,192,73292,1,0,0:0:0:0:
475,192,73403,1,8,0:0:0:0:
109,192,73403,1,4,0:0:0:0:
182,192,73626,1,4,0:0:0:0:
256,192,73626,1,0,0:0:0:0:
402,192,73737,1,4,0:0:0:0:
36,192,73737,1,8,0:0:0:0:
109,192,73959,1,4,0:0:0:0:
182,192,73959,1,0,0:0:0:0:
475,192,74070,1,8,0:0:0:0:
329,192,74070,1,4,0:0:0:0:
109,192,74292,128,4,75403:1:0:0:0:
329,192,74292,128,4,75403:0:0:0:0:
36,192,75458,1,4,1:0:0:0:
256,192,75458,1,4,0:0:0:0:
475,192,75458,1,0,0:0:0:0:
182,192,75458,1,0,0:0:0:0:
36,192,75792,1,8,0:0:0:0:
256,192,75792,1,4,0:0:0:0:
475,192,75792,1,0,0:0:0:0:
182,192,75958,1,8,0:0:0:0:
329,192,75958,1,4,0:0:0:0:
36,192,76125,1,4,0:0:0:0:
256,192,76125,1,8,0:0:0:0:
475,192,76125,1,0,0:0:0:0:
109,192,76292,128,4,76458:0:0:0:0:
402,192,76292,128,0,76458:0:0:0:0:
256,192,76458,1,4,0:0:0:0:
36,192,76792,1,4,0:0:0:0:
475,192,76792,1,4,0:0:0:0:
182,192,76792,1,4,1:0:0:0:
402,192,76792,1,0,0:0:0:0:
36,192,77125,1,4,0:0:0:0:
256,192,77125,1,0,0:0:0:0:
109,192,77292,1,8,0:0:0:0:
475,192,77292,1,4,0:0:0:0:
329,192,77292,1,0,0:0:0:0:
329,192,77625,1,4,0:0:0:0:
475,192,77792,1,4,0:0:0:0:
182,192,77792,1,0,0:0:0:0:
109,192,77875,1,4,0:0:0:0:
402,192,77875,1,0,0:0:0:0:
36,192,77958,1,4,0:0:0:0:
329,192,77958,1,0,0:0:0:0:
402,192,78042,1,0,0:0:0:0:
109,192,78125,1,8,0:0:0:0:
256,192,78125,1,4,1:0:0:0:
475,192,78125,1,0,0:0:0:0:
36,192,78458,1,4,0:0:0:0:
402,192,78458,1,0,0:0:0:0:
109,192,78625,1,4,0:0:0:0:
256,192,78625,1,8,0:0:0:0:
475,192,78625,1,0,0:0:0:0:
329,192,78958,1,4,0:0:0:0:
256,192,79042,1,4,0:0:0:0:
475,192,79125,1,4,0:0:0:0:
182,192,79125,1,0,0:0:0:0:
402,192,79208,1,0,0:0:0:0:
109,192,79208,1,0,0:0:0:0:
329,192,79292,1,4,0:0:0:0:
36,192,79292,1,0,0:0:0:0:
36,192,79458,1,4,1:0:0:0:
475,192,79458,1,8,0:0:0:0:
329,192,79458,1,0,0:0:0:0:
182,192,79792,1,4,0:0:0:0:
402,192,79792,1,0,0:0:0:0:
36,192,79958,1,4,0:0:0:0:
109,192,79958,1,8,0:0:0:0:
329,192,79958,1,0,0:0:0:0:
36,192,80292,1,4,0:0:0:0:
109,192,80375,1,0,0:0:0:0:
182,192,80458,1,4,0:0:0:0:
475,192,80458,1,0,0:0:0:0:
109,192,80542,1,4,0:0:0:0:
402,192,80542,1,0,0:0:0:0:
36,192,80625,1,4,0:0:0:0:
329,192,80625,1,0,0:0:0:0:
36,192,80792,1,4,1:0:0:0:
256,192,80792,1,8,0:0:0:0:
475,192,80792,1,0,0:0:0:0:
109,192,81125,1,4,0:0:0:0:
402,192,81125,1,0,0:0:0:0:
36,192,81292,1,4,0:0:0:0:
256,192,81292,1,8,0:0:0:0:
475,192,81292,1,0,0:0:0:0:
109,192,81625,1,8,0:0:0:0:
256,192,81625,1,4,0:0:0:0:
402,192,81625,1,0,0:0:0:0:
475,192,81791,1,4,0:0:0:0:
36,192,81791,1,0,0:0:0:0:
182,192,81958,1,4,0:0:0:0:
329,192,81958,1,8,0:0:0:0:
109,192,82125,1,4,1:0:0:0:
402,192,82125,1,4,0:0:0:0:
36,192,82125,1,8,0:0:0:0:
475,192,82125,1,0,0:0:0:0:
36,192,82458,1,4,0:0:0:0:
475,192,82458,1,0,0:0:0:0:
109,192,82625,1,4,0:0:0:0:
256,192,82625,1,8,0:0:0:0:
402,192,82625,1,0,0:0:0:0:
182,192,82958,1,4,0:0:0:0:
109,192,83041,1,4,0:0:0:0:
36,192,83125,1,4,0:0:0:0:
329,192,83125,1,0,0:0:0:0:
109,192,83208,1,4,0:0:0:0:
402,192,83208,1,0,0:0:0:0:
182,192,83291,1,4,0:0:0:0:
475,192,83291,1,0,0:0:0:0:
36,192,83458,1,4,1:0:0:0:
109,192,83458,1,8,0:0:0:0:
402,192,83458,1,0,0:0:0:0:
182,192,83791,1,4,0:0:0:0:
475,192,83791,1,0,0:0:0:0:
36,192,83958,1,4,0:0:0:0:
109,192,83958,1,8,0:0:0:0:
402,192,83958,1,0,0:0:0:0:
475,192,84291,1,4,0:0:0:0:
402,192,84375,1,4,0:0:0:0:
329,192,84458,1,4,0:0:0:0:
36,192,84458,1,0,0:0:0:0:
402,192,84541,1,0,0:0:0:0:
109,192,84541,1,0,0:0:0:0:
475,192,84625,1,4,0:0:0:0:
182,192,84625,1,0,0:0:0:0:
329,192,84791,1,4,1:0:0:0:
256,192,84791,1,8,0:0:0:0:
36,192,84791,1,0,0:0:0:0:
109,192,85125,1,4,0:0:0:0:
402,192,85125,1,0,0:0:0:0:
36,192,85291,1,8,0:0:0:0:
256,192,85291,1,4,0:0:0:0:
329,192,85291,1,0,0:0:0:0:
329,192,85625,1,4,0:0:0:0:
256,192,85708,1,4,0:0:0:0:
182,192,85791,1,4,0:0:0:0:
475,192,85791,1,0,0:0:0:0:
109,192,85875,1,4,0:0:0:0:
402,192,85875,1,0,0:0:0:0:
36,192,85958,1,4,0:0:0:0:
329,192,85958,1,0,0:0:0:0:
109,192,86125,1,8,0:0:0:0:
182,192,86125,1,4,1:0:0:0:
402,192,86125,1,0,0:0:0:0:
36,192,86458,1,4,0:0:0:0:
475,192,86458,1,0,0:0:0:0:
109,192,86625,1,4,0:0:0:0:
256,192,86625,1,8,0:0:0:0:
402,192,86625,1,0,0:0:0:0:
109,192,86791,1,4,0:0:0:0:
402,192,86791,1,8,0:0:0:0:
109,192,87125,1,4,0:0:0:0:
256,192,87125,1,8,0:0:0:0:
402,192,87125,1,0,0:0:0:0:
36,192,87458,1,4,0:0:0:0:
329,192,87458,1,4,1:0:0:0:
475,192,87458,1,0,0:0:0:0:
182,192,87458,128,0,87791:0:0:0:0:
329,192,87791,1,4,0:0:0:0:
36,192,87958,1,8,0:0:0:0:
182,192,87958,1,4,0:0:0:0:
475,192,87958,1,0,0:0:0:0:
329,192,88125,1,4,0:0:0:0:
109,192,88291,1,4,0:0:0:0:
256,192,88458,1,4,0:0:0:0:
475,192,88625,1,4,0:0:0:0:
36,192,88625,1,8,0:0:0:0:
182,192,88625,1,0,0:0:0:0:
329,192,88791,128,0,89125:0:0:0:0:
182,192,89125,1,4,0:0:0:0:
36,192,89291,1,4,0:0:0:0:
402,192,89291,1,8,0:0:0:0:
475,192,89291,1,0,0:0:0:0:
256,192,89458,1,4,0:0:0:0:
109,192,89625,1,4,0:0:0:0:
329,192,89791,1,4,0:0:0:0:
182,192,89958,1,8,0:0:0:0:
36,192,89958,1,4,0:0:0:0:
475,192,89958,1,0,0:0:0:0:
329,192,90125,128,0,90458:0:0:0:0:
109,192,90458,1,4,0:0:0:0:
329,192,90625,1,8,0:0:0:0:
182,192,90625,1,4,0:0:0:0:
475,192,90625,1,0,0:0:0:0:
36,192,90791,1,4,0:0:0:0:
109,192,90958,1,4,0:0:0:0:
329,192,91125,1,4,0:0:0:0:
256,192,91291,1,8,0:0:0:0:
36,192,91291,1,4,0:0:0:0:
475,192,91291,1,0,0:0:0:0:
182,192,91458,128,4,91791:0:0:0:0:
402,192,91791,1,4,0:0:0:0:
329,192,91958,1,8,0:0:0:0:
475,192,91958,1,4,0:0:0:0:
36,192,91958,1,0,0:0:0:0:
256,192,92125,1,4,0:0:0:0:
109,192,92291,1,4,0:0:0:0:
329,192,92458,1,4,0:0:0:0:
182,192,92625,1,4,0:0:0:0:
109,192,92625,1,8,0:0:0:0:
402,192,92625,1,0,0:0:0:0:
36,192,92791,1,4,1:0:0:0:
256,192,92791,1,4,0:0:0:0:
475,192,92791,128,0,93125:0:0:0:0:
182,192,93125,1,4,0:0:0:0:
256,192,93291,1,4,0:0:0:0:
402,192,93291,1,8,0:0:0:0:
36,192,93291,1,0,0:0:0:0:
109,192,93458,1,4,0:0:0:0:
329,192,93625,1,4,0:0:0:0:
182,192,93791,1,4,0:0:0:0:
256,192,93958,1,4,0:0:0:0:
475,192,93958,1,8,0:0:0:0:
36,192,93958,1,0,0:0:0:0:
109,192,94125,1,4,0:0:0:0:
182,192,94125,1,4,1:0:0:0:
402,192,94125,128,0,94458:0:0:0:0:
36,192,94458,1,4,0:0:0:0:
256,192,94625,1,8,0:0:0:0:
475,192,94625,1,4,0:0:0:0:
109,192,94625,1,0,0:0:0:0:
329,192,94791,1,0,0:0:0:0:
475,192,94958,1,8,0:0:0:0:
182,192,94958,1,4,0:0:0:0:
109,192,95125,1,8,0:0:0:0:
402,192,95125,1,4,0:0:0:0:
36,192,95291,1,4,0:0:0:0:
329,192,95291,1,8,0:0:0:0:
182,192,95458,1,4,0:0:0:0:
36,192,95625,1,8,0:0:0:0:
329,192,95625,1,4,1:0:0:0:
475,192,95625,1,0,0:0:0:0:
36,192,96125,1,8,0:0:0:0:
182,192,96125,1,4,0:0:0:0:
475,192,96125,1,0,0:0:0:0:
402,192,96625,1,0,0:0:0:0:
36,192,96625,1,4,1:0:0:0:
475,192,96625,1,8,0:0:0:0:
36,192,97125,1,8,0:0:0:0:
256,192,97125,1,4,0:0:0:0:
475,192,97125,1,0,0:0:0:0:
36,192,97625,1,4,0:0:0:0:
475,192,97625,1,0,0:0:0:0:
109,192,97625,1,8,0:0:0:0:
36,192,97958,1,4,0:0:0:0:
475,192,97958,1,8,0:0:0:0:
182,192,98041,1,4,0:0:0:0:
329,192,98125,1,4,0:0:0:0:
109,192,98208,1,4,0:0:0:0:
256,192,98291,1,4,0:0:0:0:
402,192,98291,128,8,100954:0:0:0:0:
475,192,98291,128,4,100954:1:0:0:0:
329,192,100954,1,0,0:0:0:0:
109,192,100954,1,4,1:0:0:0:
36,192,100954,1,0,0:0:0:0:
36,192,101287,1,0,0:0:0:0:
36,192,101620,1,0,0:0:0:0:
475,192,101842,1,0,0:0:0:0:
109,192,102176,1,0,0:0:0:0:
109,192,102509,1,0,0:0:0:0:
475,192,102731,1,0,0:0:0:0:
182,192,103065,1,0,0:0:0:0:
182,192,103398,1,0,0:0:0:0:
475,192,103620,1,0,0:0:0:0:
256,192,103954,1,0,0:0:0:0:
256,192,104287,1,0,0:0:0:0:
36,192,104509,1,0,0:0:0:0:
475,192,104842,1,0,0:0:0:0:
475,192,105176,1,0,0:0:0:0:
36,192,105398,1,0,0:0:0:0:
402,192,105731,1,0,0:0:0:0:
402,192,106065,1,0,0:0:0:0:
36,192,106287,128,0,106954:0:0:0:0:
182,192,106620,128,0,107398:0:0:0:0:
475,192,106954,128,0,107398:0:0:0:0:
36,192,107398,128,0,107731:0:0:0:0:
329,192,107620,128,0,107954:0:0:0:0:
36,192,107842,1,0,0:0:0:0:
109,192,107916,1,0,0:0:0:0:
182,192,107991,1,0,0:0:0:0:
329,192,108065,1,0,0:0:0:0:
36,192,108398,1,0,0:0:0:0:
36,192,108731,1,0,0:0:0:0:
475,192,108953,1,0,0:0:0:0:
109,192,109287,1,0,0:0:0:0:
109,192,109620,1,0,0:0:0:0:
475,192,109842,1,0,0:0:0:0:
182,192,110176,1,0,0:0:0:0:
182,192,110509,1,0,0:0:0:0:
475,192,110731,1,0,0:0:0:0:
256,192,111065,1,0,0:0:0:0:
256,192,111398,1,0,0:0:0:0:
36,192,111620,1,0,0:0:0:0:
475,192,111953,1,0,0:0:0:0:
475,192,112287,1,0,0:0:0:0:
36,192,112509,1,0,0:0:0:0:
402,192,112842,1,0,0:0:0:0:
402,192,113176,1,0,0:0:0:0:
36,192,113398,128,0,114065:0:0:0:0:
182,192,113731,128,0,114509:0:0:0:0:
475,192,114065,128,0,114509:0:0:0:0:
36,192,114509,128,0,115176:0:0:0:0:
182,192,114731,128,0,115176:0:0:0:0:
402,192,115176,1,4,0:0:0:0:
475,192,115176,1,8,0:0:0:0:
329,192,115176,1,4,1:0:0:0:
109,192,115620,128,0,116065:0:0:0:0:
256,192,116065,128,0,116509:0:0:0:0:
36,192,116509,128,0,116953:0:0:0:0:
182,192,116953,1,4,0:0:0:0:
329,192,117398,128,0,117842:0:0:0:0:
475,192,117842,128,0,118287:0:0:0:0:
109,192,118287,128,0,118731:0:0:0:0:
256,192,118731,1,4,0:0:0:0:
475,192,119176,128,0,119620:0:0:0:0:
182,192,119620,128,0,120065:0:0:0:0:
402,192,120065,128,0,120509:0:0:0:0:
36,192,120509,1,4,0:0:0:0:
256,192,120953,1,0,0:0:0:0:
109,192,121398,1,0,0:0:0:0:
329,192,121842,128,0,122287:0:0:0:0:
182,192,122287,1,4,0:0:0:0:
402,192,122731,128,0,123176:0:0:0:0:
256,192,123176,128,0,123620:0:0:0:0:
36,192,123620,128,0,124065:0:0:0:0:
329,192,124065,1,4,0:0:0:0:
109,192,124509,128,0,124953:0:0:0:0:
402,192,124953,128,0,125398:0:0:0:0:
182,192,125398,128,0,125842:0:0:0:0:
475,192,125842,1,4,0:0:0:0:
109,192,126287,128,0,126731:0:0:0:0:
256,192,126731,128,0,127176:0:0:0:0:
402,192,127176,128,0,127620:0:0:0:0:
36,192,127620,1,4,0:0:0:0:
182,192,128065,1,0,0:0:0:0:
329,192,128509,1,0,0:0:0:0:
475,192,128953,128,0,129398:0:0:0:0:
36,192,129398,1,8,0:0:0:0:
329,192,129398,1,4,1:0:0:0:
182,192,129398,1,4,0:0:0:0:
402,192,129620,1,0,0:0:0:0:
256,192,129842,1,4,0:0:0:0:
109,192,129842,1,8,0:0:0:0:
329,192,130065,1,4,0:0:0:0:
475,192,130287,1,8,0:0:0:0:
36,192,130287,1,4,0:0:0:0:
182,192,130509,1,0,0:0:0:0:
256,192,130731,1,8,0:0:0:0:
402,192,130731,1,4,0:0:0:0:
109,192,130953,1,0,0:0:0:0:
36,192,131176,1,8,0:0:0:0:
329,192,131176,1,4,0:0:0:0:
182,192,131398,1,0,0:0:0:0:
475,192,131620,1,8,0:0:0:0:
256,192,131620,1,4,0:0:0:0:
109,192,131842,1,4,0:0:0:0:
402,192,132065,1,4,0:0:0:0:
36,192,132065,1,8,0:0:0:0:
182,192,132287,1,0,0:0:0:0:
329,192,132509,1,8,0:0:0:0:
475,192,132509,1,4,0:0:0:0:
256,192,132731,1,0,0:0:0:0:
36,192,132953,1,4,0:0:0:0:
182,192,132953,1,8,0:0:0:0:
402,192,133176,1,0,0:0:0:0:
109,192,133398,1,8,0:0:0:0:
329,192,133398,1,4,0:0:0:0:
256,192,133620,1,4,0:0:0:0:
402,192,133842,1,8,0:0:0:0:
36,192,133842,1,4,0:0:0:0:
182,192,134065,1,0,0:0:0:0:
329,192,134287,1,8,0:0:0:0:
475,192,134287,1,4,0:0:0:0:
109,192,134509,1,0,0:0:0:0:
256,192,134731,1,8,0:0:0:0:
402,192,134731,1,4,0:0:0:0:
182,192,134953,1,0,0:0:0:0:
36,192,135176,1,8,0:0:0:0:
329,192,135176,1,4,0:0:0:0:
109,192,135398,1,4,0:0:0:0:
256,192,135620,1,4,0:0:0:0:
475,192,135620,1,8,0:0:0:0:
182,192,135842,1,0,0:0:0:0:
36,192,136065,1,4,0:0:0:0:
402,192,136065,1,8,0:0:0:0:
329,192,136287,1,0,0:0:0:0:
109,192,136509,1,8,0:0:0:0:
256,192,136509,1,4,0:0:0:0:
475,192,136731,1,0,0:0:0:0:
402,192,136953,1,4,0:0:0:0:
182,192,136953,1,8,0:0:0:0:
36,192,137176,1,4,0:0:0:0:
329,192,137398,1,8,0:0:0:0:
109,192,137398,1,4,0:0:0:0:
256,192,137620,1,0,0:0:0:0:
475,192,137842,1,8,0:0:0:0:
182,192,137842,1,4,0:0:0:0:
329,192,138065,1,0,0:0:0:0:
402,192,138287,1,4,0:0:0:0:
36,192,138287,1,8,0:0:0:0:
182,192,138509,1,0,0:0:0:0:
109,192,138731,1,4,0:0:0:0:
329,192,138731,1,8,0:0:0:0:
402,192,138953,1,4,0:0:0:0:
256,192,139176,1,4,0:0:0:0:
475,192,139176,1,8,0:0:0:0:
36,192,139398,1,0,0:0:0:0:
182,192,139620,1,8,0:0:0:0:
329,192,139620,1,4,0:0:0:0:
402,192,139842,1,4,0:0:0:0:
109,192,140065,1,8,0:0:0:0:
256,192,140065,128,4,141842:1:0:0:0:
36,192,141842,128,4,143176:0:0:0:0:
475,192,141842,128,0,143176:0:0:0:0:
109,192,143176,1,4,0:0:0:0:
182,192,143176,1,8,0:0:0:0:
329,192,143176,1,0,0:0:0:0:
402,192,143176,1,0,0:0:0:0:
36,192,143620,1,8,0:0:0:0:
256,192,143620,1,0,0:0:0:0:
36,192,143842,1,8,0:0:0:0:
256,192,143842,1,0,0:0:0:0:
109,192,144065,1,4,0:0:0:0:
329,192,144065,1,0,0:0:0:0:
256,192,144176,128,4,144398:0:0:0:0:
475,192,144176,128,0,144398:0:0:0:0:
36,192,144398,1,8,0:0:0:0:
109,192,144398,1,0,0:0:0:0:
402,192,144398,1,0,0:0:0:0:
109,192,144731,1,8,0:0:0:0:
36,192,144731,1,0,0:0:0:0:
402,192,144731,1,0,0:0:0:0:
109,192,144953,1,4,0:0:0:0:
329,192,144953,1,0,0:0:0:0:
256,192,145065,128,4,145287:0:0:0:0:
475,192,145065,128,0,145287:0:0:0:0:
109,192,145287,1,8,0:0:0:0:
402,192,145287,1,0,0:0:0:0:
36,192,145287,1,0,0:0:0:0:
36,192,145620,1,8,0:0:0:0:
402,192,145620,1,0,0:0:0:0:
109,192,145620,1,0,0:0:0:0:
256,192,145842,128,0,146176:0:0:0:0:
182,192,146176,1,8,0:0:0:0:
475,192,146176,1,0,0:0:0:0:
329,192,146287,1,8,0:0:0:0:
36,192,146287,1,0,0:0:0:0:
36,192,146509,1,8,0:0:0:0:
329,192,146509,1,0,0:0:0:0:
109,192,146731,128,8,147176:0:0:0:0:
402,192,146731,128,0,147176:0:0:0:0:
475,192,147176,1,8,0:0:0:0:
36,192,147176,1,0,0:0:0:0:
256,192,147176,1,0,0:0:0:0:
36,192,147398,1,8,0:0:0:0:
256,192,147398,1,0,0:0:0:0:
329,192,147620,1,4,0:0:0:0:
109,192,147620,1,0,0:0:0:0:
475,192,147731,128,4,147953:0:0:0:0:
256,192,147731,128,0,147953:0:0:0:0:
402,192,147953,1,8,0:0:0:0:
109,192,147953,1,0,0:0:0:0:
36,192,147953,1,0,0:0:0:0:
402,192,148287,1,8,0:0:0:0:
36,192,148287,1,0,0:0:0:0:
109,192,148287,1,0,0:0:0:0:
329,192,148509,1,4,0:0:0:0:
109,192,148509,1,0,0:0:0:0:
475,192,148620,128,4,148842:0:0:0:0:
256,192,148620,128,0,148842:0:0:0:0:
36,192,148842,1,8,0:0:0:0:
402,192,148842,1,0,0:0:0:0:
109,192,148842,1,0,0:0:0:0:
402,192,149176,1,8,0:0:0:0:
109,192,149176,1,0,0:0:0:0:
36,192,149176,1,0,0:0:0:0:
256,192,149398,128,0,149731:0:0:0:0:
109,192,149731,1,8,0:0:0:0:
36,192,149731,1,0,0:0:0:0:
402,192,149842,1,8,0:0:0:0:
475,192,149842,1,0,0:0:0:0:
36,192,150065,1,8,0:0:0:0:
256,192,150065,1,0,0:0:0:0:
36,192,150287,1,8,0:0:0:0:
256,192,150287,1,0,0:0:0:0:
402,192,150398,1,8,0:0:0:0:
475,192,150398,1,0,0:0:0:0:
475,192,150731,1,4,0:0:0:0:
36,192,150731,1,4,1:0:0:0:
256,192,150731,1,0,0:0:0:0:
109,192,150731,128,0,151899:0:0:0:0:
402,192,150731,128,0,151899:0:0:0:0:
182,192,151899,1,8,0:0:0:0:
36,192,151899,1,0,0:0:0:0:
475,192,151899,1,0,0:0:0:0:
329,192,151899,1,0,0:0:0:0:
256,192,152233,1,8,0:0:0:0:
36,192,152233,1,4,0:0:0:0:
475,192,152233,1,0,0:0:0:0:
182,192,152399,1,8,0:0:0:0:
329,192,152399,1,4,0:0:0:0:
256,192,152566,1,4,0:0:0:0:
36,192,152566,1,8,0:0:0:0:
475,192,152566,1,0,0:0:0:0:
109,192,152733,128,4,152899:0:0:0:0:
402,192,152733,128,0,152899:0:0:0:0:
256,192,152899,1,4,0:0:0:0:
182,192,153233,5,4,0:0:0:0:
475,192,153233,1,4,0:0:0:0:
402,192,153233,1,4,1:0:0:0:
36,192,153233,1,0,0:0:0:0:
256,192,153566,1,4,0:0:0:0:
36,192,153566,1,0,0:0:0:0:
109,192,153733,1,8,0:0:0:0:
329,192,153733,1,4,0:0:0:0:
475,192,153733,1,0,0:0:0:0:
329,192,154066,1,4,0:0:0:0:
402,192,154149,1,0,0:0:0:0:
182,192,154233,1,4,0:0:0:0:
475,192,154233,1,0,0:0:0:0:
109,192,154316,1,4,0:0:0:0:
402,192,154316,1,0,0:0:0:0:
329,192,154399,1,4,0:0:0:0:
36,192,154399,1,0,0:0:0:0:
109,192,154566,1,8,0:0:0:0:
256,192,154566,1,4,0:0:0:0:
475,192,154566,1,4,1:0:0:0:
402,192,154899,1,4,0:0:0:0:
36,192,154899,1,0,0:0:0:0:
109,192,155066,1,4,0:0:0:0:
256,192,155066,1,8,0:0:0:0:
475,192,155066,1,0,0:0:0:0:
329,192,155399,1,4,0:0:0:0:
256,192,155483,1,4,0:0:0:0:
475,192,155566,1,4,0:0:0:0:
182,192,155566,1,0,0:0:0:0:
402,192,155649,1,4,0:0:0:0:
109,192,155649,1,0,0:0:0:0:
329,192,155733,1,4,0:0:0:0:
36,192,155733,1,0,0:0:0:0:
475,192,155899,1,4,0:0:0:0:
36,192,155899,1,4,1:0:0:0:
329,192,155899,1,8,0:0:0:0:
182,192,156233,1,4,0:0:0:0:
402,192,156233,1,0,0:0:0:0:
36,192,156399,1,4,0:0:0:0:
109,192,156399,1,8,0:0:0:0:
329,192,156399,1,0,0:0:0:0:
36,192,156733,1,4,0:0:0:0:
109,192,156816,1,0,0:0:0:0:
475,192,156899,1,4,0:0:0:0:
182,192,156899,1,0,0:0:0:0:
402,192,156983,1,4,0:0:0:0:
109,192,156983,1,0,0:0:0:0:
329,192,157066,1,4,0:0:0:0:
36,192,157066,1,0,0:0:0:0:
475,192,157233,1,4,1:0:0:0:
36,192,157233,1,8,0:0:0:0:
256,192,157233,1,0,0:0:0:0:
402,192,157566,1,4,0:0:0:0:
109,192,157566,1,0,0:0:0:0:
475,192,157733,1,8,0:0:0:0:
36,192,157733,1,4,0:0:0:0:
256,192,157733,1,0,0:0:0:0:
402,192,158066,1,4,0:0:0:0:
256,192,158066,1,8,0:0:0:0:
109,192,158066,1,0,0:0:0:0:
36,192,158233,1,4,0:0:0:0:
475,192,158233,1,0,0:0:0:0:
329,192,158399,1,8,0:0:0:0:
182,192,158399,1,4,0:0:0:0:
475,192,158566,1,4,1:0:0:0:
109,192,158566,1,4,0:0:0:0:
402,192,158566,1,8,0:0:0:0:
256,192,158566,1,0,0:0:0:0:
36,192,158566,1,0,0:0:0:0:
36,192,158899,1,4,0:0:0:0:
475,192,158899,1,0,0:0:0:0:
256,192,159066,1,4,0:0:0:0:
402,192,159066,1,8,0:0:0:0:
109,192,159066,1,0,0:0:0:0:
182,192,159399,1,4,0:0:0:0:
109,192,159483,1,0,0:0:0:0:
329,192,159566,1,4,0:0:0:0:
36,192,159566,1,0,0:0:0:0:
402,192,159649,1,4,0:0:0:0:
109,192,159649,1,0,0:0:0:0:
182,192,159733,1,4,0:0:0:0:
475,192,159733,1,0,0:0:0:0:
109,192,159899,1,8,0:0:0:0:
36,192,159899,1,4,1:0:0:0:
402,192,159899,1,0,0:0:0:0:
475,192,160233,1,4,0:0:0:0:
182,192,160233,1,0,0:0:0:0:
109,192,160399,1,4,0:0:0:0:
402,192,160399,1,8,0:0:0:0:
36,192,160399,1,0,0:0:0:0:
475,192,160733,1,4,0:0:0:0:
402,192,160816,1,4,0:0:0:0:
329,192,160899,1,4,0:0:0:0:
36,192,160899,1,0,0:0:0:0:
109,192,160983,1,0,0:0:0:0:
402,192,160983,1,4,0:0:0:0:
475,192,161066,1,4,0:0:0:0:
182,192,161066,1,0,0:0:0:0:
329,192,161233,1,4,0:0:0:0:
256,192,161233,1,8,0:0:0:0:
36,192,161233,1,0,0:0:0:0:
109,192,161566,1,4,0:0:0:0:
402,192,161566,1,0,0:0:0:0:
36,192,161733,1,8,0:0:0:0:
256,192,161733,1,4,0:0:0:0:
329,192,161733,1,0,0:0:0:0:
329,192,162066,1,4,0:0:0:0:
256,192,162149,1,4,0:0:0:0:
475,192,162233,1,4,0:0:0:0:
182,192,162233,1,0,0:0:0:0:
109,192,162316,1,4,0:0:0:0:
402,192,162316,1,0,0:0:0:0:
36,192,162399,1,4,0:0:0:0:
329,192,162399,1,0,0:0:0:0:
402,192,162566,1,4,0:0:0:0:
109,192,162566,1,4,1:0:0:0:
182,192,162566,1,8,0:0:0:0:
36,192,162899,1,4,0:0:0:0:
475,192,162899,1,0,0:0:0:0:
402,192,163066,1,4,0:0:0:0:
109,192,163066,1,0,0:0:0:0:
256,192,163066,1,8,0:0:0:0:
109,192,163233,1,4,0:0:0:0:
402,192,163233,1,8,0:0:0:0:
109,192,163566,1,8,0:0:0:0:
256,192,163566,1,4,0:0:0:0:
402,192,163566,1,0,0:0:0:0:
329,192,163899,1,8,0:0:0:0:
475,192,163899,1,4,1:0:0:0:
36,192,163899,1,0,0:0:0:0:
182,192,163899,128,0,164233:0:0:0:0:
329,192,164233,1,4,0:0:0:0:
182,192,164399,1,8,0:0:0:0:
36,192,164399,1,4,0:0:0:0:
475,192,164399,1,0,0:0:0:0:
329,192,164566,1,4,0:0:0:0:
109,192,164733,1,4,0:0:0:0:
256,192,164899,1,4,0:0:0:0:
182,192,165066,1,8,0:0:0:0:
475,192,165066,1,4,0:0:0:0:
36,192,165066,1,0,0:0:0:0:
329,192,165232,128,0,165566:0:0:0:0:
182,192,165566,1,4,0:0:0:0:
36,192,165732,1,8,0:0:0:0:
402,192,165732,1,0,0:0:0:0:
475,192,165732,1,0,0:0:0:0:
256,192,165899,1,4,0:0:0:0:
109,192,166066,1,4,0:0:0:0:
329,192,166232,1,4,0:0:0:0:
182,192,166399,1,8,0:0:0:0:
475,192,166399,1,4,0:0:0:0:
36,192,166399,1,0,0:0:0:0:
329,192,166566,128,0,166899:0:0:0:0:
109,192,166899,1,4,0:0:0:0:
182,192,167066,1,8,0:0:0:0:
475,192,167066,1,4,0:0:0:0:
329,192,167066,1,0,0:0:0:0:
36,192,167232,1,4,0:0:0:0:
109,192,167399,1,4,0:0:0:0:
475,192,167566,1,4,0:0:0:0:
182,192,167732,1,8,0:0:0:0:
36,192,167732,1,4,0:0:0:0:
402,192,167732,1,0,0:0:0:0:
109,192,167899,1,4,1:0:0:0:
256,192,167899,128,4,168232:0:0:0:0:
329,192,167899,1,0,0:0:0:0:
109,192,168232,1,4,0:0:0:0:
36,192,168399,1,4,0:0:0:0:
475,192,168399,1,8,0:0:0:0:
329,192,168399,1,0,0:0:0:0:
256,192,168566,1,4,0:0:0:0:
109,192,168732,1,4,0:0:0:0:
329,192,168899,1,4,0:0:0:0:
182,192,169066,1,8,0:0:0:0:
402,192,169066,1,4,0:0:0:0:
36,192,169066,1,0,0:0:0:0:
109,192,169232,1,8,0:0:0:0:
256,192,169232,1,4,1:0:0:0:
475,192,169232,128,0,169566:0:0:0:0:
182,192,169566,1,4,0:0:0:0:
256,192,169732,1,4,0:0:0:0:
402,192,169732,1,8,0:0:0:0:
36,192,169732,1,0,0:0:0:0:
109,192,169899,1,4,0:0:0:0:
329,192,170066,1,4,0:0:0:0:
402,192,170232,1,4,0:0:0:0:
256,192,170399,1,4,0:0:0:0:
475,192,170399,1,8,0:0:0:0:
109,192,170399,1,0,0:0:0:0:
182,192,170566,1,4,0:0:0:0:
36,192,170566,1,8,0:0:0:0:
402,192,170566,128,0,170899:0:0:0:0:
36,192,170899,1,4,0:0:0:0:
256,192,171066,1,8,0:0:0:0:
109,192,171066,1,4,0:0:0:0:
475,192,171066,1,0,0:0:0:0:
329,192,171232,1,0,0:0:0:0:
182,192,171399,1,8,0:0:0:0:
475,192,171399,1,4,0:0:0:0:
402,192,171566,1,8,0:0:0:0:
109,192,171566,1,4,0:0:0:0:
36,192,171732,1,4,0:0:0:0:
329,192,171732,1,8,0:0:0:0:
182,192,171899,1,4,0:0:0:0:
36,192,172066,1,8,0:0:0:0:
475,192,172066,1,4,1:0:0:0:
329,192,172066,1,4,0:0:0:0:
182,192,172566,1,4,0:0:0:0:
36,192,172566,1,4,1:0:0:0:
475,192,172566,1,8,0:0:0:0:
402,192,173066,1,8,0:0:0:0:
475,192,173066,1,4,1:0:0:0:
36,192,173066,1,4,0:0:0:0:
475,192,173566,1,4,1:0:0:0:
36,192,173566,1,8,0:0:0:0:
256,192,173566,1,0,0:0:0:0:
109,192,174066,1,4,0:0:0:0:
475,192,174066,1,0,0:0:0:0:
36,192,174066,1,0,0:0:0:0:
182,192,174149,1,4,0:0:0:0:
256,192,174232,1,4,0:0:0:0:
402,192,174316,1,4,0:0:0:0:
329,192,174399,1,4,0:0:0:0:
256,192,174482,1,4,0:0:0:0:
182,192,174566,1,4,0:0:0:0:
36,192,174566,1,4,1:0:0:0:
475,192,174566,1,0,0:0:0:0:
109,192,174732,1,4,0:0:0:0:
109,192,174899,1,4,0:0:0:0:
182,192,175066,1,8,0:0:0:0:
36,192,175066,1,4,0:0:0:0:
402,192,175066,1,0,0:0:0:0:
475,192,175066,1,0,0:0:0:0:
329,192,175232,1,4,0:0:0:0:
109,192,175399,1,4,0:0:0:0:
402,192,175566,1,4,0:0:0:0:
475,192,175732,1,8,0:0:0:0:
36,192,175732,1,4,0:0:0:0:
182,192,175732,1,0,0:0:0:0:
329,192,175899,1,4,0:0:0:0:
109,192,176066,1,0,0:0:0:0:
256,192,176232,1,4,0:0:0:0:
36,192,176399,1,8,0:0:0:0:
182,192,176399,1,4,0:0:0:0:
475,192,176399,1,0,0:0:0:0:
402,192,176566,1,4,0:0:0:0:
256,192,176732,1,4,0:0:0:0:
109,192,176899,1,4,0:0:0:0:
475,192,177066,1,4,0:0:0:0:
182,192,177066,1,8,0:0:0:0:
402,192,177066,1,0,0:0:0:0:
256,192,177232,1,4,0:0:0:0:
109,192,177399,1,0,0:0:0:0:
329,192,177566,1,4,0:0:0:0:
182,192,177732,1,4,0:0:0:0:
36,192,177732,1,8,0:0:0:0:
475,192,177732,1,0,0:0:0:0:
256,192,177899,1,4,0:0:0:0:
402,192,178066,1,4,0:0:0:0:
109,192,178232,1,4,0:0:0:0:
475,192,178399,1,8,0:0:0:0:
182,192,178399,1,4,0:0:0:0:
329,192,178399,1,0,0:0:0:0:
36,192,178566,1,4,0:0:0:0:
109,192,178732,1,0,0:0:0:0:
402,192,178899,1,4,0:0:0:0:
256,192,179066,1,4,0:0:0:0:
36,192,179066,1,8,0:0:0:0:
475,192,179066,1,0,0:0:0:0:
109,192,179232,1,4,0:0:0:0:
329,192,179232,1,0,0:0:0:0:
402,192,179399,1,4,0:0:0:0:
329,192,179566,1,4,0:0:0:0:
256,192,179732,1,4,0:0:0:0:
475,192,179732,1,8,0:0:0:0:
109,192,179732,1,0,0:0:0:0:
36,192,179899,1,4,0:0:0:0:
182,192,179899,1,4,1:0:0:0:
402,192,179899,128,0,180232:0:0:0:0:
182,192,180232,1,4,0:0:0:0:
36,192,180399,1,8,0:0:0:0:
402,192,180399,1,4,0:0:0:0:
256,192,180399,1,0,0:0:0:0:
109,192,180566,1,4,0:0:0:0:
475,192,180566,1,0,0:0:0:0:
329,192,180732,1,4,0:0:0:0:
182,192,180899,1,4,0:0:0:0:
36,192,181066,1,4,0:0:0:0:
256,192,181066,1,8,0:0:0:0:
402,192,181066,1,0,0:0:0:0:
109,192,181232,1,4,0:0:0:0:
329,192,181399,1,0,0:0:0:0:
182,192,181566,1,4,0:0:0:0:
475,192,181732,1,4,0:0:0:0:
36,192,181732,1,8,0:0:0:0:
256,192,181732,1,0,0:0:0:0:
402,192,181899,1,4,0:0:0:0:
109,192,181899,1,0,0:0:0:0:
329,192,182066,1,4,0:0:0:0:
182,192,182232,1,4,0:0:0:0:
475,192,182399,1,4,0:0:0:0:
109,192,182399,1,8,0:0:0:0:
329,192,182399,1,0,0:0:0:0:
36,192,182566,1,4,0:0:0:0:
402,192,182566,1,8,0:0:0:0:
256,192,182566,128,0,182899:0:0:0:0:
109,192,182899,1,4,0:0:0:0:
329,192,182899,1,0,0:0:0:0:
36,192,183066,1,4,0:0:0:0:
402,192,183066,1,8,0:0:0:0:
256,192,183232,1,0,0:0:0:0:
475,192,183232,1,0,0:0:0:0:
329,192,183399,1,4,0:0:0:0:
109,192,183399,1,0,0:0:0:0:
182,192,183566,1,4,0:0:0:0:
402,192,183566,1,0,0:0:0:0:
256,192,183732,1,4,0:0:0:0:
475,192,183732,1,8,0:0:0:0:
109,192,183899,1,4,0:0:0:0:
36,192,183899,1,4,1:0:0:0:
329,192,183899,128,0,184232:0:0:0:0:
36,192,184232,1,4,0:0:0:0:
256,192,184232,1,0,0:0:0:0:
182,192,184399,1,8,0:0:0:0:
475,192,184399,1,4,0:0:0:0:
109,192,184566,1,4,0:0:0:0:
402,192,184566,1,0,0:0:0:0:
36,192,184732,1,4,0:0:0:0:
329,192,184732,1,0,0:0:0:0:
109,192,184816,1,4,0:0:0:0:
402,192,184816,1,0,0:0:0:0:
182,192,184899,1,4,0:0:0:0:
475,192,184899,1,0,0:0:0:0:
256,192,184982,1,4,0:0:0:0:
329,192,185066,1,4,0:0:0:0:
402,192,185149,1,4,0:0:0:0:
36,192,185232,1,4,0:0:0:0:
475,192,185232,1,0,0:0:0:0:
182,192,185232,1,0,0:0:0:0:
109,192,185399,1,0,0:0:0:0:
109,192,185566,1,4,0:0:0:0:
182,192,185732,1,4,0:0:0:0:
36,192,185732,1,8,0:0:0:0:
402,192,185732,1,0,0:0:0:0:
475,192,185732,1,0,0:0:0:0:
329,192,185899,1,4,0:0:0:0:
109,192,186066,1,0,0:0:0:0:
256,192,186232,1,4,0:0:0:0:
475,192,186399,1,8,0:0:0:0:
36,192,186399,1,4,0:0:0:0:
182,192,186399,1,0,0:0:0:0:
402,192,186566,1,4,0:0:0:0:
109,192,186732,1,0,0:0:0:0:
329,192,186899,1,4,0:0:0:0:
36,192,187066,1,8,0:0:0:0:
256,192,187066,1,4,0:0:0:0:
475,192,187066,1,0,0:0:0:0:
182,192,187232,1,4,0:0:0:0:
402,192,187399,1,4,0:0:0:0:
329,192,187566,1,4,0:0:0:0:
109,192,187732,1,4,0:0:0:0:
256,192,187732,1,8,0:0:0:0:
475,192,187732,1,0,0:0:0:0:
402,192,187899,1,4,0:0:0:0:
329,192,188066,1,0,0:0:0:0:
182,192,188232,1,4,0:0:0:0:
36,192,188399,1,8,0:0:0:0:
475,192,188399,1,4,0:0:0:0:
402,192,188399,1,0,0:0:0:0:
256,192,188566,1,4,0:0:0:0:
109,192,188732,1,4,0:0:0:0:
329,192,188899,1,4,0:0:0:0:
182,192,189066,1,4,0:0:0:0:
36,192,189066,1,8,0:0:0:0:
475,192,189066,1,0,0:0:0:0:
402,192,189232,1,4,0:0:0:0:
329,192,189399,1,0,0:0:0:0:
36,192,189566,1,4,0:0:0:0:
256,192,189566,1,0,0:0:0:0:
109,192,189732,1,4,0:0:0:0:
402,192,189732,1,8,0:0:0:0:
475,192,189732,1,0,0:0:0:0:
36,192,189899,1,4,0:0:0:0:
329,192,189899,1,0,0:0:0:0:
475,192,190066,1,4,0:0:0:0:
256,192,190066,1,0,0:0:0:0:
402,192,190232,1,4,0:0:0:0:
182,192,190232,1,0,0:0:0:0:
36,192,190399,1,4,0:0:0:0:
109,192,190399,128,8,190732:0:0:0:0:
329,192,190399,128,0,190732:0:0:0:0:
402,192,190732,1,4,1:0:0:0:
256,192,190732,1,0,0:0:0:0:
475,192,190732,128,0,192066:0:0:0:0:
36,192,192066,1,4,1:0:0:0:
109,192,192066,1,4,0:0:0:0:
329,192,192066,1,0,0:0:0:0:
182,192,192066,1,0,0:0:0:0:
36,192,192399,1,0,0:0:0:0:
36,192,192732,1,0,0:0:0:0:
36,192,193066,1,0,0:0:0:0:
36,192,193399,1,4,0:0:0:0:
109,192,193399,1,8,0:0:0:0:
402,192,193399,1,0,0:0:0:0:
36,192,193566,1,4,0:0:0:0:
109,192,193566,1,8,0:0:0:0:
402,192,193566,1,0,0:0:0:0:
36,192,194066,1,8,0:0:0:0:
109,192,194066,1,4,0:0:0:0:
402,192,194066,1,0,0:0:0:0:
109,192,194232,1,4,0:0:0:0:
36,192,194232,1,8,0:0:0:0:
402,192,194232,1,0,0:0:0:0:
36,192,194732,1,4,0:0:0:0:
182,192,194732,1,8,0:0:0:0:
475,192,194732,1,0,0:0:0:0:
256,192,194899,1,4,0:0:0:0:
36,192,194899,1,8,0:0:0:0:
475,192,194899,1,0,0:0:0:0:
256,192,195232,1,4,0:0:0:0:
36,192,195232,128,8,195399:0:0:0:0:
475,192,195232,128,0,195399:0:0:0:0:
36,192,195566,128,8,195899:0:0:0:0:
256,192,195566,128,4,195899:0:0:0:0:
475,192,195566,128,0,195899:0:0:0:0:
36,192,196066,1,4,0:0:0:0:
109,192,196066,1,8,0:0:0:0:
402,192,196066,1,0,0:0:0:0:
109,192,196232,1,4,0:0:0:0:
36,192,196232,1,8,0:0:0:0:
402,192,196232,1,0,0:0:0:0:
402,192,196732,1,8,0:0:0:0:
36,192,196732,1,4,0:0:0:0:
109,192,196732,1,0,0:0:0:0:
109,192,196899,1,4,0:0:0:0:
402,192,196899,1,8,0:0:0:0:
36,192,196899,1,0,0:0:0:0:
475,192,197399,1,4,0:0:0:0:
36,192,197399,1,8,0:0:0:0:
182,192,197399,1,0,0:0:0:0:
36,192,197566,1,4,0:0:0:0:
256,192,197566,1,8,0:0:0:0:
475,192,197566,1,0,0:0:0:0:
475,192,197899,128,4,198066:0:0:0:0:
36,192,197899,128,8,198066:0:0:0:0:
256,192,197899,1,0,0:0:0:0:
475,192,198232,128,8,198566:0:0:0:0:
36,192,198232,128,4,198566:0:0:0:0:
256,192,198232,128,0,198566:0:0:0:0:
402,192,198732,1,8,0:0:0:0:
109,192,198732,1,4,0:0:0:0:
36,192,198732,1,0,0:0:0:0:
402,192,198899,1,8,0:0:0:0:
36,192,198899,1,4,0:0:0:0:
109,192,198899,1,0,0:0:0:0:
109,192,199399,1,0,0:0:0:0:
36,192,199399,1,4,0:0:0:0:
402,192,199399,1,8,0:0:0:0:
36,192,199566,1,0,0:0:0:0:
402,192,199566,1,4,0:0:0:0:
109,192,199566,1,8,0:0:0:0:
182,192,200066,1,0,0:0:0:0:
36,192,200066,1,4,0:0:0:0:
475,192,200066,1,8,0:0:0:0:
475,192,200232,1,8,0:0:0:0:
256,192,200232,1,4,0:0:0:0:
36,192,200232,1,0,0:0:0:0:
256,192,200566,1,8,0:0:0:0:
36,192,200566,128,4,200732:0:0:0:0:
475,192,200566,128,0,200732:0:0:0:0:
256,192,200899,128,4,201232:0:0:0:0:
36,192,200899,128,8,201232:0:0:0:0:
475,192,200899,128,0,201232:0:0:0:0:
36,192,201399,1,8,0:0:0:0:
109,192,201399,1,4,0:0:0:0:
402,192,201399,1,0,0:0:0:0:
109,192,201566,1,8,0:0:0:0:
36,192,201566,1,4,0:0:0:0:
402,192,201566,1,0,0:0:0:0:
402,192,202066,1,4,0:0:0:0:
36,192,202066,1,8,0:0:0:0:
109,192,202066,1,0,0:0:0:0:
109,192,202232,1,8,0:0:0:0:
402,192,202232,1,4,0:0:0:0:
36,192,202232,1,0,0:0:0:0:
475,192,202732,1,8,0:0:0:0:
36,192,202732,1,4,0:0:0:0:
182,192,202732,1,0,0:0:0:0:
36,192,202899,1,8,0:0:0:0:
256,192,202899,1,4,0:0:0:0:
475,192,202899,1,0,0:0:0:0:
475,192,203232,128,8,203399:0:0:0:0:
36,192,203232,128,4,203399:0:0:0:0:
256,192,203232,1,0,0:0:0:0:
475,192,203566,128,8,203899:0:0:0:0:
36,192,203566,128,4,203899:0:0:0:0:
256,192,203566,128,0,203899:0:0:0:0:
36,192,204066,1,4,0:0:0:0:
256,192,204066,1,4,0:0:0:0:
475,192,204066,1,0,0:0:0:0:
109,192,204399,1,4,0:0:0:0:
402,192,204399,1,8,0:0:0:0:
109,192,204732,128,8,205066:0:0:0:0:
402,192,204732,128,4,205066:0:0:0:0:
109,192,205232,1,8,0:0:0:0:
402,192,205232,1,4,0:0:0:0:
109,192,205566,128,4,205899:0:0:0:0:
402,192,205566,128,8,205899:0:0:0:0:
109,192,206066,1,4,0:0:0:0:
402,192,206066,1,8,0:0:0:0:
109,192,206399,128,4,206899:0:0:0:0:
402,192,206399,128,8,206899:0:0:0:0:
109,192,207066,1,4,0:0:0:0:
402,192,207066,1,8,0:0:0:0:
109,192,207399,128,4,207732:0:0:0:0:
402,192,207399,128,8,207732:0:0:0:0:
256,192,207899,1,4,0:0:0:0:
402,192,207899,128,4,208399:1:0:0:0:
475,192,207899,128,8,208399:0:0:0:0:
109,192,207899,128,0,208399:0:0:0:0:
36,192,207899,128,0,208399:0:0:0:0:
