osu file format v14

[General]
AudioFilename: IA - Enmei Chiryou.mp3
AudioLeadIn: 1996
PreviewTime: 76292
Countdown: 0
SampleSet: Normal
StackLeniency: 0.7
Mode: 2
LetterboxInBreaks: 0
EpilepsyWarning: 1
WidescreenStoryboard: 1

[Editor]
Bookmarks: 23626,31182,71182
DistanceSpacing: 1
BeatDivisor: 4
GridSize: 4
TimelineZoom: 2.2

[Metadata]
Title:Enmei Chiryou
TitleUnicode:延命治療
Artist:Neru feat. IA
ArtistUnicode:Neru feat. IA
Creator:puxtu
Version:Julie's Salad
Source:太鼓の達人
Tags:vocaloid IA Life Prolonging Treatment Takane6 combinatorix Kuo_Kyoka nowsmart Blocko lordraika Julie toybot winda Quick_Draw JBHyperion Agka Sun Rainbow pxt
BeatmapID:476990
BeatmapSetID:195210

[Difficulty]
HPDrainRate:4
CircleSize:4
OverallDifficulty:7
ApproachRate:7
SliderMultiplier:1.6
SliderTickRate:1

[Events]
//Background and Video events
0,0,"Vocaloid.full.1384459.jpg",0,0
//Break Periods
2,101154,114276
//Storyboard Layer 0 (Background)
//Storyboard Layer 1 (Fail)
//Storyboard Layer 2 (Pass)
//Storyboard Layer 3 (Foreground)
//Storyboard Sound Samples

[TimingPoints]
518,444.444444444444,4,1,3,65,1,0
5851,444.444444444444,3,1,3,65,1,0
7184,444.444444444444,4,1,3,65,1,0
12517,444.444444444444,3,1,3,65,1,0
13850,444.444444444444,4,1,3,65,1,0
19183,444.444444444444,3,1,3,65,1,0
21849,444.444444444444,4,1,3,65,1,0
66293,-100,4,2,3,65,0,0
67626,-100,4,1,3,65,0,0
68071,-100,4,2,3,65,0,0
69404,-100,4,1,3,65,0,0
69848,-100,4,2,3,65,0,0
71182,-100,4,1,3,65,0,0
71626,444.444444444444,3,1,3,65,1,0
74292,333.333333333333,4,1,3,65,1,0
76792,-125,4,1,3,65,0,1
87125,-125,4,2,3,65,0,0
87458,-125,4,1,3,65,0,1
98291,-125,4,1,3,65,0,0
100308,333.333333333333,4,1,3,65,1,0
100308,-125,4,1,3,65,0,0
100954,444.444444444444,4,1,3,65,1,0
104509,-100,4,2,3,25,0,0
115176,-100,4,1,3,40,0,0
143176,-100,4,1,3,65,0,0
146287,-100,4,2,3,65,0,0
147176,-100,4,1,3,65,0,0
149842,-100,4,2,3,65,0,0
150287,-100,4,1,3,65,0,0
150733,333.333333333333,4,1,3,65,1,0
153233,-125,4,1,3,65,0,1
163566,-125,4,2,3,65,0,0
163899,-125,4,1,3,65,0,1
174232,-125,4,1,3,65,0,0
174566,-125,4,1,3,65,0,1
184899,-125,4,1,3,65,0,0
185232,-125,4,1,3,65,0,1
190566,-125,4,1,3,65,0,0
190732,-125,4,2,3,65,0,0
192066,-125,4,1,3,65,0,0
192399,-125,4,2,3,65,0,0
193399,-125,4,1,3,65,0,0

[Colours]
Combo1 : 128,255,0
Combo2 : 255,0,128
Combo3 : 5,5,240
Combo4 : 255,255,0

[HitObjects]
216,192,518,6,0,L|96:152,1,120,4|0,0:0|0:0,0:0:0:0:
252,192,1184,2,0,L|132:152,1,120
320,192,1851,6,0,P|396:180|484:152,1,160,2|4,0:0|2:0,0:0:0:0:
360,192,2629,1,0,0:0:0:0:
264,192,2962,1,0,0:0:0:0:
408,192,3295,1,0,0:0:0:0:
228,192,3629,6,0,P|152:180|64:152,1,160,8|4,0:0|2:0,0:0:0:0:
192,192,4406,1,0,0:0:0:0:
288,192,4740,1,0,0:0:0:0:
144,192,5073,1,0,0:0:0:0:
328,192,5406,5,2,0:0:0:0:
184,192,5629,1,2,0:0:0:0:
64,192,5962,5,12,0:0:0:0:
244,192,6295,1,12,0:0:0:0:
16,192,6628,1,12,0:0:0:0:
184,192,6962,1,12,0:0:0:0:
256,192,7184,1,4,0:0:0:0:
456,192,7628,6,0,L|288:192,1,160,2|0,0:0|0:0,0:0:0:0:
488,192,8517,1,2,0:0:0:0:
328,192,8961,1,0,0:0:0:0:
136,192,9406,6,0,L|304:192,1,160,2|0,0:0|0:0,0:0:0:0:
456,192,10295,2,0,L|376:152,2,80,2|0|0,0:0|0:0|0:0,0:0:0:0:
264,192,11183,6,0,L|96:192,1,160,2|0,0:0|0:0,0:0:0:0:
184,192,11850,1,0,0:0:0:0:
104,192,12072,1,8,0:0:0:0:
436,192,12628,5,2,0:0:0:0:
256,192,12961,1,2,0:0:0:0:
436,192,13294,1,2,0:0:0:0:
208,192,13628,1,6,0:0:0:0:
328,192,13850,1,4,0:0:0:0:
128,192,14294,6,0,P|68:168|112:92,1,160,2|0,0:0|0:0,0:0:0:0:
288,192,15183,1,2,0:0:0:0:
208,192,15405,1,0,0:0:0:0:
128,192,15627,1,0,0:0:0:0:
320,192,16072,5,2,0:0:0:0:
208,192,16516,1,0,0:0:0:0:
248,192,16627,1,8,0:0:0:0:
68,192,16961,1,2,0:0:0:0:
148,192,17183,1,0,0:0:0:0:
228,192,17405,1,0,0:0:0:0:
420,192,17849,6,0,P|468:144|392:84,1,160,2|0,0:0|0:0,0:0:0:0:
228,196,18738,1,2,0:0:0:0:
148,192,18961,1,0,0:0:0:0:
28,192,19294,6,0,P|88:184|152:160,3,120,8|8|8|8,0:0|0:0|0:0|0:0,0:0:0:0:
360,176,20627,5,6,0:0:0:0:
180,176,20960,1,6,0:0:0:0:
396,176,21294,1,6,0:0:0:0:
228,176,21627,1,6,0:0:0:0:
148,176,21849,1,4,0:0:0:0:
236,192,23626,5,4,0:0:0:0:
428,192,24071,1,2,0:0:0:0:
236,192,24515,2,0,L|300:136,1,80
156,192,24960,1,2,0:0:0:0:
0,192,25404,1,0,0:0:0:0:
192,192,25848,6,0,L|276:156,2,80,2|0|0,0:0|0:0|0:0,0:0:0:0:
272,192,26515,1,0,0:0:0:0:
400,192,26737,1,2,0:0:0:0:
220,192,27182,1,0,0:0:0:0:
412,192,27626,5,2,0:0:0:0:
252,192,28071,2,0,L|168:192,1,80
284,192,28515,1,2,0:0:0:0:
204,192,28737,1,0,0:0:0:0:
124,192,28960,1,0,0:0:0:0:
316,192,29404,6,0,L|236:164,2,80,2|0|0,0:0|0:0|0:0,0:0:0:0:
508,192,30293,2,0,L|412:192,1,80,2|0,0:0|0:0,0:0:0:0:
236,192,30737,1,4,0:0:0:0:
412,192,31182,6,0,P|420:140|332:88,1,160,2|0,0:0|0:0,0:0:0:0:
148,192,32071,1,2,0:0:0:0:
308,192,32515,1,0,0:0:0:0:
116,192,32960,5,2,0:0:0:0:
196,192,33182,1,0,0:0:0:0:
276,192,33404,2,0,L|360:192,1,80
244,192,33848,1,2,0:0:0:0:
84,200,34293,1,0,0:0:0:0:
44,200,34515,5,2,0:0:0:0:
164,200,34737,1,2,0:0:0:0:
324,196,35182,2,0,L|248:152,1,80
368,192,35626,1,2,0:0:0:0:
208,192,36071,6,0,L|280:144,1,80
156,196,36515,1,2,0:0:0:0:
316,196,36960,2,0,L|216:196,1,80
92,192,37404,1,8,0:0:0:0:
12,192,37626,1,0,0:0:0:0:
172,192,37848,1,4,0:0:0:0:
284,196,38293,5,2,0:0:0:0:
124,196,38515,1,4,0:0:0:0:
284,196,38960,1,0,0:0:0:0:
364,196,39182,2,0,L|348:112,1,80,2|0,0:0|0:0,0:0:0:0:
204,196,39626,1,8,0:0:0:0:
444,196,40071,5,2,0:0:0:0:
204,196,40515,1,0,0:0:0:0:
444,196,40960,1,2,0:0:0:0:
204,196,41404,6,0,P|136:232|36:236,1,160,8|2,0:0|0:0,0:0:0:0:
216,196,42071,1,4,0:0:0:0:
376,192,42515,1,0,0:0:0:0:
296,192,42737,2,0,L|324:104,1,80,2|0,0:0|0:0,0:0:0:0:
176,196,43182,1,8,0:0:0:0:
416,196,43626,5,2,0:0:0:0:
176,196,44182,1,2,0:0:0:0:
356,192,44515,1,2,0:0:0:0:
36,196,44960,1,4,0:0:0:0:
276,196,45404,5,2,0:0:0:0:
396,196,45626,2,0,P|396:152|296:112,1,160
220,192,46293,2,0,L|168:264,1,80,2|0,0:0|0:0,0:0:0:0:
316,204,46737,1,8,0:0:0:0:
156,200,47182,5,2,0:0:0:0:
316,204,47626,1,8,0:0:0:0:
76,200,48071,1,2,0:0:0:0:
236,196,48515,1,8,0:0:0:0:
396,200,48960,5,2,0:0:0:0:
236,196,49182,1,4,0:0:0:0:
396,200,49626,1,0,0:0:0:0:
480,192,49848,2,0,L|380:192,1,80,2|0,0:0|0:0,0:0:0:0:
256,192,50293,5,8,0:0:0:0:
96,196,50737,1,2,0:0:0:0:
336,192,51182,1,8,0:0:0:0:
176,192,51626,2,0,L|64:192,1,80,2|2,0:0|0:0,0:0:0:0:
240,192,52071,1,4,0:0:0:0:
400,196,52515,5,2,0:0:0:0:
480,196,52737,1,0,0:0:0:0:
320,192,53182,1,0,0:0:0:0:
240,196,53404,1,2,0:0:0:0:
400,196,53848,1,0,0:0:0:0:
192,192,54293,5,2,0:0:0:0:
352,192,54737,1,0,0:0:0:0:
252,192,54960,1,0,0:0:0:0:
152,192,55182,2,0,L|228:152,2,80,2|0|0,0:0|0:0|0:0,0:0:0:0:
392,192,56071,6,0,P|408:148|328:92,1,160,2|0,0:0|0:0,0:0:0:0:
248,92,56737,1,0,0:0:0:0:
120,196,56960,1,2,0:0:0:0:
280,196,57404,6,0,L|340:256,1,80
440,200,57848,1,2,0:0:0:0:
280,196,58293,2,0,L|192:196,1,80
320,196,58737,1,2,0:0:0:0:
240,192,58960,1,0,0:0:0:0:
160,200,59182,1,0,0:0:0:0:
224,201,59626,5,2,0:0:0:0:
64,202,59848,2,0,P|44:152|136:108,1,160,4|0,0:0|0:0,0:0:0:0:
224,202,60515,1,2,0:0:0:0:
384,200,60960,6,0,L|308:148,1,80
437,200,61404,1,2,0:0:0:0:
277,202,61848,1,0,0:0:0:0:
376,200,62071,1,0,0:0:0:0:
476,200,62293,1,2,0:0:0:0:
316,200,62737,1,0,0:0:0:0:
156,200,63182,5,2,0:0:0:0:
316,200,63404,1,4,0:0:0:0:
124,200,63848,1,0,0:0:0:0:
196,200,64071,1,2,0:0:0:0:
355,197,64515,5,8,0:0:0:0:
148,196,64960,1,2,0:0:0:0:
307,196,65404,1,0,0:0:0:0:
28,196,65848,2,0,P|0:128|64:76,1,160,10|4,0:0|0:0,0:0:0:0:
256,192,67626,6,0,P|196:188|76:156,1,160,2|4,0:0|0:0,0:0:0:0:
256,192,69404,6,0,P|316:188|436:156,1,160,8|4,0:0|0:0,0:0:0:0:
328,192,71182,5,2,0:0:0:0:
184,192,71404,1,2,0:0:0:0:
364,192,71737,5,12,0:0:0:0:
156,192,72070,1,12,0:0:0:0:
252,192,72403,1,12,0:0:0:0:
460,192,72737,1,12,0:0:0:0:
244,192,73070,5,12,0:0:0:0:
148,192,73403,1,12,0:0:0:0:
364,192,73737,1,12,0:0:0:0:
268,196,74070,1,12,0:0:0:0:
460,192,74292,1,4,0:0:0:0:
364,192,74625,5,2,0:0:0:0:
94,192,75292,1,2,0:0:0:0:
14,193,75458,1,4,0:0:0:0:
173,189,75792,2,0,P|229:186|336:235,1,160,8|6,0:0|0:0,0:0:0:0:
68,228,76792,6,0,P|200:224|272:212,1,192,4|2,0:0|0:0,0:0:0:0:
488,208,77792,2,0,L|356:208,1,128,2|4,0:0|0:0,0:0:0:0:
168,204,78625,5,2,0:0:0:0:
348,208,78958,2,0,P|340:136|236:116,1,192,2|4,0:0|0:0,0:0:0:0:
48,176,79958,5,2,0:0:0:0:
240,168,80292,2,0,L|428:228,1,192,8|4,0:0|0:0,0:0:0:0:
296,228,81292,5,2,0:0:0:0:
104,236,81625,2,0,P|196:220|160:132,1,192,2|4,0:0|0:0,0:0:0:0:
412,196,82625,5,2,0:0:0:0:
220,200,82958,2,0,P|376:176|404:156,1,192,0|4,0:0|0:0,0:0:0:0:
148,200,83958,5,2,0:0:0:0:
340,196,84291,2,0,P|184:172|156:152,1,192,8|4,0:0|0:0,0:0:0:0:
448,152,85291,5,2,0:0:0:0:
288,152,85625,2,0,L|92:152,1,192,0|4,0:0|0:0,0:0:0:0:
288,152,86625,5,2,0:0:0:0:
416,152,86791,1,4,0:0:0:0:
288,152,87125,1,4,0:0:0:0:
96,148,87458,1,4,0:0:0:0:
344,152,87958,5,2,0:0:0:0:
496,152,88291,1,0,0:0:0:0:
304,152,88625,2,0,L|228:124,1,64,2|0,0:0|0:0,0:0:0:0:
476,152,89291,5,2,0:0:0:0:
324,152,89625,1,0,0:0:0:0:
140,148,89958,2,0,L|164:76,1,64,2|0,0:0|0:0,0:0:0:0:
448,152,90625,5,2,0:0:0:0:
256,152,90958,1,0,0:0:0:0:
424,152,91291,2,0,P|424:96|364:64,1,128
500,152,91958,5,2,0:0:0:0:
244,148,92625,1,2,0:0:0:0:
128,148,92791,1,4,0:0:0:0:
404,148,93291,5,2,0:0:0:0:
148,148,93958,1,2,0:0:0:0:
32,152,94125,1,4,0:0:0:0:
308,144,94625,5,6,0:0:0:0:
436,148,94958,2,0,P|300:106|247:74,1,192,8|8,0:0|0:0,0:0:0:0:
156,80,95625,1,6,0:0:0:0:
396,80,96125,5,2,0:0:0:0:
156,84,96625,1,6,0:0:0:0:
396,80,97125,5,2,0:0:0:0:
156,84,97625,1,6,0:0:0:0:
316,84,97958,1,8,0:0:0:0:
508,80,98291,6,0,L|312:244,1,256,4|0,0:0|0:0,0:0:0:0:
156,244,99291,2,0,L|292:244,2,128
312,176,100308,5,8,0:0:0:0:
396,160,100530,1,8,0:0:0:0:
480,140,100752,1,8,0:0:0:0:
320,120,100954,1,4,0:0:0:0:
257,192,115176,5,12,0:0:0:0:
437,192,115509,1,0,0:0:0:0:
317,191,115842,2,0,B|128:156|404:100|232:44,1,240,8|0,0:0|0:0,0:0:0:0:
43,192,116953,5,8,0:0:0:0:
163,191,117287,1,0,0:0:0:0:
282,191,117620,1,8,0:0:0:0:
163,191,117842,1,0,0:0:0:0:
220,192,118287,1,0,0:0:0:0:
458,188,118731,5,8,0:0:0:0:
338,189,119065,1,0,0:0:0:0:
458,188,119398,2,0,P|468:128|384:80,1,160,8|0,0:0|0:0,0:0:0:0:
296,80,120065,1,0,0:0:0:0:
58,187,120509,5,8,0:0:0:0:
177,187,120842,1,0,0:0:0:0:
296,188,121176,1,8,0:0:0:0:
177,187,121398,1,0,0:0:0:0:
236,188,121842,1,0,0:0:0:0:
472,190,122287,5,8,0:0:0:0:
352,184,122620,1,0,0:0:0:0:
472,190,122953,2,0,P|464:132|308:112,1,240,8|0,0:0|0:0,0:0:0:0:
71,183,124065,5,8,0:0:0:0:
191,182,124398,1,0,0:0:0:0:
71,184,124731,1,8,0:0:0:0:
232,180,124953,2,0,P|292:152|236:84,1,160
464,192,125842,5,8,0:0:0:0:
344,189,126176,1,0,0:0:0:0:
448,192,126509,2,0,P|464:148|392:72,1,160,8|0,0:0|0:0,0:0:0:0:
308,72,127176,2,0,L|208:72,1,80
110,188,127620,5,8,0:0:0:0:
228,188,127953,1,0,0:0:0:0:
348,188,128287,1,8,0:0:0:0:
228,188,128509,1,0,0:0:0:0:
388,188,128953,1,0,0:0:0:0:
111,192,129398,5,4,0:0:0:0:
270,194,129842,1,0,0:0:0:0:
400,196,130287,1,8,0:0:0:0:
240,197,130731,1,0,0:0:0:0:
432,196,131176,1,8,0:0:0:0:
271,201,131620,1,0,0:0:0:0:
144,196,132065,1,8,0:0:0:0:
304,200,132509,1,0,0:0:0:0:
208,200,132731,1,0,0:0:0:0:
64,195,132953,5,8,0:0:0:0:
225,198,133398,1,0,0:0:0:0:
96,196,133842,1,8,0:0:0:0:
257,197,134287,1,0,0:0:0:0:
448,200,134731,1,8,0:0:0:0:
288,200,135176,1,0,0:0:0:0:
416,204,135620,1,8,0:0:0:0:
256,204,136065,1,0,0:0:0:0:
160,204,136287,1,0,0:0:0:0:
16,196,136509,5,0,0:0:0:0:
176,196,136953,1,0,0:0:0:0:
368,196,137398,1,0,0:0:0:0:
208,196,137842,1,0,0:0:0:0:
400,196,138287,1,0,0:0:0:0:
241,196,138731,1,0,0:0:0:0:
368,196,139176,1,0,0:0:0:0:
208,197,139620,1,0,0:0:0:0:
304,196,139842,1,0,0:0:0:0:
464,196,140065,5,4,0:0:0:0:
444,192,143176,5,0,0:0:0:0:
203,193,143620,6,0,L|132:148,1,80,4|4,0:0|0:0,0:0:0:0:
244,192,144065,1,0,0:0:0:0:
483,190,144398,2,0,P|407:169|372:127,1,120,4|4,0:0|0:0,0:0:0:0:
260,144,144953,1,0,0:0:0:0:
21,121,145287,6,0,P|97:100|132:58,1,120,4|4,0:0|0:0,0:0:0:0:
252,72,145842,1,0,0:0:0:0:
418,193,146176,5,8,0:0:0:0:
376,192,146287,2,0,B|212:192,1,160,4|4,0:0|0:0,0:0:0:0:
309,193,147176,6,0,L|384:144,1,80,4|4,0:0|0:0,0:0:0:0:
264,192,147620,1,0,0:0:0:0:
29,190,147953,2,0,P|105:169|140:127,1,120,4|4,0:0|0:0,0:0:0:0:
252,144,148509,1,0,0:0:0:0:
491,121,148842,6,0,P|415:100|380:58,1,120,4|4,0:0|0:0,0:0:0:0:
508,76,149398,1,0,0:0:0:0:
190,208,149842,5,4,0:0:0:0:
309,208,150065,1,4,0:0:0:0:
188,208,150287,1,12,0:0:0:0:
504,210,150733,5,4,0:0:0:0:
344,212,151066,2,0,P|199:129|76:216,1,320,2|2,0:0|0:0,0:0:0:0:
176,171,151899,1,4,0:0:0:0:
335,169,152233,2,0,L|505:167,1,160,2|4,0:0|0:0,0:0:0:0:
240,180,153233,5,4,0:0:0:0:
392,180,153733,1,8,0:0:0:0:
200,182,154233,2,0,L|72:181,1,128,8|4,0:0|0:0,0:0:0:0:
225,182,155066,5,8,0:0:0:0:
353,183,155399,2,0,L|162:182,1,192,8|4,0:0|0:0,0:0:0:0:
315,181,156399,5,8,0:0:0:0:
124,180,156899,2,0,L|252:180,1,128,8|4,0:0|0:0,0:0:0:0:
404,184,157733,5,8,0:0:0:0:
506,185,158066,1,8,0:0:0:0:
404,184,158399,1,8,0:0:0:0:
274,186,158566,1,4,0:0:0:0:
124,176,159066,5,8,0:0:0:0:
316,176,159566,2,0,L|188:174,1,128,8|4,0:0|0:0,0:0:0:0:
340,176,160399,5,8,0:0:0:0:
468,176,160733,2,0,L|276:176,1,192,8|4,0:0|0:0,0:0:0:0:
124,172,161733,5,8,0:0:0:0:
344,172,162233,2,0,L|472:172,1,128,8|4,0:0|0:0,0:0:0:0:
240,160,163066,5,2,0:0:0:0:
156,160,163233,1,8,0:0:0:0:
380,164,163566,1,4,0:0:0:0:
124,156,163899,1,4,0:0:0:0:
316,152,164399,5,8,0:0:0:0:
164,156,164733,2,0,L|88:100,1,64
192,120,165066,1,8,0:0:0:0:
320,120,165232,1,4,0:0:0:0:
196,156,165732,5,8,0:0:0:0:
348,156,166066,2,0,L|428:156,1,64
452,156,166399,1,8,0:0:0:0:
320,120,166566,1,4,0:0:0:0:
92,152,167066,6,0,L|224:152,1,128,8|0,0:0|0:0,0:0:0:0:
68,152,167732,1,8,0:0:0:0:
196,152,167899,1,4,0:0:0:0:
347,153,168399,5,8,0:0:0:0:
90,156,168899,2,0,P|40:200|68:240,1,128,8|4,0:0|0:0,0:0:0:0:
260,244,169732,5,8,0:0:0:0:
504,244,170232,2,0,P|512:192|436:140,1,128,8|4,0:0|0:0,0:0:0:0:
156,140,171066,1,4,0:0:0:0:
308,152,171399,2,0,L|224:40,1,128,8|8,0:0|0:0,0:0:0:0:
27,157,172066,5,4,0:0:0:0:
372,153,172566,1,4,0:0:0:0:
131,155,173066,1,4,0:0:0:0:
476,156,173566,1,4,0:0:0:0:
219,150,174066,6,0,P|152:96|216:48,1,192,0|4,0:0|0:0,0:0:0:0:
436,163,175066,6,0,P|452:112|384:72,1,128,2|0,0:0|0:0,0:0:0:0:
231,157,175732,2,0,L|324:156,1,64,2|0,0:0|0:0,0:0:0:0:
26,147,176399,1,8,0:0:0:0:
152,148,176732,1,0,0:0:0:0:
280,148,177066,6,0,L|216:148,1,64,2|0,0:0|0:0,0:0:0:0:
434,161,177732,1,8,0:0:0:0:
256,156,178066,1,0,0:0:0:0:
434,161,178399,6,0,L|376:120,1,64,2|0,0:0|0:0,0:0:0:0:
24,145,179066,1,8,0:0:0:0:
176,144,179399,1,0,0:0:0:0:
328,144,179732,1,8,0:0:0:0:
200,144,179899,1,4,0:0:0:0:
432,148,180399,6,0,P|484:176|488:264,1,128,8|0,0:0|0:0,0:0:0:0:
320,240,181066,2,0,L|240:240,1,64,8|0,0:0|0:0,0:0:0:0:
24,156,181732,2,0,L|164:156,1,128,8|0,0:0|0:0,0:0:0:0:
308,156,182399,1,8,0:0:0:0:
436,156,182566,1,4,0:0:0:0:
204,152,183066,6,0,P|276:140|292:72,1,128
132,152,183732,1,8,0:0:0:0:
16,153,183899,1,4,0:0:0:0:
265,152,184399,5,8,0:0:0:0:
138,153,184732,2,0,L|346:153,1,192,8|4,0:0|0:0,0:0:0:0:
40,152,185732,6,8,P|24:104|80:56,1,128,8|0,0:0|0:0,0:0:0:0:
208,132,186399,2,0,L|296:132,1,64,8|0,0:0|0:0,0:0:0:0:
40,136,187066,2,0,P|0:180|48:220,1,128,8|0,0:0|0:0,0:0:0:0:
216,192,187732,2,0,L|288:192,1,64,8|0,0:0|0:0,0:0:0:0:
48,192,188399,5,8,0:0:0:0:
280,192,188732,1,0,0:0:0:0:
128,192,189066,2,0,L|68:128,1,64,8|0,0:0|0:0,0:0:0:0:
312,144,189732,1,8,0:0:0:0:
104,140,190399,1,8,0:0:0:0:
336,144,190732,1,4,0:0:0:0:
255,161,192066,5,12,0:0:0:0:
176,160,192399,1,0,0:0:0:0:
337,162,192732,1,0,0:0:0:0:
175,161,193066,1,0,0:0:0:0:
366,160,193399,1,8,0:0:0:0:
109,158,194066,5,8,0:0:0:0:
429,159,194732,2,0,L|360:160,1,64,8|0,0:0|0:0,0:0:0:0:
141,155,195232,1,12,0:0:0:0:
332,160,195566,1,12,0:0:0:0:
135,158,196066,1,8,0:0:0:0:
391,159,196732,5,8,0:0:0:0:
72,159,197399,2,0,L|152:160,1,64,8|0,0:0|0:0,0:0:0:0:
359,161,197899,1,12,0:0:0:0:
166,156,198232,1,12,0:0:0:0:
357,153,198732,1,8,0:0:0:0:
101,156,199399,5,8,0:0:0:0:
421,150,200066,2,0,L|344:152,1,64,8|0,0:0|0:0,0:0:0:0:
133,151,200566,1,12,0:0:0:0:
324,152,200899,1,12,0:0:0:0:
132,150,201399,1,8,0:0:0:0:
388,148,202066,5,8,0:0:0:0:
357,146,202732,2,0,L|272:148,1,64,8|0,0:0|0:0,0:0:0:0:
357,146,203232,1,12,0:0:0:0:
165,146,203566,1,12,0:0:0:0:
258,143,204066,1,8,0:0:0:0:
164,147,204399,1,12,0:0:0:0:
356,147,204732,5,12,0:0:0:0:
68,149,205232,1,12,0:0:0:0:
260,148,205566,5,12,0:0:0:0:
452,153,206066,1,12,0:0:0:0:
260,147,206399,5,12,0:0:0:0:
492,152,207066,5,12,0:0:0:0:
301,154,207399,1,12,0:0:0:0:
35,154,207899,5,12,0:0:0:0:
