osu file format v14

[General]
AudioFilename: IA - Enmei Chiryou.mp3
AudioLeadIn: 1996
PreviewTime: 76292
Countdown: 0
SampleSet: Soft
StackLeniency: 0.7
Mode: 3
LetterboxInBreaks: 0
EpilepsyWarning: 1
SpecialStyle: 0
WidescreenStoryboard: 1

[Editor]
DistanceSpacing: 0.7
BeatDivisor: 4
GridSize: 4
TimelineZoom: 1.000001

[Metadata]
Title:Enmei Chiryou
TitleUnicode:延命治療
Artist:Neru feat. IA
ArtistUnicode:Neru feat. IA
Creator:puxtu
Version:Blocko's 7K SC
Source:太鼓の達人
Tags:vocaloid IA Life Prolonging Treatment Takane6 combinatorix Kuo_Kyoka nowsmart Blocko lordraika Julie toybot winda Quick_Draw JBHyperion Agka Sun Rainbow pxt
BeatmapID:464993
BeatmapSetID:195210

[Difficulty]
HPDrainRate:8.7
CircleSize:7
OverallDifficulty:8
ApproachRate:9
SliderMultiplier:1.8
SliderTickRate:1

[Events]
//Background and Video events
0,0,"Vocaloid.full.1384459.jpg",0,0
//Break Periods
//Storyboard Layer 0 (Background)
//Storyboard Layer 1 (Fail)
//Storyboard Layer 2 (Pass)
//Storyboard Layer 3 (Foreground)
//Storyboard Sound Samples

[TimingPoints]
518,444.444444444444,4,2,2,40,1,0
1851,-66.6666666666667,4,2,2,40,0,0
1962,-200,4,2,2,40,0,0
2073,-66.6666666666667,4,2,2,40,0,0
2184,-200,4,2,2,40,0,0
2295,-100,4,2,2,40,0,0
5406,-66.6666666666667,4,2,2,40,0,0
5517,-200,4,2,2,40,0,0
5629,-66.6666666666667,4,2,2,40,0,0
5740,-200,4,2,2,40,0,0
5851,444.444444444444,3,2,2,40,1,0
7184,444.444444444444,4,2,2,40,1,0
12517,444.444444444444,3,2,2,40,1,0
13850,444.444444444444,4,2,2,40,1,0
19183,444.444444444444,3,2,2,40,1,0
21849,444.444444444444,4,2,2,40,1,0
21849,-111.111111111111,4,2,2,40,0,0
23626,-100,4,2,2,40,0,0
67626,-66.6666666666667,4,2,2,40,0,0
67737,-200,4,2,2,40,0,0
67848,-66.6666666666667,4,2,2,40,0,0
67960,-200,4,2,2,40,0,0
68071,-100,4,2,2,40,0,0
71182,-66.6666666666667,4,2,2,40,0,0
71293,-200,4,2,2,40,0,0
71404,-66.6666666666667,4,2,2,40,0,0
71515,-200,4,2,2,40,0,0
71626,444.444444444444,3,2,2,40,1,0
74292,333.333333333333,4,2,2,40,1,0
74292,-133.333333333333,4,2,2,40,0,0
76458,-181.818181818182,4,2,2,40,0,0
76792,-133.333333333333,4,2,2,40,0,1
86791,-86.9565217391304,4,2,2,40,0,0
86874,-133.333333333333,4,2,2,40,0,0
86957,-196.078431372549,4,2,2,40,0,0
87124,-86.9565217391304,4,2,2,40,0,0
87207,-133.333333333333,4,2,2,40,0,0
87291,-196.078431372549,4,2,2,40,0,0
87458,-133.333333333333,4,2,2,40,0,1
98291,-151.515151515152,4,2,2,40,0,0
100308,333.333333333333,4,2,2,40,1,0
100308,-151.515151515152,4,2,2,40,0,0
100954,444.444444444444,4,2,2,40,1,0
100954,-151.515151515152,4,2,2,40,0,0
115176,-125,4,2,2,40,0,0
129399,-111.111111111111,4,2,2,40,0,0
140065,-166.666666666667,4,2,2,40,0,0
141843,-200,4,2,2,40,0,0
143176,-100,4,2,2,40,0,0
143621,-66.6666666666667,4,2,2,40,0,0
143732,-200,4,2,2,40,0,0
143843,-66.6666666666667,4,2,2,40,0,0
143954,-100,4,2,2,40,0,0
144399,-66.6666666666667,4,2,2,40,0,0
144565,-200,4,2,2,40,0,0
144732,-66.6666666666667,4,2,2,40,0,0
144843,-100,4,2,2,40,0,0
145288,-66.6666666666667,4,2,2,40,0,0
145454,-200,4,2,2,40,0,0
145621,-66.6666666666667,4,2,2,40,0,0
145732,-200,4,2,2,40,0,0
145843,-83.3333333333333,4,2,2,40,0,0
146176,-100,4,2,2,40,0,0
146288,-66.6666666666667,4,2,2,40,0,0
146399,-200,4,2,2,40,0,0
146510,-66.6666666666667,4,2,2,40,0,0
146621,-200,4,2,2,40,0,0
146732,-100,4,2,2,40,0,0
147176,-66.6666666666667,4,2,2,40,0,0
147288,-200,4,2,2,40,0,0
147399,-66.6666666666667,4,2,2,40,0,0
147510,-100,4,2,2,40,0,0
147954,-66.6666666666667,4,2,2,40,0,0
148121,-200,4,2,2,40,0,0
148288,-66.6666666666667,4,2,2,40,0,0
148399,-100,4,2,2,40,0,0
148843,-66.6666666666667,4,2,2,40,0,0
149010,-200,4,2,2,40,0,0
149176,-66.6666666666667,4,2,2,40,0,0
149288,-200,4,2,2,40,0,0
149399,-100,4,2,2,40,0,0
149843,-66.6666666666667,4,2,2,40,0,0
149954,-200,4,2,2,40,0,0
150065,-66.6666666666667,4,2,2,40,0,0
150176,-200,4,2,2,40,0,0
150288,-100,4,2,2,40,0,0
150733,333.333333333333,4,2,2,40,1,0
150733,-133.333333333333,4,2,2,40,0,0
152899,-181.818181818182,4,2,2,40,0,0
153233,-133.333333333333,4,2,2,40,0,1
163233,-86.9565217391304,4,2,2,40,0,0
163315,-133.333333333333,4,2,2,40,0,0
163399,-196.078431372549,4,2,2,40,0,0
163565,-86.9565217391304,4,2,2,40,0,0
163649,-133.333333333333,4,2,2,40,0,0
163732,-196.078431372549,4,2,2,40,0,0
163899,-133.333333333333,4,2,2,40,0,1
174232,-133.333333333333,4,2,2,40,0,0
174566,-133.333333333333,4,2,2,40,0,1
184899,-133.333333333333,4,2,2,40,0,0
185232,-133.333333333333,4,2,2,40,0,1
190732,-151.515151515152,4,2,2,40,0,0
192065,-133.333333333333,4,2,2,40,0,0

[Colours]
Combo1 : 128,255,0
Combo2 : 255,0,128
Combo3 : 5,5,240
Combo4 : 255,255,0

[HitObjects]
475,192,518,5,4,1:0:0:0:
402,192,518,1,4,0:0:0:0:
256,192,518,1,0,0:0:0:0:
36,192,518,128,0,629:0:0:0:0:
182,192,629,128,0,740:0:0:0:0:
329,192,740,128,0,851:0:0:0:0:
36,192,851,128,0,962:0:0:0:0:
182,192,962,128,0,1073:0:0:0:0:
329,192,1073,128,0,1184:0:0:0:0:
36,192,1184,128,0,1295:0:0:0:0:
182,192,1295,128,0,1406:0:0:0:0:
329,192,1406,128,0,1517:0:0:0:0:
36,192,1517,128,0,1629:0:0:0:0:
182,192,1629,128,0,1740:0:0:0:0:
329,192,1740,128,0,1851:0:0:0:0:
475,192,1851,1,4,0:0:0:0:
256,192,1851,1,8,0:0:0:0:
36,192,1851,1,0,0:0:0:0:
36,192,2073,1,8,0:0:0:0:
475,192,2073,1,4,0:0:0:0:
256,192,2073,1,0,0:0:0:0:
402,192,2295,1,4,1:0:0:0:
109,192,2295,128,0,2406:0:0:0:0:
475,192,2295,1,0,0:0:0:0:
36,192,2295,1,4,0:0:0:0:
256,192,2406,128,0,2517:0:0:0:0:
402,192,2517,128,0,2629:0:0:0:0:
109,192,2629,128,0,2740:0:0:0:0:
256,192,2740,128,0,2851:0:0:0:0:
402,192,2851,128,0,2962:0:0:0:0:
109,192,2962,128,0,3073:0:0:0:0:
256,192,3073,128,0,3184:0:0:0:0:
402,192,3184,128,0,3295:0:0:0:0:
109,192,3295,128,0,3406:0:0:0:0:
256,192,3406,128,0,3517:0:0:0:0:
402,192,3517,128,0,3629:0:0:0:0:
256,192,3629,1,8,0:0:0:0:
36,192,3629,1,4,0:0:0:0:
329,192,3740,1,4,0:0:0:0:
109,192,3740,1,8,0:0:0:0:
402,192,3851,1,4,0:0:0:0:
182,192,3851,1,0,0:0:0:0:
329,192,3962,1,4,0:0:0:0:
109,192,3962,1,0,0:0:0:0:
182,192,4073,128,0,4184:0:0:0:0:
475,192,4073,1,4,1:0:0:0:
36,192,4073,1,4,0:0:0:0:
256,192,4073,1,0,0:0:0:0:
329,192,4184,128,0,4295:0:0:0:0:
475,192,4295,128,0,4406:0:0:0:0:
109,192,4406,128,0,4517:0:0:0:0:
256,192,4517,128,0,4629:0:0:0:0:
402,192,4629,128,0,4740:0:0:0:0:
182,192,4740,128,0,4851:0:0:0:0:
329,192,4851,128,0,4962:0:0:0:0:
475,192,4962,128,0,5073:0:0:0:0:
109,192,5073,128,0,5184:0:0:0:0:
256,192,5184,128,0,5295:0:0:0:0:
402,192,5295,128,0,5406:0:0:0:0:
475,192,5406,1,4,0:0:0:0:
256,192,5406,1,8,0:0:0:0:
36,192,5406,1,0,0:0:0:0:
36,192,5629,1,4,0:0:0:0:
475,192,5629,1,8,0:0:0:0:
256,192,5629,1,0,0:0:0:0:
109,192,5851,1,4,0:0:0:0:
402,192,5851,1,0,0:0:0:0:
36,192,5962,128,4,6184:0:0:0:0:
475,192,5962,128,8,6184:0:0:0:0:
256,192,5962,1,0,0:0:0:0:
182,192,6184,1,4,0:0:0:0:
329,192,6184,1,0,0:0:0:0:
402,192,6295,128,4,6517:0:0:0:0:
109,192,6295,128,8,6517:0:0:0:0:
256,192,6295,1,0,0:0:0:0:
182,192,6517,1,4,0:0:0:0:
329,192,6517,1,0,0:0:0:0:
36,192,6628,128,8,6850:0:0:0:0:
475,192,6628,128,4,6850:0:0:0:0:
256,192,6628,1,0,0:0:0:0:
182,192,6850,1,4,0:0:0:0:
329,192,6850,1,0,0:0:0:0:
109,192,6962,128,8,7184:0:0:0:0:
256,192,6962,1,4,1:0:0:0:
402,192,6962,128,4,7184:0:0:0:0:
36,192,7184,1,4,0:0:0:0:
182,192,7184,1,0,0:0:0:0:
475,192,7184,1,4,1:0:0:0:
329,192,7184,1,0,0:0:0:0:
109,192,7295,1,0,0:0:0:0:
182,192,7406,1,0,0:0:0:0:
402,192,7406,1,0,0:0:0:0:
36,192,7517,1,0,0:0:0:0:
109,192,7628,1,8,0:0:0:0:
475,192,7628,1,4,0:0:0:0:
329,192,7628,1,0,0:0:0:0:
256,192,7739,1,0,0:0:0:0:
36,192,7850,1,0,0:0:0:0:
402,192,7850,1,0,0:0:0:0:
182,192,7961,1,0,0:0:0:0:
329,192,8072,1,4,0:0:0:0:
256,192,8072,1,0,0:0:0:0:
109,192,8183,1,0,0:0:0:0:
182,192,8295,1,0,0:0:0:0:
402,192,8295,1,0,0:0:0:0:
256,192,8406,1,0,0:0:0:0:
329,192,8517,1,4,0:0:0:0:
475,192,8517,1,8,0:0:0:0:
36,192,8517,1,0,0:0:0:0:
329,192,8739,1,8,0:0:0:0:
475,192,8739,1,4,0:0:0:0:
36,192,8739,1,0,0:0:0:0:
109,192,8961,1,4,0:0:0:0:
329,192,8961,1,0,0:0:0:0:
182,192,9072,1,0,0:0:0:0:
402,192,9183,1,0,0:0:0:0:
256,192,9183,1,0,0:0:0:0:
36,192,9295,1,0,0:0:0:0:
109,192,9406,1,8,0:0:0:0:
329,192,9406,1,4,0:0:0:0:
475,192,9406,1,0,0:0:0:0:
182,192,9517,1,0,0:0:0:0:
36,192,9628,1,0,0:0:0:0:
402,192,9628,1,0,0:0:0:0:
256,192,9739,1,0,0:0:0:0:
475,192,9850,1,4,0:0:0:0:
109,192,9850,1,0,0:0:0:0:
182,192,9961,1,8,0:0:0:0:
36,192,9961,1,0,0:0:0:0:
256,192,10072,1,0,0:0:0:0:
402,192,10072,1,0,0:0:0:0:
475,192,10183,1,0,0:0:0:0:
182,192,10295,1,8,0:0:0:0:
36,192,10295,1,4,0:0:0:0:
329,192,10295,1,0,0:0:0:0:
475,192,10406,1,0,0:0:0:0:
182,192,10517,1,0,0:0:0:0:
329,192,10517,1,0,0:0:0:0:
36,192,10628,1,0,0:0:0:0:
329,192,10739,1,4,0:0:0:0:
182,192,10739,1,0,0:0:0:0:
402,192,10850,1,0,0:0:0:0:
475,192,10961,1,0,0:0:0:0:
109,192,10961,1,0,0:0:0:0:
256,192,11072,1,0,0:0:0:0:
402,192,11183,1,8,0:0:0:0:
36,192,11183,1,4,0:0:0:0:
182,192,11183,1,0,0:0:0:0:
475,192,11295,1,0,0:0:0:0:
256,192,11406,1,0,0:0:0:0:
109,192,11406,1,0,0:0:0:0:
329,192,11517,1,0,0:0:0:0:
475,192,11628,1,4,0:0:0:0:
182,192,11628,1,0,0:0:0:0:
256,192,11739,1,0,0:0:0:0:
329,192,11850,1,0,0:0:0:0:
109,192,11850,1,0,0:0:0:0:
402,192,11961,1,0,0:0:0:0:
475,192,12072,1,4,0:0:0:0:
36,192,12072,1,8,0:0:0:0:
182,192,12072,1,0,0:0:0:0:
36,192,12295,1,4,0:0:0:0:
182,192,12295,1,8,0:0:0:0:
475,192,12295,1,0,0:0:0:0:
402,192,12517,1,4,0:0:0:0:
109,192,12517,1,0,0:0:0:0:
256,192,12628,1,4,0:0:0:0:
475,192,12628,128,8,12850:0:0:0:0:
182,192,12628,128,0,12850:0:0:0:0:
329,192,12850,1,4,0:0:0:0:
36,192,12850,1,0,0:0:0:0:
402,192,12961,128,4,13183:0:0:0:0:
256,192,12961,1,8,0:0:0:0:
109,192,12961,128,0,13183:0:0:0:0:
329,192,13183,1,4,0:0:0:0:
36,192,13183,1,0,0:0:0:0:
256,192,13294,1,4,0:0:0:0:
475,192,13294,128,8,13516:0:0:0:0:
182,192,13294,128,0,13516:0:0:0:0:
329,192,13516,1,4,0:0:0:0:
36,192,13516,1,0,0:0:0:0:
256,192,13628,1,4,0:0:0:0:
109,192,13628,128,4,13850:1:0:0:0:
402,192,13628,128,8,13850:0:0:0:0:
36,192,13850,1,4,1:0:0:0:
182,192,13850,1,4,0:0:0:0:
329,192,13850,1,0,0:0:0:0:
475,192,13850,1,0,0:0:0:0:
256,192,13961,1,0,0:0:0:0:
402,192,14072,1,0,0:0:0:0:
109,192,14072,1,0,0:0:0:0:
182,192,14183,1,0,0:0:0:0:
256,192,14294,1,8,0:0:0:0:
475,192,14294,1,4,0:0:0:0:
36,192,14294,1,0,0:0:0:0:
402,192,14405,1,0,0:0:0:0:
329,192,14516,1,0,0:0:0:0:
182,192,14516,1,0,0:0:0:0:
109,192,14627,1,0,0:0:0:0:
36,192,14738,1,4,0:0:0:0:
475,192,14738,1,0,0:0:0:0:
256,192,14849,1,0,0:0:0:0:
402,192,14961,1,0,0:0:0:0:
109,192,14961,1,0,0:0:0:0:
256,192,15072,1,0,0:0:0:0:
475,192,15183,1,8,0:0:0:0:
182,192,15183,1,0,0:0:0:0:
36,192,15183,1,4,0:0:0:0:
329,192,15294,1,0,0:0:0:0:
475,192,15405,1,8,0:0:0:0:
182,192,15405,1,0,0:0:0:0:
36,192,15405,1,4,0:0:0:0:
329,192,15516,1,0,0:0:0:0:
402,192,15627,1,4,0:0:0:0:
109,192,15627,1,0,0:0:0:0:
256,192,15738,1,0,0:0:0:0:
182,192,15849,1,0,0:0:0:0:
329,192,15849,1,0,0:0:0:0:
36,192,15961,1,0,0:0:0:0:
109,192,16072,1,8,0:0:0:0:
256,192,16072,1,0,0:0:0:0:
402,192,16072,1,4,0:0:0:0:
182,192,16183,1,0,0:0:0:0:
36,192,16294,1,0,0:0:0:0:
475,192,16294,1,0,0:0:0:0:
109,192,16405,1,0,0:0:0:0:
182,192,16516,1,4,0:0:0:0:
329,192,16516,1,0,0:0:0:0:
402,192,16627,1,8,0:0:0:0:
36,192,16627,1,0,0:0:0:0:
475,192,16738,1,0,0:0:0:0:
109,192,16738,1,0,0:0:0:0:
256,192,16849,1,0,0:0:0:0:
329,192,16961,1,8,0:0:0:0:
36,192,16961,1,0,0:0:0:0:
182,192,16961,1,4,0:0:0:0:
475,192,17072,1,0,0:0:0:0:
402,192,17183,1,0,0:0:0:0:
109,192,17183,1,0,0:0:0:0:
182,192,17294,1,8,0:0:0:0:
329,192,17294,1,0,0:0:0:0:
256,192,17405,1,4,0:0:0:0:
36,192,17405,1,0,0:0:0:0:
329,192,17516,1,0,0:0:0:0:
402,192,17627,1,0,0:0:0:0:
109,192,17627,1,0,0:0:0:0:
182,192,17738,1,0,0:0:0:0:
475,192,17849,1,8,0:0:0:0:
256,192,17849,1,0,0:0:0:0:
36,192,17849,1,4,0:0:0:0:
329,192,17961,1,0,0:0:0:0:
402,192,18072,1,0,0:0:0:0:
109,192,18072,1,0,0:0:0:0:
182,192,18183,1,0,0:0:0:0:
475,192,18294,1,4,0:0:0:0:
256,192,18294,1,0,0:0:0:0:
36,192,18405,1,0,0:0:0:0:
109,192,18516,1,0,0:0:0:0:
329,192,18516,1,0,0:0:0:0:
182,192,18627,1,0,0:0:0:0:
36,192,18738,1,8,0:0:0:0:
256,192,18738,1,4,0:0:0:0:
475,192,18738,1,0,0:0:0:0:
475,192,18961,1,8,0:0:0:0:
36,192,18961,1,4,0:0:0:0:
256,192,18961,1,0,0:0:0:0:
329,192,19072,1,8,0:0:0:0:
402,192,19183,1,4,0:0:0:0:
36,192,19183,1,0,0:0:0:0:
109,192,19294,1,8,0:0:0:0:
475,192,19294,128,0,19516:0:0:0:0:
182,192,19294,1,8,0:0:0:0:
256,192,19405,1,8,0:0:0:0:
36,192,19516,1,4,0:0:0:0:
329,192,19516,1,8,0:0:0:0:
402,192,19627,128,4,19849:0:0:0:0:
182,192,19627,1,8,0:0:0:0:
109,192,19738,1,8,0:0:0:0:
475,192,19849,1,4,0:0:0:0:
256,192,19849,1,0,0:0:0:0:
329,192,19960,128,4,20183:0:0:0:0:
36,192,19960,1,0,0:0:0:0:
475,192,20071,1,4,0:0:0:0:
109,192,20071,1,0,0:0:0:0:
402,192,20183,1,4,0:0:0:0:
182,192,20183,1,0,0:0:0:0:
256,192,20294,128,0,20516:0:0:0:0:
475,192,20294,1,4,0:0:0:0:
109,192,20405,1,4,0:0:0:0:
402,192,20516,1,4,0:0:0:0:
36,192,20516,1,0,0:0:0:0:
475,192,20627,128,4,20849:0:0:0:0:
182,192,20627,128,8,20849:0:0:0:0:
329,192,20627,1,0,0:0:0:0:
256,192,20849,1,4,0:0:0:0:
36,192,20849,1,0,0:0:0:0:
402,192,20960,128,4,21182:0:0:0:0:
109,192,20960,128,8,21182:0:0:0:0:
329,192,20960,1,0,0:0:0:0:
182,192,21182,1,4,0:0:0:0:
475,192,21182,1,0,0:0:0:0:
329,192,21294,128,4,21516:0:0:0:0:
36,192,21294,128,8,21516:0:0:0:0:
256,192,21294,1,0,0:0:0:0:
475,192,21516,1,4,0:0:0:0:
182,192,21516,1,0,0:0:0:0:
109,192,21627,128,4,21849:0:0:0:0:
402,192,21627,128,8,21849:0:0:0:0:
256,192,21627,1,4,1:0:0:0:
256,192,21849,1,0,0:0:0:0:
329,192,21849,1,4,0:0:0:0:
475,192,21849,1,4,1:0:0:0:
36,192,21849,128,0,21960:0:0:0:0:
182,192,21960,128,0,22071:0:0:0:0:
329,192,22071,128,0,22182:0:0:0:0:
109,192,22182,128,0,22293:0:0:0:0:
256,192,22293,128,0,22404:0:0:0:0:
402,192,22404,128,0,22515:0:0:0:0:
182,192,22515,128,0,22626:0:0:0:0:
329,192,22626,128,0,22737:0:0:0:0:
475,192,22737,128,0,22849:0:0:0:0:
109,192,22849,128,0,22960:0:0:0:0:
256,192,22960,128,0,23071:0:0:0:0:
402,192,23071,128,0,23182:0:0:0:0:
36,192,23182,128,4,23626:0:0:0:0:
475,192,23182,128,0,23626:0:0:0:0:
256,192,23404,128,4,23626:0:0:0:0:
109,192,23626,1,4,1:0:0:0:
329,192,23626,1,0,0:0:0:0:
182,192,23626,1,0,0:0:0:0:
402,192,23626,1,4,0:0:0:0:
256,192,23737,1,0,0:0:0:0:
109,192,23848,1,4,0:0:0:0:
475,192,23960,1,0,0:0:0:0:
182,192,24071,1,4,0:0:0:0:
36,192,24071,1,8,0:0:0:0:
329,192,24182,1,0,0:0:0:0:
109,192,24293,1,4,0:0:0:0:
402,192,24293,1,0,0:0:0:0:
36,192,24515,1,4,0:0:0:0:
256,192,24515,1,0,0:0:0:0:
109,192,24737,1,4,0:0:0:0:
329,192,24737,1,0,0:0:0:0:
402,192,24848,1,0,0:0:0:0:
182,192,24960,1,8,0:0:0:0:
36,192,24960,1,4,0:0:0:0:
256,192,25071,1,0,0:0:0:0:
109,192,25182,1,4,0:0:0:0:
475,192,25182,1,0,0:0:0:0:
36,192,25404,1,4,0:0:0:0:
402,192,25404,1,0,0:0:0:0:
329,192,25515,1,0,0:0:0:0:
109,192,25626,1,4,0:0:0:0:
402,192,25737,1,0,0:0:0:0:
182,192,25848,1,4,0:0:0:0:
36,192,25848,1,8,0:0:0:0:
256,192,25960,1,0,0:0:0:0:
109,192,26071,1,4,0:0:0:0:
475,192,26071,1,0,0:0:0:0:
36,192,26293,1,4,0:0:0:0:
329,192,26293,1,0,0:0:0:0:
109,192,26515,1,4,0:0:0:0:
256,192,26515,1,0,0:0:0:0:
402,192,26626,1,0,0:0:0:0:
36,192,26737,1,4,0:0:0:0:
182,192,26737,1,8,0:0:0:0:
329,192,26848,1,0,0:0:0:0:
109,192,26960,1,4,0:0:0:0:
475,192,26960,1,0,0:0:0:0:
36,192,27182,1,4,0:0:0:0:
402,192,27182,1,0,0:0:0:0:
256,192,27293,1,0,0:0:0:0:
109,192,27404,1,4,0:0:0:0:
402,192,27515,1,0,0:0:0:0:
182,192,27626,1,4,0:0:0:0:
36,192,27626,1,8,0:0:0:0:
329,192,27737,1,0,0:0:0:0:
109,192,27848,1,4,0:0:0:0:
475,192,27848,1,0,0:0:0:0:
36,192,28071,1,4,0:0:0:0:
329,192,28071,1,0,0:0:0:0:
109,192,28293,1,4,0:0:0:0:
256,192,28293,1,0,0:0:0:0:
329,192,28404,1,0,0:0:0:0:
36,192,28515,1,4,0:0:0:0:
182,192,28515,1,8,0:0:0:0:
475,192,28626,1,0,0:0:0:0:
109,192,28737,1,4,0:0:0:0:
402,192,28737,1,0,0:0:0:0:
36,192,28960,1,4,0:0:0:0:
475,192,28960,1,0,0:0:0:0:
329,192,29071,1,0,0:0:0:0:
109,192,29182,1,4,0:0:0:0:
402,192,29293,1,0,0:0:0:0:
36,192,29404,1,8,0:0:0:0:
182,192,29404,1,4,0:0:0:0:
329,192,29515,1,0,0:0:0:0:
109,192,29626,1,4,0:0:0:0:
475,192,29626,1,0,0:0:0:0:
36,192,29848,1,4,0:0:0:0:
256,192,29848,1,0,0:0:0:0:
109,192,30071,1,4,0:0:0:0:
329,192,30071,1,0,0:0:0:0:
475,192,30182,1,0,0:0:0:0:
182,192,30293,1,8,0:0:0:0:
36,192,30293,1,4,0:0:0:0:
256,192,30404,1,0,0:0:0:0:
109,192,30515,1,0,0:0:0:0:
402,192,30515,1,4,0:0:0:0:
182,192,30626,1,8,0:0:0:0:
329,192,30626,1,0,0:0:0:0:
475,192,30737,1,4,0:0:0:0:
256,192,30737,1,4,1:0:0:0:
36,192,30737,1,0,0:0:0:0:
109,192,30848,1,0,0:0:0:0:
36,192,30960,128,4,31182:0:0:0:0:
402,192,30960,1,0,0:0:0:0:
182,192,31071,1,0,0:0:0:0:
475,192,31182,1,4,0:0:0:0:
329,192,31182,1,8,0:0:0:0:
109,192,31293,1,0,0:0:0:0:
36,192,31404,128,4,31626:0:0:0:0:
256,192,31404,1,0,0:0:0:0:
402,192,31404,1,0,0:0:0:0:
475,192,31626,1,4,0:0:0:0:
182,192,31626,1,0,0:0:0:0:
402,192,31848,1,4,0:0:0:0:
109,192,31848,1,0,0:0:0:0:
256,192,31960,1,0,0:0:0:0:
475,192,32071,1,8,0:0:0:0:
329,192,32071,1,4,0:0:0:0:
36,192,32182,1,0,0:0:0:0:
402,192,32293,1,4,0:0:0:0:
182,192,32293,1,0,0:0:0:0:
329,192,32404,1,8,0:0:0:0:
475,192,32515,1,4,0:0:0:0:
109,192,32515,1,0,0:0:0:0:
36,192,32626,1,0,0:0:0:0:
402,192,32737,1,4,0:0:0:0:
182,192,32848,1,0,0:0:0:0:
329,192,32960,1,8,0:0:0:0:
475,192,32960,1,4,0:0:0:0:
109,192,33071,1,0,0:0:0:0:
402,192,33182,1,4,0:0:0:0:
256,192,33182,1,0,0:0:0:0:
475,192,33404,1,4,0:0:0:0:
182,192,33404,1,0,0:0:0:0:
402,192,33626,1,4,0:0:0:0:
109,192,33626,1,0,0:0:0:0:
256,192,33737,1,0,0:0:0:0:
475,192,33848,1,8,0:0:0:0:
329,192,33848,1,4,0:0:0:0:
36,192,33960,1,0,0:0:0:0:
402,192,34071,1,4,0:0:0:0:
182,192,34071,1,0,0:0:0:0:
329,192,34182,1,8,0:0:0:0:
475,192,34293,1,4,0:0:0:0:
182,192,34293,1,0,0:0:0:0:
36,192,34404,1,0,0:0:0:0:
256,192,34515,1,8,0:0:0:0:
402,192,34515,1,4,0:0:0:0:
182,192,34626,1,0,0:0:0:0:
475,192,34737,1,8,0:0:0:0:
329,192,34737,1,4,0:0:0:0:
109,192,34848,1,0,0:0:0:0:
402,192,34960,1,4,0:0:0:0:
182,192,34960,1,0,0:0:0:0:
475,192,35182,1,4,0:0:0:0:
36,192,35182,1,0,0:0:0:0:
402,192,35404,1,4,0:0:0:0:
109,192,35404,1,0,0:0:0:0:
182,192,35515,1,0,0:0:0:0:
329,192,35626,1,4,0:0:0:0:
475,192,35626,1,8,0:0:0:0:
36,192,35737,1,0,0:0:0:0:
402,192,35848,1,4,0:0:0:0:
109,192,35848,128,0,36071:0:0:0:0:
256,192,35848,1,0,0:0:0:0:
182,192,36071,128,0,36960:0:0:0:0:
475,192,36071,1,4,0:0:0:0:
329,192,36071,1,0,0:0:0:0:
36,192,36182,1,0,0:0:0:0:
402,192,36293,1,4,0:0:0:0:
329,192,36515,1,8,0:0:0:0:
475,192,36515,1,4,0:0:0:0:
402,192,36737,1,4,0:0:0:0:
109,192,36737,1,0,0:0:0:0:
329,192,36848,1,8,0:0:0:0:
256,192,36960,128,0,37848:0:0:0:0:
475,192,36960,1,0,0:0:0:0:
36,192,36960,1,4,0:0:0:0:
402,192,37071,1,0,0:0:0:0:
109,192,37071,1,0,0:0:0:0:
182,192,37182,1,4,0:0:0:0:
329,192,37182,1,0,0:0:0:0:
475,192,37404,1,8,0:0:0:0:
36,192,37404,1,4,0:0:0:0:
402,192,37515,1,4,0:0:0:0:
109,192,37515,1,0,0:0:0:0:
329,192,37626,1,4,0:0:0:0:
182,192,37626,1,0,0:0:0:0:
402,192,37737,1,4,0:0:0:0:
109,192,37737,1,0,0:0:0:0:
36,192,37848,128,4,38515:1:0:0:0:
475,192,37848,128,4,38515:0:0:0:0:
182,192,37848,1,0,0:0:0:0:
329,192,37848,1,0,0:0:0:0:
256,192,38071,1,0,0:0:0:0:
182,192,38182,1,4,0:0:0:0:
329,192,38182,1,0,0:0:0:0:
109,192,38293,1,4,0:0:0:0:
402,192,38293,1,8,0:0:0:0:
182,192,38515,1,4,0:0:0:0:
256,192,38515,1,0,0:0:0:0:
329,192,38515,1,4,1:0:0:0:
109,192,38960,1,4,0:0:0:0:
329,192,38960,128,0,39071:0:0:0:0:
475,192,39071,128,4,39182:0:0:0:0:
402,192,39182,128,8,39293:0:0:0:0:
182,192,39182,1,4,0:0:0:0:
256,192,39293,128,4,39404:0:0:0:0:
109,192,39404,1,4,0:0:0:0:
329,192,39404,128,0,39515:0:0:0:0:
182,192,39515,128,4,39626:0:0:0:0:
36,192,39626,128,0,40515:0:0:0:0:
402,192,39626,128,0,39737:0:0:0:0:
475,192,39626,1,4,0:0:0:0:
109,192,39737,128,0,39848:0:0:0:0:
402,192,39848,128,0,39960:0:0:0:0:
475,192,39848,1,4,0:0:0:0:
109,192,39960,128,0,40071:0:0:0:0:
329,192,40071,128,8,40182:0:0:0:0:
402,192,40071,1,4,0:0:0:0:
182,192,40182,128,0,40293:0:0:0:0:
329,192,40293,128,0,40404:0:0:0:0:
402,192,40293,1,4,0:0:0:0:
182,192,40404,128,0,40515:0:0:0:0:
109,192,40404,1,8,0:0:0:0:
256,192,40515,128,0,41404:0:0:0:0:
475,192,40515,128,0,40626:0:0:0:0:
329,192,40515,1,4,0:0:0:0:
36,192,40626,128,0,40737:0:0:0:0:
475,192,40737,128,0,40848:0:0:0:0:
329,192,40737,1,4,0:0:0:0:
36,192,40848,128,0,40960:0:0:0:0:
402,192,40960,128,8,41071:0:0:0:0:
329,192,40960,1,4,0:0:0:0:
109,192,41071,128,0,41182:0:0:0:0:
402,192,41182,128,0,41293:0:0:0:0:
329,192,41182,1,4,0:0:0:0:
109,192,41293,128,0,41404:0:0:0:0:
36,192,41404,128,4,42071:0:0:0:0:
475,192,41404,128,0,42071:0:0:0:0:
182,192,41404,1,0,0:0:0:0:
329,192,41404,1,0,0:0:0:0:
256,192,41626,1,0,0:0:0:0:
109,192,41737,1,4,0:0:0:0:
402,192,41737,1,0,0:0:0:0:
182,192,41848,1,8,0:0:0:0:
329,192,41848,1,4,0:0:0:0:
109,192,42071,1,4,0:0:0:0:
402,192,42071,1,4,1:0:0:0:
256,192,42071,1,0,0:0:0:0:
256,192,42515,128,0,42626:0:0:0:0:
182,192,42515,1,4,0:0:0:0:
475,192,42626,128,4,42737:0:0:0:0:
402,192,42737,128,8,42848:0:0:0:0:
109,192,42737,1,4,0:0:0:0:
182,192,42848,128,4,42960:0:0:0:0:
329,192,42960,128,0,43071:0:0:0:0:
36,192,42960,1,4,0:0:0:0:
109,192,43071,128,4,43182:0:0:0:0:
256,192,43182,128,0,44071:0:0:0:0:
182,192,43182,1,4,0:0:0:0:
36,192,43182,128,0,43293:0:0:0:0:
475,192,43293,128,0,43404:0:0:0:0:
182,192,43404,1,4,0:0:0:0:
36,192,43404,128,0,43515:0:0:0:0:
475,192,43515,128,0,43626:0:0:0:0:
182,192,43626,1,4,0:0:0:0:
109,192,43626,128,8,43737:0:0:0:0:
402,192,43737,128,0,43848:0:0:0:0:
182,192,43848,1,4,0:0:0:0:
109,192,43848,128,0,43960:0:0:0:0:
402,192,43960,128,0,44071:0:0:0:0:
329,192,43960,1,8,0:0:0:0:
475,192,44071,128,0,44960:0:0:0:0:
109,192,44071,1,4,0:0:0:0:
36,192,44071,128,0,44182:0:0:0:0:
329,192,44182,128,0,44293:0:0:0:0:
256,192,44182,1,8,0:0:0:0:
109,192,44293,1,4,0:0:0:0:
36,192,44293,128,0,44404:0:0:0:0:
329,192,44404,128,0,44515:0:0:0:0:
182,192,44515,1,4,0:0:0:0:
109,192,44515,128,8,44626:0:0:0:0:
402,192,44626,128,0,44737:0:0:0:0:
182,192,44737,1,4,0:0:0:0:
109,192,44737,128,0,44848:0:0:0:0:
402,192,44848,128,0,44960:0:0:0:0:
182,192,44960,128,4,45626:1:0:0:0:
329,192,44960,128,4,45626:0:0:0:0:
109,192,44960,1,0,0:0:0:0:
36,192,44960,1,0,0:0:0:0:
256,192,45182,1,0,0:0:0:0:
402,192,45293,1,0,0:0:0:0:
109,192,45293,1,4,0:0:0:0:
36,192,45404,1,4,0:0:0:0:
475,192,45404,1,8,0:0:0:0:
402,192,45626,1,0,0:0:0:0:
475,192,45626,1,4,0:0:0:0:
109,192,45626,1,0,0:0:0:0:
36,192,45626,1,4,1:0:0:0:
182,192,46071,128,0,46182:0:0:0:0:
475,192,46071,1,4,0:0:0:0:
36,192,46182,128,4,46293:0:0:0:0:
402,192,46293,128,8,46404:0:0:0:0:
329,192,46293,1,4,0:0:0:0:
256,192,46404,128,4,46515:0:0:0:0:
109,192,46515,128,0,46626:0:0:0:0:
36,192,46515,1,4,0:0:0:0:
329,192,46626,128,4,46737:0:0:0:0:
182,192,46737,128,0,47626:0:0:0:0:
256,192,46737,1,4,0:0:0:0:
475,192,46737,128,0,46848:0:0:0:0:
109,192,46848,128,0,46960:0:0:0:0:
256,192,46960,1,4,0:0:0:0:
475,192,46960,128,0,47071:0:0:0:0:
109,192,47071,128,0,47182:0:0:0:0:
329,192,47182,1,4,0:0:0:0:
402,192,47182,128,8,47293:0:0:0:0:
36,192,47293,128,0,47404:0:0:0:0:
329,192,47404,1,4,0:0:0:0:
402,192,47404,128,0,47515:0:0:0:0:
36,192,47515,128,0,47626:0:0:0:0:
329,192,47626,128,0,48515:0:0:0:0:
256,192,47626,1,4,0:0:0:0:
475,192,47626,128,0,47737:0:0:0:0:
109,192,47737,128,0,47848:0:0:0:0:
182,192,47737,1,8,0:0:0:0:
256,192,47848,1,4,0:0:0:0:
475,192,47848,128,0,47960:0:0:0:0:
109,192,47960,128,0,48071:0:0:0:0:
36,192,48071,1,4,0:0:0:0:
402,192,48071,128,8,48182:0:0:0:0:
182,192,48182,128,0,48293:0:0:0:0:
36,192,48293,1,4,0:0:0:0:
402,192,48293,128,0,48404:0:0:0:0:
182,192,48404,128,0,48515:0:0:0:0:
36,192,48515,128,4,49182:0:0:0:0:
475,192,48515,128,0,49182:0:0:0:0:
402,192,48515,1,0,0:0:0:0:
109,192,48515,1,0,0:0:0:0:
256,192,48737,1,0,0:0:0:0:
329,192,48848,1,0,0:0:0:0:
182,192,48848,1,4,0:0:0:0:
109,192,48960,1,8,0:0:0:0:
402,192,48960,1,4,0:0:0:0:
182,192,49182,1,4,0:0:0:0:
402,192,49182,1,0,0:0:0:0:
109,192,49182,1,0,0:0:0:0:
329,192,49182,1,4,1:0:0:0:
329,192,49626,128,0,49737:0:0:0:0:
109,192,49626,1,4,0:0:0:0:
182,192,49737,128,4,49848:0:0:0:0:
402,192,49848,128,8,49960:0:0:0:0:
256,192,49848,1,4,0:0:0:0:
109,192,49960,128,4,50071:0:0:0:0:
475,192,50071,128,0,50182:0:0:0:0:
329,192,50071,1,4,0:0:0:0:
36,192,50182,128,4,50293:0:0:0:0:
109,192,50293,128,0,51182:0:0:0:0:
182,192,50293,1,4,0:0:0:0:
402,192,50293,128,0,50404:0:0:0:0:
256,192,50404,128,0,50515:0:0:0:0:
36,192,50515,1,4,0:0:0:0:
402,192,50515,128,0,50626:0:0:0:0:
256,192,50626,128,0,50737:0:0:0:0:
475,192,50737,1,4,0:0:0:0:
329,192,50737,128,8,50848:0:0:0:0:
182,192,50848,128,0,50960:0:0:0:0:
36,192,50960,1,4,0:0:0:0:
329,192,50960,128,0,51071:0:0:0:0:
182,192,51071,128,0,51182:0:0:0:0:
402,192,51182,128,0,51626:0:0:0:0:
329,192,51182,1,4,0:0:0:0:
256,192,51182,128,0,51293:0:0:0:0:
475,192,51293,1,8,0:0:0:0:
109,192,51293,128,0,51404:0:0:0:0:
36,192,51404,1,4,0:0:0:0:
256,192,51404,128,0,51515:0:0:0:0:
109,192,51515,128,0,51626:0:0:0:0:
475,192,51626,1,8,0:0:0:0:
329,192,51626,128,4,51737:0:0:0:0:
36,192,51737,1,8,0:0:0:0:
182,192,51737,128,4,51848:0:0:0:0:
475,192,51848,1,8,0:0:0:0:
329,192,51848,128,4,51960:0:0:0:0:
36,192,51960,1,8,0:0:0:0:
182,192,51960,128,4,52071:0:0:0:0:
256,192,52071,1,4,1:0:0:0:
475,192,52071,1,4,0:0:0:0:
329,192,52071,1,0,0:0:0:0:
109,192,52071,1,0,0:0:0:0:
36,192,52182,1,0,0:0:0:0:
182,192,52293,1,4,0:0:0:0:
402,192,52293,1,0,0:0:0:0:
256,192,52404,1,0,0:0:0:0:
109,192,52404,1,4,0:0:0:0:
329,192,52515,1,8,0:0:0:0:
36,192,52515,1,4,0:0:0:0:
475,192,52515,1,0,0:0:0:0:
182,192,52626,1,0,0:0:0:0:
402,192,52737,1,4,0:0:0:0:
256,192,52737,1,0,0:0:0:0:
109,192,52848,1,0,0:0:0:0:
329,192,52960,1,4,0:0:0:0:
182,192,53071,1,0,0:0:0:0:
402,192,53182,1,4,0:0:0:0:
256,192,53182,1,0,0:0:0:0:
109,192,53293,1,0,0:0:0:0:
329,192,53404,1,4,0:0:0:0:
36,192,53404,1,8,0:0:0:0:
475,192,53404,1,0,0:0:0:0:
109,192,53515,1,0,0:0:0:0:
182,192,53626,1,4,0:0:0:0:
402,192,53626,1,0,0:0:0:0:
329,192,53737,1,0,0:0:0:0:
475,192,53848,1,4,0:0:0:0:
109,192,53848,128,0,54737:0:0:0:0:
256,192,53848,1,0,0:0:0:0:
402,192,53960,1,0,0:0:0:0:
36,192,54071,1,4,0:0:0:0:
329,192,54071,1,0,0:0:0:0:
475,192,54182,1,0,0:0:0:0:
402,192,54293,1,4,0:0:0:0:
182,192,54293,1,8,0:0:0:0:
256,192,54293,1,0,0:0:0:0:
36,192,54404,1,0,0:0:0:0:
329,192,54515,1,4,0:0:0:0:
475,192,54515,1,0,0:0:0:0:
36,192,54626,1,8,0:0:0:0:
256,192,54626,1,4,0:0:0:0:
475,192,54737,1,4,0:0:0:0:
402,192,54737,128,0,55626:0:0:0:0:
182,192,54737,1,0,0:0:0:0:
36,192,54848,1,8,0:0:0:0:
256,192,54848,1,4,0:0:0:0:
329,192,54960,1,4,0:0:0:0:
109,192,54960,1,0,0:0:0:0:
475,192,55071,1,0,0:0:0:0:
329,192,55182,1,4,0:0:0:0:
256,192,55182,1,8,0:0:0:0:
36,192,55182,1,0,0:0:0:0:
182,192,55293,1,0,0:0:0:0:
475,192,55404,1,4,0:0:0:0:
109,192,55404,1,0,0:0:0:0:
36,192,55515,1,0,0:0:0:0:
256,192,55626,1,4,0:0:0:0:
329,192,55626,1,0,0:0:0:0:
182,192,55737,1,0,0:0:0:0:
109,192,55848,1,4,0:0:0:0:
402,192,55848,1,0,0:0:0:0:
256,192,55960,1,4,0:0:0:0:
475,192,55960,1,0,0:0:0:0:
36,192,56071,1,4,0:0:0:0:
182,192,56071,1,8,0:0:0:0:
329,192,56071,1,0,0:0:0:0:
109,192,56182,1,0,0:0:0:0:
402,192,56293,1,4,0:0:0:0:
256,192,56293,1,0,0:0:0:0:
182,192,56404,1,0,0:0:0:0:
329,192,56515,1,4,0:0:0:0:
182,192,56626,1,0,0:0:0:0:
36,192,56737,1,4,0:0:0:0:
402,192,56737,1,0,0:0:0:0:
256,192,56848,1,0,0:0:0:0:
109,192,56960,1,4,0:0:0:0:
475,192,56960,1,8,0:0:0:0:
329,192,56960,1,0,0:0:0:0:
36,192,57071,1,0,0:0:0:0:
402,192,57182,1,4,0:0:0:0:
256,192,57182,1,0,0:0:0:0:
109,192,57293,1,0,0:0:0:0:
182,192,57404,128,0,58293:0:0:0:0:
475,192,57404,1,4,0:0:0:0:
329,192,57404,1,0,0:0:0:0:
256,192,57515,1,0,0:0:0:0:
36,192,57626,1,4,0:0:0:0:
402,192,57626,1,0,0:0:0:0:
475,192,57737,1,0,0:0:0:0:
256,192,57848,1,4,0:0:0:0:
109,192,57848,1,8,0:0:0:0:
329,192,57848,1,0,0:0:0:0:
36,192,57960,1,0,0:0:0:0:
475,192,58071,1,4,0:0:0:0:
402,192,58071,1,0,0:0:0:0:
36,192,58182,1,0,0:0:0:0:
329,192,58293,128,0,59182:0:0:0:0:
402,192,58293,1,0,0:0:0:0:
256,192,58293,1,4,0:0:0:0:
109,192,58404,1,4,0:0:0:0:
475,192,58404,1,8,0:0:0:0:
36,192,58515,1,4,0:0:0:0:
182,192,58515,1,0,0:0:0:0:
475,192,58626,1,0,0:0:0:0:
109,192,58737,1,8,0:0:0:0:
256,192,58737,1,4,0:0:0:0:
402,192,58737,1,0,0:0:0:0:
36,192,58848,1,0,0:0:0:0:
182,192,58960,1,4,0:0:0:0:
475,192,58960,1,0,0:0:0:0:
109,192,59071,1,0,0:0:0:0:
402,192,59182,1,0,0:0:0:0:
36,192,59182,1,4,0:0:0:0:
256,192,59293,1,0,0:0:0:0:
475,192,59404,1,4,0:0:0:0:
182,192,59404,1,0,0:0:0:0:
109,192,59515,1,4,0:0:0:0:
402,192,59515,1,0,0:0:0:0:
36,192,59626,1,4,0:0:0:0:
256,192,59626,1,8,0:0:0:0:
329,192,59626,1,0,0:0:0:0:
475,192,59737,1,0,0:0:0:0:
182,192,59848,1,4,1:0:0:0:
329,192,59848,1,4,0:0:0:0:
402,192,59848,1,0,0:0:0:0:
109,192,59848,1,0,0:0:0:0:
36,192,59960,1,0,0:0:0:0:
256,192,60071,1,4,0:0:0:0:
109,192,60182,1,0,0:0:0:0:
402,192,60293,1,4,0:0:0:0:
182,192,60293,1,0,0:0:0:0:
36,192,60404,1,0,0:0:0:0:
475,192,60515,1,4,0:0:0:0:
109,192,60515,1,8,0:0:0:0:
329,192,60515,1,0,0:0:0:0:
256,192,60626,1,0,0:0:0:0:
182,192,60737,1,4,0:0:0:0:
402,192,60737,1,0,0:0:0:0:
36,192,60848,1,0,0:0:0:0:
109,192,60960,128,0,61848:0:0:0:0:
475,192,60960,1,4,0:0:0:0:
329,192,60960,1,0,0:0:0:0:
182,192,61071,1,0,0:0:0:0:
36,192,61182,1,4,0:0:0:0:
475,192,61182,1,0,0:0:0:0:
329,192,61293,1,0,0:0:0:0:
182,192,61404,1,4,0:0:0:0:
402,192,61404,1,8,0:0:0:0:
475,192,61404,1,0,0:0:0:0:
36,192,61515,1,0,0:0:0:0:
329,192,61626,1,4,0:0:0:0:
256,192,61626,1,0,0:0:0:0:
36,192,61737,1,0,0:0:0:0:
256,192,61848,128,0,62737:0:0:0:0:
475,192,61848,1,4,0:0:0:0:
182,192,61848,1,0,0:0:0:0:
402,192,61960,1,0,0:0:0:0:
329,192,62071,1,4,0:0:0:0:
36,192,62071,1,0,0:0:0:0:
109,192,62182,1,0,0:0:0:0:
475,192,62293,1,4,0:0:0:0:
402,192,62293,1,8,0:0:0:0:
182,192,62293,1,0,0:0:0:0:
36,192,62404,1,0,0:0:0:0:
329,192,62515,1,4,0:0:0:0:
109,192,62515,1,0,0:0:0:0:
182,192,62626,1,0,0:0:0:0:
329,192,62737,1,0,0:0:0:0:
402,192,62737,1,4,0:0:0:0:
182,192,62848,1,0,0:0:0:0:
36,192,62960,1,4,0:0:0:0:
475,192,62960,1,0,0:0:0:0:
402,192,63071,1,4,0:0:0:0:
109,192,63071,1,0,0:0:0:0:
256,192,63182,1,8,0:0:0:0:
329,192,63182,1,4,0:0:0:0:
182,192,63182,1,0,0:0:0:0:
109,192,63293,1,0,0:0:0:0:
475,192,63404,1,4,0:0:0:0:
256,192,63404,1,4,1:0:0:0:
36,192,63404,1,0,0:0:0:0:
402,192,63404,1,0,0:0:0:0:
182,192,63515,1,0,0:0:0:0:
109,192,63626,1,4,0:0:0:0:
329,192,63626,1,0,0:0:0:0:
256,192,63737,1,0,0:0:0:0:
182,192,63848,1,4,0:0:0:0:
36,192,63848,1,0,0:0:0:0:
329,192,63960,1,0,0:0:0:0:
475,192,64071,1,4,0:0:0:0:
402,192,64071,1,8,0:0:0:0:
109,192,64071,1,0,0:0:0:0:
182,192,64182,1,0,0:0:0:0:
329,192,64293,1,4,0:0:0:0:
36,192,64293,1,0,0:0:0:0:
109,192,64404,1,0,0:0:0:0:
256,192,64515,128,0,65404:0:0:0:0:
402,192,64515,1,4,0:0:0:0:
475,192,64515,1,0,0:0:0:0:
182,192,64626,1,0,0:0:0:0:
36,192,64737,1,4,0:0:0:0:
329,192,64737,1,0,0:0:0:0:
402,192,64848,1,0,0:0:0:0:
182,192,64960,1,8,0:0:0:0:
475,192,64960,1,4,0:0:0:0:
109,192,64960,1,0,0:0:0:0:
36,192,65071,1,0,0:0:0:0:
329,192,65182,1,4,0:0:0:0:
182,192,65182,1,0,0:0:0:0:
109,192,65293,1,0,0:0:0:0:
402,192,65404,128,0,65848:0:0:0:0:
475,192,65404,1,0,0:0:0:0:
36,192,65404,1,4,0:0:0:0:
182,192,65515,1,8,0:0:0:0:
109,192,65515,1,4,0:0:0:0:
329,192,65626,1,4,0:0:0:0:
256,192,65626,1,0,0:0:0:0:
109,192,65737,5,0,0:0:0:0:
182,192,65848,1,8,0:0:0:0:
36,192,65848,1,4,0:0:0:0:
329,192,65960,1,8,0:0:0:0:
475,192,65960,1,4,0:0:0:0:
182,192,66071,1,8,0:0:0:0:
36,192,66071,1,4,0:0:0:0:
329,192,66182,1,8,0:0:0:0:
475,192,66182,1,4,0:0:0:0:
182,192,66293,128,0,66404:0:0:0:0:
36,192,66293,1,0,0:0:0:0:
402,192,66293,1,4,0:0:0:0:
256,192,66293,1,4,1:0:0:0:
329,192,66404,128,0,66515:0:0:0:0:
475,192,66515,128,0,66626:0:0:0:0:
182,192,66626,128,0,66737:0:0:0:0:
329,192,66737,128,0,66848:0:0:0:0:
475,192,66848,128,0,66960:0:0:0:0:
182,192,66960,128,0,67071:0:0:0:0:
329,192,67071,128,0,67182:0:0:0:0:
475,192,67182,128,0,67293:0:0:0:0:
182,192,67293,128,0,67404:0:0:0:0:
329,192,67404,128,0,67515:0:0:0:0:
475,192,67515,128,0,67626:0:0:0:0:
402,192,67626,1,4,0:0:0:0:
256,192,67626,1,8,0:0:0:0:
109,192,67626,1,0,0:0:0:0:
109,192,67848,1,8,0:0:0:0:
402,192,67848,1,4,0:0:0:0:
256,192,67848,1,0,0:0:0:0:
109,192,68071,128,0,68182:0:0:0:0:
182,192,68071,1,4,1:0:0:0:
329,192,68071,1,4,0:0:0:0:
402,192,68071,1,0,0:0:0:0:
256,192,68182,128,0,68293:0:0:0:0:
402,192,68293,128,0,68404:0:0:0:0:
109,192,68404,128,0,68515:0:0:0:0:
256,192,68515,128,0,68626:0:0:0:0:
402,192,68626,128,0,68737:0:0:0:0:
109,192,68737,128,0,68848:0:0:0:0:
256,192,68848,128,0,68960:0:0:0:0:
402,192,68960,128,0,69071:0:0:0:0:
109,192,69071,128,0,69182:0:0:0:0:
256,192,69182,128,0,69293:0:0:0:0:
402,192,69293,128,0,69404:0:0:0:0:
109,192,69404,1,8,0:0:0:0:
36,192,69404,1,4,0:0:0:0:
475,192,69515,1,8,0:0:0:0:
402,192,69515,1,4,0:0:0:0:
182,192,69626,1,4,0:0:0:0:
109,192,69626,1,0,0:0:0:0:
329,192,69737,1,4,0:0:0:0:
402,192,69737,1,0,0:0:0:0:
36,192,69848,128,0,69960:0:0:0:0:
475,192,69848,1,4,0:0:0:0:
109,192,69848,1,4,1:0:0:0:
256,192,69848,1,0,0:0:0:0:
182,192,69960,128,0,70071:0:0:0:0:
329,192,70071,128,0,70182:0:0:0:0:
109,192,70182,128,0,70293:0:0:0:0:
256,192,70293,128,0,70404:0:0:0:0:
402,192,70404,128,0,70515:0:0:0:0:
36,192,70515,128,0,70626:0:0:0:0:
182,192,70626,128,0,70737:0:0:0:0:
329,192,70737,128,0,70848:0:0:0:0:
109,192,70848,128,0,70960:0:0:0:0:
256,192,70960,128,0,71071:0:0:0:0:
402,192,71071,128,0,71182:0:0:0:0:
36,192,71182,1,4,0:0:0:0:
475,192,71182,1,8,0:0:0:0:
256,192,71182,1,0,0:0:0:0:
36,192,71404,1,8,0:0:0:0:
475,192,71404,1,4,0:0:0:0:
256,192,71404,1,0,0:0:0:0:
36,192,71626,1,4,0:0:0:0:
256,192,71626,1,0,0:0:0:0:
475,192,71737,128,4,71959:0:0:0:0:
182,192,71737,128,8,71959:0:0:0:0:
329,192,71737,1,0,0:0:0:0:
36,192,71959,1,4,0:0:0:0:
256,192,71959,1,0,0:0:0:0:
109,192,72070,128,8,72292:0:0:0:0:
402,192,72070,128,4,72292:0:0:0:0:
329,192,72070,1,0,0:0:0:0:
182,192,72292,1,4,0:0:0:0:
475,192,72292,1,0,0:0:0:0:
329,192,72403,128,4,72626:0:0:0:0:
36,192,72403,128,8,72626:0:0:0:0:
256,192,72403,1,0,0:0:0:0:
182,192,72626,1,4,0:0:0:0:
475,192,72626,1,0,0:0:0:0:
109,192,72737,128,8,72959:0:0:0:0:
402,192,72737,128,4,72959:0:0:0:0:
256,192,72737,1,0,0:0:0:0:
182,192,72959,1,4,0:0:0:0:
329,192,72959,1,0,0:0:0:0:
36,192,73070,128,4,73292:0:0:0:0:
475,192,73070,128,8,73292:0:0:0:0:
256,192,73070,1,0,0:0:0:0:
182,192,73292,1,4,0:0:0:0:
329,192,73292,1,0,0:0:0:0:
109,192,73403,128,8,73626:0:0:0:0:
402,192,73403,128,4,73626:0:0:0:0:
256,192,73403,1,0,0:0:0:0:
36,192,73626,1,4,0:0:0:0:
475,192,73626,1,0,0:0:0:0:
182,192,73737,128,4,73959:0:0:0:0:
329,192,73737,128,8,73959:0:0:0:0:
256,192,73737,1,0,0:0:0:0:
36,192,73959,1,4,0:0:0:0:
475,192,73959,1,0,0:0:0:0:
109,192,74070,128,8,74292:0:0:0:0:
402,192,74070,128,4,74292:0:0:0:0:
256,192,74070,1,0,0:0:0:0:
36,192,74292,1,4,1:0:0:0:
475,192,74292,1,4,0:0:0:0:
182,192,74292,128,0,76292:0:0:0:0:
329,192,74292,128,0,76292:0:0:0:0:
256,192,74292,1,0,0:0:0:0:
475,192,74625,1,8,0:0:0:0:
36,192,74625,1,4,0:0:0:0:
256,192,74958,1,4,0:0:0:0:
256,192,75125,1,4,0:0:0:0:
475,192,75292,1,8,0:0:0:0:
36,192,75292,1,4,0:0:0:0:
402,192,75458,1,4,1:0:0:0:
256,192,75458,1,4,0:0:0:0:
109,192,75458,1,0,0:0:0:0:
475,192,75792,1,8,0:0:0:0:
36,192,75792,1,4,0:0:0:0:
475,192,75958,1,8,0:0:0:0:
36,192,75958,1,4,0:0:0:0:
475,192,76125,1,4,0:0:0:0:
36,192,76125,1,8,0:0:0:0:
256,192,76125,1,0,0:0:0:0:
256,192,76292,1,4,0:0:0:0:
256,192,76458,1,4,0:0:0:0:
182,192,76792,128,0,77458:0:0:0:0:
36,192,76792,1,4,0:0:0:0:
475,192,76792,1,4,1:0:0:0:
329,192,76792,128,0,77125:0:0:0:0:
256,192,76792,1,0,0:0:0:0:
402,192,77125,1,4,0:0:0:0:
475,192,77292,1,8,0:0:0:0:
36,192,77292,1,4,0:0:0:0:
109,192,77458,128,0,77625:0:0:0:0:
402,192,77625,1,4,0:0:0:0:
475,192,77625,1,0,0:0:0:0:
182,192,77625,128,0,77792:0:0:0:0:
36,192,77792,1,8,0:0:0:0:
256,192,77792,1,0,0:0:0:0:
109,192,77875,1,8,0:0:0:0:
329,192,77875,1,0,0:0:0:0:
182,192,77958,1,8,0:0:0:0:
402,192,77958,1,0,0:0:0:0:
256,192,78042,1,8,0:0:0:0:
475,192,78042,1,0,0:0:0:0:
402,192,78125,128,0,78792:0:0:0:0:
36,192,78125,1,4,1:0:0:0:
109,192,78125,128,0,78458:0:0:0:0:
329,192,78125,1,4,0:0:0:0:
182,192,78458,1,4,0:0:0:0:
256,192,78625,1,4,0:0:0:0:
36,192,78625,1,8,0:0:0:0:
329,192,78792,128,0,78958:0:0:0:0:
475,192,78958,1,8,0:0:0:0:
182,192,78958,1,0,0:0:0:0:
402,192,79042,1,8,0:0:0:0:
109,192,79042,1,0,0:0:0:0:
329,192,79125,1,8,0:0:0:0:
36,192,79125,1,0,0:0:0:0:
256,192,79208,1,8,0:0:0:0:
475,192,79208,1,0,0:0:0:0:
182,192,79292,1,4,0:0:0:0:
402,192,79292,1,0,0:0:0:0:
329,192,79375,1,0,0:0:0:0:
109,192,79375,1,4,0:0:0:0:
36,192,79458,128,0,80292:0:0:0:0:
475,192,79458,1,4,0:0:0:0:
402,192,79458,128,0,79792:0:0:0:0:
256,192,79458,1,4,1:0:0:0:
256,192,79792,1,4,0:0:0:0:
182,192,79958,1,4,0:0:0:0:
475,192,79958,1,8,0:0:0:0:
182,192,80292,128,0,80458:0:0:0:0:
402,192,80292,1,0,0:0:0:0:
109,192,80292,1,4,0:0:0:0:
329,192,80458,1,8,0:0:0:0:
36,192,80458,1,0,0:0:0:0:
402,192,80542,1,8,0:0:0:0:
109,192,80542,1,0,0:0:0:0:
182,192,80625,1,8,0:0:0:0:
475,192,80625,1,0,0:0:0:0:
256,192,80708,1,8,0:0:0:0:
36,192,80708,1,0,0:0:0:0:
182,192,80792,128,0,81125:0:0:0:0:
109,192,80792,1,4,0:0:0:0:
329,192,80792,128,0,81292:0:0:0:0:
402,192,80792,1,4,1:0:0:0:
256,192,81125,1,4,0:0:0:0:
475,192,81292,1,4,0:0:0:0:
109,192,81292,1,8,0:0:0:0:
402,192,81458,128,0,81958:0:0:0:0:
256,192,81458,1,4,0:0:0:0:
475,192,81625,1,8,0:0:0:0:
36,192,81625,1,4,0:0:0:0:
329,192,81791,1,4,0:0:0:0:
182,192,81791,1,0,0:0:0:0:
475,192,81958,1,4,0:0:0:0:
36,192,81958,1,8,0:0:0:0:
256,192,81958,1,0,0:0:0:0:
182,192,82125,1,4,1:0:0:0:
109,192,82125,128,0,83125:0:0:0:0:
329,192,82125,128,0,82458:0:0:0:0:
402,192,82125,1,4,0:0:0:0:
256,192,82458,1,4,0:0:0:0:
182,192,82625,1,4,0:0:0:0:
402,192,82625,1,8,0:0:0:0:
329,192,82958,1,4,0:0:0:0:
182,192,82958,1,0,0:0:0:0:
475,192,83125,1,8,0:0:0:0:
36,192,83125,1,0,0:0:0:0:
402,192,83208,1,8,0:0:0:0:
109,192,83208,1,0,0:0:0:0:
329,192,83291,1,8,0:0:0:0:
182,192,83291,1,0,0:0:0:0:
109,192,83375,1,0,0:0:0:0:
402,192,83375,1,8,0:0:0:0:
329,192,83458,128,0,84291:0:0:0:0:
182,192,83458,128,0,83791:0:0:0:0:
36,192,83458,1,4,1:0:0:0:
475,192,83458,1,4,0:0:0:0:
109,192,83791,1,4,0:0:0:0:
402,192,83958,1,4,0:0:0:0:
182,192,83958,1,8,0:0:0:0:
109,192,84125,1,4,0:0:0:0:
182,192,84208,1,4,0:0:0:0:
475,192,84291,1,0,0:0:0:0:
256,192,84291,1,8,0:0:0:0:
402,192,84375,1,0,0:0:0:0:
182,192,84375,1,8,0:0:0:0:
329,192,84458,1,0,0:0:0:0:
109,192,84458,1,8,0:0:0:0:
36,192,84541,1,8,0:0:0:0:
256,192,84541,1,0,0:0:0:0:
475,192,84625,1,4,0:0:0:0:
182,192,84625,1,0,0:0:0:0:
402,192,84708,1,4,0:0:0:0:
109,192,84708,1,0,0:0:0:0:
36,192,84791,1,4,1:0:0:0:
182,192,84791,128,0,85291:0:0:0:0:
329,192,84791,128,0,85125:0:0:0:0:
256,192,84791,1,4,0:0:0:0:
402,192,85125,1,4,0:0:0:0:
36,192,85291,1,8,0:0:0:0:
475,192,85291,1,4,0:0:0:0:
109,192,85291,128,0,85458:0:0:0:0:
256,192,85458,128,0,85791:0:0:0:0:
402,192,85625,1,4,0:0:0:0:
109,192,85625,1,0,0:0:0:0:
475,192,85791,1,8,0:0:0:0:
182,192,85791,1,0,0:0:0:0:
402,192,85875,1,8,0:0:0:0:
109,192,85875,1,0,0:0:0:0:
329,192,85958,1,8,0:0:0:0:
36,192,85958,1,0,0:0:0:0:
402,192,86041,1,8,0:0:0:0:
109,192,86041,1,0,0:0:0:0:
329,192,86125,128,0,86458:0:0:0:0:
36,192,86125,1,4,1:0:0:0:
182,192,86125,128,0,86458:0:0:0:0:
475,192,86125,1,4,0:0:0:0:
402,192,86458,128,4,86625:0:0:0:0:
36,192,86458,1,0,0:0:0:0:
475,192,86625,128,0,86791:0:0:0:0:
109,192,86625,1,8,0:0:0:0:
256,192,86625,1,4,0:0:0:0:
36,192,86791,1,4,0:0:0:0:
182,192,86791,1,8,0:0:0:0:
329,192,86791,1,0,0:0:0:0:
402,192,86791,1,0,0:0:0:0:
109,192,87125,1,4,0:0:0:0:
182,192,87125,1,8,0:0:0:0:
329,192,87125,1,0,0:0:0:0:
475,192,87125,1,0,0:0:0:0:
475,192,87458,1,4,0:0:0:0:
402,192,87458,1,8,0:0:0:0:
36,192,87458,128,0,88625:0:0:0:0:
182,192,87458,1,4,1:0:0:0:
256,192,87458,128,0,87791:0:0:0:0:
329,192,87791,1,4,0:0:0:0:
182,192,87958,1,8,0:0:0:0:
402,192,87958,1,4,0:0:0:0:
475,192,87958,1,0,0:0:0:0:
256,192,88125,1,4,0:0:0:0:
109,192,88291,1,4,0:0:0:0:
329,192,88291,1,0,0:0:0:0:
182,192,88458,1,4,0:0:0:0:
256,192,88625,1,4,0:0:0:0:
475,192,88625,1,8,0:0:0:0:
402,192,88625,1,0,0:0:0:0:
182,192,88791,128,0,89458:0:0:0:0:
109,192,88791,1,4,0:0:0:0:
329,192,88791,128,0,89125:0:0:0:0:
256,192,89125,1,4,0:0:0:0:
475,192,89291,1,4,0:0:0:0:
402,192,89291,1,8,0:0:0:0:
109,192,89291,1,0,0:0:0:0:
329,192,89458,128,0,89625:0:0:0:0:
256,192,89458,1,4,0:0:0:0:
475,192,89625,128,0,89958:0:0:0:0:
402,192,89625,1,4,0:0:0:0:
36,192,89625,1,0,0:0:0:0:
182,192,89791,1,4,0:0:0:0:
402,192,89958,1,8,0:0:0:0:
329,192,89958,1,4,0:0:0:0:
109,192,89958,1,0,0:0:0:0:
256,192,90125,128,0,90791:0:0:0:0:
475,192,90125,1,4,0:0:0:0:
36,192,90125,128,0,90458:0:0:0:0:
329,192,90458,1,4,0:0:0:0:
475,192,90625,1,8,0:0:0:0:
36,192,90625,1,4,0:0:0:0:
109,192,90625,1,0,0:0:0:0:
182,192,90791,128,0,90958:0:0:0:0:
402,192,90791,1,4,0:0:0:0:
256,192,90958,128,0,91291:0:0:0:0:
109,192,90958,1,0,0:0:0:0:
329,192,90958,1,4,0:0:0:0:
36,192,91125,1,4,0:0:0:0:
475,192,91291,1,8,0:0:0:0:
329,192,91291,1,0,0:0:0:0:
182,192,91291,1,4,0:0:0:0:
402,192,91458,128,0,91958:0:0:0:0:
109,192,91458,1,4,0:0:0:0:
36,192,91458,128,0,91791:0:0:0:0:
182,192,91791,1,4,0:0:0:0:
109,192,91958,1,8,0:0:0:0:
256,192,91958,1,4,0:0:0:0:
475,192,91958,1,0,0:0:0:0:
402,192,92125,128,4,92625:0:0:0:0:
329,192,92125,1,0,0:0:0:0:
36,192,92291,1,4,0:0:0:0:
182,192,92291,1,0,0:0:0:0:
256,192,92458,1,4,0:0:0:0:
329,192,92625,1,4,0:0:0:0:
475,192,92625,1,8,0:0:0:0:
36,192,92625,1,0,0:0:0:0:
109,192,92791,1,4,1:0:0:0:
182,192,92791,128,0,93958:0:0:0:0:
256,192,92791,1,4,0:0:0:0:
402,192,92791,1,0,0:0:0:0:
329,192,93125,1,4,0:0:0:0:
36,192,93291,1,4,0:0:0:0:
475,192,93291,1,8,0:0:0:0:
256,192,93291,1,0,0:0:0:0:
402,192,93458,1,4,0:0:0:0:
256,192,93625,1,4,0:0:0:0:
109,192,93625,1,0,0:0:0:0:
329,192,93791,1,4,0:0:0:0:
475,192,93958,1,4,0:0:0:0:
402,192,93958,1,0,0:0:0:0:
36,192,93958,1,8,0:0:0:0:
329,192,94125,128,0,94625:0:0:0:0:
109,192,94125,1,4,1:0:0:0:
182,192,94125,1,0,0:0:0:0:
256,192,94125,1,4,0:0:0:0:
36,192,94458,1,4,0:0:0:0:
475,192,94625,1,8,0:0:0:0:
402,192,94625,1,4,0:0:0:0:
182,192,94625,1,0,0:0:0:0:
256,192,94791,1,4,0:0:0:0:
329,192,94791,128,0,95291:0:0:0:0:
109,192,94791,1,0,0:0:0:0:
475,192,94958,1,8,0:0:0:0:
36,192,94958,1,4,0:0:0:0:
402,192,95125,1,8,0:0:0:0:
109,192,95125,1,4,0:0:0:0:
182,192,95291,1,4,0:0:0:0:
256,192,95291,1,0,0:0:0:0:
109,192,95458,1,4,0:0:0:0:
329,192,95458,1,0,0:0:0:0:
402,192,95458,1,0,0:0:0:0:
475,192,95625,128,0,96125:0:0:0:0:
36,192,95625,1,4,1:0:0:0:
256,192,95625,1,4,0:0:0:0:
182,192,95625,1,8,0:0:0:0:
109,192,95791,1,4,0:0:0:0:
256,192,95958,1,4,0:0:0:0:
329,192,96125,128,0,96625:0:0:0:0:
182,192,96125,1,4,0:0:0:0:
402,192,96125,1,8,0:0:0:0:
36,192,96125,1,4,1:0:0:0:
109,192,96291,1,4,0:0:0:0:
475,192,96458,1,4,0:0:0:0:
182,192,96625,128,0,97125:0:0:0:0:
109,192,96625,1,4,1:0:0:0:
256,192,96625,1,8,0:0:0:0:
402,192,96625,1,4,0:0:0:0:
36,192,96791,1,4,0:0:0:0:
475,192,96958,1,4,0:0:0:0:
402,192,97125,1,8,0:0:0:0:
36,192,97125,128,0,97625:0:0:0:0:
329,192,97125,1,4,1:0:0:0:
109,192,97125,1,4,0:0:0:0:
256,192,97291,1,4,0:0:0:0:
109,192,97458,1,4,0:0:0:0:
402,192,97458,1,0,0:0:0:0:
329,192,97625,1,4,0:0:0:0:
256,192,97625,128,4,97958:1:0:0:0:
182,192,97625,1,8,0:0:0:0:
402,192,97791,1,0,0:0:0:0:
109,192,97791,1,4,0:0:0:0:
182,192,97958,128,4,98291:0:0:0:0:
329,192,97958,128,8,98291:0:0:0:0:
109,192,98291,1,4,0:0:0:0:
36,192,98291,1,8,0:0:0:0:
402,192,98291,1,4,1:0:0:0:
475,192,98291,1,0,0:0:0:0:
256,192,98291,128,0,100954:0:0:0:0:
402,192,100308,1,0,0:0:0:0:
109,192,100308,1,4,0:0:0:0:
475,192,100530,1,0,0:0:0:0:
36,192,100530,1,4,0:0:0:0:
182,192,100752,1,4,0:0:0:0:
329,192,100752,1,0,0:0:0:0:
475,192,100954,1,4,1:0:0:0:
329,192,100954,1,0,0:0:0:0:
402,192,100954,1,0,0:0:0:0:
109,192,100954,1,8,0:0:0:0:
36,192,100954,128,2,101287:0:0:0:0:
182,192,101287,128,2,101620:0:0:0:0:
329,192,101620,128,2,101842:0:0:0:0:
475,192,101842,128,2,102176:0:0:0:0:
402,192,102176,128,2,102509:0:0:0:0:
256,192,102509,128,2,102731:0:0:0:0:
109,192,102731,128,2,103065:0:0:0:0:
256,192,103065,128,2,103398:0:0:0:0:
402,192,103398,128,2,103620:0:0:0:0:
475,192,103620,128,2,103954:0:0:0:0:
329,192,103954,128,2,104287:0:0:0:0:
182,192,104287,128,2,104509:0:0:0:0:
36,192,104509,128,2,104842:0:0:0:0:
256,192,104842,128,2,105176:0:0:0:0:
475,192,105176,128,2,105398:0:0:0:0:
256,192,105398,128,2,105731:0:0:0:0:
109,192,105731,128,2,106065:0:0:0:0:
402,192,106065,128,2,106287:0:0:0:0:
36,192,106287,128,2,106620:0:0:0:0:
256,192,106620,128,2,106954:0:0:0:0:
475,192,106954,128,2,107398:0:0:0:0:
402,192,107398,128,2,107620:0:0:0:0:
109,192,107620,128,2,108065:0:0:0:0:
475,192,107842,1,0,0:0:0:0:
402,192,107916,1,0,0:0:0:0:
329,192,107991,1,0,0:0:0:0:
256,192,108065,1,0,0:0:0:0:
182,192,108065,128,2,108398:0:0:0:0:
36,192,108065,128,0,114731:0:0:0:0:
329,192,108398,128,2,108731:0:0:0:0:
402,192,108731,128,2,108953:0:0:0:0:
475,192,108953,128,2,109287:0:0:0:0:
256,192,109287,128,2,109620:0:0:0:0:
109,192,109620,128,2,109842:0:0:0:0:
182,192,109842,128,0,114731:0:0:0:0:
256,192,109842,128,2,110176:0:0:0:0:
329,192,110176,128,2,110509:0:0:0:0:
402,192,110509,128,2,110731:0:0:0:0:
475,192,110731,128,2,111065:0:0:0:0:
256,192,111065,128,2,111398:0:0:0:0:
109,192,111398,128,2,111620:0:0:0:0:
329,192,111620,128,0,114731:0:0:0:0:
256,192,111620,128,2,111953:0:0:0:0:
402,192,111953,128,2,112287:0:0:0:0:
475,192,112287,128,2,112509:0:0:0:0:
256,192,112509,128,2,112842:0:0:0:0:
109,192,112842,128,2,113176:0:0:0:0:
402,192,113176,128,2,113398:0:0:0:0:
475,192,113398,128,0,114731:0:0:0:0:
109,192,113398,128,2,113731:0:0:0:0:
256,192,113731,128,2,114065:0:0:0:0:
402,192,114065,128,2,114509:0:0:0:0:
256,192,114509,128,2,114731:0:0:0:0:
109,192,114731,128,2,115176:0:0:0:0:
402,192,114731,128,0,115176:0:0:0:0:
256,192,115176,128,0,115398:0:0:0:0:
475,192,115176,1,0,0:0:0:0:
329,192,115176,1,4,1:0:0:0:
182,192,115176,1,4,0:0:0:0:
36,192,115176,1,0,0:0:0:0:
329,192,115398,128,0,115620:0:0:0:0:
182,192,115509,1,4,0:0:0:0:
475,192,115620,128,0,116065:0:0:0:0:
36,192,115620,1,0,0:0:0:0:
182,192,115842,1,4,0:0:0:0:
402,192,116065,128,0,116509:0:0:0:0:
36,192,116065,1,0,0:0:0:0:
329,192,116509,128,0,116953:0:0:0:0:
36,192,116509,1,0,0:0:0:0:
36,192,116953,128,4,117176:0:0:0:0:
475,192,116953,1,4,0:0:0:0:
256,192,116953,1,0,0:0:0:0:
109,192,117176,128,0,117398:0:0:0:0:
329,192,117287,1,4,0:0:0:0:
182,192,117398,128,0,117842:0:0:0:0:
475,192,117398,1,0,0:0:0:0:
329,192,117620,1,4,0:0:0:0:
109,192,117842,128,0,118287:0:0:0:0:
475,192,117842,1,0,0:0:0:0:
36,192,118287,128,0,118731:0:0:0:0:
475,192,118287,1,0,0:0:0:0:
109,192,118731,128,0,118953:0:0:0:0:
475,192,118731,1,4,0:0:0:0:
329,192,118731,1,0,0:0:0:0:
182,192,118953,128,0,119176:0:0:0:0:
329,192,119065,1,4,0:0:0:0:
256,192,119176,128,0,119620:0:0:0:0:
475,192,119176,1,0,0:0:0:0:
109,192,119398,1,4,0:0:0:0:
329,192,119620,128,0,120065:0:0:0:0:
36,192,119620,1,0,0:0:0:0:
402,192,120065,128,0,120509:0:0:0:0:
36,192,120065,1,0,0:0:0:0:
36,192,120509,128,0,120731:0:0:0:0:
109,192,120509,1,4,0:0:0:0:
256,192,120509,1,0,0:0:0:0:
182,192,120731,128,0,120953:0:0:0:0:
402,192,120842,1,4,0:0:0:0:
329,192,120953,128,0,121176:0:0:0:0:
109,192,120953,1,0,0:0:0:0:
475,192,121176,128,0,121398:0:0:0:0:
256,192,121176,1,4,0:0:0:0:
402,192,121398,128,0,121620:0:0:0:0:
109,192,121398,1,0,0:0:0:0:
256,192,121620,128,0,121842:0:0:0:0:
109,192,121842,128,0,122287:0:0:0:0:
402,192,121842,1,0,0:0:0:0:
36,192,122287,128,0,122509:0:0:0:0:
256,192,122287,1,4,0:0:0:0:
402,192,122287,1,0,0:0:0:0:
182,192,122509,128,0,122731:0:0:0:0:
256,192,122620,1,4,0:0:0:0:
475,192,122731,128,0,123176:0:0:0:0:
402,192,122731,1,0,0:0:0:0:
256,192,122953,1,4,0:0:0:0:
329,192,123176,128,0,123620:0:0:0:0:
109,192,123176,1,0,0:0:0:0:
182,192,123620,128,0,124065:0:0:0:0:
109,192,123620,1,0,0:0:0:0:
109,192,124065,128,0,124287:0:0:0:0:
36,192,124065,1,0,0:0:0:0:
475,192,124065,1,4,0:0:0:0:
256,192,124287,128,0,124509:0:0:0:0:
475,192,124398,1,4,0:0:0:0:
402,192,124509,128,0,124953:0:0:0:0:
36,192,124509,1,0,0:0:0:0:
475,192,124731,1,4,0:0:0:0:
256,192,124953,128,0,125398:0:0:0:0:
36,192,124953,1,0,0:0:0:0:
109,192,125398,128,0,125842:0:0:0:0:
36,192,125398,1,0,0:0:0:0:
36,192,125842,128,0,126065:0:0:0:0:
475,192,125842,1,0,0:0:0:0:
329,192,125842,1,4,0:0:0:0:
182,192,126065,128,0,126287:0:0:0:0:
329,192,126176,1,4,0:0:0:0:
256,192,126287,128,0,126731:0:0:0:0:
475,192,126287,1,0,0:0:0:0:
109,192,126509,1,4,0:0:0:0:
329,192,126731,128,0,127176:0:0:0:0:
475,192,126731,1,0,0:0:0:0:
402,192,127176,128,0,127620:0:0:0:0:
109,192,127176,1,0,0:0:0:0:
109,192,127620,128,0,127842:0:0:0:0:
36,192,127620,1,0,0:0:0:0:
182,192,127620,1,4,0:0:0:0:
256,192,127842,128,0,128065:0:0:0:0:
402,192,127953,1,4,0:0:0:0:
329,192,128065,128,0,128287:0:0:0:0:
36,192,128065,1,0,0:0:0:0:
475,192,128287,128,0,128509:0:0:0:0:
182,192,128287,1,4,0:0:0:0:
402,192,128509,128,0,128731:0:0:0:0:
36,192,128509,1,0,0:0:0:0:
256,192,128731,128,0,128953:0:0:0:0:
182,192,128953,128,0,129176:0:0:0:0:
402,192,128953,1,0,0:0:0:0:
36,192,129176,128,0,129398:0:0:0:0:
475,192,129176,128,0,129398:0:0:0:0:
182,192,129398,128,0,129620:0:0:0:0:
402,192,129398,1,4,1:0:0:0:
329,192,129398,1,4,0:0:0:0:
109,192,129398,1,0,0:0:0:0:
256,192,129620,128,0,129842:0:0:0:0:
36,192,129842,1,0,0:0:0:0:
329,192,129842,128,0,130065:0:0:0:0:
475,192,129842,1,4,0:0:0:0:
109,192,130065,128,0,130287:0:0:0:0:
256,192,130287,128,0,130509:0:0:0:0:
182,192,130287,1,4,0:0:0:0:
329,192,130287,1,0,0:0:0:0:
402,192,130509,128,0,130731:0:0:0:0:
36,192,130731,128,0,130953:0:0:0:0:
109,192,130731,1,4,0:0:0:0:
329,192,130731,1,0,0:0:0:0:
182,192,130953,128,0,131176:0:0:0:0:
329,192,131176,128,2,131509:0:0:0:0:
109,192,131176,1,4,0:0:0:0:
402,192,131176,1,0,0:0:0:0:
475,192,131509,128,2,131842:0:0:0:0:
256,192,131620,1,0,0:0:0:0:
36,192,131620,1,4,0:0:0:0:
402,192,131842,128,2,132065:0:0:0:0:
329,192,132065,128,2,132398:0:0:0:0:
36,192,132065,1,0,0:0:0:0:
109,192,132065,1,4,0:0:0:0:
182,192,132398,128,2,132731:0:0:0:0:
475,192,132509,1,0,0:0:0:0:
402,192,132509,1,4,0:0:0:0:
109,192,132731,128,2,132953:0:0:0:0:
36,192,132953,128,0,133176:0:0:0:0:
329,192,132953,1,4,0:0:0:0:
475,192,132953,1,0,0:0:0:0:
182,192,133176,128,0,133398:0:0:0:0:
329,192,133398,128,0,133620:0:0:0:0:
402,192,133398,1,0,0:0:0:0:
256,192,133398,1,4,0:0:0:0:
109,192,133620,128,0,133842:0:0:0:0:
256,192,133842,128,0,134065:0:0:0:0:
36,192,133842,1,0,0:0:0:0:
182,192,133842,1,4,0:0:0:0:
402,192,134065,128,0,134287:0:0:0:0:
182,192,134287,128,0,134509:0:0:0:0:
109,192,134287,1,0,0:0:0:0:
256,192,134287,1,4,0:0:0:0:
329,192,134509,128,0,134731:0:0:0:0:
402,192,134731,128,2,135065:0:0:0:0:
36,192,134731,1,0,0:0:0:0:
182,192,134731,1,4,0:0:0:0:
475,192,135065,128,2,135398:0:0:0:0:
109,192,135176,1,4,0:0:0:0:
256,192,135176,1,0,0:0:0:0:
329,192,135398,128,2,135620:0:0:0:0:
182,192,135620,128,2,135953:0:0:0:0:
256,192,135620,1,4,0:0:0:0:
402,192,135620,1,0,0:0:0:0:
109,192,135953,128,2,136287:0:0:0:0:
475,192,136065,1,0,0:0:0:0:
329,192,136065,1,4,0:0:0:0:
36,192,136287,128,2,136509:0:0:0:0:
182,192,136509,128,0,136731:0:0:0:0:
402,192,136509,1,4,0:0:0:0:
109,192,136509,1,0,0:0:0:0:
329,192,136731,128,0,136953:0:0:0:0:
475,192,136953,128,0,137176:0:0:0:0:
36,192,136953,1,0,0:0:0:0:
402,192,136953,1,4,0:0:0:0:
109,192,137176,128,0,137398:0:0:0:0:
256,192,137398,128,0,137620:0:0:0:0:
182,192,137398,1,4,0:0:0:0:
475,192,137398,1,0,0:0:0:0:
402,192,137620,128,0,137842:0:0:0:0:
36,192,137842,128,0,138065:0:0:0:0:
109,192,137842,1,4,0:0:0:0:
329,192,137842,1,0,0:0:0:0:
182,192,138065,128,0,138287:0:0:0:0:
329,192,138287,128,2,138620:0:0:0:0:
109,192,138287,1,4,0:0:0:0:
402,192,138287,1,0,0:0:0:0:
475,192,138620,128,2,138953:0:0:0:0:
256,192,138731,1,4,0:0:0:0:
36,192,138731,1,0,0:0:0:0:
329,192,138953,128,2,139176:0:0:0:0:
182,192,139176,128,2,139509:0:0:0:0:
109,192,139176,1,4,0:0:0:0:
402,192,139176,1,0,0:0:0:0:
36,192,139509,128,2,139842:0:0:0:0:
256,192,139620,1,0,0:0:0:0:
475,192,139620,1,4,0:0:0:0:
182,192,139842,128,2,140065:0:0:0:0:
109,192,140065,1,0,0:0:0:0:
475,192,140065,1,4,1:0:0:0:
256,192,140065,1,4,0:0:0:0:
402,192,140065,1,0,0:0:0:0:
36,192,140065,128,2,143176:0:0:0:0:
329,192,141731,1,2,0:0:0:0:
402,192,141787,1,2,0:0:0:0:
475,192,141842,128,2,143176:0:0:0:0:
402,192,143176,1,4,0:0:0:0:
109,192,143176,1,4,0:0:0:0:
329,192,143176,1,0,0:0:0:0:
182,192,143176,1,0,0:0:0:0:
36,192,143620,1,0,0:0:0:0:
182,192,143620,1,4,0:0:0:0:
329,192,143620,1,4,1:0:0:0:
475,192,143620,1,0,0:0:0:0:
475,192,143842,1,0,0:0:0:0:
329,192,143842,1,4,1:0:0:0:
182,192,143842,1,4,0:0:0:0:
36,192,143842,1,0,0:0:0:0:
36,192,144065,1,0,0:0:0:0:
475,192,144065,1,4,0:0:0:0:
109,192,144176,1,0,0:0:0:0:
402,192,144176,1,4,0:0:0:0:
109,192,144287,1,0,0:0:0:0:
402,192,144287,1,4,0:0:0:0:
36,192,144398,1,0,0:0:0:0:
475,192,144398,1,0,0:0:0:0:
182,192,144398,1,4,1:0:0:0:
329,192,144398,1,4,0:0:0:0:
475,192,144731,1,0,0:0:0:0:
329,192,144731,1,4,0:0:0:0:
182,192,144731,1,4,1:0:0:0:
36,192,144731,1,0,0:0:0:0:
402,192,144953,1,0,0:0:0:0:
109,192,144953,1,4,0:0:0:0:
329,192,145065,1,0,0:0:0:0:
182,192,145065,1,4,0:0:0:0:
182,192,145176,1,4,0:0:0:0:
329,192,145176,1,0,0:0:0:0:
402,192,145287,1,4,0:0:0:0:
109,192,145287,1,4,1:0:0:0:
475,192,145287,1,0,0:0:0:0:
36,192,145287,1,0,0:0:0:0:
36,192,145620,1,0,0:0:0:0:
109,192,145620,1,4,1:0:0:0:
475,192,145620,1,0,0:0:0:0:
402,192,145620,1,4,0:0:0:0:
475,192,145842,128,8,146176:0:0:0:0:
36,192,145842,128,4,146176:0:0:0:0:
182,192,146176,1,0,0:0:0:0:
329,192,146176,1,4,0:0:0:0:
36,192,146287,1,0,0:0:0:0:
475,192,146287,1,0,0:0:0:0:
109,192,146287,1,8,0:0:0:0:
402,192,146287,1,4,0:0:0:0:
475,192,146509,1,0,0:0:0:0:
402,192,146509,1,4,0:0:0:0:
36,192,146509,1,0,0:0:0:0:
109,192,146509,1,8,0:0:0:0:
182,192,146731,1,8,0:0:0:0:
329,192,146731,1,4,0:0:0:0:
109,192,146731,128,0,147176:0:0:0:0:
402,192,146731,128,0,147176:0:0:0:0:
36,192,147176,1,0,0:0:0:0:
182,192,147176,1,4,0:0:0:0:
475,192,147176,1,0,0:0:0:0:
329,192,147176,1,4,1:0:0:0:
475,192,147398,1,0,0:0:0:0:
329,192,147398,1,4,1:0:0:0:
182,192,147398,1,4,0:0:0:0:
36,192,147398,1,0,0:0:0:0:
475,192,147620,1,0,0:0:0:0:
182,192,147620,1,4,0:0:0:0:
109,192,147731,1,4,0:0:0:0:
402,192,147731,1,0,0:0:0:0:
109,192,147842,1,4,0:0:0:0:
402,192,147842,1,0,0:0:0:0:
475,192,147953,1,0,0:0:0:0:
329,192,147953,1,4,1:0:0:0:
36,192,147953,1,0,0:0:0:0:
182,192,147953,1,4,0:0:0:0:
36,192,148287,1,0,0:0:0:0:
182,192,148287,1,4,0:0:0:0:
475,192,148287,1,0,0:0:0:0:
329,192,148287,1,4,1:0:0:0:
402,192,148509,1,4,0:0:0:0:
109,192,148509,1,0,0:0:0:0:
329,192,148620,1,4,0:0:0:0:
36,192,148620,1,0,0:0:0:0:
329,192,148731,1,4,0:0:0:0:
36,192,148731,1,0,0:0:0:0:
475,192,148842,1,0,0:0:0:0:
402,192,148842,1,4,0:0:0:0:
109,192,148842,1,0,0:0:0:0:
182,192,148842,1,4,1:0:0:0:
475,192,149176,1,0,0:0:0:0:
402,192,149176,1,4,0:0:0:0:
182,192,149176,1,4,1:0:0:0:
109,192,149176,1,0,0:0:0:0:
36,192,149398,128,4,149731:0:0:0:0:
475,192,149398,128,0,149731:0:0:0:0:
329,192,149398,1,8,0:0:0:0:
182,192,149509,1,8,0:0:0:0:
256,192,149731,1,4,0:0:0:0:
36,192,149842,1,0,0:0:0:0:
182,192,149842,1,8,0:0:0:0:
475,192,149842,1,0,0:0:0:0:
329,192,149842,1,4,0:0:0:0:
475,192,150065,1,0,0:0:0:0:
329,192,150065,1,4,0:0:0:0:
36,192,150065,1,0,0:0:0:0:
182,192,150065,1,8,0:0:0:0:
109,192,150287,1,0,0:0:0:0:
182,192,150287,1,8,0:0:0:0:
329,192,150287,1,4,0:0:0:0:
402,192,150287,1,0,0:0:0:0:
36,192,150398,1,8,0:0:0:0:
475,192,150398,1,4,0:0:0:0:
256,192,150509,1,4,0:0:0:0:
402,192,150731,1,4,1:0:0:0:
182,192,150731,128,0,152733:0:0:0:0:
36,192,150731,1,0,0:0:0:0:
329,192,150731,128,0,152733:0:0:0:0:
475,192,150731,1,0,0:0:0:0:
109,192,150731,1,4,0:0:0:0:
36,192,151066,1,8,0:0:0:0:
475,192,151066,1,4,0:0:0:0:
256,192,151066,1,0,0:0:0:0:
402,192,151399,1,4,0:0:0:0:
109,192,151399,1,0,0:0:0:0:
109,192,151566,1,4,0:0:0:0:
402,192,151566,1,0,0:0:0:0:
475,192,151733,1,8,0:0:0:0:
256,192,151733,1,4,0:0:0:0:
36,192,151733,1,0,0:0:0:0:
402,192,151899,1,4,1:0:0:0:
109,192,151899,1,4,0:0:0:0:
256,192,151899,1,0,0:0:0:0:
36,192,152233,1,8,0:0:0:0:
475,192,152233,1,4,0:0:0:0:
256,192,152233,1,0,0:0:0:0:
36,192,152399,1,8,0:0:0:0:
475,192,152399,1,4,0:0:0:0:
256,192,152399,1,0,0:0:0:0:
36,192,152566,1,4,0:0:0:0:
475,192,152566,1,8,0:0:0:0:
256,192,152566,1,0,0:0:0:0:
256,192,152733,1,4,0:0:0:0:
256,192,152899,1,4,0:0:0:0:
109,192,153233,128,0,153566:0:0:0:0:
329,192,153233,128,0,153566:0:0:0:0:
256,192,153233,1,4,0:0:0:0:
36,192,153233,1,0,0:0:0:0:
475,192,153233,1,4,1:0:0:0:
402,192,153566,1,4,0:0:0:0:
36,192,153566,128,0,153733:0:0:0:0:
329,192,153733,1,4,0:0:0:0:
475,192,153733,1,8,0:0:0:0:
182,192,153733,128,0,153899:0:0:0:0:
109,192,153899,128,0,154066:0:0:0:0:
36,192,154066,1,0,0:0:0:0:
402,192,154066,1,4,0:0:0:0:
256,192,154066,128,0,154233:0:0:0:0:
475,192,154233,1,8,0:0:0:0:
182,192,154233,1,0,0:0:0:0:
402,192,154316,1,8,0:0:0:0:
109,192,154316,1,0,0:0:0:0:
329,192,154399,1,8,0:0:0:0:
36,192,154399,1,0,0:0:0:0:
475,192,154483,1,0,0:0:0:0:
256,192,154483,1,8,0:0:0:0:
329,192,154566,128,0,154899:0:0:0:0:
109,192,154566,1,4,0:0:0:0:
402,192,154566,1,4,1:0:0:0:
182,192,154566,128,0,154899:0:0:0:0:
36,192,154899,1,4,0:0:0:0:
256,192,154899,128,0,155066:0:0:0:0:
109,192,155066,1,4,0:0:0:0:
182,192,155066,1,8,0:0:0:0:
329,192,155066,128,0,155233:0:0:0:0:
402,192,155233,128,0,155399:0:0:0:0:
256,192,155316,1,4,0:0:0:0:
475,192,155399,1,0,0:0:0:0:
182,192,155399,1,8,0:0:0:0:
402,192,155483,1,0,0:0:0:0:
109,192,155483,1,8,0:0:0:0:
256,192,155566,1,0,0:0:0:0:
36,192,155566,1,8,0:0:0:0:
109,192,155649,1,8,0:0:0:0:
329,192,155649,1,0,0:0:0:0:
182,192,155733,1,4,0:0:0:0:
402,192,155733,1,0,0:0:0:0:
256,192,155816,1,4,0:0:0:0:
475,192,155816,1,0,0:0:0:0:
109,192,155899,128,0,156233:0:0:0:0:
329,192,155899,1,4,0:0:0:0:
36,192,155899,1,4,1:0:0:0:
402,192,155899,128,0,156233:0:0:0:0:
182,192,156233,1,4,0:0:0:0:
256,192,156233,128,0,156399:0:0:0:0:
36,192,156399,1,8,0:0:0:0:
329,192,156399,1,4,0:0:0:0:
402,192,156399,128,0,156566:0:0:0:0:
109,192,156566,128,0,156733:0:0:0:0:
256,192,156733,128,0,156899:0:0:0:0:
182,192,156733,1,4,0:0:0:0:
402,192,156733,1,0,0:0:0:0:
475,192,156899,1,8,0:0:0:0:
36,192,156899,1,0,0:0:0:0:
402,192,156983,1,8,0:0:0:0:
109,192,156983,1,0,0:0:0:0:
329,192,157066,1,8,0:0:0:0:
182,192,157066,1,0,0:0:0:0:
402,192,157149,1,8,0:0:0:0:
109,192,157149,1,0,0:0:0:0:
329,192,157233,128,0,157566:0:0:0:0:
475,192,157233,1,4,0:0:0:0:
36,192,157233,1,4,1:0:0:0:
182,192,157233,128,0,157566:0:0:0:0:
36,192,157566,128,0,157733:0:0:0:0:
256,192,157566,1,4,0:0:0:0:
109,192,157733,1,4,0:0:0:0:
182,192,157733,128,0,157899:0:0:0:0:
475,192,157733,1,8,0:0:0:0:
329,192,157899,128,0,158066:0:0:0:0:
402,192,157899,1,4,0:0:0:0:
256,192,158066,1,4,0:0:0:0:
36,192,158066,1,8,0:0:0:0:
182,192,158066,128,0,158233:0:0:0:0:
109,192,158233,1,4,0:0:0:0:
475,192,158233,128,0,158399:0:0:0:0:
402,192,158399,1,0,0:0:0:0:
182,192,158399,1,8,0:0:0:0:
256,192,158399,1,4,0:0:0:0:
36,192,158566,128,0,158899:0:0:0:0:
109,192,158566,1,4,1:0:0:0:
329,192,158566,1,4,0:0:0:0:
475,192,158566,128,0,158899:0:0:0:0:
256,192,158899,1,4,0:0:0:0:
182,192,158899,128,0,159066:0:0:0:0:
109,192,159066,1,4,0:0:0:0:
475,192,159066,1,8,0:0:0:0:
402,192,159066,128,0,159233:0:0:0:0:
256,192,159233,128,0,159399:0:0:0:0:
109,192,159399,1,4,0:0:0:0:
329,192,159399,1,0,0:0:0:0:
36,192,159399,128,0,159566:0:0:0:0:
256,192,159566,1,8,0:0:0:0:
475,192,159566,1,0,0:0:0:0:
109,192,159649,1,0,0:0:0:0:
329,192,159649,1,8,0:0:0:0:
402,192,159733,1,8,0:0:0:0:
182,192,159733,1,0,0:0:0:0:
475,192,159816,1,8,0:0:0:0:
256,192,159816,1,0,0:0:0:0:
182,192,159899,128,0,160233:0:0:0:0:
329,192,159899,1,4,0:0:0:0:
36,192,159899,1,4,1:0:0:0:
402,192,159899,128,0,160233:0:0:0:0:
256,192,160233,1,4,0:0:0:0:
109,192,160233,128,0,160399:0:0:0:0:
402,192,160399,1,4,0:0:0:0:
475,192,160399,1,8,0:0:0:0:
36,192,160399,128,0,160566:0:0:0:0:
329,192,160566,128,0,160733:0:0:0:0:
109,192,160566,1,4,0:0:0:0:
182,192,160649,1,4,0:0:0:0:
475,192,160733,1,8,0:0:0:0:
256,192,160733,1,0,0:0:0:0:
402,192,160816,1,8,0:0:0:0:
182,192,160816,1,0,0:0:0:0:
329,192,160899,1,8,0:0:0:0:
109,192,160899,1,0,0:0:0:0:
256,192,160983,1,8,0:0:0:0:
36,192,160983,1,0,0:0:0:0:
109,192,161066,1,4,0:0:0:0:
329,192,161066,1,0,0:0:0:0:
402,192,161149,1,0,0:0:0:0:
182,192,161149,1,4,0:0:0:0:
329,192,161233,128,0,161566:0:0:0:0:
475,192,161233,1,4,1:0:0:0:
256,192,161233,1,4,0:0:0:0:
109,192,161233,128,0,161566:0:0:0:0:
36,192,161566,1,4,0:0:0:0:
182,192,161566,128,0,161733:0:0:0:0:
109,192,161733,1,4,0:0:0:0:
402,192,161733,1,8,0:0:0:0:
256,192,161733,128,0,161899:0:0:0:0:
329,192,161899,128,0,162066:0:0:0:0:
475,192,162066,1,0,0:0:0:0:
182,192,162066,1,4,0:0:0:0:
402,192,162066,128,0,162233:0:0:0:0:
36,192,162233,1,8,0:0:0:0:
256,192,162233,1,0,0:0:0:0:
109,192,162316,1,8,0:0:0:0:
329,192,162316,1,0,0:0:0:0:
182,192,162399,1,8,0:0:0:0:
402,192,162399,1,0,0:0:0:0:
256,192,162483,1,8,0:0:0:0:
475,192,162483,1,0,0:0:0:0:
182,192,162566,128,0,162899:0:0:0:0:
329,192,162566,1,4,0:0:0:0:
402,192,162566,1,4,1:0:0:0:
36,192,162566,128,0,162899:0:0:0:0:
329,192,162899,128,0,163066:0:0:0:0:
109,192,162899,1,4,0:0:0:0:
475,192,163066,128,0,163233:0:0:0:0:
36,192,163066,1,4,0:0:0:0:
256,192,163066,1,8,0:0:0:0:
109,192,163233,1,4,0:0:0:0:
182,192,163233,1,8,0:0:0:0:
402,192,163233,1,0,0:0:0:0:
329,192,163233,1,0,0:0:0:0:
36,192,163566,1,0,0:0:0:0:
256,192,163566,1,8,0:0:0:0:
329,192,163566,1,0,0:0:0:0:
109,192,163566,1,4,0:0:0:0:
36,192,163899,128,0,164233:0:0:0:0:
182,192,163899,1,4,1:0:0:0:
256,192,163899,1,4,0:0:0:0:
402,192,163899,1,0,0:0:0:0:
475,192,163899,128,0,164233:0:0:0:0:
256,192,164233,1,4,0:0:0:0:
182,192,164233,128,0,164399:0:0:0:0:
475,192,164399,1,4,0:0:0:0:
36,192,164399,1,8,0:0:0:0:
329,192,164399,128,0,164566:0:0:0:0:
109,192,164566,128,0,164733:0:0:0:0:
402,192,164566,1,4,0:0:0:0:
475,192,164733,1,0,0:0:0:0:
182,192,164733,1,4,0:0:0:0:
256,192,164733,128,0,164899:0:0:0:0:
36,192,164899,1,4,0:0:0:0:
402,192,164899,128,0,165066:0:0:0:0:
475,192,165066,1,8,0:0:0:0:
256,192,165066,1,0,0:0:0:0:
109,192,165066,1,4,0:0:0:0:
329,192,165232,128,0,165566:0:0:0:0:
182,192,165232,1,4,0:0:0:0:
36,192,165232,128,0,165566:0:0:0:0:
402,192,165566,1,4,0:0:0:0:
109,192,165566,128,0,165732:0:0:0:0:
256,192,165732,1,4,0:0:0:0:
475,192,165732,1,8,0:0:0:0:
182,192,165732,128,0,165899:0:0:0:0:
329,192,165899,128,0,166066:0:0:0:0:
36,192,165899,1,4,0:0:0:0:
402,192,166066,128,0,166232:0:0:0:0:
109,192,166066,1,4,0:0:0:0:
256,192,166066,1,0,0:0:0:0:
182,192,166232,1,4,0:0:0:0:
475,192,166232,128,0,166399:0:0:0:0:
402,192,166399,1,0,0:0:0:0:
329,192,166399,1,4,0:0:0:0:
36,192,166399,1,8,0:0:0:0:
109,192,166566,128,0,166899:0:0:0:0:
182,192,166566,1,4,0:0:0:0:
256,192,166566,128,0,166899:0:0:0:0:
402,192,166899,1,4,0:0:0:0:
36,192,166899,128,0,167066:0:0:0:0:
475,192,167066,1,8,0:0:0:0:
329,192,167066,128,0,167232:0:0:0:0:
256,192,167066,1,4,0:0:0:0:
109,192,167232,1,4,0:0:0:0:
182,192,167232,128,0,167399:0:0:0:0:
402,192,167399,128,0,167566:0:0:0:0:
36,192,167399,1,0,0:0:0:0:
256,192,167399,1,4,0:0:0:0:
182,192,167566,1,4,0:0:0:0:
475,192,167566,128,0,167732:0:0:0:0:
402,192,167732,1,0,0:0:0:0:
109,192,167732,1,4,0:0:0:0:
256,192,167732,1,8,0:0:0:0:
36,192,167899,128,0,168232:0:0:0:0:
182,192,167899,1,4,0:0:0:0:
475,192,167899,1,4,1:0:0:0:
329,192,167899,128,0,168232:0:0:0:0:
475,192,168232,1,4,0:0:0:0:
182,192,168232,128,0,168399:0:0:0:0:
109,192,168399,1,8,0:0:0:0:
329,192,168399,128,0,168566:0:0:0:0:
402,192,168399,1,4,0:0:0:0:
182,192,168566,1,4,0:0:0:0:
475,192,168566,128,0,168732:0:0:0:0:
256,192,168732,1,4,0:0:0:0:
329,192,168732,1,0,0:0:0:0:
36,192,168732,128,0,168899:0:0:0:0:
182,192,168899,1,4,0:0:0:0:
475,192,168899,128,0,169066:0:0:0:0:
402,192,169066,1,0,0:0:0:0:
109,192,169066,1,4,0:0:0:0:
256,192,169066,1,8,0:0:0:0:
182,192,169232,128,0,169566:0:0:0:0:
475,192,169232,1,4,1:0:0:0:
36,192,169232,1,4,0:0:0:0:
329,192,169232,128,0,169566:0:0:0:0:
109,192,169566,1,4,0:0:0:0:
402,192,169566,128,0,169732:0:0:0:0:
36,192,169732,1,4,0:0:0:0:
256,192,169732,1,8,0:0:0:0:
475,192,169732,128,0,169899:0:0:0:0:
182,192,169899,1,4,0:0:0:0:
329,192,169899,128,0,170066:0:0:0:0:
256,192,170066,1,0,0:0:0:0:
109,192,170066,1,4,0:0:0:0:
402,192,170066,128,0,170232:0:0:0:0:
475,192,170232,128,0,170399:0:0:0:0:
182,192,170232,1,4,0:0:0:0:
256,192,170399,1,0,0:0:0:0:
402,192,170399,1,8,0:0:0:0:
36,192,170399,1,4,0:0:0:0:
109,192,170566,1,4,0:0:0:0:
475,192,170566,1,4,1:0:0:0:
182,192,170566,128,0,170899:0:0:0:0:
329,192,170566,128,0,170899:0:0:0:0:
402,192,170899,1,4,0:0:0:0:
109,192,170899,128,0,171066:0:0:0:0:
475,192,171066,1,8,0:0:0:0:
256,192,171066,1,0,0:0:0:0:
329,192,171066,1,4,0:0:0:0:
36,192,171066,128,0,171232:0:0:0:0:
402,192,171232,1,4,0:0:0:0:
182,192,171232,128,0,171399:0:0:0:0:
109,192,171399,128,0,171566:0:0:0:0:
475,192,171399,1,8,0:0:0:0:
256,192,171399,1,4,0:0:0:0:
329,192,171566,1,4,0:0:0:0:
402,192,171566,1,8,0:0:0:0:
36,192,171566,128,0,171732:0:0:0:0:
475,192,171732,1,0,0:0:0:0:
256,192,171732,1,4,0:0:0:0:
109,192,171732,128,0,171899:0:0:0:0:
36,192,171899,1,0,0:0:0:0:
182,192,171899,1,4,0:0:0:0:
329,192,171899,1,0,0:0:0:0:
475,192,172066,128,0,172566:0:0:0:0:
256,192,172066,1,4,1:0:0:0:
109,192,172066,1,4,0:0:0:0:
402,192,172066,1,8,0:0:0:0:
329,192,172232,1,4,0:0:0:0:
182,192,172399,1,4,0:0:0:0:
329,192,172566,128,0,173066:0:0:0:0:
402,192,172566,1,8,0:0:0:0:
256,192,172566,1,4,1:0:0:0:
109,192,172566,1,4,0:0:0:0:
182,192,172732,1,4,0:0:0:0:
36,192,172899,1,4,0:0:0:0:
182,192,173066,128,0,173566:0:0:0:0:
402,192,173066,1,8,0:0:0:0:
256,192,173066,1,4,1:0:0:0:
109,192,173066,1,4,0:0:0:0:
475,192,173232,1,4,0:0:0:0:
329,192,173399,1,4,0:0:0:0:
36,192,173566,128,0,174066:0:0:0:0:
402,192,173566,1,8,0:0:0:0:
256,192,173566,1,4,1:0:0:0:
109,192,173566,1,4,0:0:0:0:
329,192,173732,1,4,0:0:0:0:
182,192,173899,1,4,0:0:0:0:
256,192,173982,1,4,0:0:0:0:
402,192,174066,1,4,0:0:0:0:
329,192,174066,1,8,0:0:0:0:
182,192,174149,1,8,0:0:0:0:
109,192,174149,1,4,0:0:0:0:
329,192,174232,1,8,0:0:0:0:
402,192,174232,1,4,0:0:0:0:
109,192,174316,1,4,0:0:0:0:
182,192,174316,1,8,0:0:0:0:
329,192,174399,1,8,0:0:0:0:
402,192,174399,1,4,0:0:0:0:
109,192,174482,1,4,0:0:0:0:
182,192,174482,1,8,0:0:0:0:
329,192,174566,128,0,174899:0:0:0:0:
475,192,174566,1,0,0:0:0:0:
256,192,174566,1,4,1:0:0:0:
36,192,174566,1,0,0:0:0:0:
402,192,174566,1,4,0:0:0:0:
182,192,174899,128,0,175066:0:0:0:0:
109,192,174899,1,4,0:0:0:0:
402,192,175066,128,0,175232:0:0:0:0:
256,192,175066,1,4,0:0:0:0:
475,192,175066,1,8,0:0:0:0:
36,192,175066,1,0,0:0:0:0:
109,192,175232,128,0,175399:0:0:0:0:
182,192,175399,128,0,175566:0:0:0:0:
256,192,175399,1,4,0:0:0:0:
329,192,175566,128,0,175732:0:0:0:0:
402,192,175566,1,4,0:0:0:0:
36,192,175732,128,0,175899:0:0:0:0:
475,192,175732,1,8,0:0:0:0:
109,192,175732,1,4,0:0:0:0:
256,192,175899,128,0,176232:0:0:0:0:
402,192,175899,1,4,0:0:0:0:
109,192,176066,1,0,0:0:0:0:
182,192,176232,128,0,176399:0:0:0:0:
36,192,176232,1,4,0:0:0:0:
329,192,176399,128,0,176566:0:0:0:0:
475,192,176399,1,8,0:0:0:0:
402,192,176399,1,4,0:0:0:0:
109,192,176566,128,0,176732:0:0:0:0:
256,192,176732,128,0,176899:0:0:0:0:
182,192,176732,1,4,0:0:0:0:
402,192,176899,128,0,177066:0:0:0:0:
329,192,176899,1,4,0:0:0:0:
36,192,177066,128,0,177232:0:0:0:0:
109,192,177066,1,8,0:0:0:0:
182,192,177066,1,4,0:0:0:0:
475,192,177232,128,0,177566:0:0:0:0:
256,192,177232,1,4,0:0:0:0:
329,192,177399,1,0,0:0:0:0:
109,192,177566,128,0,177732:0:0:0:0:
182,192,177566,1,4,0:0:0:0:
329,192,177732,128,0,177899:0:0:0:0:
256,192,177732,1,4,0:0:0:0:
402,192,177732,1,8,0:0:0:0:
36,192,177899,128,0,178066:0:0:0:0:
182,192,178066,128,0,178232:0:0:0:0:
109,192,178066,1,4,0:0:0:0:
402,192,178232,128,0,178399:0:0:0:0:
475,192,178232,1,4,0:0:0:0:
109,192,178399,128,0,178566:0:0:0:0:
36,192,178399,1,8,0:0:0:0:
256,192,178399,1,4,0:0:0:0:
329,192,178566,128,0,178899:0:0:0:0:
475,192,178566,1,4,0:0:0:0:
182,192,178732,1,0,0:0:0:0:
256,192,178899,128,0,179066:0:0:0:0:
109,192,178899,1,4,0:0:0:0:
402,192,179066,128,0,179232:0:0:0:0:
182,192,179066,1,8,0:0:0:0:
36,192,179066,1,4,0:0:0:0:
475,192,179232,128,0,179399:0:0:0:0:
329,192,179399,128,0,179566:0:0:0:0:
182,192,179399,1,4,0:0:0:0:
36,192,179566,128,0,179732:0:0:0:0:
402,192,179566,1,4,0:0:0:0:
182,192,179732,128,0,179899:0:0:0:0:
475,192,179732,1,4,0:0:0:0:
109,192,179732,1,8,0:0:0:0:
256,192,179899,128,0,180232:0:0:0:0:
329,192,179899,1,4,1:0:0:0:
402,192,179899,1,0,0:0:0:0:
36,192,179899,1,4,0:0:0:0:
109,192,180232,128,0,180399:0:0:0:0:
182,192,180232,1,4,0:0:0:0:
402,192,180399,128,0,180566:0:0:0:0:
329,192,180399,1,4,0:0:0:0:
475,192,180399,1,8,0:0:0:0:
36,192,180566,128,0,180732:0:0:0:0:
182,192,180732,128,0,180899:0:0:0:0:
109,192,180732,1,4,0:0:0:0:
329,192,180899,128,0,181066:0:0:0:0:
402,192,180899,1,4,0:0:0:0:
256,192,181066,128,0,181232:0:0:0:0:
182,192,181066,1,4,0:0:0:0:
36,192,181066,1,8,0:0:0:0:
475,192,181232,128,0,181566:0:0:0:0:
109,192,181232,1,4,0:0:0:0:
256,192,181399,1,0,0:0:0:0:
36,192,181566,128,0,181732:0:0:0:0:
182,192,181566,1,4,0:0:0:0:
402,192,181732,128,0,181899:0:0:0:0:
329,192,181732,1,8,0:0:0:0:
109,192,181732,1,4,0:0:0:0:
256,192,181899,128,0,182066:0:0:0:0:
182,192,182066,128,0,182232:0:0:0:0:
475,192,182066,1,4,0:0:0:0:
329,192,182232,128,0,182399:0:0:0:0:
402,192,182232,1,4,0:0:0:0:
109,192,182399,128,0,182566:0:0:0:0:
256,192,182399,1,8,0:0:0:0:
36,192,182399,1,4,0:0:0:0:
475,192,182566,128,0,182899:0:0:0:0:
182,192,182566,1,4,1:0:0:0:
402,192,182566,1,0,0:0:0:0:
329,192,182566,1,4,0:0:0:0:
402,192,182899,128,0,183066:0:0:0:0:
256,192,182899,1,4,0:0:0:0:
329,192,183066,128,0,183232:0:0:0:0:
182,192,183066,1,4,0:0:0:0:
109,192,183066,1,8,0:0:0:0:
256,192,183232,128,0,183399:0:0:0:0:
182,192,183399,128,0,183566:0:0:0:0:
36,192,183399,1,4,0:0:0:0:
109,192,183566,128,0,183732:0:0:0:0:
402,192,183566,1,4,0:0:0:0:
36,192,183732,128,0,183899:0:0:0:0:
475,192,183732,1,8,0:0:0:0:
329,192,183732,1,4,0:0:0:0:
109,192,183899,128,0,184232:0:0:0:0:
402,192,183899,1,0,0:0:0:0:
182,192,183899,1,4,1:0:0:0:
256,192,183899,1,4,0:0:0:0:
182,192,184232,128,0,184399:0:0:0:0:
329,192,184232,1,4,0:0:0:0:
256,192,184399,128,0,184566:0:0:0:0:
475,192,184399,1,8,0:0:0:0:
36,192,184399,1,4,0:0:0:0:
182,192,184566,128,0,184732:0:0:0:0:
329,192,184566,1,4,0:0:0:0:
402,192,184649,1,4,0:0:0:0:
475,192,184732,1,8,0:0:0:0:
36,192,184732,1,4,0:0:0:0:
329,192,184816,1,8,0:0:0:0:
182,192,184816,1,4,0:0:0:0:
475,192,184899,1,8,0:0:0:0:
36,192,184899,1,4,0:0:0:0:
329,192,184982,1,8,0:0:0:0:
182,192,184982,1,4,0:0:0:0:
475,192,185066,1,0,0:0:0:0:
36,192,185066,1,4,0:0:0:0:
329,192,185149,1,0,0:0:0:0:
182,192,185149,1,4,0:0:0:0:
109,192,185232,128,0,186399:0:0:0:0:
475,192,185232,1,4,1:0:0:0:
36,192,185232,1,4,0:0:0:0:
402,192,185232,128,0,185566:0:0:0:0:
256,192,185232,1,0,0:0:0:0:
256,192,185566,128,0,185732:0:0:0:0:
182,192,185566,1,4,0:0:0:0:
402,192,185732,128,0,185899:0:0:0:0:
475,192,185732,1,8,0:0:0:0:
329,192,185732,1,4,0:0:0:0:
36,192,185732,1,4,1:0:0:0:
182,192,185899,128,0,186066:0:0:0:0:
329,192,186066,128,0,186232:0:0:0:0:
256,192,186066,1,4,0:0:0:0:
475,192,186232,128,0,186399:0:0:0:0:
402,192,186232,1,4,0:0:0:0:
36,192,186399,128,0,186566:0:0:0:0:
329,192,186399,1,8,0:0:0:0:
256,192,186399,1,4,0:0:0:0:
402,192,186566,128,0,187732:0:0:0:0:
182,192,186566,128,0,186899:0:0:0:0:
109,192,186566,1,4,0:0:0:0:
329,192,186732,1,0,0:0:0:0:
109,192,186899,128,0,187066:0:0:0:0:
256,192,186899,1,4,0:0:0:0:
329,192,187066,128,0,187232:0:0:0:0:
475,192,187066,1,8,0:0:0:0:
182,192,187066,1,4,0:0:0:0:
36,192,187232,128,0,187399:0:0:0:0:
256,192,187399,128,0,187566:0:0:0:0:
109,192,187399,1,4,0:0:0:0:
475,192,187566,128,0,187732:0:0:0:0:
182,192,187566,1,4,0:0:0:0:
109,192,187732,128,0,187899:0:0:0:0:
256,192,187732,1,4,0:0:0:0:
36,192,187732,1,8,0:0:0:0:
182,192,187899,128,0,189066:0:0:0:0:
329,192,187899,128,0,188232:0:0:0:0:
402,192,187899,1,4,0:0:0:0:
256,192,188066,1,0,0:0:0:0:
36,192,188232,128,0,188399:0:0:0:0:
109,192,188232,1,4,0:0:0:0:
402,192,188399,128,0,188566:0:0:0:0:
475,192,188399,1,8,0:0:0:0:
256,192,188399,1,4,0:0:0:0:
109,192,188566,128,0,188732:0:0:0:0:
256,192,188732,128,0,188899:0:0:0:0:
36,192,188732,1,4,0:0:0:0:
329,192,188899,128,0,189066:0:0:0:0:
109,192,188899,1,4,0:0:0:0:
402,192,189066,128,0,189232:0:0:0:0:
256,192,189066,1,8,0:0:0:0:
36,192,189066,1,4,0:0:0:0:
329,192,189232,128,0,190399:0:0:0:0:
109,192,189232,128,0,189566:0:0:0:0:
475,192,189232,1,4,0:0:0:0:
256,192,189399,1,0,0:0:0:0:
182,192,189566,128,0,189732:0:0:0:0:
36,192,189566,1,4,0:0:0:0:
475,192,189732,128,0,189899:0:0:0:0:
109,192,189732,1,4,0:0:0:0:
256,192,189732,1,8,0:0:0:0:
402,192,189899,128,0,190066:0:0:0:0:
182,192,190066,128,0,190232:0:0:0:0:
36,192,190066,1,4,0:0:0:0:
109,192,190232,128,0,190399:0:0:0:0:
256,192,190232,1,4,0:0:0:0:
36,192,190399,128,0,190732:0:0:0:0:
475,192,190399,128,0,190732:0:0:0:0:
402,192,190399,1,4,0:0:0:0:
182,192,190399,1,8,0:0:0:0:
109,192,190732,128,0,192066:0:0:0:0:
402,192,190732,128,0,192066:0:0:0:0:
256,192,190732,1,0,0:0:0:0:
36,192,192066,128,0,193399:0:0:0:0:
475,192,192066,128,0,193399:0:0:0:0:
182,192,192066,1,4,0:0:0:0:
329,192,192066,1,4,1:0:0:0:
256,192,192066,1,0,0:0:0:0:
256,192,192399,1,0,0:0:0:0:
256,192,192732,1,0,0:0:0:0:
256,192,193066,1,0,0:0:0:0:
109,192,193399,1,8,0:0:0:0:
182,192,193399,1,4,0:0:0:0:
329,192,193399,128,0,195232:0:0:0:0:
109,192,193566,1,8,0:0:0:0:
182,192,193566,1,4,0:0:0:0:
402,192,193732,1,0,0:0:0:0:
256,192,193899,1,0,0:0:0:0:
36,192,194066,1,8,0:0:0:0:
182,192,194066,1,4,0:0:0:0:
182,192,194232,1,4,0:0:0:0:
36,192,194232,1,8,0:0:0:0:
256,192,194399,1,0,0:0:0:0:
182,192,194566,1,0,0:0:0:0:
109,192,194732,1,4,0:0:0:0:
402,192,194732,1,8,0:0:0:0:
402,192,194899,1,8,0:0:0:0:
109,192,194899,1,4,0:0:0:0:
256,192,195066,1,0,0:0:0:0:
109,192,195232,1,4,0:0:0:0:
182,192,195232,1,8,0:0:0:0:
475,192,195232,128,0,195399:0:0:0:0:
329,192,195399,128,0,195566:0:0:0:0:
36,192,195399,1,0,0:0:0:0:
475,192,195566,128,0,196066:0:0:0:0:
109,192,195566,1,4,0:0:0:0:
182,192,195566,1,8,0:0:0:0:
182,192,196066,128,0,196566:0:0:0:0:
36,192,196066,1,8,0:0:0:0:
329,192,196066,1,4,0:0:0:0:
36,192,196232,1,8,0:0:0:0:
329,192,196232,1,4,0:0:0:0:
256,192,196399,1,0,0:0:0:0:
475,192,196566,128,0,196732:0:0:0:0:
402,192,196566,1,0,0:0:0:0:
182,192,196732,128,0,197232:0:0:0:0:
329,192,196732,1,4,0:0:0:0:
36,192,196732,1,8,0:0:0:0:
36,192,196899,1,8,0:0:0:0:
329,192,196899,1,4,0:0:0:0:
256,192,197066,1,0,0:0:0:0:
475,192,197232,128,0,197399:0:0:0:0:
402,192,197232,1,0,0:0:0:0:
329,192,197399,128,0,197566:0:0:0:0:
36,192,197399,1,8,0:0:0:0:
182,192,197399,1,4,0:0:0:0:
475,192,197566,128,0,197899:0:0:0:0:
36,192,197566,1,8,0:0:0:0:
182,192,197566,1,4,0:0:0:0:
256,192,197732,128,0,197899:0:0:0:0:
402,192,197899,128,0,198232:0:0:0:0:
36,192,197899,1,4,0:0:0:0:
329,192,197899,1,8,0:0:0:0:
182,192,198066,128,0,198232:0:0:0:0:
109,192,198066,1,0,0:0:0:0:
329,192,198232,128,0,198566:0:0:0:0:
256,192,198232,1,8,0:0:0:0:
36,192,198232,1,4,0:0:0:0:
109,192,198399,128,0,198566:0:0:0:0:
256,192,198566,128,0,198732:0:0:0:0:
402,192,198732,128,0,198899:0:0:0:0:
109,192,198732,1,8,0:0:0:0:
36,192,198732,1,4,0:0:0:0:
475,192,198899,128,0,199066:0:0:0:0:
109,192,198899,1,8,0:0:0:0:
36,192,198899,1,4,0:0:0:0:
402,192,199066,128,0,199232:0:0:0:0:
256,192,199066,1,0,0:0:0:0:
329,192,199232,128,0,199399:0:0:0:0:
109,192,199232,1,0,0:0:0:0:
182,192,199399,128,0,199566:0:0:0:0:
402,192,199399,1,8,0:0:0:0:
475,192,199399,1,4,0:0:0:0:
109,192,199566,128,0,199732:0:0:0:0:
475,192,199566,1,4,0:0:0:0:
402,192,199566,1,8,0:0:0:0:
36,192,199732,128,0,199899:0:0:0:0:
256,192,199732,1,0,0:0:0:0:
182,192,199899,128,0,200066:0:0:0:0:
329,192,199899,1,0,0:0:0:0:
402,192,200066,128,0,200232:0:0:0:0:
36,192,200066,1,4,0:0:0:0:
256,192,200066,1,8,0:0:0:0:
475,192,200232,128,0,200399:0:0:0:0:
36,192,200232,1,4,0:0:0:0:
256,192,200232,1,8,0:0:0:0:
109,192,200399,128,0,200566:0:0:0:0:
329,192,200399,1,0,0:0:0:0:
256,192,200566,128,0,200899:0:0:0:0:
36,192,200566,1,8,0:0:0:0:
475,192,200566,1,4,0:0:0:0:
402,192,200732,1,0,0:0:0:0:
182,192,200899,128,0,201232:0:0:0:0:
475,192,200899,1,4,0:0:0:0:
36,192,200899,1,8,0:0:0:0:
109,192,201232,128,0,201399:0:0:0:0:
182,192,201399,128,0,201566:0:0:0:0:
36,192,201399,1,8,0:0:0:0:
475,192,201399,1,4,0:0:0:0:
329,192,201566,128,0,201732:0:0:0:0:
36,192,201566,1,8,0:0:0:0:
475,192,201566,1,4,0:0:0:0:
402,192,201732,128,0,201899:0:0:0:0:
256,192,201732,1,0,0:0:0:0:
182,192,201899,1,0,0:0:0:0:
329,192,201899,128,0,202066:0:0:0:0:
256,192,202066,1,4,0:0:0:0:
109,192,202066,1,8,0:0:0:0:
36,192,202066,128,0,202232:0:0:0:0:
475,192,202232,128,0,202399:0:0:0:0:
256,192,202232,1,4,0:0:0:0:
109,192,202232,1,8,0:0:0:0:
182,192,202399,128,0,202566:0:0:0:0:
402,192,202399,1,0,0:0:0:0:
475,192,202566,1,0,0:0:0:0:
329,192,202566,128,0,202732:0:0:0:0:
256,192,202732,128,0,202899:0:0:0:0:
36,192,202732,1,8,0:0:0:0:
109,192,202732,1,4,0:0:0:0:
402,192,202899,128,0,203066:0:0:0:0:
109,192,202899,1,4,0:0:0:0:
36,192,202899,1,8,0:0:0:0:
182,192,203066,128,0,203232:0:0:0:0:
329,192,203066,1,0,0:0:0:0:
36,192,203232,1,4,0:0:0:0:
256,192,203232,128,0,203399:0:0:0:0:
475,192,203232,1,8,0:0:0:0:
329,192,203399,128,0,203732:0:0:0:0:
109,192,203399,1,0,0:0:0:0:
36,192,203566,1,4,0:0:0:0:
182,192,203566,1,8,0:0:0:0:
402,192,203732,128,0,203899:0:0:0:0:
475,192,203899,128,0,204066:0:0:0:0:
182,192,204066,1,4,0:0:0:0:
329,192,204066,128,0,204232:0:0:0:0:
182,192,204232,1,4,0:0:0:0:
402,192,204232,128,0,204399:0:0:0:0:
329,192,204399,128,0,204566:0:0:0:0:
256,192,204399,1,4,0:0:0:0:
109,192,204399,1,8,0:0:0:0:
36,192,204399,1,0,0:0:0:0:
182,192,204566,128,0,204732:0:0:0:0:
402,192,204566,1,4,0:0:0:0:
36,192,204732,128,0,204899:0:0:0:0:
475,192,204732,1,0,0:0:0:0:
109,192,204732,1,8,0:0:0:0:
329,192,204732,1,4,0:0:0:0:
256,192,204899,128,0,205066:0:0:0:0:
402,192,204899,1,4,0:0:0:0:
109,192,205066,128,0,205232:0:0:0:0:
182,192,205066,1,4,0:0:0:0:
329,192,205232,128,0,205399:0:0:0:0:
475,192,205232,1,0,0:0:0:0:
256,192,205232,1,8,0:0:0:0:
36,192,205232,1,4,0:0:0:0:
402,192,205399,128,0,205566:0:0:0:0:
182,192,205399,1,4,0:0:0:0:
475,192,205566,128,0,205732:0:0:0:0:
109,192,205566,1,4,0:0:0:0:
256,192,205566,1,8,0:0:0:0:
36,192,205566,1,0,0:0:0:0:
182,192,205732,128,0,205899:0:0:0:0:
329,192,205732,1,4,0:0:0:0:
36,192,205899,128,0,206066:0:0:0:0:
402,192,205899,1,4,0:0:0:0:
475,192,206066,128,0,206232:0:0:0:0:
182,192,206066,1,4,0:0:0:0:
109,192,206066,1,0,0:0:0:0:
256,192,206066,1,8,0:0:0:0:
329,192,206232,128,0,206399:0:0:0:0:
402,192,206232,1,4,0:0:0:0:
36,192,206399,1,4,0:0:0:0:
256,192,206399,1,8,0:0:0:0:
475,192,206399,1,0,0:0:0:0:
182,192,206399,128,0,206566:0:0:0:0:
329,192,206566,128,0,206732:0:0:0:0:
109,192,206732,128,0,206899:0:0:0:0:
475,192,206732,1,4,0:0:0:0:
182,192,206899,128,0,207066:0:0:0:0:
329,192,206899,1,4,0:0:0:0:
36,192,207066,1,0,0:0:0:0:
402,192,207066,128,0,207232:0:0:0:0:
256,192,207066,1,8,0:0:0:0:
475,192,207066,1,4,0:0:0:0:
109,192,207232,128,0,207399:0:0:0:0:
182,192,207232,1,4,0:0:0:0:
329,192,207399,128,0,207566:0:0:0:0:
402,192,207399,1,8,0:0:0:0:
36,192,207399,1,4,0:0:0:0:
475,192,207399,1,0,0:0:0:0:
182,192,207566,128,0,207732:0:0:0:0:
109,192,207566,1,4,0:0:0:0:
256,192,207732,1,4,0:0:0:0:
475,192,207899,128,0,208399:0:0:0:0:
402,192,207899,1,4,1:0:0:0:
329,192,207899,128,0,208399:0:0:0:0:
182,192,207899,128,0,208399:0:0:0:0:
109,192,207899,1,4,0:0:0:0:
36,192,207899,128,0,208399:0:0:0:0:
