osu file format v14

[General]
AudioFilename: IA - Enmei Chiryou.mp3
AudioLeadIn: 1996
PreviewTime: 76292
Countdown: 0
SampleSet: Soft
StackLeniency: 0.7
Mode: 3
LetterboxInBreaks: 0
EpilepsyWarning: 1
SpecialStyle: 0
WidescreenStoryboard: 1

[Editor]
Bookmarks: 101001,101112,101223,101292,101334,101376,101445,101459,101542,101556,101626,101667,101709,101792,101876,101959,102042,102126,102209,102292,102376,102459,102542,102626,102709,102792,102876,102959,103042,103126,103209,103292,103376,103459,103542,103626,103709,103792,103876,103959,104042,104126,104209,104292,104376,104459,104542,104626,104709,104792,104876,104959,105042,105126,105209,105292,105376,105459,105542,105626,105709,105792,105876,105959,106042,106126,106209,106292,106376,106459,106542,106626,106709,106792,106876,106959,107042,107126,107209,107292,107376,107459,107542,107626,107709,107792,107876,107959,108042,108126,108209,108292,108376,108459,108542,108626,108709,108792,108876,108959,109042,109126,109209,109292,109376,109459,109542,109626,109709,109792,109876,109959,110042,110126,110209,110292,110376,110459,110542,110626,110709,110792,110876,110959,111042,111126,111209,111292,111376,111459,111542,111626,111709,111792,111876,111959,112042,112126,112209,112292,112376,112459,112542,112626,112709,112792,112876,112959,113042,113126,113209,113292,113376,113459,113542,113626,113709,113792,113876,113959,114042,114126,114209,114292,114376,114459,114542,114626,114709,114792,114876,114959,115042,115126,193400,194733,196067,197400,198733,200067,201400,202733,204067,205400,206733,207900
DistanceSpacing: 0.7
BeatDivisor: 4
GridSize: 4
TimelineZoom: 1.4

[Metadata]
Title:Enmei Chiryou
TitleUnicode:延命治療
Artist:Neru feat. IA
ArtistUnicode:Neru feat. IA
Creator:puxtu
Version:4K NM
Source:太鼓の達人
Tags:vocaloid IA Life Prolonging Treatment Takane6 combinatorix Kuo_Kyoka nowsmart Blocko lordraika Julie toybot winda Quick_Draw JBHyperion Agka Sun Rainbow pxt
BeatmapID:464923
BeatmapSetID:195210

[Difficulty]
HPDrainRate:7
CircleSize:4
OverallDifficulty:7
ApproachRate:9
SliderMultiplier:1.8
SliderTickRate:1

[Events]
//Background and Video events
0,0,"Vocaloid.full.1384459.jpg",0,0
//Break Periods
//Storyboard Layer 0 (Background)
//Storyboard Layer 1 (Fail)
//Storyboard Layer 2 (Pass)
//Storyboard Layer 3 (Foreground)
//Storyboard Sound Samples

[TimingPoints]
518,444.444444444444,4,2,2,40,1,0
5851,444.444444444444,3,2,2,40,1,0
7184,444.444444444444,4,2,2,40,1,0
12517,444.444444444444,3,2,2,40,1,0
13850,444.444444444444,4,2,2,40,1,0
19183,444.444444444444,3,2,2,40,1,0
21849,444.444444444444,4,2,2,40,1,0
71626,444.444444444444,3,2,2,40,1,0
74292,333.333333333333,4,2,2,40,1,0
74293,-133.333333333333,4,2,2,40,0,0
75459,-133.333333333333,4,2,2,40,0,0
76792,-133.333333333333,4,2,2,40,0,1
87125,-133.333333333333,4,2,2,40,0,0
87458,-133.333333333333,4,2,2,40,0,1
95625,-133.333333333333,4,2,2,40,0,1
98291,-133.333333333333,4,2,2,40,0,0
100308,333.333333333333,4,2,2,40,1,0
100308,-129.87012987013,4,2,2,40,0,0
100954,444.444444444444,4,2,2,40,1,0
150733,333.333333333333,4,2,2,40,1,0
150734,-133.333333333333,4,2,2,40,0,0
151900,-133.333333333333,4,2,2,40,0,0
153233,-133.333333333333,4,2,2,40,0,1
163566,-133.333333333333,4,2,2,40,0,0
163899,-133.333333333333,4,2,2,40,0,1
174232,-133.333333333333,4,2,2,40,0,0
174566,-133.333333333333,4,2,2,40,0,1
184899,-133.333333333333,4,2,2,40,0,0
185232,-133.333333333333,4,2,2,40,0,1
190566,-133.333333333333,4,2,2,40,0,0
190732,-133.333333333333,4,2,2,40,0,0

[Colours]
Combo1 : 128,255,0
Combo2 : 255,0,128
Combo3 : 5,5,240
Combo4 : 255,255,0

[HitObjects]
447,192,518,5,4,1:0:0:0:
64,192,518,128,4,851:0:0:0:0:
192,192,518,1,0,0:0:0:0:
191,192,851,128,0,1184:0:0:0:0:
448,192,1184,128,0,1517:0:0:0:0:
320,192,1517,128,0,1851:0:0:0:0:
64,192,1851,1,8,0:0:0:0:
192,192,1851,1,0,0:0:0:0:
450,192,2073,1,8,0:0:0:0:
320,192,2073,1,0,0:0:0:0:
194,192,2295,128,4,2629:1:0:0:0:
66,192,2295,1,4,0:0:0:0:
448,192,2295,1,0,0:0:0:0:
322,192,2629,128,0,2962:0:0:0:0:
64,192,2962,128,0,3295:0:0:0:0:
448,192,3295,128,0,3629:0:0:0:0:
322,192,3629,1,8,0:0:0:0:
64,192,3629,1,0,0:0:0:0:
192,192,3740,1,0,0:0:0:0:
448,192,3851,1,4,0:0:0:0:
320,192,3962,1,0,0:0:0:0:
192,192,4073,1,8,0:0:0:0:
64,192,4073,128,4,4406:1:0:0:0:
448,192,4073,1,0,0:0:0:0:
322,192,4406,128,0,4740:0:0:0:0:
192,192,4740,128,0,5073:0:0:0:0:
320,192,5073,128,0,5406:0:0:0:0:
64,192,5406,1,4,0:0:0:0:
448,192,5406,1,0,0:0:0:0:
450,192,5629,1,4,0:0:0:0:
192,192,5629,1,0,0:0:0:0:
320,192,5851,1,0,0:0:0:0:
64,192,5962,1,4,0:0:0:0:
192,192,5962,1,8,0:0:0:0:
448,192,6184,1,0,0:0:0:0:
192,192,6295,1,4,0:0:0:0:
320,192,6295,1,0,0:0:0:0:
64,192,6517,1,0,0:0:0:0:
448,192,6628,1,8,0:0:0:0:
320,192,6628,1,4,0:0:0:0:
64,192,6850,1,0,0:0:0:0:
320,192,6962,1,8,0:0:0:0:
192,192,6962,1,0,0:0:0:0:
64,192,7184,1,4,0:0:0:0:
448,192,7184,1,4,0:0:0:0:
320,192,7628,5,8,0:0:0:0:
64,192,7628,1,0,0:0:0:0:
448,192,7850,1,0,0:0:0:0:
64,192,8072,1,4,0:0:0:0:
320,192,8295,1,0,0:0:0:0:
448,192,8517,1,8,0:0:0:0:
192,192,8517,1,0,0:0:0:0:
64,192,8739,1,4,0:0:0:0:
192,192,8961,1,4,0:0:0:0:
320,192,9183,1,0,0:0:0:0:
448,192,9406,1,8,0:0:0:0:
192,192,9406,1,0,0:0:0:0:
320,192,9628,1,0,0:0:0:0:
64,192,9850,1,4,0:0:0:0:
320,192,9961,1,8,0:0:0:0:
448,192,9961,1,0,0:0:0:0:
192,192,10072,1,0,0:0:0:0:
320,192,10295,1,8,0:0:0:0:
64,192,10295,1,0,0:0:0:0:
448,192,10517,1,0,0:0:0:0:
64,192,10739,1,4,0:0:0:0:
192,192,10961,1,0,0:0:0:0:
445,192,11183,5,8,0:0:0:0:
64,192,11183,1,0,0:0:0:0:
320,192,11406,1,0,0:0:0:0:
64,192,11628,1,4,0:0:0:0:
192,192,11850,1,0,0:0:0:0:
64,192,12072,1,8,0:0:0:0:
320,192,12072,1,0,0:0:0:0:
448,192,12295,1,4,0:0:0:0:
64,192,12517,1,0,0:0:0:0:
448,192,12628,1,12,0:0:0:0:
320,192,12628,1,0,0:0:0:0:
64,192,12850,1,0,0:0:0:0:
192,192,12961,1,12,0:0:0:0:
320,192,12961,1,0,0:0:0:0:
448,192,13183,1,0,0:0:0:0:
192,192,13294,1,12,0:0:0:0:
64,192,13294,1,0,0:0:0:0:
448,192,13516,1,0,0:0:0:0:
192,192,13628,1,8,0:0:0:0:
320,192,13628,1,4,1:0:0:0:
448,192,13850,5,4,1:0:0:0:
64,192,13850,1,4,0:0:0:0:
64,192,14294,1,8,0:0:0:0:
320,192,14294,1,0,0:0:0:0:
448,192,14516,1,0,0:0:0:0:
192,192,14738,1,4,0:0:0:0:
64,192,14961,1,0,0:0:0:0:
320,192,15183,1,8,0:0:0:0:
448,192,15183,1,0,0:0:0:0:
64,192,15405,1,4,0:0:0:0:
320,192,15627,1,4,0:0:0:0:
192,192,15849,1,0,0:0:0:0:
64,192,16072,1,8,0:0:0:0:
448,192,16072,1,0,0:0:0:0:
320,192,16294,1,0,0:0:0:0:
64,192,16516,1,4,0:0:0:0:
448,192,16627,1,8,0:0:0:0:
320,192,16627,1,0,0:0:0:0:
192,192,16738,1,0,0:0:0:0:
320,192,16961,1,8,0:0:0:0:
64,192,16961,1,0,0:0:0:0:
448,192,17183,1,0,0:0:0:0:
64,192,17405,1,4,0:0:0:0:
320,192,17627,1,0,0:0:0:0:
64,192,17849,1,8,0:0:0:0:
448,192,17849,1,0,0:0:0:0:
320,192,18072,1,0,0:0:0:0:
186,192,18294,5,4,0:0:0:0:
320,192,18516,1,0,0:0:0:0:
64,192,18738,1,8,0:0:0:0:
448,192,18738,1,0,0:0:0:0:
192,192,18961,1,8,0:0:0:0:
448,192,19183,1,4,0:0:0:0:
320,192,19294,1,0,0:0:0:0:
64,192,19516,1,0,0:0:0:0:
448,192,19627,1,4,0:0:0:0:
192,192,19849,1,4,0:0:0:0:
320,192,19960,1,0,0:0:0:0:
192,192,20183,1,0,0:0:0:0:
448,192,20294,1,4,0:0:0:0:
192,192,20516,1,0,0:0:0:0:
64,192,20627,1,4,0:0:0:0:
320,192,20627,1,8,0:0:0:0:
448,192,20849,1,0,0:0:0:0:
192,192,20960,1,4,0:0:0:0:
64,192,20960,1,0,0:0:0:0:
320,192,21182,1,0,0:0:0:0:
190,192,21294,1,4,0:0:0:0:
448,192,21294,1,8,0:0:0:0:
64,192,21516,1,0,0:0:0:0:
312,192,21627,1,4,0:0:0:0:
448,192,21627,1,0,0:0:0:0:
64,192,21849,128,8,22182:0:0:0:0:
192,192,21849,1,4,0:0:0:0:
448,192,21849,1,0,0:0:0:0:
312,192,22182,128,0,22515:0:0:0:0:
188,192,22515,128,0,22849:0:0:0:0:
448,192,22849,128,0,23182:0:0:0:0:
320,192,23182,1,0,0:0:0:0:
192,192,23404,1,0,0:0:0:0:
64,192,23626,1,4,1:0:0:0:
448,192,23626,128,4,24960:0:0:0:0:
64,192,24071,1,8,0:0:0:0:
192,192,24071,1,0,0:0:0:0:
320,192,24293,1,0,0:0:0:0:
192,192,24515,1,4,0:0:0:0:
64,192,24737,1,0,0:0:0:0:
192,192,24960,1,8,0:0:0:0:
320,192,24960,1,0,0:0:0:0:
64,192,25182,1,4,0:0:0:0:
192,192,25293,1,0,0:0:0:0:
320,192,25404,1,4,0:0:0:0:
448,192,25626,1,0,0:0:0:0:
192,192,25848,1,8,0:0:0:0:
448,192,25848,1,0,0:0:0:0:
64,192,26071,1,0,0:0:0:0:
320,192,26293,1,4,0:0:0:0:
192,192,26515,1,0,0:0:0:0:
64,192,26737,1,8,0:0:0:0:
448,192,26737,1,0,0:0:0:0:
192,192,26960,1,4,0:0:0:0:
448,192,27071,1,0,0:0:0:0:
64,192,27182,1,4,0:0:0:0:
192,192,27404,1,0,0:0:0:0:
64,192,27626,1,8,0:0:0:0:
448,192,27626,1,0,0:0:0:0:
320,192,27848,1,0,0:0:0:0:
448,192,28071,1,4,0:0:0:0:
192,192,28293,1,0,0:0:0:0:
64,192,28515,1,8,0:0:0:0:
192,192,28515,1,0,0:0:0:0:
448,192,28737,1,0,0:0:0:0:
320,192,28848,1,0,0:0:0:0:
192,192,28960,1,4,0:0:0:0:
320,192,29182,1,0,0:0:0:0:
64,192,29404,1,8,0:0:0:0:
448,192,29404,1,0,0:0:0:0:
192,192,29626,1,0,0:0:0:0:
64,192,29848,1,4,0:0:0:0:
320,192,30071,1,0,0:0:0:0:
192,192,30293,1,8,0:0:0:0:
448,192,30293,1,0,0:0:0:0:
320,192,30515,1,4,0:0:0:0:
192,192,30626,1,0,0:0:0:0:
448,192,30737,1,4,0:0:0:0:
64,192,30737,1,4,1:0:0:0:
320,192,30960,1,0,0:0:0:0:
192,192,31182,1,8,0:0:0:0:
448,192,31182,1,0,0:0:0:0:
64,192,31404,1,0,0:0:0:0:
320,192,31626,1,4,0:0:0:0:
448,192,31848,1,0,0:0:0:0:
64,192,32071,1,8,0:0:0:0:
192,192,32071,1,0,0:0:0:0:
448,192,32293,1,4,0:0:0:0:
192,192,32404,1,0,0:0:0:0:
320,192,32515,1,4,0:0:0:0:
192,192,32737,1,0,0:0:0:0:
320,192,32960,1,8,0:0:0:0:
448,192,32960,1,0,0:0:0:0:
64,192,33182,1,0,0:0:0:0:
189,192,33404,1,4,0:0:0:0:
448,192,33626,1,0,0:0:0:0:
64,192,33848,1,8,0:0:0:0:
320,192,33848,1,0,0:0:0:0:
448,192,34071,1,4,0:0:0:0:
320,192,34182,1,0,0:0:0:0:
192,192,34293,1,4,0:0:0:0:
448,192,34515,1,8,0:0:0:0:
320,192,34515,1,0,0:0:0:0:
64,192,34737,1,8,0:0:0:0:
192,192,34737,1,0,0:0:0:0:
448,192,34960,1,0,0:0:0:0:
192,192,35182,1,4,0:0:0:0:
320,192,35404,1,0,0:0:0:0:
64,192,35626,1,8,0:0:0:0:
192,192,35626,1,0,0:0:0:0:
448,192,35848,1,0,0:0:0:0:
64,192,35960,1,0,0:0:0:0:
320,192,36071,1,4,0:0:0:0:
192,192,36293,1,0,0:0:0:0:
64,192,36515,1,8,0:0:0:0:
320,192,36515,1,0,0:0:0:0:
448,192,36737,1,0,0:0:0:0:
64,192,36848,1,0,0:0:0:0:
320,192,36960,1,4,0:0:0:0:
192,192,37182,1,0,0:0:0:0:
64,192,37404,1,8,0:0:0:0:
448,192,37404,1,0,0:0:0:0:
320,192,37515,1,0,0:0:0:0:
192,192,37626,1,4,0:0:0:0:
320,192,37737,1,0,0:0:0:0:
61,192,37848,1,4,1:0:0:0:
449,192,37848,1,4,0:0:0:0:
190,192,38182,1,0,0:0:0:0:
321,192,38293,1,0,0:0:0:0:
64,192,38515,1,4,0:0:0:0:
449,192,38515,1,4,1:0:0:0:
61,192,38960,1,4,0:0:0:0:
189,192,39182,1,8,0:0:0:0:
320,192,39182,1,0,0:0:0:0:
448,192,39404,1,0,0:0:0:0:
192,192,39626,1,4,0:0:0:0:
192,192,39848,1,0,0:0:0:0:
61,192,40071,1,8,0:0:0:0:
448,192,40071,1,0,0:0:0:0:
445,192,40293,1,8,0:0:0:0:
317,192,40404,1,0,0:0:0:0:
189,192,40515,1,4,0:0:0:0:
191,192,40737,1,0,0:0:0:0:
64,192,40960,1,8,0:0:0:0:
317,192,40960,1,0,0:0:0:0:
320,192,41182,1,0,0:0:0:0:
445,192,41404,1,4,0:0:0:0:
192,192,41404,1,0,0:0:0:0:
61,192,41626,1,0,0:0:0:0:
192,192,41848,1,8,0:0:0:0:
320,192,42071,1,4,0:0:0:0:
445,192,42071,1,4,1:0:0:0:
61,192,42515,1,4,0:0:0:0:
192,192,42737,1,8,0:0:0:0:
448,192,42737,1,0,0:0:0:0:
320,192,42960,1,0,0:0:0:0:
64,192,43182,1,4,0:0:0:0:
64,192,43404,1,0,0:0:0:0:
320,192,43626,1,8,0:0:0:0:
192,192,43626,1,0,0:0:0:0:
320,192,43848,1,0,0:0:0:0:
192,192,44071,1,4,0:0:0:0:
448,192,44182,1,8,0:0:0:0:
192,192,44293,1,0,0:0:0:0:
448,192,44515,1,8,0:0:0:0:
64,192,44515,1,0,0:0:0:0:
448,192,44737,1,0,0:0:0:0:
192,192,44960,1,4,1:0:0:0:
320,192,44960,1,4,0:0:0:0:
64,192,45182,1,0,0:0:0:0:
320,192,45404,1,8,0:0:0:0:
448,192,45626,1,4,0:0:0:0:
192,192,45626,1,0,0:0:0:0:
64,192,46071,1,4,0:0:0:0:
192,192,46293,1,8,0:0:0:0:
448,192,46293,1,0,0:0:0:0:
320,192,46515,1,0,0:0:0:0:
192,192,46737,1,4,0:0:0:0:
192,192,46960,1,0,0:0:0:0:
448,192,47182,1,8,0:0:0:0:
64,192,47182,1,0,0:0:0:0:
448,192,47404,1,0,0:0:0:0:
64,192,47626,1,4,0:0:0:0:
320,192,47737,1,8,0:0:0:0:
64,192,47848,1,0,0:0:0:0:
320,192,48071,1,8,0:0:0:0:
192,192,48071,1,0,0:0:0:0:
320,192,48293,1,0,0:0:0:0:
64,192,48515,1,4,0:0:0:0:
448,192,48515,1,0,0:0:0:0:
192,192,48737,1,0,0:0:0:0:
320,192,48960,1,8,0:0:0:0:
192,192,49182,1,4,0:0:0:0:
448,192,49182,1,4,1:0:0:0:
64,192,49626,1,4,0:0:0:0:
448,192,49848,1,8,0:0:0:0:
192,192,49848,1,0,0:0:0:0:
320,192,50071,1,0,0:0:0:0:
448,192,50293,1,4,0:0:0:0:
448,192,50515,1,0,0:0:0:0:
64,192,50737,1,8,0:0:0:0:
192,192,50737,1,0,0:0:0:0:
64,192,50960,1,0,0:0:0:0:
320,192,51182,1,4,0:0:0:0:
320,192,51404,1,8,0:0:0:0:
448,192,51626,1,8,0:0:0:0:
64,192,51626,1,0,0:0:0:0:
192,192,51737,1,0,0:0:0:0:
320,192,51848,1,4,0:0:0:0:
192,192,51960,1,0,0:0:0:0:
448,192,52071,1,4,1:0:0:0:
64,192,52071,1,4,0:0:0:0:
64,192,52515,1,8,0:0:0:0:
320,184,52515,1,0,0:0:0:0:
192,192,52737,1,4,0:0:0:0:
63,192,53182,1,4,0:0:0:0:
192,192,53404,1,8,0:0:0:0:
320,184,53404,1,0,0:0:0:0:
64,192,53626,1,0,0:0:0:0:
448,192,53848,1,4,0:0:0:0:
320,192,54071,1,0,0:0:0:0:
192,192,54293,1,8,0:0:0:0:
64,192,54293,1,0,0:0:0:0:
448,192,54515,1,0,0:0:0:0:
320,192,54626,1,0,0:0:0:0:
64,192,54737,1,4,0:0:0:0:
192,192,54848,1,0,0:0:0:0:
320,192,54960,1,4,0:0:0:0:
448,192,55182,1,8,0:0:0:0:
64,192,55182,1,0,0:0:0:0:
192,192,55404,1,0,0:0:0:0:
448,192,55626,1,4,0:0:0:0:
64,192,55848,1,0,0:0:0:0:
320,192,56071,1,8,0:0:0:0:
192,192,56071,1,0,0:0:0:0:
448,192,56293,1,4,0:0:0:0:
64,192,56737,1,4,0:0:0:0:
448,192,56960,1,8,0:0:0:0:
192,192,56960,1,0,0:0:0:0:
320,192,57182,1,0,0:0:0:0:
64,192,57404,1,4,0:0:0:0:
448,192,57626,1,0,0:0:0:0:
320,192,57848,1,8,0:0:0:0:
64,192,57848,1,0,0:0:0:0:
192,192,58071,1,0,0:0:0:0:
448,192,58182,1,0,0:0:0:0:
64,192,58293,1,4,0:0:0:0:
320,192,58404,1,8,0:0:0:0:
192,192,58515,1,0,0:0:0:0:
448,192,58737,1,8,0:0:0:0:
320,192,58737,1,0,0:0:0:0:
64,192,58960,1,0,0:0:0:0:
192,192,59182,1,4,0:0:0:0:
448,192,59404,1,0,0:0:0:0:
320,192,59626,1,8,0:0:0:0:
64,192,59626,1,0,0:0:0:0:
192,192,59848,1,4,1:0:0:0:
448,192,59848,1,4,0:0:0:0:
64,192,60293,1,4,0:0:0:0:
320,192,60515,1,8,0:0:0:0:
448,192,60515,1,0,0:0:0:0:
64,192,60737,1,0,0:0:0:0:
192,192,60960,1,4,0:0:0:0:
320,192,61182,1,0,0:0:0:0:
192,192,61404,1,8,0:0:0:0:
64,192,61404,1,0,0:0:0:0:
448,192,61626,1,0,0:0:0:0:
320,192,61737,1,0,0:0:0:0:
192,192,61848,1,4,0:0:0:0:
448,192,61960,1,0,0:0:0:0:
64,192,62071,1,4,0:0:0:0:
320,192,62293,1,8,0:0:0:0:
192,192,62293,1,0,0:0:0:0:
448,192,62515,1,0,0:0:0:0:
192,192,62737,1,4,0:0:0:0:
64,192,62960,1,0,0:0:0:0:
320,192,63182,1,8,0:0:0:0:
192,192,63182,1,0,0:0:0:0:
64,192,63404,1,4,0:0:0:0:
448,192,63404,1,4,1:0:0:0:
320,192,63848,1,4,0:0:0:0:
448,192,64071,1,8,0:0:0:0:
192,192,64071,1,0,0:0:0:0:
64,192,64293,1,0,0:0:0:0:
320,192,64515,1,4,0:0:0:0:
448,192,64737,1,0,0:0:0:0:
316,192,64960,1,8,0:0:0:0:
192,192,64960,1,0,0:0:0:0:
64,192,65182,1,4,0:0:0:0:
448,192,65404,1,4,0:0:0:0:
192,192,65626,1,4,0:0:0:0:
448,192,65848,1,8,0:0:0:0:
320,192,65960,1,0,0:0:0:0:
188,192,66071,1,8,0:0:0:0:
64,192,66182,1,0,0:0:0:0:
317,192,66293,128,4,66626:0:0:0:0:
448,192,66293,1,8,0:0:0:0:
192,192,66293,1,0,0:0:0:0:
448,192,66626,128,0,66960:0:0:0:0:
61,192,66960,128,0,67293:0:0:0:0:
322,192,67293,128,0,67626:0:0:0:0:
192,192,67626,1,8,0:0:0:0:
64,192,67626,1,0,0:0:0:0:
445,192,67848,1,8,0:0:0:0:
192,192,67848,1,0,0:0:0:0:
192,192,68071,128,4,68404:0:0:0:0:
64,192,68071,1,8,0:0:0:0:
448,192,68071,1,0,0:0:0:0:
320,192,68404,128,0,68737:0:0:0:0:
448,192,68737,128,0,69071:0:0:0:0:
192,192,69071,128,0,69404:0:0:0:0:
320,192,69404,1,8,0:0:0:0:
64,192,69404,1,0,0:0:0:0:
448,192,69515,1,0,0:0:0:0:
320,192,69626,1,4,0:0:0:0:
192,192,69737,1,0,0:0:0:0:
448,192,69848,1,8,0:0:0:0:
64,192,69848,128,4,70182:0:0:0:0:
320,192,69848,1,0,0:0:0:0:
318,192,70182,128,0,70515:0:0:0:0:
64,192,70515,128,0,70848:0:0:0:0:
448,192,70848,128,0,71182:0:0:0:0:
64,192,71182,1,8,0:0:0:0:
320,192,71182,1,0,0:0:0:0:
448,192,71404,1,8,0:0:0:0:
192,192,71404,1,0,0:0:0:0:
63,192,71626,1,0,0:0:0:0:
191,192,71737,1,4,0:0:0:0:
320,192,71737,1,8,0:0:0:0:
447,192,71959,1,0,0:0:0:0:
319,192,72070,1,8,0:0:0:0:
192,192,72070,1,0,0:0:0:0:
63,192,72292,1,0,0:0:0:0:
191,192,72403,1,4,0:0:0:0:
448,192,72403,1,8,0:0:0:0:
320,192,72626,1,0,0:0:0:0:
192,192,72737,1,8,0:0:0:0:
64,192,72737,1,0,0:0:0:0:
320,192,72959,1,0,0:0:0:0:
444,192,73070,1,4,0:0:0:0:
64,192,73070,1,8,0:0:0:0:
192,192,73292,1,0,0:0:0:0:
64,192,73403,1,8,0:0:0:0:
448,192,73403,1,0,0:0:0:0:
320,192,73626,1,0,0:0:0:0:
448,192,73737,1,4,0:0:0:0:
192,192,73737,1,8,0:0:0:0:
192,192,73959,1,0,0:0:0:0:
64,192,74070,1,8,0:0:0:0:
320,192,74070,1,0,0:0:0:0:
192,192,74292,1,4,1:0:0:0:
448,192,74292,1,4,0:0:0:0:
64,192,74625,1,8,0:0:0:0:
320,192,74625,1,0,0:0:0:0:
320,192,74958,1,4,0:0:0:0:
448,192,75125,1,0,0:0:0:0:
192,192,75292,1,8,0:0:0:0:
64,192,75292,1,0,0:0:0:0:
316,192,75458,1,4,1:0:0:0:
64,192,75458,1,4,0:0:0:0:
448,192,75792,1,8,0:0:0:0:
320,192,75958,1,8,0:0:0:0:
188,192,76125,1,4,0:0:0:0:
64,192,76792,1,4,1:0:0:0:
192,192,76792,128,4,77125:0:0:0:0:
448,192,77125,1,4,0:0:0:0:
64,192,77292,1,8,0:0:0:0:
322,192,77292,1,0,0:0:0:0:
192,192,77625,1,4,0:0:0:0:
320,192,77792,1,4,0:0:0:0:
64,192,77958,1,4,0:0:0:0:
320,192,78125,1,4,1:0:0:0:
448,192,78125,128,0,78458:0:0:0:0:
192,192,78458,1,4,0:0:0:0:
62,192,78625,1,8,0:0:0:0:
320,192,78625,1,0,0:0:0:0:
448,192,78958,1,4,0:0:0:0:
192,192,79125,1,4,0:0:0:0:
448,192,79292,1,4,0:0:0:0:
318,192,79458,1,4,1:0:0:0:
64,192,79458,128,0,79792:0:0:0:0:
190,192,79792,1,4,0:0:0:0:
320,192,79958,1,8,0:0:0:0:
448,192,79958,1,0,0:0:0:0:
190,192,80292,1,4,0:0:0:0:
318,192,80458,1,4,0:0:0:0:
62,192,80625,1,4,0:0:0:0:
320,192,80792,128,4,81125:1:0:0:0:
448,192,80792,1,0,0:0:0:0:
190,192,81125,1,4,0:0:0:0:
62,192,81292,1,8,0:0:0:0:
448,192,81292,1,0,0:0:0:0:
448,192,81625,1,8,0:0:0:0:
192,192,81625,1,0,0:0:0:0:
318,192,81791,1,4,0:0:0:0:
62,192,81958,1,4,0:0:0:0:
318,192,82125,1,4,1:0:0:0:
192,192,82125,128,0,82458:0:0:0:0:
448,192,82458,1,4,0:0:0:0:
320,192,82625,1,8,0:0:0:0:
62,192,82625,1,0,0:0:0:0:
190,192,82958,1,4,0:0:0:0:
448,192,83125,1,4,0:0:0:0:
192,192,83291,1,4,0:0:0:0:
64,192,83458,128,4,83791:1:0:0:0:
320,192,83458,1,0,0:0:0:0:
320,192,83791,1,4,0:0:0:0:
448,192,83958,1,8,0:0:0:0:
192,192,83958,1,0,0:0:0:0:
190,192,84291,1,4,0:0:0:0:
318,192,84458,1,4,0:0:0:0:
62,192,84625,1,4,0:0:0:0:
319,192,84791,1,4,1:0:0:0:
189,192,84791,128,0,85125:0:0:0:0:
448,192,85125,1,4,0:0:0:0:
321,192,85291,1,8,0:0:0:0:
63,192,85291,1,0,0:0:0:0:
191,192,85625,1,4,0:0:0:0:
319,192,85791,1,4,0:0:0:0:
63,192,85958,1,4,0:0:0:0:
446,192,86125,128,8,86458:0:0:0:0:
192,192,86125,1,0,0:0:0:0:
320,192,86458,1,4,0:0:0:0:
192,192,86625,1,8,0:0:0:0:
64,192,86625,1,0,0:0:0:0:
320,192,86791,1,8,0:0:0:0:
448,192,86791,1,0,0:0:0:0:
192,192,87125,1,8,0:0:0:0:
320,192,87125,1,0,0:0:0:0:
448,192,87458,1,4,1:0:0:0:
192,192,87458,128,0,87791:0:0:0:0:
64,192,87458,1,0,0:0:0:0:
320,192,87791,1,4,0:0:0:0:
64,192,87958,1,8,0:0:0:0:
448,192,87958,1,0,0:0:0:0:
190,192,88291,1,4,0:0:0:0:
318,192,88458,1,4,0:0:0:0:
62,192,88625,1,8,0:0:0:0:
192,192,88625,1,0,0:0:0:0:
192,192,88791,128,4,89125:0:0:0:0:
448,192,88791,1,0,0:0:0:0:
320,192,89125,1,4,0:0:0:0:
448,192,89291,1,8,0:0:0:0:
62,192,89291,1,0,0:0:0:0:
190,192,89625,1,4,0:0:0:0:
448,192,89791,1,4,0:0:0:0:
62,192,89958,1,8,0:0:0:0:
320,192,89958,1,0,0:0:0:0:
318,192,90125,1,4,0:0:0:0:
192,192,90125,128,0,90458:0:0:0:0:
448,192,90458,1,4,0:0:0:0:
320,192,90625,1,8,0:0:0:0:
62,192,90625,1,0,0:0:0:0:
190,192,90958,1,4,0:0:0:0:
318,192,91125,1,4,0:0:0:0:
62,192,91291,1,8,0:0:0:0:
448,192,91291,1,0,0:0:0:0:
446,192,91458,128,4,91791:0:0:0:0:
192,192,91458,1,0,0:0:0:0:
190,192,91791,1,4,0:0:0:0:
62,192,91958,1,8,0:0:0:0:
320,192,91958,1,0,0:0:0:0:
190,192,92291,1,4,0:0:0:0:
318,192,92458,1,4,0:0:0:0:
448,192,92625,1,4,0:0:0:0:
192,192,92625,1,0,0:0:0:0:
192,192,92791,1,8,0:0:0:0:
64,192,92791,128,0,93125:0:0:0:0:
320,192,93125,1,4,0:0:0:0:
448,192,93291,1,4,0:0:0:0:
197,192,93291,1,0,0:0:0:0:
320,192,93625,1,4,0:0:0:0:
192,192,93791,1,4,0:0:0:0:
62,192,93958,1,4,0:0:0:0:
448,192,93958,1,0,0:0:0:0:
192,192,94125,128,8,94458:0:0:0:0:
318,192,94125,1,0,0:0:0:0:
448,192,94458,1,4,0:0:0:0:
62,192,94625,1,8,0:0:0:0:
320,192,94625,1,0,0:0:0:0:
448,192,94958,1,8,0:0:0:0:
64,192,95125,1,8,0:0:0:0:
448,192,95291,1,4,0:0:0:0:
192,192,95291,1,0,0:0:0:0:
64,192,95458,1,4,0:0:0:0:
192,192,95625,1,8,0:0:0:0:
321,192,95625,128,4,95958:1:0:0:0:
448,192,95625,1,0,0:0:0:0:
192,192,96125,1,8,0:0:0:0:
64,192,96125,128,0,96458:0:0:0:0:
320,192,96625,128,8,96958:0:0:0:0:
448,192,96625,1,4,1:0:0:0:
64,192,96625,1,0,0:0:0:0:
192,192,96958,1,0,0:0:0:0:
64,192,97125,1,8,0:0:0:0:
448,192,97125,1,0,0:0:0:0:
192,192,97291,1,4,0:0:0:0:
320,192,97458,1,4,0:0:0:0:
187,192,97625,1,4,0:0:0:0:
64,192,97625,128,4,98291:1:0:0:0:
448,192,97625,1,0,0:0:0:0:
320,192,97958,1,4,0:0:0:0:
192,192,98291,1,4,0:0:0:0:
448,192,98291,128,8,100954:0:0:0:0:
192,192,100308,1,4,0:0:0:0:
64,192,100530,1,0,0:0:0:0:
320,192,100530,1,4,0:0:0:0:
192,192,100752,1,4,0:0:0:0:
320,192,100954,1,8,0:0:0:0:
64,192,100954,1,4,1:0:0:0:
59,192,101287,1,2,0:0:0:0:
315,192,101620,1,2,0:0:0:0:
443,192,101842,1,2,0:0:0:0:
59,192,102176,1,2,0:0:0:0:
192,192,102509,1,2,0:0:0:0:
315,192,102731,1,2,0:0:0:0:
64,192,103065,1,2,0:0:0:0:
448,192,103398,1,2,0:0:0:0:
192,192,103620,1,2,0:0:0:0:
64,192,103954,1,2,0:0:0:0:
448,192,104287,1,2,0:0:0:0:
320,192,104509,1,2,0:0:0:0:
192,192,104842,1,2,0:0:0:0:
320,192,105176,1,2,0:0:0:0:
64,192,105398,1,2,0:0:0:0:
192,192,105731,1,2,0:0:0:0:
446,192,106065,1,2,0:0:0:0:
318,192,106287,1,2,0:0:0:0:
192,192,106620,1,2,0:0:0:0:
446,192,106954,1,2,0:0:0:0:
54,192,107398,1,2,0:0:0:0:
448,192,107620,1,2,0:0:0:0:
320,192,108065,1,2,0:0:0:0:
448,192,108065,1,0,0:0:0:0:
64,192,108398,1,0,0:0:0:0:
448,192,108731,1,0,0:0:0:0:
192,192,108953,1,0,0:0:0:0:
64,192,109287,1,0,0:0:0:0:
448,192,109620,1,0,0:0:0:0:
64,192,109842,1,2,0:0:0:0:
320,192,109842,1,0,0:0:0:0:
192,192,110176,1,0,0:0:0:0:
453,192,110509,1,0,0:0:0:0:
325,192,110731,1,0,0:0:0:0:
69,192,111065,1,0,0:0:0:0:
453,192,111398,1,0,0:0:0:0:
192,192,111620,1,2,0:0:0:0:
320,192,111620,1,0,0:0:0:0:
67,192,111953,1,0,0:0:0:0:
451,192,112287,1,0,0:0:0:0:
320,192,112509,1,0,0:0:0:0:
67,192,112842,1,0,0:0:0:0:
451,192,113176,1,0,0:0:0:0:
187,192,113398,1,2,0:0:0:0:
64,192,113398,1,0,0:0:0:0:
318,192,113731,1,0,0:0:0:0:
64,192,114065,1,0,0:0:0:0:
192,192,114509,1,0,0:0:0:0:
320,192,114731,1,0,0:0:0:0:
192,192,115176,1,4,0:0:0:0:
448,192,115176,1,4,1:0:0:0:
320,192,115509,1,4,0:0:0:0:
64,192,115509,1,0,0:0:0:0:
192,192,115842,1,4,0:0:0:0:
448,192,115842,1,0,0:0:0:0:
320,192,116065,1,0,0:0:0:0:
320,192,116509,1,0,0:0:0:0:
320,192,116953,1,4,0:0:0:0:
64,192,116953,1,0,0:0:0:0:
448,192,117287,1,4,0:0:0:0:
192,192,117287,1,0,0:0:0:0:
320,192,117620,1,4,0:0:0:0:
64,192,117620,1,0,0:0:0:0:
192,192,117842,1,0,0:0:0:0:
192,192,118287,1,0,0:0:0:0:
448,192,118731,1,4,0:0:0:0:
192,192,118731,1,0,0:0:0:0:
320,192,119065,1,4,0:0:0:0:
64,192,119065,1,0,0:0:0:0:
448,192,119398,1,4,0:0:0:0:
192,192,119398,1,0,0:0:0:0:
320,192,119620,1,0,0:0:0:0:
320,192,120065,1,0,0:0:0:0:
320,192,120509,1,4,0:0:0:0:
64,192,120509,1,0,0:0:0:0:
448,192,120842,1,4,0:0:0:0:
192,192,120842,1,0,0:0:0:0:
320,192,121176,1,4,0:0:0:0:
64,192,121176,1,0,0:0:0:0:
192,192,121398,1,0,0:0:0:0:
192,192,121842,1,0,0:0:0:0:
448,192,122287,1,4,0:0:0:0:
192,192,122287,1,0,0:0:0:0:
320,192,122620,1,4,0:0:0:0:
64,192,122620,1,0,0:0:0:0:
448,192,122953,1,4,0:0:0:0:
192,192,122953,1,0,0:0:0:0:
320,192,123176,1,0,0:0:0:0:
320,192,123620,1,0,0:0:0:0:
320,192,124065,1,4,0:0:0:0:
64,192,124065,1,0,0:0:0:0:
448,192,124398,1,4,0:0:0:0:
192,192,124398,1,0,0:0:0:0:
320,192,124731,1,4,0:0:0:0:
64,192,124731,1,0,0:0:0:0:
192,192,124953,1,0,0:0:0:0:
192,192,125398,1,0,0:0:0:0:
448,192,125842,1,4,0:0:0:0:
192,192,125842,1,0,0:0:0:0:
320,192,126176,1,4,0:0:0:0:
64,192,126176,1,0,0:0:0:0:
448,192,126509,1,4,0:0:0:0:
192,192,126509,1,0,0:0:0:0:
320,192,126731,1,0,0:0:0:0:
320,192,127176,1,0,0:0:0:0:
320,192,127620,1,4,0:0:0:0:
64,192,127620,1,0,0:0:0:0:
448,192,127953,1,4,0:0:0:0:
192,192,127953,1,0,0:0:0:0:
320,192,128287,1,4,0:0:0:0:
64,192,128287,1,0,0:0:0:0:
192,192,128509,1,0,0:0:0:0:
192,192,128953,1,0,0:0:0:0:
64,192,129176,1,0,0:0:0:0:
448,192,129398,1,8,0:0:0:0:
192,192,129398,1,4,1:0:0:0:
448,192,129842,1,4,0:0:0:0:
64,192,129842,1,0,0:0:0:0:
320,192,130287,1,4,0:0:0:0:
64,192,130287,1,0,0:0:0:0:
448,192,130731,1,4,0:0:0:0:
189,192,130731,1,0,0:0:0:0:
448,192,131176,1,4,0:0:0:0:
320,192,131176,1,0,0:0:0:0:
64,192,131620,1,4,0:0:0:0:
320,192,131620,1,0,0:0:0:0:
192,192,132065,1,4,0:0:0:0:
64,192,132065,1,0,0:0:0:0:
448,192,132509,1,4,0:0:0:0:
320,192,132509,1,0,0:0:0:0:
64,192,132953,1,4,0:0:0:0:
448,192,132953,1,0,0:0:0:0:
64,192,133398,1,4,0:0:0:0:
448,192,133398,1,0,0:0:0:0:
320,192,133842,1,4,0:0:0:0:
64,192,133842,1,0,0:0:0:0:
448,192,134287,1,4,0:0:0:0:
320,192,134287,1,0,0:0:0:0:
448,192,134731,1,4,0:0:0:0:
64,192,134731,1,0,0:0:0:0:
192,192,135176,1,4,0:0:0:0:
320,192,135176,1,0,0:0:0:0:
448,192,135620,1,4,0:0:0:0:
64,192,135620,1,0,0:0:0:0:
189,192,136065,1,4,0:0:0:0:
448,192,136065,1,0,0:0:0:0:
64,192,136509,1,4,0:0:0:0:
448,192,136509,1,0,0:0:0:0:
320,192,136953,1,4,0:0:0:0:
64,192,136953,1,0,0:0:0:0:
320,192,137398,1,4,0:0:0:0:
192,192,137398,1,0,0:0:0:0:
448,192,137842,1,4,0:0:0:0:
64,192,137842,1,0,0:0:0:0:
448,192,138287,1,4,0:0:0:0:
192,192,138287,1,0,0:0:0:0:
320,192,138731,1,4,0:0:0:0:
448,192,138731,1,0,0:0:0:0:
320,192,139176,1,4,0:0:0:0:
64,192,139176,1,0,0:0:0:0:
65,192,139620,1,4,0:0:0:0:
448,192,139620,1,0,0:0:0:0:
64,192,140065,128,0,141842:1:0:0:0:
320,192,140065,1,4,1:0:0:0:
320,192,141842,128,0,143176:0:0:0:0:
192,192,143176,1,4,3:0:0:0:
448,192,143176,1,8,0:0:0:0:
317,192,143620,1,8,0:0:0:0:
192,192,143620,1,0,0:0:0:0:
64,192,143842,1,8,0:0:0:0:
448,192,143842,1,0,0:0:0:0:
192,192,144065,128,4,144398:0:0:0:0:
64,192,144398,1,8,0:0:0:0:
445,192,144398,1,0,0:0:0:0:
64,192,144731,1,8,0:0:0:0:
320,192,144731,1,0,0:0:0:0:
448,192,144953,128,4,145287:0:0:0:0:
192,192,145287,1,8,0:0:0:0:
64,192,145287,1,0,0:0:0:0:
64,192,145620,1,8,0:0:0:0:
320,192,145620,1,0,0:0:0:0:
192,192,145842,128,0,146176:0:0:0:0:
320,192,146176,1,8,0:0:0:0:
448,192,146287,1,8,0:0:0:0:
64,192,146287,1,0,0:0:0:0:
64,192,146509,1,8,0:0:0:0:
320,192,146509,1,0,0:0:0:0:
315,192,146731,1,8,0:0:0:0:
189,192,146731,1,0,0:0:0:0:
317,192,147176,1,8,0:0:0:0:
192,192,147176,1,0,0:0:0:0:
64,192,147398,1,8,0:0:0:0:
448,192,147398,1,0,0:0:0:0:
320,192,147620,128,4,147953:0:0:0:0:
64,192,147953,1,8,0:0:0:0:
445,192,147953,1,0,0:0:0:0:
64,192,148287,1,8,0:0:0:0:
320,192,148287,1,0,0:0:0:0:
448,192,148509,128,4,148842:0:0:0:0:
192,192,148842,1,8,0:0:0:0:
320,192,148842,1,0,0:0:0:0:
64,192,149176,1,8,0:0:0:0:
320,192,149176,1,0,0:0:0:0:
448,192,149398,128,0,149731:0:0:0:0:
320,192,149731,1,8,0:0:0:0:
192,192,149842,1,8,0:0:0:0:
64,192,149842,1,0,0:0:0:0:
448,192,150065,1,8,0:0:0:0:
320,192,150065,1,0,0:0:0:0:
189,192,150287,1,8,0:0:0:0:
315,192,150287,1,0,0:0:0:0:
448,192,150398,1,8,0:0:0:0:
64,192,150398,1,0,0:0:0:0:
64,192,150731,1,4,0:0:0:0:
320,192,150731,128,4,151066:1:0:0:0:
448,192,150731,1,0,0:0:0:0:
192,192,151066,1,8,0:0:0:0:
448,192,151066,1,0,0:0:0:0:
320,192,151399,1,4,0:0:0:0:
64,192,151566,1,4,0:0:0:0:
320,192,151733,1,8,0:0:0:0:
448,192,151733,1,0,0:0:0:0:
192,192,151899,1,8,0:0:0:0:
448,192,151899,1,4,1:0:0:0:
64,192,152233,1,8,0:0:0:0:
320,192,152399,1,8,0:0:0:0:
189,192,152566,1,4,0:0:0:0:
64,192,153233,1,4,0:0:0:0:
320,192,153233,128,4,153566:1:0:0:0:
448,192,153566,1,4,0:0:0:0:
64,192,153733,1,8,0:0:0:0:
192,192,153733,1,0,0:0:0:0:
192,192,154066,1,4,0:0:0:0:
320,192,154233,1,4,0:0:0:0:
64,192,154399,1,4,0:0:0:0:
320,192,154566,1,4,1:0:0:0:
192,192,154566,128,0,154899:0:0:0:0:
448,192,154899,1,4,0:0:0:0:
62,192,155066,1,8,0:0:0:0:
320,192,155066,1,0,0:0:0:0:
448,192,155399,1,4,0:0:0:0:
318,192,155566,1,4,0:0:0:0:
192,192,155733,1,4,0:0:0:0:
318,192,155899,1,4,1:0:0:0:
64,192,155899,128,0,156233:0:0:0:0:
190,192,156233,1,4,0:0:0:0:
320,192,156399,1,8,0:0:0:0:
445,192,156399,1,0,0:0:0:0:
190,192,156733,1,4,0:0:0:0:
318,192,156899,1,4,0:0:0:0:
62,192,157066,1,4,0:0:0:0:
192,192,157233,128,4,157566:1:0:0:0:
318,192,157233,1,0,0:0:0:0:
448,192,157566,1,4,0:0:0:0:
62,192,157733,1,8,0:0:0:0:
320,192,157733,1,0,0:0:0:0:
190,192,158066,1,4,0:0:0:0:
448,192,158066,1,0,0:0:0:0:
318,192,158233,1,4,0:0:0:0:
62,192,158399,1,8,0:0:0:0:
192,192,158566,1,4,1:0:0:0:
320,192,158566,128,0,158899:0:0:0:0:
448,192,158899,1,4,0:0:0:0:
192,192,159066,1,8,0:0:0:0:
62,192,159066,1,0,0:0:0:0:
190,192,159399,1,4,0:0:0:0:
318,192,159566,1,4,0:0:0:0:
62,192,159733,1,4,0:0:0:0:
448,192,159899,128,4,160233:1:0:0:0:
192,192,159899,1,0,0:0:0:0:
320,192,160233,1,4,0:0:0:0:
192,192,160399,1,8,0:0:0:0:
62,192,160399,1,0,0:0:0:0:
190,192,160733,1,4,0:0:0:0:
318,192,160899,1,4,0:0:0:0:
62,192,161066,1,4,0:0:0:0:
320,192,161233,128,4,161566:1:0:0:0:
448,192,161233,1,0,0:0:0:0:
191,192,161566,1,4,0:0:0:0:
63,192,161733,1,8,0:0:0:0:
448,192,161733,1,0,0:0:0:0:
191,192,162066,1,4,0:0:0:0:
319,192,162233,1,4,0:0:0:0:
192,192,162399,1,4,0:0:0:0:
64,192,162566,128,4,162899:1:0:0:0:
448,192,162566,1,0,0:0:0:0:
320,192,162899,1,4,0:0:0:0:
192,192,163066,1,8,0:0:0:0:
448,192,163066,1,0,0:0:0:0:
64,192,163233,1,8,0:0:0:0:
320,192,163233,1,0,0:0:0:0:
192,192,163566,1,8,0:0:0:0:
448,192,163566,1,0,0:0:0:0:
318,192,163899,1,8,0:0:0:0:
64,192,163899,128,4,164233:1:0:0:0:
190,192,164233,1,4,0:0:0:0:
320,192,164399,1,8,0:0:0:0:
448,192,164399,1,0,0:0:0:0:
190,192,164733,1,4,0:0:0:0:
318,192,164899,1,4,0:0:0:0:
62,192,165066,1,8,0:0:0:0:
448,192,165066,1,0,0:0:0:0:
192,192,165232,128,4,165566:0:0:0:0:
318,192,165232,1,0,0:0:0:0:
448,192,165566,1,4,0:0:0:0:
62,192,165732,1,8,0:0:0:0:
320,192,165732,1,0,0:0:0:0:
190,192,166066,1,4,0:0:0:0:
318,192,166232,1,4,0:0:0:0:
62,192,166399,1,8,0:0:0:0:
192,192,166399,1,0,0:0:0:0:
318,192,166566,1,4,0:0:0:0:
446,192,166566,128,0,166899:0:0:0:0:
64,192,166899,1,4,0:0:0:0:
320,192,167066,1,8,0:0:0:0:
192,192,167066,1,0,0:0:0:0:
445,192,167399,1,4,0:0:0:0:
318,192,167566,1,4,0:0:0:0:
62,192,167732,1,8,0:0:0:0:
192,192,167732,1,0,0:0:0:0:
320,192,167899,128,4,168232:1:0:0:0:
448,192,167899,1,0,0:0:0:0:
190,192,168232,1,4,0:0:0:0:
62,192,168399,1,8,0:0:0:0:
448,192,168399,1,0,0:0:0:0:
320,192,168732,1,4,0:0:0:0:
192,192,168899,1,4,0:0:0:0:
62,192,169066,1,8,0:0:0:0:
448,192,169066,1,0,0:0:0:0:
320,192,169232,1,8,0:0:0:0:
192,192,169232,128,0,169566:0:0:0:0:
448,192,169566,1,4,0:0:0:0:
320,192,169732,1,8,0:0:0:0:
62,192,169732,1,0,0:0:0:0:
448,192,170066,1,4,0:0:0:0:
318,192,170232,1,4,0:0:0:0:
62,192,170399,1,8,0:0:0:0:
448,192,170399,1,0,0:0:0:0:
192,192,170566,128,8,170899:0:0:0:0:
318,192,170566,1,0,0:0:0:0:
448,192,170899,1,4,0:0:0:0:
62,192,171066,1,8,0:0:0:0:
320,192,171066,1,0,0:0:0:0:
448,192,171399,1,8,0:0:0:0:
192,192,171399,1,0,0:0:0:0:
64,192,171566,1,8,0:0:0:0:
448,192,171732,1,4,0:0:0:0:
64,192,171899,1,4,0:0:0:0:
192,192,172066,1,8,0:0:0:0:
321,192,172066,128,4,172399:1:0:0:0:
448,192,172399,1,0,0:0:0:0:
64,192,172566,1,8,0:0:0:0:
192,192,172566,128,0,172899:0:0:0:0:
320,192,172899,1,0,0:0:0:0:
448,192,173066,128,8,173399:0:0:0:0:
64,192,173066,1,0,0:0:0:0:
320,192,173399,1,0,0:0:0:0:
448,192,173566,1,4,1:0:0:0:
64,192,173566,128,8,173899:0:0:0:0:
320,192,173899,1,4,0:0:0:0:
448,192,174066,128,4,174566:0:0:0:0:
192,192,174066,1,0,0:0:0:0:
320,192,174232,1,4,0:0:0:0:
192,192,174399,1,4,0:0:0:0:
320,192,174566,128,4,175066:0:0:0:0:
64,192,174566,1,4,1:0:0:0:
448,192,174899,1,4,0:0:0:0:
192,192,175066,1,8,0:0:0:0:
64,192,175066,1,0,0:0:0:0:
448,192,175399,1,4,0:0:0:0:
192,192,175566,1,4,0:0:0:0:
64,192,175732,1,8,0:0:0:0:
448,192,175732,1,0,0:0:0:0:
448,192,175899,128,4,176232:0:0:0:0:
320,192,175899,1,0,0:0:0:0:
192,192,176232,1,4,0:0:0:0:
320,192,176399,1,8,0:0:0:0:
62,192,176399,1,0,0:0:0:0:
192,192,176732,1,4,0:0:0:0:
448,192,176899,1,4,0:0:0:0:
192,192,177066,1,8,0:0:0:0:
320,192,177066,1,0,0:0:0:0:
64,192,177232,128,4,177566:0:0:0:0:
448,192,177232,1,0,0:0:0:0:
190,192,177566,1,4,0:0:0:0:
448,192,177732,1,8,0:0:0:0:
320,192,177732,1,0,0:0:0:0:
190,192,178066,1,4,0:0:0:0:
318,192,178232,1,4,0:0:0:0:
62,192,178399,1,8,0:0:0:0:
192,192,178399,1,0,0:0:0:0:
448,192,178566,1,4,0:0:0:0:
192,192,178566,128,0,178899:0:0:0:0:
320,192,178899,1,4,0:0:0:0:
448,192,179066,1,8,0:0:0:0:
62,192,179066,1,0,0:0:0:0:
190,192,179399,1,4,0:0:0:0:
318,192,179566,1,4,0:0:0:0:
62,192,179732,1,8,0:0:0:0:
192,192,179732,1,0,0:0:0:0:
320,192,179899,128,4,180232:1:0:0:0:
448,192,179899,1,0,0:0:0:0:
190,192,180232,1,4,0:0:0:0:
62,192,180399,1,8,0:0:0:0:
448,192,180399,1,0,0:0:0:0:
190,192,180732,1,4,0:0:0:0:
318,192,180899,1,4,0:0:0:0:
62,192,181066,1,8,0:0:0:0:
192,192,181066,1,0,0:0:0:0:
448,192,181232,1,4,0:0:0:0:
320,192,181232,128,0,181566:0:0:0:0:
190,192,181566,1,4,0:0:0:0:
448,192,181732,1,8,0:0:0:0:
62,192,181732,1,0,0:0:0:0:
190,192,182066,1,4,0:0:0:0:
318,192,182232,1,4,0:0:0:0:
192,192,182399,1,8,0:0:0:0:
64,192,182399,1,0,0:0:0:0:
64,192,182566,128,4,182899:1:0:0:0:
448,192,182566,1,0,0:0:0:0:
320,192,182899,1,4,0:0:0:0:
192,192,183066,1,8,0:0:0:0:
448,192,183066,1,0,0:0:0:0:
64,192,183399,1,4,0:0:0:0:
448,192,183566,1,4,0:0:0:0:
63,192,183732,1,8,0:0:0:0:
192,192,183732,1,0,0:0:0:0:
448,192,183899,1,4,0:0:0:0:
320,192,183899,128,0,184232:0:0:0:0:
190,192,184232,1,4,0:0:0:0:
64,192,184399,1,8,0:0:0:0:
192,192,184566,1,4,0:0:0:0:
320,192,184732,1,4,0:0:0:0:
448,192,184732,128,0,185232:0:0:0:0:
64,192,185232,128,8,185566:0:0:0:0:
318,192,185232,1,4,0:0:0:0:
190,192,185566,1,4,0:0:0:0:
448,192,185732,1,8,0:0:0:0:
320,192,185732,1,0,0:0:0:0:
448,192,186066,1,4,0:0:0:0:
318,192,186232,1,4,0:0:0:0:
62,192,186399,1,8,0:0:0:0:
448,192,186399,1,0,0:0:0:0:
446,192,186566,128,4,186899:0:0:0:0:
192,192,186566,1,0,0:0:0:0:
190,192,186899,1,4,0:0:0:0:
320,192,187066,1,8,0:0:0:0:
62,192,187066,1,0,0:0:0:0:
190,192,187399,1,4,0:0:0:0:
318,192,187566,1,4,0:0:0:0:
62,192,187732,1,8,0:0:0:0:
192,192,187732,1,0,0:0:0:0:
320,192,187899,128,4,188232:0:0:0:0:
448,192,187899,1,0,0:0:0:0:
64,192,188232,1,4,0:0:0:0:
192,192,188399,1,8,0:0:0:0:
448,192,188399,1,0,0:0:0:0:
320,192,188732,1,4,0:0:0:0:
192,192,188899,1,4,0:0:0:0:
62,192,189066,1,8,0:0:0:0:
448,192,189066,1,0,0:0:0:0:
320,192,189232,1,4,0:0:0:0:
192,192,189232,128,0,189566:0:0:0:0:
448,192,189566,1,4,0:0:0:0:
320,192,189732,1,8,0:0:0:0:
62,192,189732,1,0,0:0:0:0:
320,192,190066,1,4,0:0:0:0:
192,192,190232,1,4,0:0:0:0:
62,192,190399,1,8,0:0:0:0:
448,192,190399,1,0,0:0:0:0:
192,190,190732,1,4,1:0:0:0:
448,192,190732,128,0,192066:0:0:0:0:
320,192,192066,1,4,1:0:0:0:
64,192,192066,1,4,0:0:0:0:
192,192,192399,1,0,0:0:0:0:
448,192,192732,1,0,0:0:0:0:
64,192,193066,1,0,0:0:0:0:
194,192,193232,1,4,0:0:0:0:
322,192,193399,1,12,0:0:0:0:
448,192,193399,1,0,0:0:0:0:
320,192,193566,1,8,0:0:0:0:
64,192,193566,1,0,0:0:0:0:
194,192,193899,1,4,0:0:0:0:
62,192,194066,1,12,0:0:0:0:
448,192,194066,1,0,0:0:0:0:
62,192,194232,1,8,0:0:0:0:
192,192,194232,1,0,0:0:0:0:
322,192,194566,1,4,0:0:0:0:
450,192,194732,1,8,0:0:0:0:
192,192,194732,1,0,0:0:0:0:
450,192,194899,1,8,0:0:0:0:
64,192,194899,1,0,0:0:0:0:
66,192,195232,1,4,0:0:0:0:
322,192,195232,1,8,0:0:0:0:
194,192,195566,1,8,0:0:0:0:
450,192,195566,1,4,0:0:0:0:
320,192,195899,1,4,0:0:0:0:
64,192,196066,1,8,0:0:0:0:
448,192,196066,1,0,0:0:0:0:
64,192,196232,1,8,0:0:0:0:
320,192,196232,1,0,0:0:0:0:
192,192,196566,1,4,0:0:0:0:
448,192,196732,1,8,0:0:0:0:
320,192,196732,1,0,0:0:0:0:
448,192,196899,1,8,0:0:0:0:
64,192,196899,1,0,0:0:0:0:
320,192,197232,1,4,0:0:0:0:
192,192,197399,1,8,0:0:0:0:
448,192,197399,1,0,0:0:0:0:
192,192,197566,1,8,0:0:0:0:
64,192,197566,1,0,0:0:0:0:
64,192,197899,1,4,0:0:0:0:
320,192,197899,1,8,0:0:0:0:
192,192,198232,1,8,0:0:0:0:
448,192,198232,1,4,0:0:0:0:
192,192,198566,1,4,0:0:0:0:
64,192,198732,1,8,0:0:0:0:
448,192,198732,1,0,0:0:0:0:
64,192,198899,1,8,0:0:0:0:
192,192,198899,1,0,0:0:0:0:
192,192,199232,1,4,0:0:0:0:
448,192,199399,1,8,0:0:0:0:
320,192,199399,1,0,0:0:0:0:
448,192,199566,1,8,0:0:0:0:
64,192,199566,1,0,0:0:0:0:
320,192,199899,1,4,0:0:0:0:
192,192,200066,1,8,0:0:0:0:
64,192,200066,1,0,0:0:0:0:
192,192,200232,1,8,0:0:0:0:
448,192,200232,1,0,0:0:0:0:
320,192,200566,1,8,0:0:0:0:
64,192,200566,1,4,0:0:0:0:
448,192,200899,1,4,0:0:0:0:
192,192,200899,1,8,0:0:0:0:
192,192,201232,1,4,0:0:0:0:
320,192,201399,1,8,0:0:0:0:
448,192,201399,1,0,0:0:0:0:
320,192,201566,1,8,0:0:0:0:
64,192,201566,1,0,0:0:0:0:
192,192,201899,1,4,0:0:0:0:
64,192,202066,1,8,0:0:0:0:
320,192,202066,1,0,0:0:0:0:
64,192,202232,1,8,0:0:0:0:
448,192,202232,1,0,0:0:0:0:
320,192,202566,1,4,0:0:0:0:
448,192,202732,1,8,0:0:0:0:
192,192,202732,1,0,0:0:0:0:
448,192,202899,1,8,0:0:0:0:
64,192,202899,1,0,0:0:0:0:
64,192,203232,1,8,0:0:0:0:
320,192,203232,1,4,0:0:0:0:
192,192,203566,1,8,0:0:0:0:
448,192,203566,1,4,0:0:0:0:
188,192,204066,1,4,0:0:0:0:
64,192,204399,1,8,0:0:0:0:
312,192,204399,1,0,0:0:0:0:
448,192,204732,1,8,0:0:0:0:
64,192,204732,1,0,0:0:0:0:
59,192,205232,1,8,0:0:0:0:
320,192,205232,1,0,0:0:0:0:
448,192,205566,1,8,0:0:0:0:
192,192,205566,1,0,0:0:0:0:
320,192,205899,1,4,0:0:0:0:
64,192,206066,1,8,0:0:0:0:
448,192,206066,1,0,0:0:0:0:
64,192,206399,1,8,0:0:0:0:
448,192,206399,1,0,0:0:0:0:
192,192,206899,1,0,0:0:0:0:
448,192,207066,1,8,0:0:0:0:
64,192,207066,1,0,0:0:0:0:
448,192,207399,1,8,0:0:0:0:
64,192,207399,1,0,0:0:0:0:
64,192,207899,128,4,208399:0:0:0:0:
448,192,207899,128,4,208399:1:0:0:0:
192,192,207899,1,0,0:0:0:0:
