osu file format v14

[General]
AudioFilename: IA - Enmei Chiryou.mp3
AudioLeadIn: 1996
PreviewTime: 76292
Countdown: 0
SampleSet: Soft
StackLeniency: 0.7
Mode: 3
LetterboxInBreaks: 0
EpilepsyWarning: 1
SpecialStyle: 0
WidescreenStoryboard: 1

[Editor]
DistanceSpacing: 0.7
BeatDivisor: 4
GridSize: 4
TimelineZoom: 0.6

[Metadata]
Title:Enmei Chiryou
TitleUnicode:延命治療
Artist:Neru feat. IA
ArtistUnicode:Neru feat. IA
Creator:puxtu
Version:4K EZ
Source:太鼓の達人
Tags:vocaloid IA Life Prolonging Treatment Takane6 combinatorix Kuo_Kyoka nowsmart Blocko lordraika Julie toybot winda Quick_Draw JBHyperion Agka Sun Rainbow pxt
BeatmapID:476979
BeatmapSetID:195210

[Difficulty]
HPDrainRate:7
CircleSize:4
OverallDifficulty:7
ApproachRate:9
SliderMultiplier:1.8
SliderTickRate:1

[Events]
//Background and Video events
0,0,"Vocaloid.full.1384459.jpg",0,0
//Break Periods
//Storyboard Layer 0 (Background)
//Storyboard Layer 1 (Fail)
//Storyboard Layer 2 (Pass)
//Storyboard Layer 3 (Foreground)
//Storyboard Sound Samples

[TimingPoints]
518,444.444444444444,4,2,2,40,1,0
5851,444.444444444444,3,2,2,40,1,0
7184,444.444444444444,4,2,2,40,1,0
12517,444.444444444444,3,2,2,40,1,0
13850,444.444444444444,4,2,2,40,1,0
19183,444.444444444444,3,2,2,40,1,0
21849,444.444444444444,4,2,2,40,1,0
71626,444.444444444444,3,2,2,40,1,0
74292,333.333333333333,4,2,2,40,1,0
74293,-133.333333333333,4,2,2,40,0,0
75459,-133.333333333333,4,2,2,40,0,0
76792,-133.333333333333,4,2,2,40,0,1
87125,-133.333333333333,4,2,2,40,0,0
87458,-133.333333333333,4,2,2,40,0,1
95625,-133.333333333333,4,2,2,40,0,1
98291,-133.333333333333,4,2,2,40,0,0
100308,333.333333333333,4,2,2,40,1,0
100308,-129.87012987013,4,2,2,40,0,0
100954,444.444444444444,4,2,2,40,1,0
150733,333.333333333333,4,2,2,40,1,0
150734,-133.333333333333,4,2,2,40,0,0
151900,-133.333333333333,4,2,2,40,0,0
153233,-133.333333333333,4,2,2,40,0,1
163566,-133.333333333333,4,2,2,40,0,0
163899,-133.333333333333,4,2,2,40,0,1
174232,-133.333333333333,4,2,2,40,0,0
174566,-133.333333333333,4,2,2,40,0,1
184899,-133.333333333333,4,2,2,40,0,0
185232,-133.333333333333,4,2,2,40,0,1
190566,-133.333333333333,4,2,2,40,0,0
190732,-133.333333333333,4,2,2,40,0,0

[Colours]
Combo1 : 128,255,0
Combo2 : 255,0,128
Combo3 : 5,5,240
Combo4 : 255,255,0

[HitObjects]
109,192,518,5,4,1:0:0:0:
402,192,518,1,4,0:0:0:0:
192,192,1851,1,8,0:0:0:0:
192,192,2073,1,8,0:0:0:0:
320,192,2295,5,4,1:0:0:0:
64,192,2295,1,4,0:0:0:0:
320,192,3629,1,8,0:0:0:0:
192,192,3851,1,4,0:0:0:0:
448,191,4073,5,8,0:0:0:0:
64,192,4073,1,4,1:0:0:0:
320,192,5406,1,4,0:0:0:0:
320,192,5629,1,4,0:0:0:0:
192,192,5962,1,4,0:0:0:0:
448,190,5962,1,8,0:0:0:0:
64,192,6295,1,4,0:0:0:0:
448,192,6628,1,8,0:0:0:0:
192,192,6628,1,4,0:0:0:0:
320,179,6962,1,8,0:0:0:0:
64,192,7184,1,4,0:0:0:0:
448,192,7184,1,4,0:0:0:0:
320,192,7628,5,8,0:0:0:0:
109,192,8072,1,4,0:0:0:0:
192,192,8517,1,8,0:0:0:0:
192,192,8739,1,4,0:0:0:0:
402,192,8961,1,4,0:0:0:0:
192,192,9406,1,8,0:0:0:0:
109,192,9850,1,4,0:0:0:0:
320,192,9961,1,8,0:0:0:0:
448,192,10295,1,8,0:0:0:0:
192,192,10517,1,0,0:0:0:0:
64,192,10739,1,4,0:0:0:0:
402,192,11183,5,8,0:0:0:0:
109,192,11628,1,4,0:0:0:0:
320,192,12072,1,8,0:0:0:0:
320,192,12295,1,4,0:0:0:0:
192,192,12628,1,12,0:0:0:0:
64,189,12961,1,12,0:0:0:0:
448,192,13294,1,12,0:0:0:0:
320,192,13628,1,8,0:0:0:0:
192,192,13628,1,4,1:0:0:0:
64,192,13850,1,4,1:0:0:0:
448,192,13850,1,4,0:0:0:0:
192,192,14294,1,8,0:0:0:0:
109,192,14738,1,4,0:0:0:0:
448,192,15183,1,8,0:0:0:0:
448,192,15405,1,4,0:0:0:0:
320,192,15627,1,4,0:0:0:0:
192,192,16072,1,8,0:0:0:0:
402,192,16516,1,4,0:0:0:0:
64,192,16627,1,8,0:0:0:0:
256,192,16961,1,8,0:0:0:0:
192,192,17183,1,0,0:0:0:0:
109,192,17405,1,4,0:0:0:0:
448,192,17849,1,8,0:0:0:0:
320,192,18294,1,4,0:0:0:0:
192,192,18738,1,8,0:0:0:0:
192,192,18961,1,8,0:0:0:0:
320,192,19183,1,4,0:0:0:0:
448,192,19405,1,4,0:0:0:0:
192,192,19627,1,4,0:0:0:0:
320,192,19849,1,4,0:0:0:0:
64,192,20071,1,4,0:0:0:0:
192,192,20294,1,4,0:0:0:0:
320,192,20627,1,4,0:0:0:0:
448,192,20627,1,8,0:0:0:0:
192,192,20960,1,4,0:0:0:0:
448,192,21294,1,4,0:0:0:0:
64,192,21294,1,8,0:0:0:0:
320,192,21627,1,4,0:0:0:0:
192,192,21849,1,8,0:0:0:0:
448,192,21849,1,4,0:0:0:0:
320,192,23626,1,4,1:0:0:0:
448,192,23626,128,4,24960:0:0:0:0:
192,192,24071,1,8,0:0:0:0:
109,192,24515,1,4,0:0:0:0:
320,192,24960,1,8,0:0:0:0:
64,192,25182,1,4,0:0:0:0:
448,192,25404,1,4,0:0:0:0:
256,192,25848,1,8,0:0:0:0:
64,192,26293,1,4,0:0:0:0:
448,192,26737,1,8,0:0:0:0:
256,192,26960,1,4,0:0:0:0:
192,192,27182,1,4,0:0:0:0:
448,192,27626,1,8,0:0:0:0:
64,192,28071,1,4,0:0:0:0:
320,192,28515,1,8,0:0:0:0:
192,192,28960,1,4,0:0:0:0:
448,192,29404,1,8,0:0:0:0:
320,192,29848,1,4,0:0:0:0:
192,192,30293,1,8,0:0:0:0:
320,192,30515,1,4,0:0:0:0:
109,192,30737,1,4,0:0:0:0:
448,192,30737,1,4,1:0:0:0:
192,192,31182,1,8,0:0:0:0:
448,192,31626,1,4,0:0:0:0:
256,192,32071,1,8,0:0:0:0:
192,192,32293,1,4,0:0:0:0:
109,192,32515,1,4,0:0:0:0:
256,192,32960,1,8,0:0:0:0:
189,192,33404,1,4,0:0:0:0:
448,192,33848,1,8,0:0:0:0:
192,192,34071,1,4,0:0:0:0:
64,192,34293,1,4,0:0:0:0:
448,192,34515,1,8,0:0:0:0:
448,192,34737,1,8,0:0:0:0:
64,192,35182,1,4,0:0:0:0:
448,189,35626,1,8,0:0:0:0:
256,192,36071,1,4,0:0:0:0:
192,192,36515,1,8,0:0:0:0:
64,192,36960,1,4,0:0:0:0:
448,192,37404,1,8,0:0:0:0:
192,192,37626,1,4,0:0:0:0:
320,192,37848,1,4,1:0:0:0:
64,192,37848,1,4,0:0:0:0:
64,192,38515,1,4,0:0:0:0:
449,192,38515,1,4,1:0:0:0:
256,192,38960,1,4,0:0:0:0:
109,192,39182,1,8,0:0:0:0:
402,192,39626,1,4,0:0:0:0:
109,192,40071,1,8,0:0:0:0:
329,192,40293,1,8,0:0:0:0:
189,192,40515,1,4,0:0:0:0:
256,192,40960,1,8,0:0:0:0:
192,192,41404,1,4,0:0:0:0:
448,192,41848,1,8,0:0:0:0:
64,192,42071,1,4,0:0:0:0:
320,192,42071,1,4,1:0:0:0:
192,192,42515,1,4,0:0:0:0:
448,192,42737,1,8,0:0:0:0:
64,192,43182,1,4,0:0:0:0:
192,187,43626,1,8,0:0:0:0:
320,192,44071,1,4,0:0:0:0:
192,192,44182,1,8,0:0:0:0:
448,192,44515,1,8,0:0:0:0:
64,192,44960,1,4,1:0:0:0:
320,192,44960,1,4,0:0:0:0:
192,192,45404,1,8,0:0:0:0:
320,192,45626,1,4,0:0:0:0:
64,192,46071,1,4,0:0:0:0:
448,192,46293,1,8,0:0:0:0:
192,192,46737,1,4,0:0:0:0:
64,192,47182,1,8,0:0:0:0:
320,189,47626,1,4,0:0:0:0:
192,192,47737,1,8,0:0:0:0:
448,192,48071,1,8,0:0:0:0:
192,192,48515,1,4,0:0:0:0:
320,192,48960,1,8,0:0:0:0:
109,192,49182,1,4,0:0:0:0:
402,192,49182,1,4,1:0:0:0:
192,192,49626,1,4,0:0:0:0:
448,192,49848,1,8,0:0:0:0:
320,192,50293,1,4,0:0:0:0:
109,192,50737,1,8,0:0:0:0:
192,192,51182,1,4,0:0:0:0:
402,192,51404,1,8,0:0:0:0:
64,192,51626,1,8,0:0:0:0:
448,192,51848,1,4,0:0:0:0:
192,192,52071,1,4,1:0:0:0:
64,192,52071,1,4,0:0:0:0:
320,192,52515,1,8,0:0:0:0:
192,192,52737,1,4,0:0:0:0:
64,192,53182,1,4,0:0:0:0:
448,192,53404,1,8,0:0:0:0:
320,192,53848,1,4,0:0:0:0:
109,192,54293,1,8,0:0:0:0:
256,192,54737,1,4,0:0:0:0:
320,192,54960,1,4,0:0:0:0:
402,192,55182,1,8,0:0:0:0:
192,192,55626,1,4,0:0:0:0:
64,192,56071,1,8,0:0:0:0:
402,192,56293,1,4,0:0:0:0:
320,192,56737,1,4,0:0:0:0:
192,192,56960,1,8,0:0:0:0:
320,192,57404,1,4,0:0:0:0:
448,192,57848,1,8,0:0:0:0:
64,192,58293,1,4,0:0:0:0:
320,192,58404,1,8,0:0:0:0:
64,192,58737,1,8,0:0:0:0:
448,192,59182,1,4,0:0:0:0:
192,192,59626,1,8,0:0:0:0:
402,192,59848,1,4,1:0:0:0:
109,192,59848,1,4,0:0:0:0:
256,192,60293,1,4,0:0:0:0:
448,192,60515,1,8,0:0:0:0:
109,192,60960,1,4,0:0:0:0:
192,192,61404,1,8,0:0:0:0:
320,192,61848,1,4,0:0:0:0:
192,192,62071,1,4,0:0:0:0:
448,192,62293,1,8,0:0:0:0:
64,192,62737,1,4,0:0:0:0:
320,192,63182,1,8,0:0:0:0:
192,192,63404,1,4,0:0:0:0:
402,192,63404,1,4,1:0:0:0:
64,192,63848,1,4,0:0:0:0:
320,192,64071,1,8,0:0:0:0:
402,192,64515,1,4,0:0:0:0:
192,192,64960,1,8,0:0:0:0:
475,192,65182,1,4,0:0:0:0:
320,192,65404,1,4,0:0:0:0:
64,192,65626,1,4,0:0:0:0:
448,192,65848,1,8,0:0:0:0:
320,192,66071,1,8,0:0:0:0:
64,192,66293,1,4,0:0:0:0:
192,192,66293,1,8,0:0:0:0:
320,192,67626,1,8,0:0:0:0:
320,192,67848,1,8,0:0:0:0:
192,192,68071,5,4,0:0:0:0:
448,192,68071,1,8,0:0:0:0:
192,192,69404,1,8,0:0:0:0:
320,192,69626,1,4,0:0:0:0:
64,191,69848,5,8,0:0:0:0:
448,192,69848,1,4,0:0:0:0:
320,192,71182,1,8,0:0:0:0:
320,192,71404,1,8,0:0:0:0:
448,192,71737,1,4,0:0:0:0:
64,190,71737,1,8,0:0:0:0:
192,192,72070,1,8,0:0:0:0:
64,192,72403,1,4,0:0:0:0:
320,192,72403,1,8,0:0:0:0:
448,179,72737,1,8,0:0:0:0:
320,192,73070,1,4,0:0:0:0:
64,190,73070,1,8,0:0:0:0:
192,192,73403,1,8,0:0:0:0:
448,192,73737,1,4,0:0:0:0:
64,192,73737,1,8,0:0:0:0:
320,179,74070,1,8,0:0:0:0:
192,192,74292,1,4,1:0:0:0:
448,192,74292,1,4,0:0:0:0:
64,192,74625,1,8,0:0:0:0:
192,192,74958,1,4,0:0:0:0:
320,192,75292,1,8,0:0:0:0:
109,192,75458,1,4,1:0:0:0:
448,192,75458,1,4,0:0:0:0:
192,192,75792,1,8,0:0:0:0:
320,192,75958,1,8,0:0:0:0:
448,192,76125,1,4,0:0:0:0:
320,192,76792,1,4,1:0:0:0:
64,192,76792,128,4,77125:0:0:0:0:
402,192,77125,1,4,0:0:0:0:
322,192,77292,1,8,0:0:0:0:
192,192,77625,1,4,0:0:0:0:
320,192,77792,1,4,0:0:0:0:
64,192,77958,1,4,0:0:0:0:
402,192,78125,128,4,78458:1:0:0:0:
256,192,78458,1,4,0:0:0:0:
62,192,78625,1,8,0:0:0:0:
192,192,78958,1,4,0:0:0:0:
109,192,79125,1,4,0:0:0:0:
448,192,79292,1,4,0:0:0:0:
256,192,79458,128,4,79792:1:0:0:0:
190,192,79792,1,4,0:0:0:0:
448,192,79958,1,8,0:0:0:0:
109,192,80292,1,4,0:0:0:0:
318,192,80458,1,4,0:0:0:0:
192,192,80625,1,4,0:0:0:0:
402,192,80792,128,4,81125:1:0:0:0:
64,192,81125,1,4,0:0:0:0:
320,192,81292,1,8,0:0:0:0:
402,192,81625,1,8,0:0:0:0:
256,192,81791,1,4,0:0:0:0:
192,192,81958,1,4,0:0:0:0:
109,192,82125,128,4,82458:1:0:0:0:
320,192,82458,1,4,0:0:0:0:
448,192,82625,1,8,0:0:0:0:
256,192,82958,1,4,0:0:0:0:
64,192,83125,1,4,0:0:0:0:
192,192,83291,1,4,0:0:0:0:
402,192,83458,128,4,83791:1:0:0:0:
320,192,83791,1,4,0:0:0:0:
109,192,83958,1,8,0:0:0:0:
256,192,84291,1,4,0:0:0:0:
448,192,84458,1,4,0:0:0:0:
62,192,84625,1,4,0:0:0:0:
182,192,84791,128,4,85125:1:0:0:0:
448,192,85125,1,4,0:0:0:0:
320,192,85291,1,8,0:0:0:0:
109,192,85625,1,4,0:0:0:0:
192,192,85791,1,4,0:0:0:0:
448,192,85958,1,4,0:0:0:0:
320,192,86125,128,8,86458:0:0:0:0:
64,192,86458,1,4,0:0:0:0:
192,192,86625,1,8,0:0:0:0:
320,192,86791,1,8,0:0:0:0:
448,192,87125,1,8,0:0:0:0:
64,192,87458,128,4,87791:1:0:0:0:
190,192,87791,1,4,0:0:0:0:
402,192,87958,1,8,0:0:0:0:
109,192,88291,1,4,0:0:0:0:
318,192,88458,1,4,0:0:0:0:
62,192,88625,1,8,0:0:0:0:
256,192,88791,128,4,89125:0:0:0:0:
402,192,89125,1,4,0:0:0:0:
62,192,89291,1,8,0:0:0:0:
192,192,89625,1,4,0:0:0:0:
448,192,89791,1,4,0:0:0:0:
62,192,89958,1,8,0:0:0:0:
192,192,90125,128,4,90458:0:0:0:0:
256,192,90458,1,4,0:0:0:0:
402,192,90625,1,8,0:0:0:0:
190,192,90958,1,4,0:0:0:0:
402,192,91125,1,4,0:0:0:0:
62,192,91291,1,8,0:0:0:0:
329,192,91458,128,4,91791:0:0:0:0:
109,192,91791,1,4,0:0:0:0:
192,192,91958,1,8,0:0:0:0:
109,192,92291,1,4,0:0:0:0:
402,192,92458,1,4,0:0:0:0:
320,192,92625,1,4,0:0:0:0:
109,192,92791,128,8,93125:0:0:0:0:
320,192,93125,1,4,0:0:0:0:
192,192,93291,1,4,0:0:0:0:
402,192,93625,1,4,0:0:0:0:
109,192,93791,1,4,0:0:0:0:
192,192,93958,1,4,0:0:0:0:
256,192,94125,128,8,94458:0:0:0:0:
402,192,94458,1,4,0:0:0:0:
109,192,94625,1,8,0:0:0:0:
448,192,94958,1,8,0:0:0:0:
64,192,95125,1,8,0:0:0:0:
320,192,95291,1,4,0:0:0:0:
192,192,95458,1,4,0:0:0:0:
64,192,95625,1,8,0:0:0:0:
448,192,95625,1,4,1:0:0:0:
320,192,96125,1,8,0:0:0:0:
448,192,96625,1,8,0:0:0:0:
192,192,96625,1,4,1:0:0:0:
64,192,97125,1,8,0:0:0:0:
256,192,97291,1,4,0:0:0:0:
192,192,97458,1,4,0:0:0:0:
64,192,97625,1,4,0:0:0:0:
448,192,97625,1,4,1:0:0:0:
320,192,97958,1,4,0:0:0:0:
192,192,98291,1,4,0:0:0:0:
448,192,98291,1,8,0:0:0:0:
64,192,100308,1,4,0:0:0:0:
320,192,100530,1,4,0:0:0:0:
192,192,100752,1,4,0:0:0:0:
64,192,100954,1,8,0:0:0:0:
448,192,100954,1,4,1:0:0:0:
192,189,101287,1,2,0:0:0:0:
448,192,101620,1,2,0:0:0:0:
320,192,101842,1,2,0:0:0:0:
64,189,102176,1,2,0:0:0:0:
448,192,102509,1,2,0:0:0:0:
192,192,102731,1,2,0:0:0:0:
64,189,103065,1,2,0:0:0:0:
192,187,103398,1,2,0:0:0:0:
448,192,103620,1,2,0:0:0:0:
64,189,103954,1,2,0:0:0:0:
448,192,104287,1,2,0:0:0:0:
256,192,104509,1,2,0:0:0:0:
64,189,104842,1,2,0:0:0:0:
320,192,105176,1,2,0:0:0:0:
192,192,105398,1,2,0:0:0:0:
64,189,105731,1,2,0:0:0:0:
446,192,106065,1,2,0:0:0:0:
256,192,106287,1,2,0:0:0:0:
192,192,106620,1,2,0:0:0:0:
402,192,106954,1,2,0:0:0:0:
54,192,107398,1,2,0:0:0:0:
448,192,107620,1,2,0:0:0:0:
192,192,108065,128,2,109842:0:0:0:0:
320,192,109842,128,2,111620:0:0:0:0:
402,192,111620,128,2,113398:0:0:0:0:
109,192,113398,128,2,115176:0:0:0:0:
192,192,115176,1,4,0:0:0:0:
448,192,115176,1,4,1:0:0:0:
320,192,115509,1,4,0:0:0:0:
109,192,115842,1,4,0:0:0:0:
402,192,116065,1,0,0:0:0:0:
320,192,116509,1,0,0:0:0:0:
448,192,116953,1,4,0:0:0:0:
192,192,117287,1,4,0:0:0:0:
109,192,117620,1,4,0:0:0:0:
192,192,117842,1,0,0:0:0:0:
320,192,118287,1,0,0:0:0:0:
448,192,118731,1,4,0:0:0:0:
64,192,119065,1,4,0:0:0:0:
192,192,119398,1,4,0:0:0:0:
402,192,119620,1,0,0:0:0:0:
256,192,120065,1,0,0:0:0:0:
109,192,120509,1,4,0:0:0:0:
192,192,120842,1,4,0:0:0:0:
402,192,121176,1,4,0:0:0:0:
256,192,121398,1,0,0:0:0:0:
109,192,121842,1,0,0:0:0:0:
402,192,122287,1,4,0:0:0:0:
192,192,122620,1,4,0:0:0:0:
256,192,122953,1,4,0:0:0:0:
109,192,123176,1,0,0:0:0:0:
402,192,123620,1,0,0:0:0:0:
109,192,124065,1,4,0:0:0:0:
448,192,124398,1,4,0:0:0:0:
256,192,124731,1,4,0:0:0:0:
192,192,124953,1,0,0:0:0:0:
109,192,125398,1,0,0:0:0:0:
448,192,125842,1,4,0:0:0:0:
192,192,126176,1,4,0:0:0:0:
402,192,126509,1,4,0:0:0:0:
109,192,126731,1,0,0:0:0:0:
256,192,127176,1,0,0:0:0:0:
182,192,127620,1,4,0:0:0:0:
64,192,127953,1,4,0:0:0:0:
448,192,128287,1,4,0:0:0:0:
256,192,128509,1,0,0:0:0:0:
192,192,128953,1,0,0:0:0:0:
320,192,129176,1,0,0:0:0:0:
448,192,129398,1,8,0:0:0:0:
64,192,129398,1,4,1:0:0:0:
192,192,129842,1,4,0:0:0:0:
109,192,130287,1,4,0:0:0:0:
256,192,130731,1,4,0:0:0:0:
402,192,131176,1,4,0:0:0:0:
182,192,131620,1,4,0:0:0:0:
109,192,132065,1,4,0:0:0:0:
402,192,132509,1,4,0:0:0:0:
329,192,132953,1,4,0:0:0:0:
192,192,133398,1,4,0:0:0:0:
64,192,133842,1,4,0:0:0:0:
256,192,134287,1,4,0:0:0:0:
109,192,134731,1,4,0:0:0:0:
402,192,135176,1,4,0:0:0:0:
192,192,135620,1,4,0:0:0:0:
109,192,136065,1,4,0:0:0:0:
402,192,136509,1,4,0:0:0:0:
320,192,136953,1,4,0:0:0:0:
192,192,137398,1,4,0:0:0:0:
320,192,137842,1,4,0:0:0:0:
109,192,138287,1,4,0:0:0:0:
402,192,138731,1,4,0:0:0:0:
192,192,139176,1,4,0:0:0:0:
402,192,139620,1,4,0:0:0:0:
109,192,140065,128,0,141842:1:0:0:0:
320,192,140065,1,4,1:0:0:0:
402,192,141842,128,0,143176:0:0:0:0:
256,192,143176,1,4,3:0:0:0:
64,192,143176,1,8,0:0:0:0:
192,192,143620,1,8,0:0:0:0:
448,192,143842,1,8,0:0:0:0:
192,192,144065,128,4,144398:0:0:0:0:
320,192,144398,1,8,0:0:0:0:
64,192,144731,1,8,0:0:0:0:
448,192,144953,128,4,145287:0:0:0:0:
320,192,145287,1,8,0:0:0:0:
192,192,145620,1,8,0:0:0:0:
64,192,145842,128,0,146176:0:0:0:0:
320,192,146176,1,8,0:0:0:0:
448,192,146287,1,8,0:0:0:0:
109,192,146509,1,8,0:0:0:0:
320,192,146731,1,8,0:0:0:0:
192,192,147176,1,8,0:0:0:0:
448,192,147398,1,8,0:0:0:0:
320,192,147620,128,4,147953:0:0:0:0:
64,192,147953,1,8,0:0:0:0:
448,192,148287,1,8,0:0:0:0:
64,192,148509,128,4,148842:0:0:0:0:
192,192,148842,1,8,0:0:0:0:
256,192,149176,1,8,0:0:0:0:
448,192,149398,128,0,149731:0:0:0:0:
192,192,149731,1,8,0:0:0:0:
64,192,149842,1,8,0:0:0:0:
320,192,150065,1,8,0:0:0:0:
192,192,150287,1,8,0:0:0:0:
448,192,150398,1,8,0:0:0:0:
109,192,150731,1,4,0:0:0:0:
320,192,150731,1,4,1:0:0:0:
192,192,151066,1,8,0:0:0:0:
402,192,151399,1,4,0:0:0:0:
320,192,151566,1,4,0:0:0:0:
192,192,151733,1,8,0:0:0:0:
448,192,151899,1,8,0:0:0:0:
64,192,151899,1,4,1:0:0:0:
192,192,152233,1,8,0:0:0:0:
256,192,152399,1,8,0:0:0:0:
402,192,152566,1,4,0:0:0:0:
109,192,153233,1,4,0:0:0:0:
256,192,153233,128,4,153566:1:0:0:0:
402,192,153566,1,4,0:0:0:0:
182,192,153733,1,8,0:0:0:0:
475,192,154066,1,4,0:0:0:0:
320,192,154233,1,4,0:0:0:0:
192,192,154399,1,4,0:0:0:0:
109,192,154566,128,4,154899:1:0:0:0:
402,192,154899,1,4,0:0:0:0:
256,192,155066,1,8,0:0:0:0:
64,192,155399,1,4,0:0:0:0:
475,192,155566,1,4,0:0:0:0:
192,192,155733,1,4,0:0:0:0:
109,192,155899,128,4,156233:1:0:0:0:
256,192,156233,1,4,0:0:0:0:
402,192,156399,1,8,0:0:0:0:
190,192,156733,1,4,0:0:0:0:
318,192,156899,1,4,0:0:0:0:
109,192,157066,1,4,0:0:0:0:
256,192,157233,128,4,157566:1:0:0:0:
448,192,157566,1,4,0:0:0:0:
62,192,157733,1,8,0:0:0:0:
190,192,158066,1,4,0:0:0:0:
448,192,158233,1,4,0:0:0:0:
62,192,158399,1,8,0:0:0:0:
320,192,158566,128,4,158899:1:0:0:0:
192,192,158899,1,4,0:0:0:0:
448,192,159066,1,8,0:0:0:0:
256,192,159399,1,4,0:0:0:0:
192,192,159566,1,4,0:0:0:0:
109,192,159733,1,4,0:0:0:0:
448,192,159899,128,4,160233:1:0:0:0:
320,192,160233,1,4,0:0:0:0:
62,192,160399,1,8,0:0:0:0:
192,192,160733,1,4,0:0:0:0:
402,192,160899,1,4,0:0:0:0:
62,192,161066,1,4,0:0:0:0:
256,192,161233,128,4,161566:1:0:0:0:
191,192,161566,1,4,0:0:0:0:
402,192,161733,1,8,0:0:0:0:
109,192,162066,1,4,0:0:0:0:
319,192,162233,1,4,0:0:0:0:
192,192,162399,1,4,0:0:0:0:
64,192,162566,128,4,162899:1:0:0:0:
320,192,162899,1,4,0:0:0:0:
402,192,163066,1,8,0:0:0:0:
192,192,163233,1,8,0:0:0:0:
448,192,163566,1,8,0:0:0:0:
256,192,163899,128,8,164233:0:0:0:0:
64,192,163899,1,4,1:0:0:0:
190,192,164233,1,4,0:0:0:0:
402,192,164399,1,8,0:0:0:0:
109,192,164733,1,4,0:0:0:0:
402,192,164899,1,4,0:0:0:0:
62,192,165066,1,8,0:0:0:0:
329,192,165232,128,4,165566:0:0:0:0:
448,192,165566,1,4,0:0:0:0:
109,192,165732,1,8,0:0:0:0:
190,192,166066,1,4,0:0:0:0:
402,192,166232,1,4,0:0:0:0:
109,192,166399,1,8,0:0:0:0:
446,192,166566,128,4,166899:0:0:0:0:
64,192,166899,1,4,0:0:0:0:
256,192,167066,1,8,0:0:0:0:
445,192,167399,1,4,0:0:0:0:
182,192,167566,1,4,0:0:0:0:
62,192,167732,1,8,0:0:0:0:
402,192,167899,128,4,168232:1:0:0:0:
190,192,168232,1,4,0:0:0:0:
320,192,168399,1,8,0:0:0:0:
256,192,168732,1,4,0:0:0:0:
192,192,168899,1,4,0:0:0:0:
62,192,169066,1,8,0:0:0:0:
329,192,169232,128,8,169566:0:0:0:0:
448,192,169566,1,4,0:0:0:0:
109,192,169732,1,8,0:0:0:0:
402,192,170066,1,4,0:0:0:0:
256,192,170232,1,4,0:0:0:0:
62,192,170399,1,8,0:0:0:0:
192,192,170566,128,8,170899:0:0:0:0:
329,192,170899,1,4,0:0:0:0:
62,192,171066,1,8,0:0:0:0:
192,192,171399,1,8,0:0:0:0:
448,192,171566,1,8,0:0:0:0:
320,192,171732,1,4,0:0:0:0:
192,192,171899,1,4,0:0:0:0:
64,192,172066,1,8,0:0:0:0:
448,192,172066,1,4,1:0:0:0:
320,192,172566,1,8,0:0:0:0:
192,192,173066,1,8,0:0:0:0:
64,192,173566,1,4,1:0:0:0:
448,192,173566,1,8,0:0:0:0:
320,192,173899,1,4,0:0:0:0:
64,192,174066,1,4,0:0:0:0:
448,192,174232,1,4,0:0:0:0:
192,192,174399,1,4,0:0:0:0:
320,192,174566,128,4,174899:0:0:0:0:
109,192,174566,1,4,1:0:0:0:
448,192,174899,1,4,0:0:0:0:
64,192,175066,1,8,0:0:0:0:
448,192,175399,1,4,0:0:0:0:
109,192,175566,1,4,0:0:0:0:
192,192,175732,1,8,0:0:0:0:
256,192,175899,128,4,176232:0:0:0:0:
192,192,176232,1,4,0:0:0:0:
62,192,176399,1,8,0:0:0:0:
329,192,176732,1,4,0:0:0:0:
448,192,176899,1,4,0:0:0:0:
109,192,177066,1,8,0:0:0:0:
402,192,177232,128,4,177566:0:0:0:0:
190,192,177566,1,4,0:0:0:0:
320,192,177732,1,8,0:0:0:0:
256,192,178066,1,4,0:0:0:0:
448,192,178232,1,4,0:0:0:0:
192,192,178399,1,8,0:0:0:0:
109,192,178566,128,4,178899:0:0:0:0:
256,192,178899,1,4,0:0:0:0:
448,192,179066,1,8,0:0:0:0:
190,192,179399,1,4,0:0:0:0:
402,192,179566,1,4,0:0:0:0:
62,192,179732,1,8,0:0:0:0:
256,192,179899,128,4,180232:1:0:0:0:
190,192,180232,1,4,0:0:0:0:
448,192,180399,1,8,0:0:0:0:
109,192,180732,1,4,0:0:0:0:
402,192,180899,1,4,0:0:0:0:
192,192,181066,1,8,0:0:0:0:
320,192,181232,128,4,181566:0:0:0:0:
109,192,181566,1,4,0:0:0:0:
475,192,181732,1,8,0:0:0:0:
256,192,182066,1,4,0:0:0:0:
448,192,182232,1,4,0:0:0:0:
192,192,182399,1,8,0:0:0:0:
109,192,182566,128,4,182899:1:0:0:0:
402,192,182899,1,4,0:0:0:0:
256,192,183066,1,8,0:0:0:0:
192,192,183399,1,4,0:0:0:0:
448,192,183566,1,4,0:0:0:0:
109,192,183732,1,8,0:0:0:0:
320,192,183899,128,4,184232:0:0:0:0:
190,192,184232,1,4,0:0:0:0:
64,192,184399,1,8,0:0:0:0:
448,192,184566,1,4,0:0:0:0:
192,192,184732,128,4,185232:0:0:0:0:
320,192,185066,1,4,0:0:0:0:
64,192,185232,128,8,185566:0:0:0:0:
448,192,185232,1,4,0:0:0:0:
320,192,185566,1,4,0:0:0:0:
192,192,185732,1,8,0:0:0:0:
448,192,186066,1,4,0:0:0:0:
256,192,186232,1,4,0:0:0:0:
62,192,186399,1,8,0:0:0:0:
402,192,186566,128,4,186899:0:0:0:0:
109,192,186899,1,4,0:0:0:0:
192,192,187066,1,8,0:0:0:0:
448,192,187399,1,4,0:0:0:0:
318,192,187566,1,4,0:0:0:0:
62,192,187732,1,8,0:0:0:0:
402,192,187899,128,4,188232:0:0:0:0:
109,192,188232,1,4,0:0:0:0:
192,192,188399,1,8,0:0:0:0:
320,192,188732,1,4,0:0:0:0:
448,192,188899,1,4,0:0:0:0:
62,192,189066,1,8,0:0:0:0:
192,192,189232,128,4,189566:0:0:0:0:
448,192,189566,1,4,0:0:0:0:
62,192,189732,1,8,0:0:0:0:
320,192,190066,1,4,0:0:0:0:
192,192,190232,1,4,0:0:0:0:
448,192,190399,1,8,0:0:0:0:
320,192,190732,128,4,192066:1:0:0:0:
182,192,192066,1,4,1:0:0:0:
64,192,192066,1,4,0:0:0:0:
256,192,193232,1,4,0:0:0:0:
64,192,193399,1,12,0:0:0:0:
448,192,193566,1,8,0:0:0:0:
194,192,193899,1,4,0:0:0:0:
448,192,194066,1,12,0:0:0:0:
64,192,194232,1,8,0:0:0:0:
256,192,194566,1,4,0:0:0:0:
192,192,194732,1,8,0:0:0:0:
448,192,194899,1,8,0:0:0:0:
66,192,195232,1,4,0:0:0:0:
320,192,195232,1,8,0:0:0:0:
194,192,195566,1,8,0:0:0:0:
450,192,195566,1,4,0:0:0:0:
64,192,195899,1,4,0:0:0:0:
448,192,196066,1,8,0:0:0:0:
192,192,196232,1,8,0:0:0:0:
109,192,196566,1,4,0:0:0:0:
448,192,196732,1,8,0:0:0:0:
192,192,196899,1,8,0:0:0:0:
448,192,197232,1,4,0:0:0:0:
64,192,197399,1,8,0:0:0:0:
320,192,197566,1,8,0:0:0:0:
448,192,197899,1,4,0:0:0:0:
192,192,197899,1,8,0:0:0:0:
320,192,198232,1,8,0:0:0:0:
64,192,198232,1,4,0:0:0:0:
448,192,198566,1,4,0:0:0:0:
64,192,198732,1,8,0:0:0:0:
320,192,198899,1,8,0:0:0:0:
192,192,199232,1,4,0:0:0:0:
448,192,199399,1,8,0:0:0:0:
64,192,199566,1,8,0:0:0:0:
448,192,199899,1,4,0:0:0:0:
64,192,200066,1,8,0:0:0:0:
320,192,200232,1,8,0:0:0:0:
402,192,200566,1,8,0:0:0:0:
109,192,200566,1,4,0:0:0:0:
320,192,200899,1,4,0:0:0:0:
192,192,200899,1,8,0:0:0:0:
64,192,201232,1,4,0:0:0:0:
448,192,201399,1,8,0:0:0:0:
192,192,201566,1,8,0:0:0:0:
448,192,201899,1,4,0:0:0:0:
64,192,202066,1,8,0:0:0:0:
320,192,202232,1,8,0:0:0:0:
192,192,202566,1,4,0:0:0:0:
448,192,202732,1,8,0:0:0:0:
64,192,202899,1,8,0:0:0:0:
256,192,203232,1,8,0:0:0:0:
192,192,203232,1,4,0:0:0:0:
36,192,203566,1,8,0:0:0:0:
448,192,203566,1,4,0:0:0:0:
192,192,204066,1,4,0:0:0:0:
402,192,204399,1,8,0:0:0:0:
64,192,204732,1,8,0:0:0:0:
256,192,205232,1,8,0:0:0:0:
192,192,205566,1,8,0:0:0:0:
448,192,205899,1,4,0:0:0:0:
64,192,206066,1,8,0:0:0:0:
320,192,206399,1,8,0:0:0:0:
64,192,207066,1,8,0:0:0:0:
448,192,207399,1,8,0:0:0:0:
64,192,207899,128,4,208399:0:0:0:0:
448,192,207899,128,4,208399:1:0:0:0:
