osu file format v14

[General]
AudioFilename: audio.mp3
AudioLeadIn: 0
PreviewTime: 47440
Countdown: 0
SampleSet: Soft
StackLeniency: 0.2
Mode: 0
LetterboxInBreaks: 0
WidescreenStoryboard: 0

[Editor]
Bookmarks: 20087
DistanceSpacing: 1
BeatDivisor: 4
GridSize: 4
TimelineZoom: 2.2

[Metadata]
Title:Tokyo Teddy Bear
TitleUnicode:Tokyo Teddy Bear
Artist:Neru
ArtistUnicode:Neru
Creator:TheProsecutor
Version:What does the honest person see?
Source:
Tags:Orebanana-P Sidu Kagamine Rin
BeatmapID:931053
BeatmapSetID:431685

[Difficulty]
HPDrainRate:6
CircleSize:4
OverallDifficulty:9
ApproachRate:9.3
SliderMultiplier:2
SliderTickRate:1

[Events]
//Background and Video events
0,0,"511482-konachan.com___124833_blonde_hair_bow_cuffs_kagamine_rin_microphone_red_red_eyes_short_hair_ueno_tsuki_vocaloid.jpg",0,0
//Break Periods
//Storyboard Layer 0 (Background)
//Storyboard Layer 1 (Fail)
//Storyboard Layer 2 (Pass)
//Storyboard Layer 3 (Foreground)
//Storyboard Sound Samples

[TimingPoints]
1264,294.117647058824,4,2,0,100,1,0
18764,-100,4,3,0,100,0,0
19793,-200,4,3,0,100,0,0
20087,-80,4,3,0,100,0,0
23616,-133.333333333333,4,3,0,100,0,0
24793,-80,4,3,0,100,0,0
25822,-133.333333333333,4,3,0,100,0,0
27146,-80,4,3,0,100,0,0
29793,-100,4,2,0,100,0,0
32881,-133.333333333333,4,2,0,100,0,0
33911,-100,4,2,0,100,0,0
38469,-100,4,3,0,100,0,0
44352,-90.9090909090909,4,3,0,100,0,0
45528,-83.3333333333333,4,3,0,100,0,0
47440,-76.9230769230769,4,2,0,100,0,1
67072,-80,4,3,0,100,0,0
70675,-133.333333333333,4,3,0,100,0,0
71852,-80,4,3,0,100,0,0
72881,-133.333333333333,4,3,0,100,0,0
74205,-80,4,3,0,100,0,0
76705,-100,4,2,0,100,0,0
84646,-80,4,2,0,100,0,0
84940,-80,4,3,0,100,0,0
95234,-100,4,3,0,100,0,0
100822,-90.9090909090909,4,3,0,100,0,0
101999,-83.3333333333333,4,3,0,100,0,0
103911,-76.9230769230769,4,2,0,100,0,1
123543,-100,4,2,0,100,0,0
127587,-76.9230769230769,4,3,0,100,0,0
128175,-76.9230769230769,4,2,0,100,0,0
128469,-76.9230769230769,4,3,0,100,0,0
130528,-76.9230769230769,4,2,0,100,0,0
130822,-76.9230769230769,4,3,0,100,0,0
131705,-76.9230769230769,4,2,0,100,0,0
132146,-100,4,2,0,50,0,0
149352,-74.0740740740741,4,2,0,100,0,1
150969,-74.0740740740741,4,3,0,100,0,0
152146,-74.0740740740741,4,2,0,100,0,1
161116,-66.6666666666667,4,2,0,100,0,1
165087,-74.0740740740741,4,2,0,100,0,1
170602,-80,4,3,0,100,0,0
174205,-133.333333333333,4,3,0,100,0,0
175381,-80,4,3,0,100,0,0
176411,-133.333333333333,4,3,0,100,0,0
177734,-80,4,3,0,100,0,0
180381,-80,4,2,0,100,0,0
183469,-133.333333333333,4,2,0,100,0,0
184499,-80,4,2,0,100,0,0

[Colours]
Combo1 : 255,192,0
Combo2 : 147,0,147
Combo3 : 128,0,255
Combo4 : 223,0,0

[HitObjects]
320,265,1264,6,0,P|357:229|360:161,1,100
234,85,1558,1,2,0:0:0:0:
234,85,1705,1,2,0:0:0:0:
132,208,1852,2,0,P|92:172|113:36,1,200,2|0,0:0|0:0,2:0:0:0:
170,119,2293,6,0,B|214:153|237:225|237:225|304:273,1,200,2|0,0:0|0:0,0:0:0:0:
408,163,2734,1,2,0:0:0:0:
282,69,2881,1,0,0:0:0:0:
273,78,3028,1,2,0:0:0:0:
282,88,3175,1,0,0:0:0:0:
116,104,3322,5,2,0:0:0:0:
50,43,3616,2,2,P|29:105|130:193,1,200
50,43,4058,1,2,0:0:0:0:
332,58,4352,1,2,0:0:0:0:
257,101,4499,1,2,0:0:0:0:
382,182,4646,6,0,L|256:209,1,100,2|0,0:0|0:0,0:0:0:0:
226,284,4940,2,0,L|293:188,1,100,2|0,0:0|0:0,0:0:0:0:
168,86,5234,1,2,0:0:0:0:
147,105,5381,1,0,0:0:0:0:
139,135,5528,1,2,0:0:0:0:
152,164,5675,1,0,0:0:0:0:
270,215,5969,1,0,0:0:0:0:
496,216,6264,5,2,0:0:0:0:
480,366,6411,1,2,0:0:0:0:
496,216,6558,1,2,0:0:0:0:
334,359,6852,2,0,B|377:311|377:311|342:251|342:251|407:165,1,200,2|0,0:0|0:0,0:0:0:0:
334,359,7293,1,2,0:0:0:0:
185,158,7440,6,0,P|243:146|305:157,1,100,2|0,0:0|0:0,0:0:0:0:
185,158,7734,1,2,0:0:0:0:
185,158,7881,1,0,0:0:0:0:
284,280,8028,5,2,0:0:0:0:
150,287,8322,2,0,B|186:236|186:236|256:212|256:212|295:154,1,200,2|0,0:0|0:0,0:0:0:0:
150,287,8764,1,2,0:0:0:0:
353,207,9058,5,2,0:0:0:0:
259,326,9205,1,2,0:0:0:0:
412,320,9352,2,0,P|384:272|232:208,1,200,2|0,0:0|0:0,0:0:0:0:
116,212,9793,5,2,0:0:0:0:
37,192,9940,1,0,0:0:0:0:
1,120,10087,1,2,0:0:0:0:
30,43,10234,1,0,0:0:0:0:
110,23,10381,1,0,0:0:0:0:
102,118,10675,1,0,0:0:0:0:
436,136,10969,5,2,0:0:0:0:
476,26,11264,2,0,B|480:82|455:122|455:122|402:146|340:138,1,200,2|0,0:0|0:0,0:0:0:0:
505,136,11705,2,0,B|447:143|407:119|407:119|379:67|385:6,1,200,2|0,0:0|0:0,0:0:0:0:
232,60,12146,5,2,0:0:0:0:
120,168,12293,1,0,0:0:0:0:
119,199,12440,1,2,0:0:0:0:
140,223,12587,1,0,0:0:0:0:
265,245,12734,2,0,P|179:253|125:131,1,200,2|0,0:0|0:0,0:0:0:0:
184,68,13322,6,0,P|270:60|324:182,1,200,2|0,0:0|0:0,0:0:0:0:
262,291,13764,1,2,0:0:0:0:
236,140,13911,1,0,0:0:0:0:
262,291,14058,2,0,B|193:313|193:313|170:245|119:205,1,200,2|0,0:0|0:0,0:0:0:0:
51,158,14499,5,2,0:0:0:0:
51,158,14646,1,0,0:0:0:0:
164,83,14793,1,2,0:0:0:0:
164,83,14940,1,0,0:0:0:0:
305,154,15087,1,0,0:0:0:0:
151,317,15381,1,0,0:0:0:0:
352,248,15675,5,2,0:0:0:0:
469,343,15969,2,0,B|449:284|449:284|467:218|467:218|437:149,1,200,2|0,0:0|0:0,0:0:0:0:
469,343,16411,1,2,0:0:0:0:
352,248,16705,1,2,0:0:0:0:
439,154,16852,2,0,B|467:218|467:218|449:284|449:284|469:343,1,200,2|4,0:0|0:0,0:0:0:0:
256,188,17440,5,4,0:0:0:0:
111,98,17734,1,2,0:0:0:0:
72,232,17881,1,4,0:0:0:0:
111,98,18028,1,2,0:0:0:0:
158,260,18175,1,4,0:0:0:0:
171,273,18249,1,4,0:0:0:0:
188,285,18322,1,4,0:0:0:0:
368,288,18469,1,2,0:0:0:0:
304,112,18616,1,4,0:0:0:0:
271,272,18764,5,0,0:0:0:0:
291,287,18837,1,0,0:0:0:0:
297,319,18911,1,0,0:0:0:0:
280,347,18984,1,0,0:0:0:0:
243,349,19058,1,0,0:0:0:0:
215,327,19131,1,0,0:0:0:0:
203,292,19205,1,0,0:0:0:0:
209,255,19278,1,0,0:0:0:0:
243,219,19352,1,0,0:0:0:0:
293,212,19425,1,0,0:0:0:0:
334,241,19499,1,0,0:0:0:0:
200,150,19793,6,0,P|184:186|185:210,1,50,2|4,0:0|0:0,0:0:0:0:
200,150,20087,5,4,0:0:0:0:
187,170,20160,1,4,0:0:0:0:
183,194,20234,1,4,0:0:0:0:
333,288,20381,6,0,B|341:251|341:251|324:202|324:202|331:162,1,125,2|8,0:0|0:0,0:0:0:0:
270,303,20675,1,2,0:0:0:0:
389,157,20822,1,8,0:0:0:0:
235,41,20969,1,2,0:0:0:0:
24,28,21116,5,4,0:0:0:0:
25,56,21190,1,4,0:0:0:0:
33,82,21264,1,4,0:0:0:0:
50,103,21337,1,4,0:0:0:0:
74,113,21411,1,2,0:0:0:0:
46,240,21558,5,4,0:0:0:0:
65,256,21705,1,2,0:0:0:0:
236,284,21852,1,4,0:0:0:0:
252,269,21999,1,2,0:0:0:0:
296,96,22146,1,4,0:0:0:0:
322,106,22293,1,2,0:0:0:0:
484,28,22440,5,8,0:0:0:0:
228,56,22734,1,2,0:0:0:0:
296,308,23028,1,8,0:0:0:0:
481,333,23175,1,4,0:0:0:0:
312,283,23322,1,8,0:0:0:0:
476,359,23469,1,4,0:0:0:0:
488,200,23616,6,0,L|494:118,1,75.0000028610231,2|8,0:0|0:0,0:0:0:0:
342,123,23911,2,0,L|368:204,1,75.0000028610231,2|8,0:0|0:0,0:0:0:0:
208,189,24205,2,0,L|224:107,1,75.0000028610231,2|8,0:0|0:0,0:0:0:0:
364,194,24499,1,2,0:0:0:0:
492,352,24793,5,4,0:0:0:0:
204,236,25087,1,2,0:0:0:0:
168,20,25381,1,8,0:0:0:0:
223,199,25528,1,4,0:0:0:0:
40,159,25675,1,8,0:0:0:0:
150,84,25822,6,0,L|194:146,1,75.0000028610231,2|8,0:0|0:0,0:0:0:0:
84,45,26116,2,0,L|169:94,1,75.0000028610231,2|8,0:0|0:0,0:0:0:0:
8,46,26411,1,2,0:0:0:0:
84,45,26558,1,4,0:0:0:0:
193,145,26852,1,2,0:0:0:0:
69,185,27146,5,4,0:0:0:0:
163,337,27293,1,4,0:0:0:0:
159,182,27440,1,4,0:0:0:0:
266,312,27587,1,4,0:0:0:0:
358,177,27734,5,2,0:0:0:0:
214,90,27881,1,2,0:0:0:0:
69,185,28028,1,2,0:0:0:0:
188,306,28175,1,2,0:0:0:0:
354,285,28322,5,8,0:0:0:0:
281,139,28469,1,8,0:0:0:0:
326,300,28616,1,8,0:0:0:0:
467,212,28763,1,8,0:0:0:0:
473,203,28837,5,0,0:0:0:0:
475,190,28911,1,0,0:0:0:0:
473,181,28984,1,0,0:0:0:0:
469,172,29058,1,0,0:0:0:0:
472,24,29205,1,8,0:0:0:0:
472,24,29352,1,8,0:0:0:0:
332,56,29499,1,4,0:0:0:0:
140,104,29793,6,0,P|176:152|192:216,1,100,2|0,0:0|0:0,0:0:0:0:
140,104,30087,1,2,0:0:0:0:
364,224,30381,1,2,0:0:0:0:
256,100,30528,1,0,0:0:0:0:
364,224,30675,1,2,0:0:0:0:
200,240,30822,1,0,0:0:0:0:
332,140,30969,2,0,B|284:188|284:188|284:248|284:248|232:316,1,200,2|0,0:0|0:0,0:0:0:0:
28,356,31558,5,2,0:0:0:0:
336,316,31852,1,2,0:0:0:0:
408,168,31999,1,0,0:0:0:0:
244,200,32146,2,0,P|192:192|264:176,1,200,2|0,0:0|0:0,0:0:0:0:
336,284,32587,1,2,0:0:0:0:
172,264,32734,1,0,0:0:0:0:
132,100,32881,6,0,P|180:68|436:268,1,450.000017166138,2|0,0:0|0:0,0:0:0:0:
312,332,33911,1,2,0:0:0:0:
312,332,34058,1,0,0:0:0:0:
172,256,34205,1,2,0:0:0:0:
172,256,34352,1,0,0:0:0:0:
32,344,34499,5,2,0:0:0:0:
112,120,34793,1,2,0:0:0:0:
32,252,35087,5,2,0:0:0:0:
176,340,35234,1,0,0:0:0:0:
240,184,35381,1,2,0:0:0:0:
384,272,35528,1,0,0:0:0:0:
293,132,35675,2,0,P|225:112|173:216,1,200,2|0,0:0|0:0,0:0:0:0:
16,48,36264,5,2,0:0:0:0:
136,268,36558,1,2,0:0:0:0:
320,92,36852,5,2,0:0:0:0:
300,232,36999,1,4,0:0:0:0:
320,92,37146,1,2,0:0:0:0:
216,236,37293,1,4,0:0:0:0:
320,92,37440,1,2,0:0:0:0:
144,202,37587,2,0,P|148:170|296:238,1,300,2|4,0:0|0:0,0:0:0:0:
226,195,38175,5,0,0:0:0:0:
224,208,38248,1,0,0:0:0:0:
224,220,38322,1,0,0:0:0:0:
308,324,38469,5,2,0:0:0:0:
36,312,38764,1,0,0:0:0:0:
37,326,38837,1,0,0:0:0:0:
45,338,38911,1,0,0:0:0:0:
56,352,38984,1,0,0:0:0:0:
68,363,39058,1,0,0:0:0:0:
86,372,39131,1,0,0:0:0:0:
111,375,39205,1,0,0:0:0:0:
142,368,39278,1,0,0:0:0:0:
168,350,39352,1,0,0:0:0:0:
184,317,39425,1,0,0:0:0:0:
182,276,39499,1,4,0:0:0:0:
155,241,39572,1,0,0:0:0:0:
108,218,39646,1,0,0:0:0:0:
16,120,39793,5,2,0:0:0:0:
120,28,39940,1,0,0:0:0:0:
144,24,40014,1,0,0:0:0:0:
172,24,40087,1,0,0:0:0:0:
204,32,40161,1,0,0:0:0:0:
232,48,40234,1,4,0:0:0:0:
252,180,40381,6,0,P|288:140|352:112,1,100,2|0,0:0|0:0,0:0:0:0:
368,252,40675,1,2,0:0:0:0:
252,180,40822,1,4,0:0:0:0:
392,124,40969,5,2,0:0:0:0:
496,40,41116,1,0,0:0:0:0:
499,56,41190,1,0,0:0:0:0:
502,76,41264,1,0,0:0:0:0:
503,95,41337,1,0,0:0:0:0:
502,117,41411,1,0,0:0:0:0:
495,140,41484,1,0,0:0:0:0:
481,160,41558,1,0,0:0:0:0:
460,180,41631,1,0,0:0:0:0:
432,193,41705,1,0,0:0:0:0:
399,194,41778,1,0,0:0:0:0:
366,175,41852,1,4,0:0:0:0:
278,86,42146,5,2,0:0:0:0:
121,116,42293,1,0,0:0:0:0:
278,86,42440,1,2,0:0:0:0:
172,198,42587,2,0,P|136:159|121:71,1,100,2|4,0:0|0:0,0:0:0:0:
263,170,42881,5,0,0:0:0:0:
286,176,42955,1,0,0:0:0:0:
298,197,43028,1,4,0:0:0:0:
289,220,43102,1,0,0:0:0:0:
267,229,43175,1,4,0:0:0:0:
371,115,43322,1,4,0:0:0:0:
373,299,43469,6,0,P|302:288|241:299,1,100,2|4,0:0|0:0,0:0:0:0:
148,192,43764,1,8,0:0:0:0:
250,58,43911,1,2,0:0:0:0:
346,219,44058,1,2,0:0:0:0:
172,319,44352,6,0,P|133:281|118:219,1,110.000003356934,2|4,0:0|0:0,0:0:0:0:
174,103,44646,1,8,0:0:0:0:
259,240,44793,1,8,0:0:0:0:
347,88,44940,1,2,0:0:0:0:
446,246,45087,1,2,0:0:0:0:
259,318,45234,1,2,0:0:0:0:
174,103,45528,6,0,P|151:108|87:199,1,119.999996337891,2|4,0:0|0:0,0:0:0:0:
161,343,45822,2,0,P|228:353|381:245,1,239.999992675781,2|4,0:0|0:0,0:0:0:0:
330,68,46264,1,2,0:0:0:0:
139,146,46411,1,2,0:0:0:0:
276,325,46558,2,0,P|334:299|364:214,1,119.999996337891,2|4,0:0|0:0,0:0:0:0:
249,86,46852,1,8,0:0:0:0:
61,197,46999,2,0,P|104:258|145:297,1,119.999996337891,2|0,0:0|0:0,0:0:0:0:
408,226,47440,5,2,0:0:0:0:
101,90,47734,1,2,0:0:0:0:
60,236,47881,1,2,0:0:0:0:
309,73,48175,6,0,P|371:103|420:161,1,129.999994049073,2|0,0:0|0:0,0:0:0:0:
416,320,48469,1,2,0:0:0:0:
187,341,48616,2,0,P|149:280|135:213,1,129.999994049073,4|0,2:0|2:0,2:0:0:0:
232,48,48911,5,2,0:0:0:0:
336,216,49058,1,2,0:0:0:0:
136,224,49205,1,4,0:0:0:0:
244,344,49352,6,0,P|316:328|372:288,1,129.999994049073,2|0,0:0|0:0,0:0:0:0:
446,131,49646,1,2,0:0:0:0:
196,108,49793,2,0,P|188:168|224:252,1,129.999994049073,4|0,0:0|0:0,0:0:0:0:
380,136,50087,5,2,0:0:0:0:
312,320,50234,1,2,0:0:0:0:
112,320,50381,1,4,0:0:0:0:
204,140,50528,6,0,B|268:164|268:164|292:220,1,129.999994049073,2|0,0:0|0:0,0:0:0:0:
112,320,50822,1,2,0:0:0:0:
360,304,50969,2,0,P|392:244|392:160,1,129.999994049073,4|0,0:0|0:0,0:0:0:0:
220,80,51264,5,2,0:0:0:0:
28,32,51411,1,2,0:0:0:0:
24,224,51558,1,4,0:0:0:0:
200,164,51705,2,2,P|264:136|288:300,1,259.999988098145,2|6,0:0|0:0,0:0:0:0:
264,220,52146,5,2,0:0:0:0:
480,32,52440,1,2,0:0:0:0:
480,188,52587,1,2,0:0:0:0:
268,344,52881,6,0,P|228:332|160:244,1,129.999994049073,2|0,0:0|0:0,0:0:0:0:
356,200,53175,1,2,0:0:0:0:
168,44,53322,2,0,P|132:68|80:156,1,129.999994049073,4|0,0:0|0:0,0:0:0:0:
280,152,53616,5,2,0:0:0:0:
388,320,53764,1,2,0:0:0:0:
280,152,53911,1,4,0:0:0:0:
156,312,54058,6,0,B|192:292|192:292|220:256|220:256|268:228,1,129.999994049073,2|0,0:0|0:0,0:0:0:0:
404,92,54352,1,2,0:0:0:0:
152,80,54499,2,0,B|149:121|149:121|169:169|169:169|170:217,1,129.999994049073,4|0,0:0|0:0,0:0:0:0:
356,268,54793,5,2,0:0:0:0:
320,76,54940,1,2,0:0:0:0:
170,206,55087,1,4,0:0:0:0:
324,136,55234,5,4,0:0:0:0:
312,156,55308,1,2,0:0:0:0:
312,175,55381,1,2,0:0:0:0:
323,187,55455,1,2,0:0:0:0:
338,187,55528,1,2,0:0:0:0:
347,179,55602,1,2,0:0:0:0:
350,166,55675,1,4,0:0:0:0:
276,68,55822,5,2,0:0:0:0:
255,72,55896,1,2,0:0:0:0:
236,84,55969,1,4,0:0:0:0:
220,104,56043,1,2,0:0:0:0:
212,128,56116,1,2,0:0:0:0:
208,152,56190,1,2,0:0:0:0:
208,176,56264,1,2,0:0:0:0:
120,72,56411,5,4,0:0:0:0:
104,112,56484,1,2,0:0:0:0:
96,152,56558,1,2,0:0:0:0:
96,192,56631,1,2,0:0:0:0:
100,232,56705,1,2,0:0:0:0:
288,332,56852,5,2,0:0:0:0:
272,304,56926,1,2,0:0:0:0:
288,268,56999,1,2,0:0:0:0:
284,240,57072,1,2,0:0:0:0:
300,200,57146,1,4,0:0:0:0:
500,200,57293,5,2,0:0:0:0:
511,230,57367,1,2,0:0:0:0:
489,263,57440,1,2,0:0:0:0:
489,291,57513,1,2,0:0:0:0:
474,337,57587,6,0,P|412:367|348:361,1,129.999994049073,2|0,0:0|0:0,0:0:0:0:
176,264,57881,1,2,0:0:0:0:
332,72,58028,2,0,P|328:120|292:196,1,129.999994049073,4|0,0:0|0:0,0:0:0:0:
108,120,58322,5,2,0:0:0:0:
184,304,58469,1,2,0:0:0:0:
384,348,58616,1,4,0:0:0:0:
420,152,58764,6,0,B|392:124|392:124|360:160|296:160,1,129.999994049073,2|0,0:0|0:0,0:0:0:0:
124,96,59058,1,2,0:0:0:0:
297,282,59205,2,0,P|321:222|309:154,1,129.999994049073,4|0,0:0|0:0,0:0:0:0:
128,232,59499,5,2,0:0:0:0:
280,356,59646,1,2,0:0:0:0:
312,160,59793,1,4,0:0:0:0:
212,328,59940,2,0,P|164:276|296:236,1,259.999988098145,2|2,0:0|0:0,0:0:0:0:
96,152,60381,6,0,P|140:112|224:96,1,129.999994049073,4|0,0:0|0:0,0:0:0:0:
400,164,60675,1,2,0:0:0:0:
208,332,60822,2,0,P|188:312|172:216,1,129.999994049073,4|0,0:0|0:0,0:0:0:0:
308,72,61116,2,0,B|284:148|284:148|328:224|328:224|284:312,1,259.999988098145,6|0,0:0|0:0,0:0:0:0:
88,256,61558,6,0,P|96:184|152:120,1,129.999994049073,2|0,0:0|0:0,0:0:0:0:
368,56,61852,1,2,0:0:0:0:
436,240,61999,1,4,0:0:0:0:
32,360,62293,6,0,P|6:275|153:194,1,259.999988098145,2|0,0:0|0:0,0:0:0:0:
328,132,62734,1,2,0:0:0:0:
172,248,62881,1,4,0:0:0:0:
312,384,63028,1,4,0:0:0:0:
296,164,63175,6,0,P|244:104|180:104,1,129.999994049073,2|0,0:0|0:0,0:0:0:0:
120,304,63469,2,0,P|176:236|376:272,1,259.999988098145,2|0,0:0|0:0,0:0:0:0:
196,96,63911,2,0,P|180:168|216:232,1,129.999994049073,4|0,0:0|0:0,0:0:0:0:
372,120,64205,5,2,0:0:0:0:
408,316,64352,1,2,0:0:0:0:
204,288,64499,2,0,B|233:279|233:279|276:143|400:149,1,259.999988098145,4|0,0:0|0:0,0:0:0:0:
348,344,64940,5,4,0:0:0:0:
152,332,65087,2,0,P|208:284|312:292,1,129.999994049073,4|0,0:0|0:0,0:0:0:0:
80,192,65381,5,4,0:0:0:0:
280,176,65528,2,0,P|222:133|161:128,1,129.999994049073,4|0,0:0|0:0,0:0:0:0:
136,312,65822,5,2,0:0:0:0:
168,316,65896,1,2,0:0:0:0:
200,316,65969,1,2,0:0:0:0:
232,304,66043,1,2,0:0:0:0:
260,288,66116,1,2,0:0:0:0:
280,264,66190,1,2,0:0:0:0:
292,232,66264,1,4,0:0:0:0:
136,132,66411,5,4,0:0:0:0:
164,152,66484,1,2,0:0:0:0:
200,156,66558,1,2,0:0:0:0:
232,144,66631,1,2,0:0:0:0:
264,136,66705,1,2,0:0:0:0:
296,140,66778,1,2,0:0:0:0:
324,152,66852,1,2,0:0:0:0:
352,168,66925,1,2,0:0:0:0:
372,188,66999,1,4,0:0:0:0:
168,300,67146,5,4,0:0:0:0:
164,280,67219,1,4,0:0:0:0:
164,256,67293,1,4,0:0:0:0:
324,152,67440,6,0,B|380:120|380:120|436:188,1,125,2|8,0:0|0:0,0:0:0:0:
304,320,67734,1,2,0:0:0:0:
212,152,67881,1,8,0:0:0:0:
96,304,68028,1,2,0:0:0:0:
144,120,68175,5,4,0:0:0:0:
176,88,68249,1,4,0:0:0:0:
220,80,68322,1,4,0:0:0:0:
260,96,68396,1,4,0:0:0:0:
284,132,68469,1,2,0:0:0:0:
248,320,68616,5,4,0:0:0:0:
108,232,68764,1,2,0:0:0:0:
24,372,68911,1,4,0:0:0:0:
180,268,69058,1,2,0:0:0:0:
364,328,69205,1,4,0:0:0:0:
284,120,69352,1,2,0:0:0:0:
468,24,69499,5,8,0:0:0:0:
152,56,69793,1,2,0:0:0:0:
204,300,70087,1,8,0:0:0:0:
288,144,70234,1,4,0:0:0:0:
288,324,70381,1,8,0:0:0:0:
372,160,70528,1,4,0:0:0:0:
140,208,70675,6,0,B|156:176|156:176|152:108,1,75.0000028610231,2|8,0:0|0:0,0:0:0:0:
304,160,70969,2,0,B|288:192|288:192|292:260,1,75.0000028610231,2|8,0:0|0:0,0:0:0:0:
444,244,71264,2,0,B|460:212|460:212|456:144,1,75.0000028610231,2|8,0:0|0:0,0:0:0:0:
290,231,71558,1,2,0:0:0:0:
36,44,71852,5,4,0:0:0:0:
40,352,72146,1,2,0:0:0:0:
348,164,72440,1,8,0:0:0:0:
160,168,72587,1,4,0:0:0:0:
156,356,72734,1,8,0:0:0:0:
332,296,72881,6,0,P|365:322|384:360,1,75.0000028610231,2|8,0:0|0:0,0:0:0:0:
262,272,73175,2,0,P|306:280|342:304,1,75.0000028610231,2|8,0:0|0:0,0:0:0:0:
180,276,73469,1,2,0:0:0:0:
262,272,73616,1,4,0:0:0:0:
480,344,73911,1,2,0:0:0:0:
192,35,74205,5,4,0:0:0:0:
132,189,74352,1,4,0:0:0:0:
265,84,74499,1,4,0:0:0:0:
325,239,74646,1,4,0:0:0:0:
402,92,74793,5,2,0:0:0:0:
253,165,74940,1,2,0:0:0:0:
156,300,75087,1,2,0:0:0:0:
318,346,75234,1,2,0:0:0:0:
397,192,75381,5,8,0:0:0:0:
243,259,75528,1,8,0:0:0:0:
384,351,75675,1,8,0:0:0:0:
461,252,75822,1,8,0:0:0:0:
468,230,75896,5,0,0:0:0:0:
470,213,75969,1,0,0:0:0:0:
469,198,76043,1,0,0:0:0:0:
466,181,76116,1,0,0:0:0:0:
336,128,76264,1,8,0:0:0:0:
336,128,76411,1,8,0:0:0:0:
244,228,76558,1,4,0:0:0:0:
88,208,76705,5,0,0:0:0:0:
32,352,76852,1,2,0:0:0:0:
32,352,76999,1,2,0:0:0:0:
16,196,77146,2,0,P|52:144|160:200,1,200,2|2,0:0|0:0,0:0:0:0:
272,288,77587,6,0,B|308:228|308:228|308:168|308:168|348:96,1,200,2|0,0:0|0:0,0:0:0:0:
192,68,78028,1,2,0:0:0:0:
104,196,78175,1,0,0:0:0:0:
128,228,78322,1,2,0:0:0:0:
156,252,78469,1,0,0:0:0:0:
304,275,78616,5,2,0:0:0:0:
272,132,78911,2,0,P|328:159|296:279,1,200,2|0,0:0|0:0,0:0:0:0:
268,208,79352,1,2,0:0:0:0:
112,80,79646,1,2,0:0:0:0:
112,180,79793,1,2,0:0:0:0:
224,320,79940,6,0,L|296:244,1,100,2|0,0:0|0:0,0:0:0:0:
416,228,80234,2,0,L|352:136,1,100,2|0,0:0|0:0,0:0:0:0:
224,104,80528,1,2,0:0:0:0:
156,136,80675,1,0,0:0:0:0:
180,204,80822,1,2,0:0:0:0:
112,224,80969,1,0,0:0:0:0:
252,336,81264,1,0,0:0:0:0:
412,168,81558,5,2,0:0:0:0:
304,128,81705,1,2,0:0:0:0:
412,168,81852,1,2,0:0:0:0:
216,284,82146,1,2,0:0:0:0:
168,140,82293,2,0,B|160:176|160:176|188:220|188:220|184:264,1,100,2|0,0:0|0:0,0:0:0:0:
316,312,82587,1,2,0:0:0:0:
254,168,82734,6,0,B|233:214|233:214|182:232,1,100,2|0,0:0|0:0,0:0:0:0:
254,168,83028,1,2,0:0:0:0:
254,168,83175,1,0,0:0:0:0:
384,252,83322,5,2,0:0:0:0:
364,128,83616,2,0,B|347:188|347:188|290:234|290:234|273:302,1,200,2|0,0:0|0:0,0:0:0:0:
276,144,84058,1,2,0:0:0:0:
108,120,84352,5,2,0:0:0:0:
112,244,84499,1,2,0:0:0:0:
304,264,84646,2,0,B|392:228|392:228|416:56,1,250,4|4,0:0|0:0,0:0:0:0:
224,84,85087,5,8,0:0:0:0:
392,184,85234,1,4,0:0:0:0:
208,256,85381,1,8,0:0:0:0:
372,356,85528,1,4,0:0:0:0:
292,84,85822,6,0,P|220:48|88:172,1,250,2|4,0:0|0:0,0:0:0:0:
236,272,86264,1,2,0:0:0:0:
364,248,86411,1,2,0:0:0:0:
201,359,86558,2,0,B|112:284|112:284|176:168,1,250,2|4,0:0|0:0,0:0:0:0:
156,60,86999,5,2,0:0:0:0:
296,76,87146,1,8,0:0:0:0:
156,60,87293,1,2,0:0:0:0:
296,156,87440,1,8,0:0:0:0:
156,60,87587,1,2,0:0:0:0:
264,224,87734,1,6,0:0:0:0:
280,348,88028,5,0,0:0:0:0:
380,328,88175,2,0,B|400:248|400:248|380:164|380:164|400:72,1,250,2|4,0:0|0:0,0:0:0:0:
212,88,88616,1,2,0:0:0:0:
132,164,88764,1,2,0:0:0:0:
188,322,88911,2,0,B|124:242|272:178|204:74,1,250,2|4,0:0|0:0,0:0:0:0:
392,124,89352,6,0,P|424:188|420:240,1,125,2|2,0:0|0:0,0:0:0:0:
340,68,89646,1,2,0:0:0:0:
336,264,89793,1,4,0:0:0:0:
208,116,89940,1,2,0:0:0:0:
112,284,90087,1,8,0:0:0:0:
312,172,90528,6,0,P|356:124|368:232,1,250,2|4,0:0|0:0,0:0:0:0:
196,312,90969,1,2,0:0:0:0:
144,208,91116,1,2,0:0:0:0:
328,132,91264,2,0,P|291:66|115:91,1,250,2|4,0:0|0:0,0:0:0:0:
32,172,91705,5,2,0:0:0:0:
88,356,91852,1,8,0:0:0:0:
144,196,91999,1,2,0:0:0:0:
292,348,92146,1,8,0:0:0:0:
396,192,92293,1,2,0:0:0:0:
472,356,92440,1,6,0:0:0:0:
340,92,92734,5,0,0:0:0:0:
216,56,92881,2,0,B|212:128|212:128|144:208|144:208|140:288,1,250,2|4,0:0|0:0,0:0:0:0:
120,88,93322,1,2,0:0:0:0:
244,240,93469,1,2,0:0:0:0:
324,68,93616,2,0,P|384:96|344:264,1,250,2|4,0:0|0:0,0:0:0:0:
204,144,94058,6,0,B|176:160|176:160|168:228|168:228|132:248,1,125,2|2,0:0|0:0,0:0:0:0:
108,72,94352,1,2,0:0:0:0:
280,40,94499,1,4,0:0:0:0:
424,160,94646,1,2,0:0:0:0:
368,352,94793,1,8,0:0:0:0:
192,116,95234,5,2,0:0:0:0:
164,84,95308,1,0,0:0:0:0:
128,72,95381,1,0,0:0:0:0:
92,80,95455,1,0,0:0:0:0:
64,104,95528,1,0,0:0:0:0:
56,132,95602,1,0,0:0:0:0:
60,160,95675,1,0,0:0:0:0:
72,184,95749,1,0,0:0:0:0:
88,196,95822,1,0,0:0:0:0:
108,200,95896,1,0,0:0:0:0:
184,192,95969,1,4,0:0:0:0:
324,48,96264,5,4,0:0:0:0:
408,172,96411,1,0,0:0:0:0:
416,204,96484,1,0,0:0:0:0:
412,240,96558,1,0,0:0:0:0:
388,272,96631,1,0,0:0:0:0:
352,292,96705,1,4,0:0:0:0:
216,220,96852,6,0,B|224:196|224:196|264:148|264:148|268:112,1,100,2|0,0:0|0:0,0:0:0:0:
96,88,97146,1,2,0:0:0:0:
216,220,97293,1,4,0:0:0:0:
408,204,97440,5,2,0:0:0:0:
308,72,97587,1,0,0:0:0:0:
304,56,97661,1,0,0:0:0:0:
288,40,97734,1,0,0:0:0:0:
264,32,97808,1,0,0:0:0:0:
228,28,97881,1,0,0:0:0:0:
188,36,97955,1,0,0:0:0:0:
148,56,98028,1,0,0:0:0:0:
116,84,98102,1,0,0:0:0:0:
96,128,98175,1,0,0:0:0:0:
92,180,98249,1,0,0:0:0:0:
108,228,98322,1,4,0:0:0:0:
340,136,98616,5,2,0:0:0:0:
420,272,98764,1,0,0:0:0:0:
340,136,98911,1,2,0:0:0:0:
184,104,99058,2,0,P|180:164|208:232,1,100,2|4,0:0|0:0,0:0:0:0:
344,240,99352,5,0,0:0:0:0:
372,216,99425,1,0,0:0:0:0:
392,188,99499,1,4,0:0:0:0:
404,156,99572,1,0,0:0:0:0:
408,124,99646,1,4,0:0:0:0:
280,44,99793,1,4,0:0:0:0:
136,120,99940,6,0,P|144:144|212:208,1,100,2|4,0:0|0:0,0:0:0:0:
320,108,100234,1,8,0:0:0:0:
408,252,100381,1,2,0:0:0:0:
244,336,100528,1,2,0:0:0:0:
180,104,100822,6,0,B|156:156|156:156|88:176,1,110.000003356934,2|4,0:0|0:0,0:0:0:0:
168,296,101116,1,8,0:0:0:0:
320,260,101264,1,8,0:0:0:0:
164,168,101411,1,2,0:0:0:0:
348,128,101558,1,2,0:0:0:0:
244,304,101705,1,2,0:0:0:0:
136,84,101999,6,0,P|192:48|280:40,1,119.999996337891,2|4,0:0|0:0,0:0:0:0:
428,76,102293,2,0,P|456:144|436:312,1,239.999992675781,2|4,0:0|0:0,0:0:0:0:
240,332,102734,1,2,0:0:0:0:
160,136,102881,1,2,0:0:0:0:
380,152,103028,2,0,P|376:216|336:272,1,119.999996337891,2|4,0:0|0:0,0:0:0:0:
152,288,103322,1,8,0:0:0:0:
88,80,103469,2,0,P|144:32|220:24,1,119.999996337891,2|0,0:0|0:0,0:0:0:0:
396,120,103911,5,2,0:0:0:0:
400,136,103984,1,2,0:0:0:0:
400,148,104058,1,2,0:0:0:0:
320,302,104205,1,2,0:0:0:0:
309,294,104278,1,2,0:0:0:0:
300,284,104352,1,2,0:0:0:0:
292,272,104425,1,2,0:0:0:0:
286,259,104499,1,2,0:0:0:0:
284,134,104646,6,0,P|265:117|149:84,1,129.999994049073,2|0,0:0|0:0,0:0:0:0:
42,216,104940,1,2,0:0:0:0:
252,353,105087,2,0,P|309:323|353:245,1,129.999994049073,4|0,0:0|0:0,0:0:0:0:
376,77,105381,5,2,0:0:0:0:
286,253,105528,1,2,0:0:0:0:
118,110,105675,1,4,0:0:0:0:
64,300,105822,6,0,B|112:348|112:348|200:312,1,129.999994049073,2|0,0:0|0:0,0:0:0:0:
276,160,106116,1,2,0:0:0:0:
488,292,106264,2,0,B|436:328|436:328|364:284,1,129.999994049073,4|0,0:0|0:0,0:0:0:0:
196,224,106558,5,2,0:0:0:0:
400,228,106705,1,2,0:0:0:0:
316,44,106852,1,4,0:0:0:0:
152,164,106999,6,0,P|228:156|268:204,1,129.999994049073,2|0,0:0|0:0,0:0:0:0:
168,360,107293,1,2,0:0:0:0:
72,128,107440,2,0,P|128:96|212:140,1,129.999994049073,4|0,0:0|0:0,0:0:0:0:
380,72,107734,5,2,0:0:0:0:
376,272,107881,1,2,0:0:0:0:
192,348,108028,1,4,0:0:0:0:
172,140,108175,2,0,P|240:120|252:264,1,259.999988098145,2|6,0:0|0:0,0:0:0:0:
225,193,108616,5,2,0:0:0:0:
448,332,108911,1,2,0:0:0:0:
424,204,109058,1,2,0:0:0:0:
152,320,109352,6,0,B|184:312|184:312|248:328|248:328|288:320,1,129.999994049073,2|0,0:0|0:0,0:0:0:0:
452,228,109646,1,2,0:0:0:0:
260,72,109793,2,0,B|243:100|243:100|186:134|186:134|163:168,1,129.999994049073,4|0,0:0|0:0,0:0:0:0:
324,284,110087,5,2,0:0:0:0:
384,96,110234,1,2,0:0:0:0:
324,284,110381,1,4,0:0:0:0:
120,272,110528,6,0,P|96:232|112:140,1,129.999994049073,2|0,0:0|0:0,0:0:0:0:
272,52,110822,1,2,0:0:0:0:
432,248,110969,2,0,P|392:320|312:360,1,129.999994049073,4|0,0:0|0:0,0:0:0:0:
176,252,111264,5,2,0:0:0:0:
304,96,111411,1,2,0:0:0:0:
432,248,111558,1,4,0:0:0:0:
280,280,111705,5,4,0:0:0:0:
272,272,111778,1,2,0:0:0:0:
268,260,111852,1,2,0:0:0:0:
268,244,111925,1,2,0:0:0:0:
276,228,111999,1,2,0:0:0:0:
296,216,112072,1,2,0:0:0:0:
320,216,112146,1,4,0:0:0:0:
248,92,112293,5,2,0:0:0:0:
224,100,112366,1,2,0:0:0:0:
204,112,112440,1,4,0:0:0:0:
188,132,112514,1,2,0:0:0:0:
176,152,112587,1,2,0:0:0:0:
172,176,112661,1,2,0:0:0:0:
172,200,112734,1,2,0:0:0:0:
56,284,112881,5,4,0:0:0:0:
48,244,112955,1,2,0:0:0:0:
48,204,113028,1,2,0:0:0:0:
56,164,113102,1,2,0:0:0:0:
80,128,113175,1,2,0:0:0:0:
240,100,113322,5,2,0:0:0:0:
256,128,113396,1,2,0:0:0:0:
240,164,113469,1,2,0:0:0:0:
244,192,113542,1,2,0:0:0:0:
228,232,113616,1,4,0:0:0:0:
380,248,113764,5,2,0:0:0:0:
364,220,113838,1,2,0:0:0:0:
380,184,113911,1,2,0:0:0:0:
376,156,113984,1,2,0:0:0:0:
380,96,114058,6,0,P|352:68|260:48,1,129.999994049073,2|0,0:0|0:0,0:0:0:0:
80,140,114352,1,2,0:0:0:0:
240,332,114499,2,0,P|256:320|304:220,1,129.999994049073,4|0,0:0|0:0,0:0:0:0:
176,68,114793,5,2,0:0:0:0:
376,80,114940,1,2,0:0:0:0:
480,256,115087,1,4,0:0:0:0:
280,268,115234,6,0,B|240:244|204:332|152:304,1,129.999994049073,2|0,0:0|0:0,0:0:0:0:
68,136,115528,1,2,0:0:0:0:
312,84,115675,2,0,P|364:112|364:180,1,129.999994049073,4|0,0:0|0:0,0:0:0:0:
180,96,115969,5,2,0:0:0:0:
204,296,116116,1,2,0:0:0:0:
396,352,116264,1,4,0:0:0:0:
439,159,116411,2,0,P|391:107|313:232,1,259.999988098145,2|2,0:0|0:0,0:0:0:0:
156,88,116852,6,0,P|120:152|144:208,1,129.999994049073,4|0,0:0|0:0,0:0:0:0:
316,288,117146,1,2,0:0:0:0:
316,40,117293,2,0,P|256:84|228:136,1,129.999994049073,4|0,0:0|0:0,0:0:0:0:
240,332,117587,2,0,B|248:168|108:320|132:112,1,259.999988098145,6|0,0:0|0:0,0:0:0:0:
316,40,118028,6,0,P|380:64|404:136,1,129.999994049073,2|0,0:0|0:0,0:0:0:0:
308,344,118322,1,2,0:0:0:0:
132,248,118469,1,4,0:0:0:0:
200,84,118764,6,0,B|232:152|232:152|332:208|332:208|368:268,1,259.999988098145,2|0,0:0|0:0,0:0:0:0:
188,344,119205,1,2,0:0:0:0:
48,184,119352,1,4,0:0:0:0:
164,28,119499,1,4,0:0:0:0:
269,198,119646,6,0,P|315:255|378:267,1,129.999994049073,2|0,0:0|0:0,0:0:0:0:
388,68,119940,2,0,P|312:86|189:227,1,259.999988098145,2|0,0:0|0:0,0:0:0:0:
392,184,120381,2,0,P|356:108|300:80,1,129.999994049073,4|0,0:0|0:0,0:0:0:0:
120,64,120675,5,2,0:0:0:0:
44,256,120822,1,2,0:0:0:0:
228,328,120969,2,0,B|328:260|308:152|308:152|264:184,1,259.999988098145,4|0,0:0|0:0,0:0:0:0:
80,108,121411,5,4,0:0:0:0:
284,60,121558,2,0,B|328:40|372:52|372:52|336:84,1,129.999994049073,4|0,0:0|0:0,0:0:0:0:
284,272,121852,5,4,0:0:0:0:
108,184,121999,2,0,B|64:164|20:176|20:176|56:208,1,129.999994049073,4|0,0:0|0:0,0:0:0:0:
176,304,122293,5,2,0:0:0:0:
196,280,122366,1,2,0:0:0:0:
208,252,122440,1,2,0:0:0:0:
216,220,122514,1,2,0:0:0:0:
220,188,122587,1,2,0:0:0:0:
220,160,122661,1,2,0:0:0:0:
216,128,122734,1,4,0:0:0:0:
80,88,122881,5,4,0:0:0:0:
88,116,122955,1,0,0:0:0:0:
104,144,123028,1,0,0:0:0:0:
120,164,123102,1,0,0:0:0:0:
140,180,123175,1,0,0:0:0:0:
160,192,123249,1,0,0:0:0:0:
184,200,123322,1,0,0:0:0:0:
208,204,123396,1,0,0:0:0:0:
272,200,123469,5,4,0:0:0:0:
448,316,123911,1,2,0:0:0:0:
300,100,124205,1,4,0:0:0:0:
100,120,124499,5,2,0:0:0:0:
120,268,124646,1,2,0:0:0:0:
336,60,125087,1,2,0:0:0:0:
400,320,125381,1,4,0:0:0:0:
152,228,125675,5,2,0:0:0:0:
264,132,125822,1,2,0:0:0:0:
456,196,126264,5,2,0:0:0:0:
392,316,126411,1,4,0:0:0:0:
372,212,126558,1,2,0:0:0:0:
264,308,126705,1,4,0:0:0:0:
160,216,126852,1,2,0:0:0:0:
100,316,126999,1,4,0:0:0:0:
56,192,127146,1,4,0:0:0:0:
240,188,127293,2,0,P|296:224|328:292,1,100,4|0,0:0|0:0,0:0:0:0:
431,158,127587,5,4,0:0:0:0:
420,148,127661,1,4,0:0:0:0:
408,140,127734,1,4,0:0:0:0:
244,48,127881,5,2,0:0:0:0:
64,136,128028,1,2,0:0:0:0:
92,324,128175,2,0,P|152:284|220:280,1,129.999994049073,4|0,0:0|0:0,0:0:0:0:
404,248,128469,1,2,0:0:0:0:
360,56,128616,5,4,0:0:0:0:
268,232,128764,1,2,0:0:0:0:
200,48,128911,1,4,0:0:0:0:
268,232,129058,1,2,0:0:0:0:
120,176,129205,5,4,0:0:0:0:
118,199,129278,1,4,0:0:0:0:
124,218,129352,1,4,0:0:0:0:
240,340,129499,5,4,0:0:0:0:
264,341,129572,1,4,0:0:0:0:
282,333,129646,1,4,0:0:0:0:
404,196,129793,5,4,0:0:0:0:
406,173,129866,1,4,0:0:0:0:
400,154,129940,1,4,0:0:0:0:
272,56,130087,5,4,0:0:0:0:
249,54,130160,1,4,0:0:0:0:
230,60,130234,1,4,0:0:0:0:
88,200,130381,5,2,0:0:0:0:
236,332,130528,2,0,P|304:348|380:320,1,129.999994049073,4|0,0:0|0:0,0:0:0:0:
440,152,130822,1,2,0:0:0:0:
260,64,130969,1,4,0:0:0:0:
88,172,131116,1,4,0:0:0:0:
268,264,131264,5,2,0:0:0:0:
172,120,131411,1,4,0:0:0:0:
404,240,131705,1,4,0:0:0:0:
344,136,132146,5,2,0:0:0:0:
140,112,132440,1,2,0:0:0:0:
204,216,132587,1,2,0:0:0:0:
160,328,132734,1,2,0:0:0:0:
223,136,132881,2,0,P|344:191|273:303,1,300,2|2,0:0|0:0,0:0:0:0:
316,84,133616,5,2,0:0:0:0:
192,84,133764,1,2,0:0:0:0:
316,84,133911,1,2,0:0:0:0:
132,212,134058,2,0,B|256:68|256:360|369:208,1,300,2|2,0:0|0:0,0:0:0:0:
308,160,134793,5,2,0:0:0:0:
192,256,134940,1,2,0:0:0:0:
348,332,135234,2,0,B|364:220|172:228|188:88,1,300,2|2,0:0|0:0,0:0:0:0:
256,300,135969,5,2,0:0:0:0:
296,148,136116,1,2,0:0:0:0:
152,88,136411,2,0,B|132:216|132:216|168:288|168:288|228:216|228:216|328:228|328:228|340:248,1,400,2|2,0:0|0:0,0:0:0:0:
324,112,137146,5,2,0:0:0:0:
432,224,137293,1,2,0:0:0:0:
192,88,137587,2,0,B|204:196|204:196|328:360,1,300,2|2,0:0|0:0,0:0:0:0:
368,144,138322,5,2,0:0:0:0:
228,92,138469,1,2,0:0:0:0:
120,248,138764,2,0,B|216:224|216:224|300:284|300:284|372:208,1,300,2|2,0:0|0:0,0:0:0:0:
184,96,139499,5,2,0:0:0:0:
132,232,139646,1,2,0:0:0:0:
368,280,139940,2,0,B|368:148|368:148|268:76|268:76|268:124,1,300,2|2,0:0|0:0,0:0:0:0:
52,176,140675,6,0,B|84:272|84:272|272:192,1,300,2|2,0:0|0:0,0:0:0:0:
316,84,141558,6,0,P|376:112|380:272,1,200,2|2,0:0|0:0,0:0:0:0:
312,184,141999,1,2,0:0:0:0:
264,296,142146,1,2,0:0:0:0:
184,204,142293,2,0,P|260:212|396:52,1,300,2|2,0:0|0:0,0:0:0:0:
148,80,143028,5,2,0:0:0:0:
100,196,143175,1,2,0:0:0:0:
216,244,143322,1,2,0:0:0:0:
184,164,143469,2,0,B|272:164|272:164|348:120|348:120|348:272,1,300,2|2,0:0|0:0,0:0:0:0:
228,80,144205,5,2,0:0:0:0:
200,216,144352,1,2,0:0:0:0:
396,272,144646,2,0,B|428:212|428:212|384:192|284:228|284:228|320:136,1,300,2|2,0:0|0:0,0:0:0:0:
100,272,145381,5,2,0:0:0:0:
240,232,145528,1,2,0:0:0:0:
191,118,145822,2,0,B|171:246|171:246|263:226,1,200,2|2,0:0|0:0,0:0:0:0:
312,272,146264,6,0,B|332:144|332:144|240:164,1,200,2|2,0:0|0:0,0:0:0:0:
232,320,146705,1,2,0:0:0:0:
152,176,146999,2,0,B|228:72|228:72|344:48|344:48|296:136,1,300,2|2,0:0|0:0,0:0:0:0:
240,252,147734,5,2,0:0:0:0:
372,172,147881,1,2,0:0:0:0:
248,100,148175,2,0,B|200:216|444:216|380:368,1,300,2|2,0:0|0:0,0:0:0:0:
256,324,148911,5,2,0:0:0:0:
152,216,149058,1,2,0:0:0:0:
260,228,149352,6,0,P|220:264|128:296,1,135.000000514984,2|4,0:0|0:0,0:0:0:0:
44,80,149646,1,6,0:0:0:0:
180,76,149793,6,0,L|196:152,1,67.5000002574921,6|4,0:0|0:0,0:0:0:0:
280,292,149940,2,0,L|260:228,1,67.5000002574921,6|4,0:0|0:0,0:0:0:0:
124,252,150087,2,0,L|204:232,1,67.5000002574921,6|4,0:0|0:0,0:0:0:0:
332,120,150234,2,0,L|248:140,1,67.5000002574921,6|4,0:0|0:0,0:0:0:0:
96,116,150381,2,0,P|80:136|72:184,1,67.5000002574921,6|4,0:0|0:0,0:0:0:0:
176,336,150528,1,4,0:0:0:0:
360,340,150969,5,2,0:0:0:0:
252,284,151264,1,2,0:0:0:0:
396,204,151411,1,4,0:0:0:0:
192,136,151558,1,8,0:0:0:0:
424,68,151705,1,4,0:0:0:0:
304,116,152146,6,0,B|288:136|288:136|312:208|312:208|292:240,1,135.000000514984,2|0,0:0|0:0,0:0:0:0:
100,304,152440,1,2,0:0:0:0:
80,148,152587,1,2,0:0:0:0:
88,136,152661,1,2,0:0:0:0:
100,148,152734,1,4,0:0:0:0:
304,168,152881,6,0,P|356:207|236:273,1,270.000001029968,2|4,0:0|0:0,0:0:0:0:
175,83,153322,2,0,B|219:44|267:111|310:76,1,135.000000514984,4|0,0:0|0:0,0:0:0:0:
451,217,153616,5,2,0:0:0:0:
286,330,153764,1,2,0:0:0:0:
92,279,153911,1,4,0:0:0:0:
118,79,154058,6,0,P|145:153|195:198,1,135.000000514984,2|0,0:0|0:0,0:0:0:0:
359,78,154352,1,2,0:0:0:0:
271,320,154499,2,0,P|298:312|341:216,1,135.000000514984,4|0,0:0|0:0,0:0:0:0:
171,243,154793,5,2,0:0:0:0:
245,68,154940,1,2,0:0:0:0:
75,214,155087,1,4,0:0:0:0:
252,214,155234,2,0,B|216:170|216:170|84:140|84:140|56:60,1,270.000001029968,4|4,0:0|0:0,0:0:0:0:
245,68,155675,5,2,0:0:0:0:
393,140,155969,1,2,0:0:0:0:
248,321,156116,1,2,0:0:0:0:
110,177,156411,6,0,B|129:156|129:156|195:132|195:132|221:99,1,135.000000514984,2|0,0:0|0:0,0:0:0:0:
400,190,156705,1,2,0:0:0:0:
189,338,156852,2,0,P|145:334|82:255,1,135.000000514984,4|0,0:0|0:0,0:0:0:0:
283,344,157146,5,2,0:0:0:0:
337,144,157293,1,2,0:0:0:0:
283,344,157440,1,4,0:0:0:0:
241,138,157587,6,0,P|160:140|119:184,1,135.000000514984,2|0,0:0|0:0,0:0:0:0:
261,332,157881,1,2,0:0:0:0:
402,113,158028,2,0,P|388:148|313:213,1,135.000000514984,4|0,0:0|0:0,0:0:0:0:
123,272,158322,5,2,0:0:0:0:
176,80,158469,1,2,0:0:0:0:
269,288,158616,1,4,0:0:0:0:
398,226,158764,5,4,0:0:0:0:
408,205,158837,1,2,0:0:0:0:
413,183,158911,1,2,0:0:0:0:
404,162,158984,1,2,0:0:0:0:
385,146,159058,1,2,0:0:0:0:
361,137,159131,1,2,0:0:0:0:
332,139,159205,1,4,0:0:0:0:
230,103,159352,5,0,0:0:0:0:
236,136,159425,1,0,0:0:0:0:
232,170,159499,1,4,0:0:0:0:
217,200,159572,1,0,0:0:0:0:
206,232,159646,1,0,0:0:0:0:
201,265,159719,1,0,0:0:0:0:
207,299,159793,1,0,0:0:0:0:
356,319,159940,5,4,0:0:0:0:
373,273,160014,1,0,0:0:0:0:
385,223,160087,1,0,0:0:0:0:
386,171,160161,1,0,0:0:0:0:
376,121,160234,1,0,0:0:0:0:
240,54,160381,5,0,0:0:0:0:
203,46,160455,1,0,0:0:0:0:
166,47,160528,1,0,0:0:0:0:
129,57,160602,1,0,0:0:0:0:
102,78,160675,1,4,0:0:0:0:
64,208,160822,5,4,0:0:0:0:
96,266,160896,1,4,0:0:0:0:
146,305,160969,1,4,0:0:0:0:
350,319,161116,6,0,P|402:303|417:91,1,300.000011444092,2|4,0:0|0:0,0:0:0:0:
190,62,161558,2,0,P|143:76|76:169,1,150.000005722046,4|2,0:0|0:0,0:0:0:0:
253,315,161852,5,4,0:0:0:0:
347,98,161999,1,2,0:0:0:0:
112,85,162146,1,4,0:0:0:0:
293,247,162293,6,0,P|338:231|402:153,1,150.000005722046,2|4,0:0|0:0,0:0:0:0:
199,52,162587,1,2,0:0:0:0:
61,296,162734,2,0,P|139:331|238:335,1,150.000005722046,4|2,0:0|0:0,0:0:0:0:
421,280,163028,5,4,0:0:0:0:
341,68,163175,1,2,0:0:0:0:
116,42,163322,1,4,0:0:0:0:
97,292,163469,6,0,B|135:293|135:293|199:325|199:325|256:328,1,150.000005722046,2|4,0:0|0:0,0:0:0:0:
394,68,163764,1,2,0:0:0:0:
106,68,163911,2,0,P|94:104|114:214,1,150.000005722046,4|2,0:0|0:0,0:0:0:0:
317,319,164205,5,4,0:0:0:0:
455,135,164352,1,2,0:0:0:0:
239,46,164499,1,4,0:0:0:0:
61,220,164646,2,0,B|174:125|208:341|351:261,1,300.000011444092,4|4,0:0|0:0,0:0:0:0:
375,126,165087,5,2,0:0:0:0:
343,107,165161,1,2,0:0:0:0:
310,97,165234,1,2,0:0:0:0:
274,92,165308,1,2,0:0:0:0:
237,97,165381,1,2,0:0:0:0:
113,161,165528,1,4,0:0:0:0:
297,350,165822,6,0,B|438:275|152:204|363:95,1,270.000001029968,2|0,0:0|0:0,0:0:0:0:
445,283,166264,1,2,0:0:0:0:
241,337,166411,1,4,0:0:0:0:
59,237,166558,1,4,0:0:0:0:
252,237,166705,6,0,P|335:262|362:330,1,135.000000514984,2|0,0:0|0:0,0:0:0:0:
154,239,166999,2,0,P|253:221|359:83,1,270.000001029968,2|0,0:0|0:0,0:0:0:0:
358,300,167440,2,0,P|367:230|337:164,1,135.000000514984,4|0,0:0|0:0,0:0:0:0:
163,80,167734,5,2,0:0:0:0:
85,267,167881,1,2,0:0:0:0:
279,331,168028,2,0,B|343:258|328:161|328:161|246:205,1,270.000001029968,4|0,0:0|0:0,0:0:0:0:
58,144,168469,5,4,0:0:0:0:
252,86,168616,2,0,B|232:125|232:125|333:106,1,135.000000514984,4|0,0:0|0:0,0:0:0:0:
454,263,168911,5,4,0:0:0:0:
260,321,169058,2,0,B|280:282|280:282|179:301,1,135.000000514984,4|0,0:0|0:0,0:0:0:0:
78,221,169352,5,0,0:0:0:0:
81,187,169425,1,0,0:0:0:0:
91,154,169499,1,0,0:0:0:0:
105,123,169572,1,0,0:0:0:0:
127,97,169646,1,0,0:0:0:0:
153,75,169719,1,0,0:0:0:0:
187,67,169793,1,4,0:0:0:0:
357,42,169940,5,4,0:0:0:0:
373,70,170014,1,0,0:0:0:0:
357,106,170087,1,0,0:0:0:0:
362,140,170160,1,0,0:0:0:0:
345,174,170234,1,0,0:0:0:0:
354,208,170308,1,0,0:0:0:0:
362,240,170381,1,0,0:0:0:0:
341,265,170455,1,0,0:0:0:0:
348,299,170528,1,4,0:0:0:0:
201,313,170675,5,4,0:0:0:0:
179,304,170749,1,4,0:0:0:0:
192,286,170822,1,4,0:0:0:0:
274,118,170969,6,0,P|293:94|213:47,1,125,2|8,0:0|0:0,0:0:0:0:
88,141,171264,1,2,0:0:0:0:
216,281,171411,1,8,0:0:0:0:
351,151,171558,1,2,0:0:0:0:
154,192,171705,5,4,0:0:0:0:
185,174,171778,1,4,0:0:0:0:
219,163,171852,1,4,0:0:0:0:
252,173,171925,1,4,0:0:0:0:
283,192,171999,1,2,0:0:0:0:
135,78,172146,5,4,0:0:0:0:
58,215,172293,1,2,0:0:0:0:
221,212,172440,1,4,0:0:0:0:
135,78,172587,1,2,0:0:0:0:
97,262,172734,1,4,0:0:0:0:
281,223,172881,1,2,0:0:0:0:
359,91,173028,5,8,0:0:0:0:
59,142,173322,1,2,0:0:0:0:
302,251,173616,1,8,0:0:0:0:
213,62,173764,1,4,0:0:0:0:
360,117,173911,1,8,0:0:0:0:
167,198,174058,1,4,0:0:0:0:
423,281,174205,6,0,P|408:248|426:194,1,75.0000028610231,2|8,0:0|0:0,0:0:0:0:
259,207,174499,2,0,P|253:243|268:277,1,75.0000028610231,2|8,0:0|0:0,0:0:0:0:
112,282,174793,2,0,P|110:244|92:212,1,75.0000028610231,2|8,0:0|0:0,0:0:0:0:
268,277,175087,1,2,0:0:0:0:
405,92,175381,5,4,0:0:0:0:
154,302,175675,1,2,0:0:0:0:
404,301,175969,1,8,0:0:0:0:
312,138,176116,1,4,0:0:0:0:
218,302,176264,1,8,0:0:0:0:
230,139,176411,6,0,P|188:125|156:143,1,75.0000028610231,2|8,0:0|0:0,0:0:0:0:
294,109,176705,2,0,P|259:135|215:133,1,75.0000028610231,2|8,0:0|0:0,0:0:0:0:
384,120,176999,1,2,0:0:0:0:
294,109,177146,1,4,0:0:0:0:
161,138,177440,1,2,0:0:0:0:
454,161,177734,5,4,0:0:0:0:
403,325,177881,1,4,0:0:0:0:
355,170,178028,1,4,0:0:0:0:
257,307,178175,1,4,0:0:0:0:
252,181,178322,5,2,0:0:0:0:
87,150,178469,1,2,0:0:0:0:
220,50,178616,1,2,0:0:0:0:
383,66,178763,1,2,0:0:0:0:
407,233,178911,5,8,0:0:0:0:
293,351,179058,1,8,0:0:0:0:
166,243,179205,1,8,0:0:0:0:
54,181,179352,1,8,0:0:0:0:
46,189,179426,5,0,0:0:0:0:
43,201,179500,1,0,0:0:0:0:
42,211,179573,1,0,0:0:0:0:
46,220,179647,1,0,0:0:0:0:
149,290,179793,1,8,0:0:0:0:
149,290,179940,1,8,0:0:0:0:
330,257,180087,1,4,0:0:0:0:
166,106,180381,5,2,0:0:0:0:
355,66,180528,1,2,0:0:0:0:
231,207,180675,1,4,0:0:0:0:
396,222,180969,5,2,0:0:0:0:
241,328,181116,1,4,0:0:0:0:
105,182,181411,1,2,0:0:0:0:
224,37,181558,1,4,0:0:0:0:
192,252,181852,1,0,0:0:0:0:
393,167,182146,6,0,B|336:209|336:209|269:225,1,125,2|0,0:0|0:0,0:0:0:0:
133,110,182440,2,0,B|111:178|111:178|120:235,1,125,2|0,0:0|0:0,0:0:0:0:
279,330,182734,2,0,P|357:315|381:151,1,250,4|0,0:0|0:0,0:0:0:0:
217,99,183175,1,2,0:0:0:0:
79,225,183322,1,2,0:0:0:0:
168,328,183469,6,0,B|216:220|368:264|368:264|464:164|408:60,1,450.000017166138,4|0,0:0|0:0,0:0:0:0:
248,44,184499,5,2,0:0:0:0:
88,212,184793,1,4,0:0:0:0:
312,320,185087,5,2,0:0:0:0:
176,108,185381,1,2,0:0:0:0:
396,240,185675,5,2,0:0:0:0:
280,92,185822,1,4,0:0:0:0:
92,256,186116,1,2,0:0:0:0:
281,256,186264,2,0,B|356:208|114:102|218:41,1,250,4|0,0:0|0:0,0:0:0:0:
405,103,186852,5,2,0:0:0:0:
160,151,187146,2,0,P|135:217|152:285,1,125,4|0,0:0|0:0,0:0:0:0:
318,338,187440,1,2,0:0:0:0:
421,180,187587,1,0,0:0:0:0:
258,273,187734,1,2,0:0:0:0:
198,96,187881,1,0,0:0:0:0:
90,249,188028,1,4,0:0:0:0:
131,134,188175,5,4,0:0:0:0:
145,173,188249,1,2,0:0:0:0:
167,212,188322,1,2,0:0:0:0:
195,245,188396,1,2,0:0:0:0:
229,268,188469,1,2,0:0:0:0:
268,283,188543,1,2,0:0:0:0:
309,291,188616,1,2,0:0:0:0:
344,280,188690,1,2,0:0:0:0:
374,257,188764,1,2,0:0:0:0:
388,225,188837,1,2,0:0:0:0:
380,188,188911,1,4,0:0:0:0:
281,97,189058,5,0,0:0:0:0:
249,112,189131,1,0,0:0:0:0:
273,138,189205,1,0,0:0:0:0:
