osu file format v14

[General]
AudioFilename: Neru - Terror (D. Mindbreak) mp3.mp3
AudioLeadIn: 0
PreviewTime: 63510
Countdown: 0
SampleSet: Soft
StackLeniency: 0.7
Mode: 0
LetterboxInBreaks: 0
WidescreenStoryboard: 0

[Editor]
DistanceSpacing: 0.6
BeatDivisor: 3
GridSize: 8
TimelineZoom: 1.8

[Metadata]
Title:Terror
TitleUnicode:テロル
Artist:Neru
ArtistUnicode:Neru
Creator:luxoDeh
Version:Insane
Source:
Tags:Kagamine rin Oshiire-P 押入れP tomobo-P Ryuusee Hanpen Yuu EXISTENCE Milan- Pho puxtu
BeatmapID:698438
BeatmapSetID:309365

[Difficulty]
HPDrainRate:5
CircleSize:4
OverallDifficulty:5
ApproachRate:8
SliderMultiplier:1.5
SliderTickRate:1

[Events]
//Background and Video events
0,0,"44118639_p0 (1).jpg",0,0
Video,0,"video.mp4"
//Break Periods
2,163184,169813
//Storyboard Layer 0 (Background)
//Storyboard Layer 1 (Fail)
//Storyboard Layer 2 (Pass)
//Storyboard Layer 3 (Foreground)
//Storyboard Sound Samples

[TimingPoints]
1300,315.789473684211,4,2,2,50,1,0
64457,-100,4,2,2,50,0,1
84668,-100,4,2,2,50,0,0
89089,-133.333333333333,4,2,2,50,0,0
89615,-100,4,2,2,50,0,0
132668,-100,4,2,2,50,0,1
157931,-100,4,2,2,50,0,0
171721,-66.6666666666667,4,2,2,50,0,0
172142,-83.3333333333333,4,2,2,50,0,0
173089,-76.9230769230769,4,2,2,50,0,1
188247,-100,4,2,2,50,0,0
216036,-100,4,2,2,40,0,0
218563,-100,4,2,2,30,0,0
220773,-100,4,2,2,15,0,0

[Colours]
Combo1 : 128,64,64
Combo2 : 255,128,0
Combo3 : 128,128,128
Combo4 : 128,128,255

[HitObjects]
407,344,1300,6,0,B|421:313|421:313|414:284|414:284|443:208|434:181,1,150,2|0,0:0|0:0,0:0:0:0:
82,50,1931,2,0,B|68:81|68:81|75:110|75:110|46:186|55:213,1,150,2|0,0:0|0:0,0:0:0:0:
406,344,2563,6,0,P|382:291|282:255,1,150,2|0,0:0|0:0,0:0:0:0:
82,50,3194,2,0,P|106:103|206:139,1,150,2|0,0:0|0:0,0:0:0:0:
406,343,3826,6,0,P|337:348|244:342,1,150,2|0,0:0|0:0,0:0:0:0:
82,50,4457,2,0,P|151:45|244:51,1,150,2|0,0:0|0:0,0:0:0:0:
406,344,5089,5,2,0:0:0:0:
437,166,5405,1,0,0:0:0:0:
82,50,5721,1,2,0:0:0:0:
51,228,6036,1,0,0:0:0:0:
407,40,6352,6,0,B|421:71|421:71|414:100|414:100|443:176|434:203,1,150,2|0,0:0|0:0,0:0:0:0:
82,334,6984,2,0,B|68:303|68:303|75:274|75:274|46:198|55:171,1,150,2|0,0:0|0:0,0:0:0:0:
406,40,7615,6,0,P|382:93|282:129,1,150,2|0,0:0|0:0,0:0:0:0:
82,334,8247,2,0,P|106:281|206:245,1,150,2|0,0:0|0:0,0:0:0:0:
406,41,8878,6,0,P|337:36|244:42,1,150,2|0,0:0|0:0,0:0:0:0:
82,334,9510,2,0,P|151:339|244:333,1,150,2|0,0:0|0:0,0:0:0:0:
406,40,10142,5,2,0:0:0:0:
437,218,10457,1,0,0:0:0:0:
82,334,10773,1,2,0:0:0:0:
51,156,11089,1,0,0:0:0:0:
256,194,11405,6,0,P|273:242|412:177,1,250,2|0,0:0|0:0,0:0:0:0:
415,149,12036,2,0,L|334:18,1,150,2|0,0:0|0:0,0:0:0:0:
257,233,12668,6,0,P|240:281|101:216,1,250,2|0,0:0|0:0,0:0:0:0:
98,188,13300,2,0,L|179:57,1,150,2|0,0:0|0:0,0:0:0:0:
256,274,13931,6,0,B|382:311|382:311|414:311,1,150,2|0,0:0|0:0,0:0:0:0:
256,110,14563,2,0,B|130:73|130:73|98:73,1,150,2|0,0:0|0:0,0:0:0:0:
256,313,15194,6,0,P|333:323|405:311,1,150,2|0,0:0|0:0,0:0:0:0:
256,71,15826,2,0,P|179:61|107:73,1,150,2|0,0:0|0:0,0:0:0:0:
256,353,16457,6,0,B|379:262|379:262|404:155,1,250,2|0,0:0|0:0,0:0:0:0:
405,127,17089,2,0,L|513:256,1,150,2|0,0:0|0:0,0:0:0:0:
256,31,17721,6,0,B|133:122|133:122|108:229,1,250,2|0,0:0|0:0,0:0:0:0:
107,257,18352,2,0,L|-1:128,1,150,2|0,0:0|0:0,0:0:0:0:
256,305,18984,5,2,0:0:0:0:
257,88,19300,1,0,0:0:0:0:
257,346,19615,2,0,P|308:239|338:214,1,150,2|0,0:0|0:0,0:0:0:0:
438,167,20142,1,8,0:0:0:0:
438,167,20247,6,0,P|433:111|386:61,1,100,8|0,0:0|0:0,0:0:0:0:
372,58,20563,2,0,P|310:60|209:57,1,150,2|8,0:0|0:0,0:0:0:0:
184,44,20984,1,8,0:0:0:0:
158,74,21089,1,8,0:0:0:0:
131,104,21194,1,2,0:0:0:0:
30,294,21405,1,0,0:0:0:0:
30,294,21510,6,0,P|94:288|148:301,1,100,4|0,0:0|0:0,0:0:0:0:
168,303,21826,2,0,P|229:303|280:256,1,100
278,246,22142,2,0,L|254:140,1,100,8|0,0:0|0:0,0:0:0:0:
247,109,22457,1,0,0:0:0:0:
393,203,22668,1,0,0:0:0:0:
393,203,22773,6,0,L|450:101,1,100
472,90,23089,2,0,P|404:97|344:83,1,100
333,82,23405,2,0,P|261:74|153:89,1,150,8|0,0:0|0:0,0:0:0:0:
100,231,23931,1,0,0:0:0:0:
100,231,24036,6,0,B|79:174|79:174|77:128,1,100
77,94,24352,2,0,L|-5:171,1,100
42,290,24668,2,0,P|101:313|181:248,1,150,8|0,0:0|0:0,0:0:0:0:
343,177,25194,6,0,P|284:154|204:219,1,150
190,228,25615,2,0,L|171:114,1,100
150,96,25931,2,0,B|259:96|259:96|300:78,1,150,8|0,0:0|0:0,0:0:0:0:
430,31,26457,1,0,0:0:0:0:
430,31,26563,6,0,B|457:91|457:91|461:141,1,100,4|0,0:0|0:0,0:0:0:0:
474,161,26878,2,0,L|424:252,1,100
436,287,27194,2,0,P|370:280|316:294,1,100,8|0,0:0|0:0,0:0:0:0:
297,289,27510,2,0,P|237:293|171:276,1,100
162,267,27826,6,0,L|187:374,1,100
145,354,28142,2,0,L|38:330,1,100
8,341,28457,2,0,P|37:276|49:171,1,150,8|0,0:0|0:0,0:0:0:0:
47,36,28984,1,0,0:0:0:0:
47,36,29089,6,0,P|97:78|144:84,1,100
169,81,29405,2,0,P|228:73|290:90,1,100
307,85,29721,2,0,B|380:48|380:48|409:49,1,100,8|0,0:0|0:0,0:0:0:0:
438,48,30036,1,0,0:0:0:0:
486,236,30247,6,0,P|464:292|373:309,1,150
345,296,30668,2,0,L|365:191,1,100
381,161,30984,2,0,L|268:200,1,100,8|0,0:0|0:0,0:0:0:0:
256,221,31300,1,0,0:0:0:0:
256,52,31510,1,0,0:0:0:0:
256,52,31615,6,0,P|198:82|137:89,1,100,4|0,0:0|0:0,0:0:0:0:
125,79,31931,2,0,P|68:80|18:122,1,100
20,140,32247,2,0,B|45:204|45:204|77:228,1,100,8|0,0:0|0:0,0:0:0:0:
106,240,32563,1,0,0:0:0:0:
42,370,32773,1,0,0:0:0:0:
42,370,32878,6,0,P|99:368|153:372,1,100
182,373,33194,2,0,P|239:338|261:293,1,100
264,271,33510,2,0,L|378:290,1,100,8|0,0:0|0:0,0:0:0:0:
394,312,33826,1,0,0:0:0:0:
481,190,34036,1,0,0:0:0:0:
481,190,34142,6,0,P|465:136|421:87,1,100
405,79,34457,2,0,P|341:82|287:77,1,100
268,62,34773,1,8,0:0:0:0:
215,218,34984,1,0,0:0:0:0:
215,218,35089,2,0,P|135:201|99:210,1,100
79,214,35405,6,0,L|112:321,1,100
97,348,35721,1,0,0:0:0:0:
254,303,35931,1,0,0:0:0:0:
254,303,36036,2,0,P|315:308|369:300,1,100,8|0,0:0|0:0,0:0:0:0:
391,290,36352,2,0,L|356:194,1,100
256,56,36668,6,0,B|306:67|306:67|360:56,1,100,4|0,0:0|0:0,0:0:0:0:
391,44,36984,2,0,L|475:119,1,100
484,248,37300,1,8,0:0:0:0:
334,348,37510,1,8,0:0:0:0:
116,52,37826,6,0,B|125:91|125:91|109:126|109:126|135:211,1,150,4|0,0:0|0:0,0:0:0:0:
147,230,38247,2,0,L|43:208,1,100
18,183,38563,2,0,L|40:290,1,100,8|0,0:0|0:0,0:0:0:0:
28,319,38878,1,8,0:0:0:0:
67,325,38984,1,2,0:0:0:0:
106,329,39089,1,0,0:0:0:0:
145,332,39194,6,0,P|209:331|246:240,1,150,4|0,0:0|0:0,0:0:0:0:
246,125,39721,1,0,0:0:0:0:
246,125,39826,2,0,B|300:153|300:153|343:153,1,100,8|0,0:0|0:0,0:0:0:0:
379,150,40142,1,0,0:0:0:0:
487,269,40352,6,0,P|463:340|376:339,1,150
359,332,40773,2,0,L|250:346,1,100
220,353,41089,2,0,L|99:341,1,100,8|0,0:0|0:0,0:0:0:0:
80,347,41405,1,8,0:0:0:0:
91,308,41510,1,2,0:0:0:0:
103,270,41615,1,0,0:0:0:0:
115,231,41721,6,0,L|12:246,1,100,4|0,0:0|0:0,0:0:0:0:
4,283,42036,2,0,L|23:153,1,100
10,144,42352,1,8,0:0:0:0:
121,51,42563,1,0,0:0:0:0:
121,51,42668,2,0,P|147:95|209:66,1,100,2|0,0:0|0:0,0:0:0:0:
227,75,42984,6,0,P|252:70|320:105,1,100
340,133,43300,2,0,P|408:142|492:133,1,150,0|8,0:0|0:0,0:0:0:0:
481,284,43826,1,0,0:0:0:0:
481,284,43931,2,0,L|383:299,1,100,2|0,0:0|0:0,0:0:0:0:
346,318,44247,6,0,L|235:307,1,100
213,285,44563,2,0,B|151:320|151:320|112:319,1,100
83,327,44878,1,8,0:0:0:0:
133,185,45089,1,0,0:0:0:0:
133,185,45194,2,0,B|63:148|63:148|52:114,1,100,2|0,0:0|0:0,0:0:0:0:
55,87,45510,6,0,P|125:93|172:82,1,100
189,69,45826,2,0,B|218:63|261:77|296:60,1,100
325,48,46142,2,0,L|374:141,1,100,8|0,0:0|0:0,0:0:0:0:
442,232,46457,2,0,L|448:112,1,100,2|0,0:0|0:0,0:0:0:0:
504,53,46773,6,0,P|443:43|349:55,1,150,4|0,0:0|0:0,0:0:0:0:
255,194,47300,1,0,0:0:0:0:
255,194,47405,2,0,P|194:198|139:190,1,100,8|0,0:0|0:0,0:0:0:0:
119,175,47721,2,0,L|157:291,1,100,2|0,0:0|0:0,0:0:0:0:
173,302,48036,6,0,L|59:296,1,100
53,331,48352,2,0,L|220:339,2,150,0|8|2,0:0|0:0|0:0,0:0:0:0:
32,190,49194,1,0,0:0:0:0:
32,190,49300,6,0,P|38:115|105:74,1,150,4|0,0:0|0:0,0:0:0:0:
205,158,49826,2,0,P|242:192|321:143,1,150
332,112,50247,2,0,P|391:104|442:122,1,100,2|0,0:0|0:0,0:0:0:0:
464,133,50563,6,0,L|441:239,1,100,0|8,0:0|0:0,0:0:0:0:
462,265,50878,2,0,L|369:334,1,100
374,364,51194,1,8,0:0:0:0:
333,359,51300,1,0,0:0:0:0:
294,350,51405,1,0,0:0:0:0:
254,343,51510,1,10,0:0:0:0:
240,305,51615,1,0,0:0:0:0:
210,277,51721,1,0,0:0:0:0:
170,270,51826,6,0,P|108:276|55:264,1,100,4|0,0:0|0:0,0:0:0:0:
38,246,52142,2,0,L|79:133,1,100
59,114,52457,2,0,P|137:134|217:111,1,150,8|2,0:0|0:0,0:0:0:0:
422,59,52984,6,0,P|344:39|264:62,1,150
245,79,53405,2,0,L|295:184,1,100,8|0,0:0|0:0,0:0:0:0:
321,190,53721,2,0,L|284:300,1,100,8|0,0:0|0:0,0:0:0:0:
265,317,54036,2,0,P|328:312|380:328,1,100,2|0,0:0|0:0,0:0:0:0:
401,333,54352,5,0,0:0:0:0:
474,199,54563,1,0,0:0:0:0:
474,199,54668,2,0,B|458:141|458:141|466:89,1,100
475,63,54984,2,0,B|419:69|419:69|368:64,1,100,8|0,0:0|0:0,0:0:0:0:
336,55,55300,2,0,P|271:53|207:58,1,100,2|0,0:0|0:0,0:0:0:0:
196,62,55615,6,0,L|222:171,1,100,0|4,0:0|0:0,0:0:0:0:
245,189,55931,2,0,L|82:127,1,150,0|8,0:0|0:0,0:0:0:0:
48,264,56457,1,0,0:0:0:0:
48,264,56563,2,0,P|72:322|108:343,1,100,2|0,0:0|0:0,0:0:0:0:
139,355,56878,6,0,P|213:346|295:354,1,150,4|0,0:0|0:0,0:0:0:0:
436,367,57405,1,0,0:0:0:0:
436,367,57510,2,0,L|453:266,1,100,8|0,0:0|0:0,0:0:0:0:
484,243,57826,2,0,L|429:152,1,100,2|0,0:0|0:0,0:0:0:0:
446,119,58142,6,0,L|290:96,1,150
180,222,58668,1,0,0:0:0:0:
180,222,58773,2,0,L|285:214,1,100,8|0,0:0|0:0,0:0:0:0:
319,209,59089,2,0,L|275:311,1,100,2|0,0:0|0:0,0:0:0:0:
288,340,59405,5,4,0:0:0:0:
155,307,59615,1,0,0:0:0:0:
155,307,59721,2,0,P|105:265|99:195,1,100
97,193,60036,2,0,L|54:77,1,100,8|0,0:0|0:0,0:0:0:0:
37,67,60352,1,2,0:0:0:0:
181,127,60563,6,0,P|254:135|356:120,1,150,4|0,0:0|0:0,0:0:0:0:
364,106,60984,2,0,L|337:225,1,100
307,224,61300,2,0,L|415:289,1,100,8|0,0:0|0:0,0:0:0:0:
431,266,61615,1,2,0:0:0:0:
410,300,61721,1,0,0:0:0:0:
391,335,61826,1,0,0:0:0:0:
365,365,61931,6,0,B|313:376|313:376|257:367,1,100,12|8,0:0|0:0,0:0:0:0:
20,54,62878,6,0,B|72:43|72:43|128:52,1,100,12|8,0:0|0:0,0:0:0:0:
255,306,63721,5,8,0:0:0:0:
254,179,63826,5,8,0:0:0:0:
292,189,63931,1,0,0:0:0:0:
331,193,64036,1,0,0:0:0:0:
371,188,64142,1,8,0:0:0:0:
407,172,64247,1,0,0:0:0:0:
436,144,64352,1,0,0:0:0:0:
448,105,64457,6,0,L|503:213,1,100,4|0,0:0|0:0,0:0:0:0:
416,342,64773,2,0,L|434:237,1,100
352,99,65089,2,0,P|290:89|189:110,1,150,12|2,0:0|0:0,0:0:0:0:
75,280,65615,6,0,P|137:290|238:269,1,150
259,259,66036,2,0,L|245:370,1,100
339,246,66352,2,0,P|305:196|233:183,1,100,12|0,0:0|0:0,0:0:0:0:
229,181,66668,2,0,L|325:101,1,100,2|0,0:0|0:0,0:0:0:0:
306,76,66984,6,0,L|192:38,1,100
178,20,67300,1,0,0:0:0:0:
70,124,67510,1,0,0:0:0:0:
70,124,67615,2,0,L|48:231,1,100,12|0,0:0|0:0,0:0:0:0:
29,256,67931,1,2,0:0:0:0:
159,328,68142,6,0,P|223:337|328:318,1,150
345,312,68563,2,0,L|289:223,1,100
356,113,68878,2,0,B|355:165|355:165|387:217,1,100,12|0,0:0|0:0,0:0:0:0:
406,236,69194,2,0,P|467:208|494:166,1,100,2|0,0:0|0:0,0:0:0:0:
390,33,69510,6,0,P|316:37|269:116,1,150,4|0,0:0|0:0,0:0:0:0:
255,251,70036,1,0,0:0:0:0:
255,251,70142,2,0,P|209:285|164:289,1,100,8|0,0:0|0:0,0:0:0:0:
128,283,70457,2,0,L|165:170,1,100,2|0,0:0|0:0,0:0:0:0:
169,149,70773,6,0,B|56:198|56:198|16:195,1,150
161,66,71300,1,0,0:0:0:0:
161,66,71405,2,0,P|219:86|249:127,1,100,8|0,0:0|0:0,0:0:0:0:
272,142,71721,2,0,P|335:145|389:136,1,100,2|0,0:0|0:0,0:0:0:0:
400,113,72036,6,0,B|371:236|371:236|390:283,1,150
473,357,72563,1,0,0:0:0:0:
473,357,72668,2,0,P|410:364|339:346,1,100,8|0,0:0|0:0,0:0:0:0:
336,345,72984,2,0,L|278:259,1,100,2|0,0:0|0:0,0:0:0:0:
282,221,73300,6,0,B|233:283|233:283|189:295,1,100
172,290,73615,2,0,B|151:284|151:284|102:222,1,100
64,209,73931,1,8,0:0:0:0:
102,200,74036,1,0,0:0:0:0:
134,176,74142,1,0,0:0:0:0:
153,141,74247,1,10,0:0:0:0:
155,101,74352,1,0,0:0:0:0:
146,62,74457,1,0,0:0:0:0:
126,26,74563,6,0,L|248:61,1,100,4|0,0:0|0:0,0:0:0:0:
331,112,74878,2,0,L|226:140,1,100
255,313,75194,2,0,P|309:343|419:298,1,150,12|2,0:0|0:0,0:0:0:0:
449,169,75721,6,0,B|460:280|460:280|489:322,1,150
506,343,76142,2,0,L|403:341,1,100
278,356,76457,2,0,P|322:295|334:257,1,100,12|0,0:0|0:0,0:0:0:0:
331,231,76773,2,0,P|309:162|318:100,1,100,2|0,0:0|0:0,0:0:0:0:
408,37,77089,6,0,B|336:57|336:57|266:52,1,100,4|0,0:0|0:0,0:0:0:0:
271,46,77405,2,0,P|216:39|148:56,1,100
133,56,77721,1,8,0:0:0:0:
187,261,77931,1,0,0:0:0:0:
187,261,78036,2,0,P|138:302|84:282,1,100,2|0,0:0|0:0,0:0:0:0:
70,279,78352,6,0,L|114:159,1,100
96,145,78668,2,0,L|228:188,1,100
230,186,78984,1,12,0:0:0:0:
416,81,79194,1,0,0:0:0:0:
416,81,79300,2,0,B|400:145|400:145|410:190,1,100,2|0,0:0|0:0,0:0:0:0:
471,306,79615,6,0,P|412:320|313:296,1,150,4|0,0:0|0:0,0:0:0:0:
181,93,80142,1,0,0:0:0:0:
181,93,80247,2,0,B|189:171|189:171|176:220,1,100,8|0,0:0|0:0,0:0:0:0:
174,231,80563,1,2,0:0:0:0:
112,54,80773,6,0,P|154:19|251:58,1,150
272,65,81194,2,0,P|335:74|386:57,1,100
405,47,81510,2,0,L|388:168,1,100,8|0,0:0|0:0,0:0:0:0:
407,183,81826,1,2,0:0:0:0:
491,347,82036,1,0,0:0:0:0:
491,347,82142,6,0,P|429:355|365:341,1,100
356,331,82457,2,0,L|261:255,1,100
101,338,82773,2,0,P|86:301|102:175,1,150,12|2,0:0|0:0,0:0:0:0:
254,50,83300,1,0,0:0:0:0:
254,50,83405,6,0,P|235:97|190:127,1,100,4|0,0:0|0:0,0:0:0:0:
255,184,83721,2,0,P|274:231|319:261,1,100
352,264,84036,2,0,L|257:338,1,100,8|0,0:0|0:0,0:0:0:0:
248,357,84352,1,2,0:0:0:0:
358,168,84563,1,0,0:0:0:0:
358,168,84668,6,0,P|429:181|507:166,1,150,4|2,0:0|0:0,0:0:0:0:
185,47,85194,1,0,0:0:0:0:
185,47,85300,2,0,P|114:34|36:49,1,150,8|2,0:0|0:0,0:0:0:0:
111,331,85826,6,0,B|98:257|98:257|134:164,2,150,2|2|2,0:0|0:0|0:0,0:0:0:0:
139,359,86563,2,0,L|26:346,1,100,8|0,0:0|0:0,0:0:0:0:
189,291,86878,2,0,L|302:278,1,100,2|0,0:0|0:0,0:0:0:0:
397,82,87194,5,12,0:0:0:0:
414,112,87405,1,8,0:0:0:0:
115,82,88142,5,12,0:0:0:0:
98,112,88352,1,8,0:0:0:0:
256,298,88984,5,2,0:0:0:0:
256,298,89089,2,0,B|258:283|258:283|267:249|267:249|257:217|257:217|258:174,1,112.500004291535,4|0,0:0|0:0,0:0:0:0:
482,90,89615,5,0,0:0:0:0:
482,90,89721,2,0,P|418:96|364:83,1,100,4|0,0:0|0:0,0:0:0:0:
344,81,90036,2,0,P|283:81|232:128,1,100
234,138,90352,2,0,L|258:244,1,100,8|0,0:0|0:0,0:0:0:0:
265,275,90668,1,0,0:0:0:0:
119,181,90878,1,0,0:0:0:0:
119,181,90984,6,0,L|62:283,1,100
40,294,91300,2,0,P|108:287|168:301,1,100
179,302,91615,2,0,P|251:310|359:295,1,150,8|0,0:0|0:0,0:0:0:0:
412,153,92142,1,0,0:0:0:0:
412,153,92247,6,0,B|433:210|433:210|435:256,1,100
435,290,92563,2,0,L|517:213,1,100
470,94,92878,2,0,P|411:71|331:136,1,150,8|0,0:0|0:0,0:0:0:0:
169,207,93405,6,0,P|228:230|308:165,1,150
322,156,93826,2,0,L|341:270,1,100
362,288,94142,2,0,B|253:288|253:288|212:306,1,150,8|0,0:0|0:0,0:0:0:0:
82,353,94668,1,0,0:0:0:0:
82,353,94773,6,0,B|55:293|55:293|51:243,1,100,4|0,0:0|0:0,0:0:0:0:
38,223,95089,2,0,L|88:132,1,100
76,97,95405,2,0,P|142:104|196:90,1,100,8|0,0:0|0:0,0:0:0:0:
215,95,95721,2,0,P|275:91|341:108,1,100
350,117,96036,6,0,L|325:10,1,100
367,30,96352,2,0,L|474:54,1,100
504,43,96668,2,0,P|475:108|463:213,1,150,8|0,0:0|0:0,0:0:0:0:
465,348,97194,1,0,0:0:0:0:
465,348,97300,6,0,P|415:306|368:300,1,100
343,303,97615,2,0,P|284:311|222:294,1,100
205,299,97931,2,0,B|132:336|132:336|103:335,1,100,8|0,0:0|0:0,0:0:0:0:
74,336,98247,1,0,0:0:0:0:
26,148,98457,6,0,P|48:92|139:75,1,150
167,88,98878,2,0,L|147:193,1,100
131,223,99194,2,0,L|244:184,1,100,8|0,0:0|0:0,0:0:0:0:
256,163,99510,1,0,0:0:0:0:
256,332,99721,1,0,0:0:0:0:
256,332,99826,6,0,P|314:302|375:295,1,100,4|0,0:0|0:0,0:0:0:0:
387,305,100142,2,0,P|444:304|494:262,1,100
492,244,100457,2,0,B|467:180|467:180|435:156,1,100,8|0,0:0|0:0,0:0:0:0:
406,144,100773,1,0,0:0:0:0:
470,14,100984,1,0,0:0:0:0:
470,14,101089,6,0,P|413:16|359:12,1,100
330,11,101405,2,0,P|273:46|251:91,1,100
248,113,101721,2,0,L|134:94,1,100,8|0,0:0|0:0,0:0:0:0:
118,72,102036,1,0,0:0:0:0:
31,194,102247,1,0,0:0:0:0:
31,194,102352,6,0,P|47:248|91:297,1,100
107,305,102668,2,0,P|171:302|225:307,1,100
244,322,102984,1,8,0:0:0:0:
297,166,103194,1,0,0:0:0:0:
297,166,103300,2,0,P|377:183|413:174,1,100
433,170,103615,6,0,L|400:63,1,100
415,36,103931,1,0,0:0:0:0:
258,81,104142,1,0,0:0:0:0:
258,81,104247,2,0,P|197:76|143:84,1,100,8|0,0:0|0:0,0:0:0:0:
121,94,104563,2,0,L|156:190,1,100
256,328,104878,6,0,B|206:317|206:317|152:328,1,100,4|0,0:0|0:0,0:0:0:0:
121,340,105194,2,0,L|37:265,1,100
28,136,105510,1,2,0:0:0:0:
176,32,105721,1,2,0:0:0:0:
205,65,105826,1,0,0:0:0:0:
396,332,106036,6,0,B|387:293|387:293|403:258|403:258|377:173,1,150
365,154,106457,2,0,L|469:176,1,100
494,201,106773,2,0,L|472:94,1,100,4|0,0:0|0:0,0:0:0:0:
484,65,107089,1,0,0:0:0:0:
445,59,107194,1,0,0:0:0:0:
406,55,107300,1,0,0:0:0:0:
367,52,107405,6,0,P|303:53|266:144,1,150,4|0,0:0|0:0,0:0:0:0:
266,259,107931,1,0,0:0:0:0:
266,259,108036,2,0,B|212:231|212:231|169:231,1,100,8|0,0:0|0:0,0:0:0:0:
133,234,108352,1,0,0:0:0:0:
25,115,108563,6,0,P|49:44|136:45,1,150,4|0,0:0|0:0,0:0:0:0:
153,52,108984,2,0,L|262:38,1,100
292,31,109300,2,0,L|413:43,1,100,8|0,0:0|0:0,0:0:0:0:
432,37,109615,1,8,0:0:0:0:
421,76,109721,1,2,0:0:0:0:
409,114,109826,1,0,0:0:0:0:
397,153,109931,6,0,L|500:138,1,100,4|0,0:0|0:0,0:0:0:0:
508,101,110247,2,0,L|489:231,1,100
502,240,110563,1,8,0:0:0:0:
391,333,110773,1,0,0:0:0:0:
391,333,110878,2,0,P|365:289|303:318,1,100,2|0,0:0|0:0,0:0:0:0:
285,309,111194,6,0,P|260:314|192:279,1,100
172,251,111510,2,0,P|104:242|20:251,1,150,8|8,0:0|0:0,0:0:0:0:
31,100,112036,1,0,0:0:0:0:
31,100,112142,2,0,L|129:85,1,100,2|0,0:0|0:0,0:0:0:0:
166,66,112457,6,0,L|277:77,1,100
299,99,112773,2,0,B|361:64|361:64|400:65,1,100
429,57,113089,1,8,0:0:0:0:
379,199,113300,1,0,0:0:0:0:
379,199,113405,2,0,B|449:236|449:236|460:270,1,100,2|0,0:0|0:0,0:0:0:0:
457,297,113721,6,0,P|387:291|340:302,1,100
323,315,114036,2,0,B|294:321|251:307|216:324,1,100
187,336,114352,2,0,L|138:243,1,100,8|0,0:0|0:0,0:0:0:0:
70,152,114668,2,0,L|64:272,1,100,2|0,0:0|0:0,0:0:0:0:
8,331,114984,6,0,P|69:341|163:329,1,150,4|0,0:0|0:0,0:0:0:0:
257,190,115510,1,0,0:0:0:0:
257,190,115615,2,0,P|318:186|373:194,1,100,8|0,0:0|0:0,0:0:0:0:
393,209,115931,2,0,L|355:93,1,100,2|0,0:0|0:0,0:0:0:0:
339,82,116247,6,0,L|453:88,1,100
459,53,116563,2,0,L|292:45,2,150,0|8|2,0:0|0:0|0:0,0:0:0:0:
480,194,117405,1,0,0:0:0:0:
480,194,117510,6,0,P|474:269|407:310,1,150,4|0,0:0|0:0,0:0:0:0:
307,226,118036,2,0,P|270:192|191:241,1,150
180,272,118457,2,0,P|121:280|70:262,1,100,2|0,0:0|0:0,0:0:0:0:
48,251,118773,6,0,L|71:145,1,100
50,119,119089,2,0,L|143:50,1,100,8|0,0:0|0:0,0:0:0:0:
138,20,119405,1,8,0:0:0:0:
179,25,119510,1,0,0:0:0:0:
218,34,119615,1,0,0:0:0:0:
258,41,119721,1,10,0:0:0:0:
272,79,119826,1,0,0:0:0:0:
302,107,119931,1,0,0:0:0:0:
342,114,120036,6,0,P|404:108|457:120,1,100,4|0,0:0|0:0,0:0:0:0:
474,138,120352,2,0,L|433:251,1,100
453,270,120668,2,0,P|375:250|295:273,1,150,8|2,0:0|0:0,0:0:0:0:
90,325,121194,6,0,P|168:345|248:322,1,150
267,305,121615,2,0,L|217:200,1,100
191,194,121931,2,0,L|228:84,1,100,8|0,0:0|0:0,0:0:0:0:
247,67,122247,2,0,P|184:72|132:56,1,100,2|0,0:0|0:0,0:0:0:0:
111,51,122563,5,0,0:0:0:0:
38,185,122773,1,0,0:0:0:0:
38,185,122878,2,0,B|54:243|54:243|46:295,1,100
37,321,123194,2,0,B|93:315|93:315|144:320,1,100,8|0,0:0|0:0,0:0:0:0:
176,329,123510,2,0,P|241:331|305:326,1,100,2|0,0:0|0:0,0:0:0:0:
316,322,123826,6,0,L|290:213,1,100,0|4,0:0|0:0,0:0:0:0:
267,195,124142,2,0,L|430:257,1,150,0|8,0:0|0:0,0:0:0:0:
464,120,124668,1,0,0:0:0:0:
464,120,124773,2,0,P|440:62|404:41,1,100,2|0,0:0|0:0,0:0:0:0:
373,29,125089,6,0,P|299:38|217:30,1,150,4|0,0:0|0:0,0:0:0:0:
76,17,125615,1,0,0:0:0:0:
76,17,125721,2,0,L|59:118,1,100,8|0,0:0|0:0,0:0:0:0:
28,141,126036,2,0,L|83:232,1,100,2|0,0:0|0:0,0:0:0:0:
66,265,126352,6,0,L|222:288,1,150
332,162,126878,1,0,0:0:0:0:
332,162,126984,2,0,L|227:170,1,100,8|0,0:0|0:0,0:0:0:0:
193,175,127300,2,0,L|237:73,1,100,2|0,0:0|0:0,0:0:0:0:
224,44,127615,5,4,0:0:0:0:
357,77,127826,1,0,0:0:0:0:
357,77,127931,2,0,P|407:119|413:189,1,100
415,191,128247,2,0,L|458:307,1,100,12|0,0:0|0:0,0:0:0:0:
475,317,128563,1,2,0:0:0:0:
331,257,128773,6,0,P|258:249|156:264,1,150,4|0,0:0|0:0,0:0:0:0:
148,278,129194,2,0,L|175:159,1,100
205,160,129510,2,0,L|97:95,1,100,8|0,0:0|0:0,0:0:0:0:
81,118,129826,1,2,0:0:0:0:
102,84,129931,1,0,0:0:0:0:
121,49,130036,1,0,0:0:0:0:
147,19,130142,6,0,B|199:8|199:8|255:17,1,100,12|8,0:0|0:0,0:0:0:0:
492,330,131089,6,0,B|440:341|440:341|384:332,1,100,12|8,0:0|0:0,0:0:0:0:
257,78,131931,5,8,0:0:0:0:
258,205,132036,5,8,0:0:0:0:
220,195,132142,1,0,0:0:0:0:
181,191,132247,1,0,0:0:0:0:
141,196,132352,1,8,0:0:0:0:
105,212,132457,1,0,0:0:0:0:
76,240,132563,1,0,0:0:0:0:
64,279,132668,6,0,L|9:171,1,100,4|0,0:0|0:0,0:0:0:0:
96,42,132984,2,0,L|78:147,1,100
160,285,133300,2,0,P|222:295|323:274,1,150,12|2,0:0|0:0,0:0:0:0:
437,104,133826,6,0,P|375:94|274:115,1,150
253,125,134247,2,0,L|267:14,1,100
173,138,134563,2,0,P|207:188|279:201,1,100,12|0,0:0|0:0,0:0:0:0:
283,203,134878,2,0,L|187:283,1,100,2|0,0:0|0:0,0:0:0:0:
206,308,135194,6,0,L|320:346,1,100
334,364,135510,1,0,0:0:0:0:
442,260,135721,1,0,0:0:0:0:
442,260,135826,2,0,L|464:153,1,100,12|0,0:0|0:0,0:0:0:0:
483,128,136142,1,2,0:0:0:0:
353,56,136352,6,0,P|289:47|184:66,1,150
167,72,136773,2,0,L|223:161,1,100
156,271,137089,2,0,B|157:219|157:219|125:167,1,100,8|0,0:0|0:0,0:0:0:0:
106,148,137405,2,0,P|45:176|18:218,1,100,2|0,0:0|0:0,0:0:0:0:
122,351,137721,6,0,P|196:347|243:268,1,150,4|0,0:0|0:0,0:0:0:0:
257,133,138247,1,0,0:0:0:0:
257,133,138352,2,0,P|303:99|348:95,1,100,8|0,0:0|0:0,0:0:0:0:
384,101,138668,2,0,L|347:214,1,100,2|0,0:0|0:0,0:0:0:0:
343,235,138984,6,0,B|456:186|456:186|496:189,1,150
351,318,139510,1,0,0:0:0:0:
351,318,139615,2,0,P|293:298|263:257,1,100,8|0,0:0|0:0,0:0:0:0:
240,242,139931,2,0,P|177:239|123:248,1,100,2|0,0:0|0:0,0:0:0:0:
112,271,140247,6,0,B|141:148|141:148|122:101,1,150,4|0,0:0|0:0,0:0:0:0:
39,27,140773,1,0,0:0:0:0:
39,27,140878,2,0,P|102:20|173:38,1,100,8|0,0:0|0:0,0:0:0:0:
176,39,141194,2,0,L|234:125,1,100,2|0,0:0|0:0,0:0:0:0:
230,163,141510,6,0,B|279:101|279:101|323:89,1,100
340,94,141826,2,0,B|360:99|360:99|409:161,1,100
448,175,142142,1,8,0:0:0:0:
410,184,142247,1,0,0:0:0:0:
378,208,142352,1,0,0:0:0:0:
359,243,142457,1,10,0:0:0:0:
357,283,142563,1,0,0:0:0:0:
366,322,142668,1,0,0:0:0:0:
386,358,142773,6,0,L|264:323,1,100,4|0,0:0|0:0,0:0:0:0:
181,272,143089,2,0,L|286:244,1,100
257,71,143405,2,0,P|203:41|93:86,1,150,12|2,0:0|0:0,0:0:0:0:
63,215,143931,6,0,B|52:104|52:104|23:62,1,150
6,41,144352,2,0,L|109:43,1,100
234,28,144668,2,0,P|190:89|178:127,1,100,12|0,0:0|0:0,0:0:0:0:
181,153,144984,2,0,P|203:222|194:284,1,100,2|0,0:0|0:0,0:0:0:0:
104,347,145300,6,0,B|176:327|176:327|246:332,1,100,4|0,0:0|0:0,0:0:0:0:
241,338,145615,2,0,P|296:345|364:328,1,100
379,328,145931,1,8,0:0:0:0:
325,123,146142,1,0,0:0:0:0:
325,123,146247,2,0,P|374:82|428:102,1,100,2|0,0:0|0:0,0:0:0:0:
442,105,146563,6,0,L|398:225,1,100
416,239,146878,2,0,L|284:196,1,100
282,198,147194,1,8,0:0:0:0:
96,303,147405,1,0,0:0:0:0:
96,303,147510,2,0,B|112:239|112:239|102:194,1,100,2|0,0:0|0:0,0:0:0:0:
41,78,147826,6,0,P|100:64|199:88,1,150,4|0,0:0|0:0,0:0:0:0:
331,291,148352,1,0,0:0:0:0:
331,291,148457,2,0,B|323:213|323:213|336:164,1,100,8|0,0:0|0:0,0:0:0:0:
338,153,148773,1,2,0:0:0:0:
400,330,148984,6,0,P|358:365|261:326,1,150
240,319,149405,2,0,P|177:310|126:327,1,100
107,337,149721,2,0,L|124:216,1,100,8|0,0:0|0:0,0:0:0:0:
105,201,150036,1,2,0:0:0:0:
21,37,150247,1,0,0:0:0:0:
21,37,150352,6,0,P|83:29|147:43,1,100,4|0,0:0|0:0,0:0:0:0:
156,53,150668,2,0,L|251:129,1,100
411,46,150984,2,0,P|426:83|410:209,1,150,12|2,0:0|0:0,0:0:0:0:
258,334,151510,1,0,0:0:0:0:
258,334,151615,6,0,P|277:287|322:257,1,100
257,200,151931,2,0,P|238:153|193:123,1,100
160,120,152247,2,0,L|255:46,1,100,8|0,0:0|0:0,0:0:0:0:
264,27,152563,1,2,0:0:0:0:
154,216,152773,1,0,0:0:0:0:
154,216,152878,6,0,P|83:203|5:218,1,150,4|0,0:0|0:0,0:0:0:0:
327,337,153405,1,0,0:0:0:0:
327,337,153510,2,0,P|398:350|476:335,1,150,12|2,0:0|0:0,0:0:0:0:
401,53,154036,6,0,B|414:127|414:127|378:220,2,150
373,25,154773,2,0,L|486:38,1,100,12|0,0:0|0:0,0:0:0:0:
323,93,155089,2,0,L|210:106,1,100,2|0,0:0|0:0,0:0:0:0:
253,231,155405,6,0,P|264:295|164:334,1,150,4|0,0:0|0:0,0:0:0:0:
58,234,155931,1,0,0:0:0:0:
58,234,156036,2,0,B|47:131|47:131|77:58,1,150,12|2,0:0|0:0,0:0:0:0:
275,57,156563,1,4,0:0:0:0:
275,57,156668,6,0,B|286:123|286:123|274:171,1,100
257,190,156984,2,0,L|366:162,1,100
383,137,157300,2,0,L|384:266,1,100,8|0,0:0|0:0,0:0:0:0:
405,270,157615,1,2,0:0:0:0:
369,289,157721,1,0,0:0:0:0:
335,310,157826,1,0,0:0:0:0:
300,330,157931,5,4,0:0:0:0:
179,97,158247,1,0,0:0:0:0:
198,358,158563,1,8,0:0:0:0:
254,47,158878,1,8,0:0:0:0:
113,337,159194,5,8,0:0:0:0:
349,32,159510,1,8,0:0:0:0:
53,277,159826,1,8,0:0:0:0:
79,246,159931,1,8,0:0:0:0:
105,215,160036,1,2,0:0:0:0:
129,182,160142,2,0,P|188:190|253:173,1,100,2|0,0:0|0:0,0:0:0:0:
346,62,160457,6,0,L|384:173,1,100,4|0,0:0|0:0,0:0:0:0:
411,179,160773,1,0,0:0:0:0:
395,215,160878,1,8,0:0:0:0:
379,252,160984,1,8,0:0:0:0:
360,287,161089,2,0,P|418:296|475:281,1,100,8|2,0:0|0:0,0:0:0:0:
300,228,161405,2,0,P|248:221|185:231,1,100,4|0,0:0|0:0,0:0:0:0:
162,236,161721,5,0,0:0:0:0:
171,197,161826,1,8,0:0:0:0:
180,158,161931,1,8,0:0:0:0:
189,119,162036,2,0,L|70:151,1,100,8|2,0:0|0:0,0:0:0:0:
233,40,162352,2,0,L|351:63,1,100,12|0,0:0|0:0,0:0:0:0:
365,37,162668,2,0,L|435:127,1,100
464,127,162984,5,2,0:0:0:0:
255,296,170563,5,8,0:0:0:0:
255,296,170668,1,8,0:0:0:0:
255,296,170773,1,0,0:0:0:0:
255,296,170878,2,0,P|215:238|156:218,1,100,4|0,0:0|0:0,0:0:0:0:
150,218,171194,1,0,0:0:0:0:
186,201,171300,1,8,0:0:0:0:
217,176,171405,1,8,0:0:0:0:
237,141,171510,1,0,0:0:0:0:
242,101,171615,1,0,0:0:0:0:
233,60,171721,6,0,B|256:78|256:78|289:74|289:74|325:101|325:101|380:62|441:56,1,225.000008583069,4|0,0:0|0:0,0:0:0:0:
485,164,172142,6,0,B|489:249|489:249|467:300,1,119.999996337891,4|0,0:0|0:0,0:0:0:0:
456,311,172457,1,8,0:0:0:0:
421,321,172563,1,0,0:0:0:0:
385,326,172668,1,0,0:0:0:0:
349,325,172773,1,8,0:0:0:0:
313,322,172878,1,0,0:0:0:0:
279,307,172984,1,0,0:0:0:0:
254,182,173089,6,0,P|192:210|94:201,1,129.999994049073,4|0,0:0|0:0,0:0:0:0:
94,197,173405,2,0,L|155:334,1,129.999994049073
16,213,173721,2,0,P|43:135|152:140,1,194.999991073609,12|2,0:0|0:0,0:0:0:0:
325,231,174247,6,0,P|392:245|482:147,1,194.999991073609,4|0,0:0|0:0,0:0:0:0:
481,126,174668,2,0,L|371:50,1,129.999994049073
306,146,174984,2,0,P|237:153|96:141,1,194.999991073609,12|2,0:0|0:0,0:0:0:0:
27,20,175510,1,0,0:0:0:0:
27,20,175615,6,0,B|38:120|38:120|24:168,1,129.999994049073,4|0,0:0|0:0,0:0:0:0:
12,183,175931,2,0,L|71:315,1,129.999994049073
254,361,176247,2,0,P|294:340|250:220,1,194.999991073609,12|2,0:0|0:0,0:0:0:0:
254,361,176773,6,0,B|403:299|403:299|443:253,1,194.999991073609,4|0,0:0|0:0,0:0:0:0:
427,234,177194,2,0,P|417:166|430:93,1,129.999994049073
440,69,177510,2,0,B|359:85|359:85|308:79,1,129.999994049073,8|0,0:0|0:0,0:0:0:0:
277,60,177826,2,0,P|201:54|123:69,1,129.999994049073,2|0,0:0|0:0,0:0:0:0:
71,198,178142,6,0,P|78:266|207:257,1,194.999991073609,4|0,0:0|0:0,0:0:0:0:
300,136,178668,1,0,0:0:0:0:
300,136,178773,2,0,P|390:133|415:220,1,194.999991073609,8|2,0:0|0:0,0:0:0:0:
229,192,179300,6,0,P|210:119|270:16,1,194.999991073609,4|0,0:0|0:0,0:0:0:0:
304,16,179721,2,0,L|456:55,1,129.999994049073
462,26,180036,2,0,L|487:172,1,129.999994049073,8|0,0:0|0:0,0:0:0:0:
480,323,180352,2,0,B|373:339|373:339|313:322,1,129.999994049073,2|0,0:0|0:0,0:0:0:0:
302,199,180668,6,0,P|268:264|150:261,1,194.999991073609,4|0,0:0|0:0,0:0:0:0:
81,76,181194,1,0,0:0:0:0:
81,76,181300,2,0,P|168:66|228:80,1,129.999994049073,8|0,0:0|0:0,0:0:0:0:
246,83,181615,1,2,0:0:0:0:
313,295,181826,6,0,P|377:350|460:260,1,194.999991073609,4|0,0:0|0:0,0:0:0:0:
464,257,182247,1,8,0:0:0:0:
450,220,182352,1,0,0:0:0:0:
447,181,182457,1,0,0:0:0:0:
454,137,182563,1,12,0:0:0:0:
412,154,182668,1,0,0:0:0:0:
371,174,182773,1,0,0:0:0:0:
326,182,182878,1,10,0:0:0:0:
281,169,182984,1,0,0:0:0:0:
239,151,183089,1,0,0:0:0:0:
200,126,183194,6,0,P|122:158|1:97,1,194.999991073609,4|0,0:0|0:0,0:0:0:0:
225,32,183721,1,0,0:0:0:0:
225,32,183826,2,0,P|275:100|287:169,1,129.999994049073,12|0,0:0|0:0,0:0:0:0:
283,188,184142,1,2,0:0:0:0:
123,326,184352,6,0,P|196:348|326:316,1,194.999991073609,4|0,0:0|0:0,0:0:0:0:
345,295,184773,2,0,B|358:222|358:222|413:171,1,129.999994049073
493,41,185089,2,0,P|412:32|331:44,1,129.999994049073,12|0,0:0|0:0,0:0:0:0:
320,51,185405,2,0,P|295:125|232:160,1,129.999994049073,2|0,0:0|0:0,0:0:0:0:
209,159,185721,5,12,0:0:0:0:
171,170,185826,1,0,0:0:0:0:
136,188,185931,1,0,0:0:0:0:
106,213,186036,2,0,L|113:56,1,129.999994049073,4|0,0:0|0:0,0:0:0:0:
34,248,186352,2,0,P|64:279|150:276,1,129.999994049073,12|0,0:0|0:0,0:0:0:0:
180,259,186668,1,2,0:0:0:0:
372,103,186878,6,0,P|393:179|366:310,1,194.999991073609,4|0,0:0|0:0,0:0:0:0:
352,324,187300,1,8,0:0:0:0:
316,339,187405,1,0,0:0:0:0:
277,340,187510,1,0,0:0:0:0:
236,319,187615,5,12,0:0:0:0:
245,274,187721,1,0,0:0:0:0:
253,229,187826,1,0,0:0:0:0:
252,183,187931,1,10,0:0:0:0:
248,137,188036,1,0,0:0:0:0:
235,93,188142,1,0,0:0:0:0:
117,40,188247,6,0,P|96:120|130:218,1,150,4|2,0:0|0:0,0:0:0:0:
142,257,188773,1,0,0:0:0:0:
142,257,188878,2,0,P|84:281|-3:272,2,150,2|2|2,0:0|0:0|0:0,0:0:0:0:
210,214,189721,5,0,0:0:0:0:
210,214,189826,2,0,P|279:210|368:215,1,150,8|8,0:0|0:0,0:0:0:0:
430,251,190352,1,0,0:0:0:0:
430,251,190457,2,0,P|447:186|451:140,1,100,2|0,0:0|0:0,0:0:0:0:
381,42,190773,6,0,B|360:39|360:39|328:47|328:47|280:39|256:45,1,100,4|0,0:0|0:0,0:0:0:0:
242,46,191089,2,0,L|277:146,1,100,12|0,0:0|0:0,0:0:0:0:
307,164,191405,2,0,L|136:143,1,150,12|2,0:0|0:0,0:0:0:0:
47,249,191931,1,0,0:0:0:0:
47,249,192036,6,0,P|64:299|113:334,1,100
139,333,192352,1,8,0:0:0:0:
176,320,192457,1,0,0:0:0:0:
216,318,192563,1,0,0:0:0:0:
254,326,192668,1,8,0:0:0:0:
252,286,192773,1,0,0:0:0:0:
247,246,192878,1,0,0:0:0:0:
243,205,192984,2,0,P|289:244|349:160,1,150,10|4,0:0|0:0,0:0:0:0:
434,68,193510,5,0,0:0:0:0:
434,68,193615,2,0,L|462:175,1,100
450,322,193931,2,0,P|392:333|291:318,1,150,12|2,0:0|0:0,0:0:0:0:
91,157,194457,6,0,P|149:146|250:161,1,150
274,174,194878,2,0,L|237:50,1,100
352,201,195194,2,0,P|315:242|212:229,1,150,12|2,0:0|0:0,0:0:0:0:
376,61,195721,1,0,0:0:0:0:
376,61,195826,6,0,P|429:105|456:143,1,100
465,165,196142,2,0,L|433:268,1,100
229,346,196457,2,0,B|328:269|328:269|344:222,1,150,12|2,0:0|0:0,0:0:0:0:
283,38,196984,6,0,B|184:115|184:115|168:162,1,150
174,178,197405,2,0,L|84:86,1,100
131,244,197721,2,0,P|189:253|245:213,1,100,12|0,0:0|0:0,0:0:0:0:
255,209,198036,2,0,L|254:333,1,100,2|0,0:0|0:0,0:0:0:0:
64,348,198352,6,0,P|29:301|18:242,1,100,4|0,0:0|0:0,0:0:0:0:
33,224,198668,2,0,L|68:114,1,100
136,32,198984,2,0,P|207:43|298:32,1,150,12|2,0:0|0:0,0:0:0:0:
472,147,199510,6,0,P|401:136|310:147,1,150
286,158,199931,2,0,L|349:246,1,100
206,183,200247,2,0,P|217:117|320:84,1,150,12|2,0:0|0:0,0:0:0:0:
420,237,200773,1,0,0:0:0:0:
420,237,200878,6,0,P|404:289|332:314,1,100,4|0,0:0|0:0,0:0:0:0:
327,313,201194,2,0,P|272:310|213:315,1,100
88,344,201510,2,0,L|131:221,1,100,12|0,0:0|0:0,0:0:0:0:
109,211,201826,1,2,0:0:0:0:
403,173,202036,1,0,0:0:0:0:
390,134,202142,6,0,L|424:40,1,100,4|0,0:0|0:0,0:0:0:0:
475,209,202457,2,0,P|436:245|366:246,1,100
351,243,202773,1,8,0:0:0:0:
311,240,202878,1,0,0:0:0:0:
270,241,202984,1,0,0:0:0:0:
231,249,203089,2,0,P|183:233|186:156,1,100,2|0,0:0|0:0,0:0:0:0:
12,259,203405,6,0,L|44:368,1,100,4|0,0:0|0:0,0:0:0:0:
72,308,203721,2,0,L|41:202,1,100
62,62,204036,2,0,P|120:51|221:66,1,150,12|2,0:0|0:0,0:0:0:0:
421,227,204563,6,0,P|363:238|262:223,1,150
238,210,204984,2,0,L|275:334,1,100
160,183,205300,2,0,P|197:142|300:155,1,150,12|2,0:0|0:0,0:0:0:0:
136,323,205826,1,0,0:0:0:0:
136,323,205931,6,0,P|83:279|56:241,1,100,4|0,0:0|0:0,0:0:0:0:
47,219,206247,2,0,L|79:116,1,100
283,38,206563,2,0,B|184:115|184:115|168:162,1,150,12|2,0:0|0:0,0:0:0:0:
229,346,207089,6,0,B|328:269|328:269|344:222,1,150,4|0,0:0|0:0,0:0:0:0:
338,206,207510,2,0,L|428:298,1,100
381,140,207826,2,0,P|323:131|267:171,1,100,8|0,0:0|0:0,0:0:0:0:
257,175,208142,2,0,L|258:51,1,100,2|0,0:0|0:0,0:0:0:0:
448,36,208457,6,0,P|483:83|494:142,1,100,4|0,0:0|0:0,0:0:0:0:
479,160,208773,2,0,L|444:270,1,100
376,352,209089,2,0,P|305:341|214:352,1,150,12|2,0:0|0:0,0:0:0:0:
40,237,209615,6,0,P|111:248|202:237,1,150
226,226,210036,2,0,L|163:138,1,100
306,201,210352,2,0,P|295:267|192:300,1,150,12|2,0:0|0:0,0:0:0:0:
92,147,210878,1,0,0:0:0:0:
92,147,210984,6,0,P|108:95|180:70,1,100
185,71,211300,2,0,P|240:74|299:69,1,100
424,40,211615,2,0,L|381:163,1,100,12|0,0:0|0:0,0:0:0:0:
403,173,211931,1,2,0:0:0:0:
109,211,212142,1,0,0:0:0:0:
121,249,212247,6,0,L|88:344,1,100,4|0,0:0|0:0,0:0:0:0:
37,175,212563,2,0,P|76:139|146:138,1,100
161,141,212878,1,8,0:0:0:0:
201,144,212984,1,0,0:0:0:0:
242,143,213089,1,0,0:0:0:0:
281,135,213194,2,0,P|329:151|326:228,1,100,2|0,0:0|0:0,0:0:0:0:
320,310,213510,5,4,0:0:0:0:
256,192,213615,12,4,218563,0:0:0:0:
