osu file format v14

[General]
AudioFilename: Neru - Terror (D. Mindbreak) mp3.mp3
AudioLeadIn: 0
PreviewTime: 63510
Countdown: 0
SampleSet: Soft
StackLeniency: 0.7
Mode: 0
LetterboxInBreaks: 0
WidescreenStoryboard: 0

[Editor]
DistanceSpacing: 1.2
BeatDivisor: 3
GridSize: 8
TimelineZoom: 2.3

[Metadata]
Title:Terror
TitleUnicode:テロル
Artist:Neru
ArtistUnicode:Neru
Creator:luxoDeh
Version:Hard
Source:
Tags:Kagamine rin Oshiire-P 押入れP tomobo-P Ryuusee Hanpen Yuu EXISTENCE Milan- Pho puxtu
BeatmapID:691620
BeatmapSetID:309365

[Difficulty]
HPDrainRate:5
CircleSize:4
OverallDifficulty:5
ApproachRate:8
SliderMultiplier:1.2
SliderTickRate:1

[Events]
//Background and Video events
0,0,"44118639_p0 (1).jpg",0,0
Video,0,"video.mp4"
//Break Periods
2,163184,169813
//Storyboard Layer 0 (Background)
//Storyboard Layer 1 (Fail)
//Storyboard Layer 2 (Pass)
//Storyboard Layer 3 (Foreground)
//Storyboard Sound Samples

[TimingPoints]
1300,315.789473684211,4,2,2,50,1,0
64457,-100,4,2,2,50,0,1
84668,-100,4,2,2,50,0,0
132668,-100,4,2,2,50,0,1
157931,-100,4,2,2,50,0,0
173089,-100,4,2,2,50,0,1
188247,-100,4,2,2,50,0,0
216036,-100,4,2,2,40,0,0
218563,-100,4,2,2,30,0,0
220773,-100,4,2,2,15,0,0

[Colours]
Combo1 : 128,64,64
Combo2 : 255,128,0
Combo3 : 128,128,128
Combo4 : 128,128,255

[HitObjects]
408,312,1300,6,0,L|391:169,1,120,2|0,0:0|0:0,0:0:0:0:
318,72,1931,2,0,L|286:200,1,120,2|0,0:0|0:0,0:0:0:0:
221,316,2563,2,0,L|197:172,1,120,2|0,0:0|0:0,0:0:0:0:
145,64,3194,2,0,L|113:192,1,120,2|0,0:0|0:0,0:0:0:0:
41,304,3826,6,0,P|80:274|151:281,1,120,2|0,0:0|0:0,0:0:0:0:
286,321,4457,2,0,P|323:337|419:309,1,120,2|0,0:0|0:0,0:0:0:0:
473,200,5089,2,0,P|426:183|354:197,1,120,2|0,0:0|0:0,0:0:0:0:
213,197,5721,2,0,P|176:168|160:88,1,120,2|0,0:0|0:0,0:0:0:0:
294,145,6352,6,0,P|315:201|285:267,1,120,2|0,0:0|0:0,0:0:0:0:
158,301,6984,1,2,0:0:0:0:
44,212,7300,1,0,0:0:0:0:
64,69,7615,2,0,P|81:44|127:29,1,80,2|0,0:0|0:0,0:0:0:0:
174,25,7931,2,0,P|215:29|280:88,1,120,0|2,0:0|0:0,0:0:0:0:
298,222,8563,1,0,0:0:0:0:
388,109,8878,6,0,P|440:102|510:221,1,200,2|0,0:0|0:0,0:0:0:0:
482,248,9510,2,0,P|442:266|405:340,1,120,2|0,0:0|0:0,0:0:0:0:
261,343,10142,2,0,P|247:286|119:253,1,200,2|0,0:0|0:0,0:0:0:0:
79,268,10773,2,0,P|33:244|28:164,1,120,2|0,0:0|0:0,0:0:0:0:
140,100,11405,5,2,0:0:0:0:
261,22,11721,1,0,0:0:0:0:
382,99,12036,1,2,0:0:0:0:
256,166,12352,1,0,0:0:0:0:
256,166,12668,2,0,P|304:143|443:171,1,200,2|0,0:0|0:0,0:0:0:0:
469,210,13300,2,0,P|485:269|457:328,1,120,2|0,0:0|0:0,0:0:0:0:
319,312,13931,6,0,P|283:268|204:262,1,120,2|0,0:0|0:0,0:0:0:0:
103,267,14563,2,0,P|51:242|39:177,1,120,2|0,0:0|0:0,0:0:0:0:
178,212,15194,2,0,P|203:266|177:328,1,120,2|0,0:0|0:0,0:0:0:0:
147,180,15826,2,0,P|135:146|179:61,1,120,2|0,0:0|0:0,0:0:0:0:
304,34,16457,6,0,P|361:31|442:145,1,200,2|0,0:0|0:0,0:0:0:0:
450,181,17089,2,0,L|514:68,1,120,2|0,0:0|0:0,0:0:0:0:
509,221,17721,2,0,L|449:325,1,120,2|0,0:0|0:0,0:0:0:0:
306,301,18352,2,0,P|284:247|152:241,1,200,2|0,0:0|0:0,0:0:0:0:
113,256,18984,6,0,L|136:124,1,120,2|0,0:0|0:0,0:0:0:0:
30,36,19615,2,0,L|9:154,1,120,2|0,0:0|0:0,0:0:0:0:
14,272,20142,5,0,0:0:0:0:
14,272,20247,2,0,P|70:262|115:276,1,80,8|0,0:0|0:0,0:0:0:0:
140,269,20563,2,0,P|200:274|263:268,1,120,0|8,0:0|0:0,0:0:0:0:
298,240,20984,1,0,0:0:0:0:
320,197,21089,1,0,0:0:0:0:
338,152,21194,1,0,0:0:0:0:
430,41,21510,6,0,P|455:93|459:131,1,80,4|0,0:0|0:0,0:0:0:0:
457,162,21826,2,0,P|451:219|465:298,1,120,0|8,0:0|0:0,0:0:0:0:
329,342,22457,2,0,L|237:348,1,80
200,346,22773,2,0,B|247:261|247:261|246:216,1,120
173,175,23300,1,0,0:0:0:0:
173,175,23405,2,0,P|221:160|246:67,1,120,8|0,0:0|0:0,0:0:0:0:
158,79,23931,1,0,0:0:0:0:
158,79,24036,6,0,P|106:102|76:168,1,120
105,248,24563,1,0,0:0:0:0:
105,248,24668,2,0,P|87:288|10:329,1,120,8|0,0:0|0:0,0:0:0:0:
13,231,25194,2,0,L|23:102,2,120
27,277,25931,2,0,P|64:315|119:322,1,80,8|0,0:0|0:0,0:0:0:0:
136,320,26247,2,0,P|191:316|239:324,1,80
263,321,26563,6,0,P|321:319|383:262,1,120,4|0,0:0|0:0,0:0:0:0:
397,142,27194,2,0,L|429:228,1,80,8|0,0:0|0:0,0:0:0:0:
447,259,27510,2,0,P|481:214|493:138,1,120
415,31,28142,2,0,L|336:73,1,80
296,72,28457,2,0,L|168:36,1,120,8|0,0:0|0:0,0:0:0:0:
86,61,28984,1,0,0:0:0:0:
86,61,29089,6,0,P|62:121|73:209,1,120
125,248,29615,1,0,0:0:0:0:
125,248,29721,2,0,L|237:203,1,120,8|0,0:0|0:0,0:0:0:0:
326,170,30247,2,0,P|343:220|332:311,2,120
300,128,30984,2,0,L|400:143,1,80,8|0,0:0|0:0,0:0:0:0:
427,142,31300,2,0,P|461:99|462:11,1,120,0|4,0:0|0:0,0:0:0:0:
325,41,31931,6,0,L|216:56,1,80
199,37,32247,2,0,P|200:100|161:154,1,120,8|0,0:0|0:0,0:0:0:0:
82,186,32773,1,0,0:0:0:0:
82,186,32878,2,0,P|75:235|85:294,1,80
85,312,33194,2,0,P|144:296|221:306,1,120,0|8,0:0|0:0,0:0:0:0:
344,323,33826,2,0,P|398:301|420:277,1,80
440,246,34142,6,0,L|423:113,1,120
474,44,34668,1,0,0:0:0:0:
474,44,34773,2,0,P|430:30|348:67,1,120,8|0,0:0|0:0,0:0:0:0:
276,97,35300,1,0,0:0:0:0:
276,97,35405,2,0,P|218:112|155:91,2,120,0|0|8,0:0|0:0|0:0,0:0:0:0:
366,208,36352,2,0,L|377:294,1,80
401,328,36668,6,0,B|294:304|294:304|260:310,1,120,4|0,0:0|0:0,0:0:0:0:
189,327,37194,1,0,0:0:0:0:
189,327,37300,2,0,P|120:327|75:309,1,80,8|0,0:0|0:0,0:0:0:0:
42,196,37826,2,0,P|51:132|84:78,1,120,4|0,0:0|0:0,0:0:0:0:
111,49,38247,2,0,L|200:83,1,80
234,80,38563,2,0,L|377:45,1,120,8|8,0:0|0:0,0:0:0:0:
477,119,39194,6,0,P|484:179|473:249,1,120,4|0,0:0|0:0,0:0:0:0:
414,312,39721,1,0,0:0:0:0:
366,303,39826,2,0,P|311:300|263:302,1,80,8|0,0:0|0:0,0:0:0:0:
144,326,40352,2,0,B|149:299|149:299|144:276|144:276|137:233|149:197,1,120,4|0,0:0|0:0,0:0:0:0:
154,159,40773,2,0,L|34:202,2,120,8|8|8,0:0|0:0|0:0,0:0:0:0:
189,69,41615,1,0,0:0:0:0:
189,69,41721,6,0,L|317:88,1,120,4|8,0:0|0:0,0:0:0:0:
398,54,42247,1,0,0:0:0:0:
398,54,42352,2,0,L|438:139,1,80,8|0,0:0|0:0,0:0:0:0:
473,151,42668,2,0,B|462:249|462:249|431:288,1,120,2|0,0:0|0:0,0:0:0:0:
320,332,43300,2,0,L|235:321,1,80,8|0,0:0|0:0,0:0:0:0:
204,290,43615,2,0,L|101:321,1,80
87,340,43931,2,0,L|107:199,1,120,10|0,0:0|0:0,0:0:0:0:
59,83,44563,6,0,L|143:93,1,80,8|0,0:0|0:0,0:0:0:0:
180,115,44878,2,0,L|264:92,1,80,8|0,0:0|0:0,0:0:0:0:
296,66,45194,2,0,B|285:178|285:178|300:214,1,120,2|0,0:0|0:0,0:0:0:0:
325,273,45721,1,0,0:0:0:0:
325,273,45826,2,0,P|382:259|429:194,1,120,8|8,0:0|0:0,0:0:0:0:
450,73,46457,1,2,0:0:0:0:
307,53,46773,6,0,P|242:48|168:61,1,120,4|0,0:0|0:0,0:0:0:0:
95,84,47300,1,0,0:0:0:0:
95,84,47405,2,0,L|74:173,1,80,8|0,0:0|0:0,0:0:0:0:
35,187,47721,2,0,B|70:274|70:274|103:297,1,120,2|0,0:0|0:0,0:0:0:0:
179,327,48247,1,0,0:0:0:0:
179,327,48352,2,0,P|244:323|276:328,1,80,8|0,0:0|0:0,0:0:0:0:
306,330,48668,2,0,P|357:335|410:273,1,120,8|2,0:0|0:0,0:0:0:0:
421,196,49194,1,0,0:0:0:0:
421,196,49300,6,0,P|406:127|408:79,1,120,4|8,0:0|0:0,0:0:0:0:
486,22,49826,2,0,P|432:47|348:39,1,120
325,33,50247,2,0,P|278:31|237:37,1,80,4|0,0:0|0:0,0:0:0:0:
197,40,50563,2,0,L|218:125,1,80
240,158,50878,2,0,L|107:133,2,120,8|8|8,0:0|0:0|0:0,0:0:0:0:
329,121,51721,1,0,0:0:0:0:
329,121,51826,6,0,P|331:181|291:237,1,120,4|8,0:0|0:0,0:0:0:0:
205,248,52352,1,0,0:0:0:0:
205,248,52457,2,0,P|144:250|82:278,1,120,8|2,0:0|0:0,0:0:0:0:
24,343,52984,2,0,B|1:259|1:259|8:196,2,120
71,351,53721,2,0,P|117:346|197:351,1,120,8|2,0:0|0:0,0:0:0:0:
286,356,54247,1,0,0:0:0:0:
286,356,54352,5,0,0:0:0:0:
414,291,54668,2,0,P|427:249|417:181,1,80,8|0,0:0|0:0,0:0:0:0:
418,165,54984,2,0,L|512:242,2,120,8|2|4,0:0|0:0|0:0,0:0:0:0:
383,75,55826,1,4,0:0:0:0:
383,75,55931,2,0,P|339:78|285:73,1,80,8|0,0:0|0:0,0:0:0:0:
255,70,56247,2,0,L|166:162,2,120,8|2|4,0:0|0:0|0:0,0:0:0:0:
312,202,57194,6,0,L|317:298,1,80,8|0,0:0|0:0,0:0:0:0:
333,327,57510,2,0,L|207:301,1,120,8|2,0:0|0:0,0:0:0:0:
135,249,58036,1,0,0:0:0:0:
135,249,58142,2,0,P|95:277|9:290,2,120,0|8|8,0:0|0:0|0:0,0:0:0:0:
117,154,58984,1,0,0:0:0:0:
117,154,59089,2,0,P|132:104|196:45,1,120,2|4,0:0|0:0,0:0:0:0:
267,87,59615,5,0,0:0:0:0:
267,87,59721,2,0,B|283:123|283:123|325:136|325:136|342:173,2,120,12|8|2,0:0|0:0|0:0,0:0:0:0:
344,30,60563,2,0,P|394:27|477:104,1,160,4|8,0:0|0:0,0:0:0:0:
470,190,61194,1,0,0:0:0:0:
469,190,61300,2,0,L|441:270,1,80,8|0,0:0|0:0,0:0:0:0:
445,313,61615,2,0,L|358:329,1,80,8|0,0:0|0:0,0:0:0:0:
322,347,61931,5,4,0:0:0:0:
322,347,62142,1,8,0:0:0:0:
146,118,62878,5,4,0:0:0:0:
146,118,63089,1,8,0:0:0:0:
375,71,63615,5,0,0:0:0:0:
375,71,63826,2,0,L|414:117,2,40,8|0|0,0:0|0:0|0:0,0:0:0:0:
328,143,64142,2,0,L|310:182,2,40
398,203,64457,6,0,P|404:257|392:305,1,80,4|0,0:0|0:0,0:0:0:0:
375,323,64773,2,0,L|287:312,1,80
247,308,65089,2,0,P|188:324|123:303,1,120,12|2,0:0|0:0,0:0:0:0:
83,226,65615,2,0,P|83:175|135:111,1,120
153,83,66036,2,0,L|68:60,1,80,8|0,0:0|0:0,0:0:0:0:
56,17,66352,2,0,L|193:53,1,120,12|2,0:0|0:0,0:0:0:0:
266,67,66878,1,0,0:0:0:0:
266,67,66984,6,0,P|319:73|371:53,1,80
386,43,67300,2,0,P|437:60|462:88,1,80
471,122,67615,2,0,B|453:223|453:223|459:251,1,120,12|2,0:0|0:0,0:0:0:0:
466,336,68142,2,0,P|408:349|333:327,1,120
304,318,68563,2,0,P|244:316|206:320,1,80,8|0,0:0|0:0,0:0:0:0:
177,327,68878,1,12,0:0:0:0:
192,183,69194,1,10,0:0:0:0:
57,234,69510,6,0,P|51:183|77:101,1,120,4|0,0:0|0:0,0:0:0:0:
137,50,70036,1,0,0:0:0:0:
137,50,70142,2,0,P|191:52|232:43,1,80,8|0,0:0|0:0,0:0:0:0:
262,34,70457,2,0,P|313:59|355:134,1,120,2|0,0:0|0:0,0:0:0:0:
309,198,70984,1,0,0:0:0:0:
309,198,71089,2,0,P|361:205|424:169,2,120,0|8|2,0:0|0:0|0:0,0:0:0:0:
214,178,71931,1,0,0:0:0:0:
214,178,72036,6,0,P|159:194|123:226,1,80
96,225,72352,2,0,B|157:305|157:305|161:340,2,120,0|8|2,0:0|0:0|0:0,0:0:0:0:
32,152,73194,1,0,0:0:0:0:
32,152,73300,2,0,P|46:90|102:46,1,120,8|0,0:0|0:0,0:0:0:0:
177,22,73826,1,0,0:0:0:0:
223,34,73931,2,0,L|317:48,1,80,8|0,0:0|0:0,0:0:0:0:
350,47,74247,2,0,L|439:31,1,80,2|0,0:0|0:0,0:0:0:0:
475,21,74563,6,0,L|449:142,1,120,4|0,0:0|0:0,0:0:0:0:
479,230,75089,1,0,0:0:0:0:
479,230,75194,2,0,B|413:290|413:290|361:296,1,120,12|2,0:0|0:0,0:0:0:0:
285,291,75721,2,0,P|256:253|272:154,1,120
274,138,76142,2,0,L|166:147,1,80,8|0,0:0|0:0,0:0:0:0:
150,126,76457,1,12,0:0:0:0:
163,269,76773,1,2,0:0:0:0:
29,214,77089,6,0,P|7:159|6:109,1,80,4|0,0:0|0:0,0:0:0:0:
6,90,77405,2,0,P|43:76|75:43,1,80
106,14,77721,2,0,B|198:47|198:47|239:47,1,120,12|2,0:0|0:0,0:0:0:0:
315,34,78247,2,0,P|375:58|412:124,1,120,4|0,0:0|0:0,0:0:0:0:
417,148,78668,2,0,L|401:245,1,80,8|0,0:0|0:0,0:0:0:0:
420,272,78984,2,0,L|345:313,1,80,4|0,0:0|0:0,0:0:0:0:
321,349,79300,1,2,0:0:0:0:
258,219,79615,6,0,P|198:201|126:231,1,120,4|0,0:0|0:0,0:0:0:0:
85,293,80142,1,0,0:0:0:0:
85,293,80247,2,0,P|133:308|218:280,1,120,8|2,0:0|0:0,0:0:0:0:
258,219,80773,2,0,B|219:130|219:130|220:84,1,120
224,59,81194,2,0,L|133:86,1,80,8|0,0:0|0:0,0:0:0:0:
104,62,81510,2,0,P|57:81|25:159,1,120,8|2,0:0|0:0,0:0:0:0:
35,235,82036,1,0,0:0:0:0:
35,235,82142,6,0,P|84:238|139:292,1,120,4|0,0:0|0:0,0:0:0:0:
212,340,82668,1,0,0:0:0:0:
212,340,82773,2,0,P|277:349|349:335,1,120,12|2,0:0|0:0,0:0:0:0:
419,304,83300,1,0,0:0:0:0:
419,304,83405,2,0,L|406:212,1,80,4|0,0:0|0:0,0:0:0:0:
404,176,83721,2,0,L|424:91,1,80,8|0,0:0|0:0,0:0:0:0:
437,52,84036,2,0,P|368:61|294:43,1,120,8|2,0:0|0:0,0:0:0:0:
225,26,84563,1,0,0:0:0:0:
225,26,84668,6,0,P|159:39|111:97,1,120,4|0,0:0|0:0,0:0:0:0:
66,152,85194,1,0,0:0:0:0:
66,152,85300,2,0,B|77:230|77:230|64:287,1,120,2|2,0:0|0:0,0:0:0:0:
21,354,85826,2,0,B|58:346|58:346|105:355|105:355|160:346,1,120,2|0,0:0|0:0,0:0:0:0:
185,335,86247,2,0,P|213:290|242:267,1,80,2|0,0:0|0:0,0:0:0:0:
273,246,86563,2,0,B|368:274|368:274|399:274,1,120,2|2,0:0|0:0,0:0:0:0:
464,214,87089,1,2,0:0:0:0:
464,214,87194,6,0,L|475:129,1,80,4|8,0:0|0:0,0:0:0:0:
149,45,88142,2,0,L|134:136,1,80,4|8,0:0|0:0,0:0:0:0:
312,352,88984,1,0,0:0:0:0:
312,352,89089,2,0,P|257:307|194:303,1,120,0|8,0:0|0:0,0:0:0:0:
131,355,89615,1,0,0:0:0:0:
82,343,89721,6,0,P|57:291|53:253,1,80,4|0,0:0|0:0,0:0:0:0:
55,222,90036,2,0,P|61:165|47:86,1,120,0|8,0:0|0:0,0:0:0:0:
183,42,90668,2,0,L|275:36,1,80
312,38,90984,2,0,B|265:123|265:123|266:168,1,120
339,209,91510,1,0,0:0:0:0:
339,209,91615,2,0,P|291:224|266:317,1,120,8|0,0:0|0:0,0:0:0:0:
354,305,92142,1,0,0:0:0:0:
354,305,92247,6,0,P|406:282|436:216,1,120
407,136,92773,1,0,0:0:0:0:
407,136,92878,2,0,P|425:96|502:55,1,120,8|0,0:0|0:0,0:0:0:0:
499,153,93405,2,0,L|489:282,2,120
485,107,94142,2,0,P|448:69|393:62,1,80,8|0,0:0|0:0,0:0:0:0:
376,64,94457,2,0,P|321:68|273:60,1,80
249,63,94773,6,0,P|191:65|129:122,1,120,4|0,0:0|0:0,0:0:0:0:
115,242,95405,2,0,L|83:156,1,80,8|0,0:0|0:0,0:0:0:0:
65,125,95721,2,0,P|31:170|19:246,1,120
97,353,96352,2,0,L|176:311,1,80
216,312,96668,2,0,L|344:348,1,120,8|0,0:0|0:0,0:0:0:0:
426,323,97194,1,0,0:0:0:0:
426,323,97300,6,0,P|450:263|439:175,1,120
387,136,97826,1,0,0:0:0:0:
387,136,97931,2,0,L|275:181,1,120,8|0,0:0|0:0,0:0:0:0:
186,214,98457,2,0,P|169:164|180:73,2,120
212,256,99194,2,0,L|112:241,1,80,8|0,0:0|0:0,0:0:0:0:
85,242,99510,2,0,P|51:285|50:373,1,120,0|4,0:0|0:0,0:0:0:0:
187,343,100142,6,0,L|296:328,1,80
313,347,100457,2,0,P|312:284|351:230,1,120,8|0,0:0|0:0,0:0:0:0:
430,198,100984,1,0,0:0:0:0:
430,198,101089,2,0,P|437:149|427:90,1,80
427,72,101405,2,0,P|368:88|291:78,1,120,0|8,0:0|0:0,0:0:0:0:
168,61,102036,2,0,P|114:83|92:107,1,80
72,138,102352,6,0,L|89:271,1,120
38,340,102878,1,0,0:0:0:0:
38,340,102984,2,0,P|82:354|164:317,1,120,8|0,0:0|0:0,0:0:0:0:
236,287,103510,1,0,0:0:0:0:
236,287,103615,2,0,P|296:276|358:283,2,120,0|0|8,0:0|0:0|0:0,0:0:0:0:
146,176,104563,2,0,L|135:90,1,80
111,56,104878,6,0,B|201:76|201:76|252:74,1,120,4|0,0:0|0:0,0:0:0:0:
323,57,105405,1,0,0:0:0:0:
323,57,105510,2,0,P|392:57|437:75,1,80,2|0,0:0|0:0,0:0:0:0:
470,188,106036,2,0,P|461:252|428:306,1,120,4|0,0:0|0:0,0:0:0:0:
401,335,106457,2,0,L|312:301,1,80
278,304,106773,2,0,L|135:339,1,120,8|0,0:0|0:0,0:0:0:0:
35,265,107405,6,0,P|28:205|39:135,1,120,4|0,0:0|0:0,0:0:0:0:
98,72,107931,1,0,0:0:0:0:
146,81,108036,2,0,P|201:84|249:82,1,80,8|0,0:0|0:0,0:0:0:0:
368,58,108563,2,0,B|363:85|363:85|368:108|368:108|375:151|363:187,1,120,4|0,0:0|0:0,0:0:0:0:
358,225,108984,2,0,L|478:182,2,120,0|8|0,0:0|0:0|0:0,0:0:0:0:
323,315,109826,1,0,0:0:0:0:
323,315,109931,6,0,L|195:296,1,120,4|0,0:0|0:0,0:0:0:0:
114,330,110457,1,0,0:0:0:0:
114,330,110563,2,0,L|74:245,1,80,8|0,0:0|0:0,0:0:0:0:
39,233,110878,2,0,B|50:135|50:135|81:96,1,120,2|0,0:0|0:0,0:0:0:0:
192,52,111510,2,0,L|277:63,1,80,8|0,0:0|0:0,0:0:0:0:
308,94,111826,2,0,L|411:63,1,80,8|0,0:0|0:0,0:0:0:0:
425,44,112142,2,0,L|405:185,1,120,2|0,0:0|0:0,0:0:0:0:
453,301,112773,6,0,L|369:291,1,80,8|0,0:0|0:0,0:0:0:0:
332,269,113089,2,0,L|248:292,1,80,8|0,0:0|0:0,0:0:0:0:
216,318,113405,2,0,B|229:223|229:223|217:171,1,120,2|0,0:0|0:0,0:0:0:0:
186,110,113931,1,0,0:0:0:0:
186,110,114036,2,0,P|129:124|82:189,1,120,0|8,0:0|0:0,0:0:0:0:
62,311,114668,1,2,0:0:0:0:
205,331,114984,6,0,P|270:336|344:323,1,120,4|0,0:0|0:0,0:0:0:0:
417,300,115510,1,0,0:0:0:0:
417,300,115615,2,0,L|438:211,1,80,8|0,0:0|0:0,0:0:0:0:
477,197,115931,2,0,B|442:110|442:110|409:87,1,120,2|0,0:0|0:0,0:0:0:0:
333,57,116457,1,0,0:0:0:0:
333,57,116563,2,0,P|268:61|236:56,1,80,8|0,0:0|0:0,0:0:0:0:
206,54,116878,2,0,P|155:49|102:111,1,120,8|2,0:0|0:0,0:0:0:0:
91,188,117405,1,0,0:0:0:0:
91,188,117510,6,0,P|106:257|104:305,1,120,4|0,0:0|0:0,0:0:0:0:
26,362,118036,2,0,P|80:337|164:345,1,120
187,351,118457,2,0,P|234:353|275:347,1,80,4|0,0:0|0:0,0:0:0:0:
315,344,118773,2,0,L|294:259,1,80
272,226,119089,2,0,L|405:251,2,120,8|8|8,0:0|0:0|0:0,0:0:0:0:
183,263,119931,1,0,0:0:0:0:
183,263,120036,6,0,P|181:203|221:147,1,120,4|0,0:0|0:0,0:0:0:0:
307,136,120563,1,0,0:0:0:0:
307,136,120668,2,0,P|368:134|430:106,1,120,8|2,0:0|0:0,0:0:0:0:
488,41,121194,2,0,B|511:125|511:125|504:188,2,120
441,33,121931,2,0,P|395:38|315:33,1,120,8|2,0:0|0:0,0:0:0:0:
226,28,122457,1,0,0:0:0:0:
226,28,122563,5,0,0:0:0:0:
98,93,122878,2,0,P|85:135|95:203,1,80,8|0,0:0|0:0,0:0:0:0:
94,219,123194,2,0,L|0:142,2,120,8|2|0,0:0|0:0|0:0,0:0:0:0:
129,309,124036,1,4,0:0:0:0:
129,309,124142,2,0,P|173:306|227:311,1,80,8|0,0:0|0:0,0:0:0:0:
257,314,124457,2,0,L|346:222,2,120,8|8|4,0:0|0:0|0:0,0:0:0:0:
200,182,125405,6,0,L|195:86,1,80,8|0,0:0|0:0,0:0:0:0:
179,57,125721,2,0,L|305:83,1,120,8|2,0:0|0:0,0:0:0:0:
377,135,126247,1,0,0:0:0:0:
377,135,126352,2,0,P|417:107|503:94,2,120,0|8|8,0:0|0:0|0:0,0:0:0:0:
395,230,127194,1,0,0:0:0:0:
395,230,127300,2,0,P|380:280|316:339,1,120,2|4,0:0|0:0,0:0:0:0:
245,297,127826,5,0,0:0:0:0:
245,297,127931,2,0,B|229:261|229:261|187:248|187:248|170:211,2,120,12|8|2,0:0|0:0|0:0,0:0:0:0:
168,354,128773,2,0,P|118:357|35:280,1,160,4|8,0:0|0:0,0:0:0:0:
42,194,129405,1,0,0:0:0:0:
43,194,129510,2,0,L|71:114,1,80,8|0,0:0|0:0,0:0:0:0:
67,71,129826,2,0,L|154:55,1,80,8|0,0:0|0:0,0:0:0:0:
190,37,130142,5,12,0:0:0:0:
190,37,130352,1,8,0:0:0:0:
366,266,131089,5,12,0:0:0:0:
366,266,131300,1,8,0:0:0:0:
137,313,131931,5,0,0:0:0:0:
137,313,132036,2,0,L|99:266,2,40,8|0|0,0:0|0:0|0:0,0:0:0:0:
184,241,132352,2,0,L|200:204,2,40
114,181,132668,6,0,P|108:127|120:79,1,80,4|0,0:0|0:0,0:0:0:0:
137,61,132984,2,0,L|225:72,1,80
265,76,133300,2,0,P|324:60|389:81,1,120,12|2,0:0|0:0,0:0:0:0:
429,158,133826,2,0,P|429:209|377:273,1,120
359,301,134247,2,0,L|444:324,1,80
456,367,134563,2,0,L|319:331,1,120,12|2,0:0|0:0,0:0:0:0:
246,317,135089,1,0,0:0:0:0:
246,317,135194,6,0,P|193:311|141:331,1,80
126,341,135510,2,0,P|75:324|50:296,1,80
41,262,135826,2,0,B|59:161|59:161|53:133,1,120,12|2,0:0|0:0,0:0:0:0:
46,48,136352,2,0,P|104:35|179:57,1,120
208,66,136773,2,0,P|268:68|306:64,1,80
335,57,137089,1,12,0:0:0:0:
320,201,137405,1,2,0:0:0:0:
455,150,137721,6,0,P|461:201|435:283,1,120,4|0,0:0|0:0,0:0:0:0:
375,334,138247,1,0,0:0:0:0:
375,334,138352,2,0,P|321:332|280:341,1,80,8|0,0:0|0:0,0:0:0:0:
250,350,138668,2,0,P|199:325|157:250,1,120,2|0,0:0|0:0,0:0:0:0:
203,186,139194,1,0,0:0:0:0:
203,186,139300,2,0,P|151:179|88:215,2,120,0|8|2,0:0|0:0|0:0,0:0:0:0:
298,206,140142,1,0,0:0:0:0:
298,206,140247,6,0,P|353:190|389:158,1,80
416,159,140563,2,0,B|355:79|355:79|351:44,2,120,0|8|2,0:0|0:0|0:0,0:0:0:0:
480,232,141405,1,0,0:0:0:0:
480,232,141510,2,0,P|458:290|430:317,1,80,8|0,0:0|0:0,0:0:0:0:
410,333,141826,2,0,P|367:324|320:338,1,80,8|0,0:0|0:0,0:0:0:0:
287,348,142142,2,0,L|193:334,1,80,8|0,0:0|0:0,0:0:0:0:
160,335,142457,2,0,L|71:351,1,80,2|0,0:0|0:0,0:0:0:0:
35,363,142773,6,0,L|61:242,1,120,4|0,0:0|0:0,0:0:0:0:
33,154,143300,1,0,0:0:0:0:
33,154,143405,2,0,B|99:94|99:94|151:88,1,120,12|2,0:0|0:0,0:0:0:0:
227,93,143931,2,0,P|256:131|240:230,1,120
238,246,144352,2,0,L|346:237,1,80
362,258,144668,1,12,0:0:0:0:
349,115,144984,1,2,0:0:0:0:
483,170,145300,6,0,P|505:225|506:275,1,80,4|0,0:0|0:0,0:0:0:0:
506,294,145615,2,0,P|469:308|437:341,1,80
406,370,145931,2,0,B|314:337|314:337|273:337,1,120,12|2,0:0|0:0,0:0:0:0:
197,350,146457,2,0,P|137:326|100:260,1,120,4|0,0:0|0:0,0:0:0:0:
95,236,146878,2,0,L|111:139,1,80
92,112,147194,2,0,L|167:71,1,80,12|0,0:0|0:0,0:0:0:0:
191,35,147510,1,2,0:0:0:0:
254,165,147826,6,0,P|314:183|386:153,1,120,4|0,0:0|0:0,0:0:0:0:
427,91,148352,1,0,0:0:0:0:
427,91,148457,2,0,P|379:76|294:104,1,120,8|2,0:0|0:0,0:0:0:0:
254,167,148984,2,0,B|293:256|293:256|292:302,1,120
286,327,149405,2,0,L|377:300,1,80
408,322,149721,2,0,P|455:303|487:225,1,120,8|2,0:0|0:0,0:0:0:0:
477,149,150247,1,0,0:0:0:0:
477,149,150352,6,0,P|428:146|373:92,1,120,4|0,0:0|0:0,0:0:0:0:
300,44,150878,1,0,0:0:0:0:
300,44,150984,2,0,P|235:35|163:49,1,120,12|2,0:0|0:0,0:0:0:0:
93,80,151510,1,0,0:0:0:0:
93,80,151615,2,0,L|106:172,1,80,4|0,0:0|0:0,0:0:0:0:
108,208,151931,2,0,L|88:293,1,80,8|0,0:0|0:0,0:0:0:0:
75,332,152247,2,0,P|144:323|218:341,1,120,8|2,0:0|0:0,0:0:0:0:
287,358,152773,1,0,0:0:0:0:
287,358,152878,6,0,P|353:345|401:287,1,120,4|0,0:0|0:0,0:0:0:0:
446,232,153405,1,0,0:0:0:0:
446,232,153510,2,0,B|435:154|435:154|448:97,1,120,12|2,0:0|0:0,0:0:0:0:
491,30,154036,2,0,B|454:38|454:38|407:29|407:29|352:38,1,120
327,49,154457,2,0,P|299:94|270:117,1,80,8|0,0:0|0:0,0:0:0:0:
239,138,154773,2,0,B|144:110|144:110|113:110,1,120,12|2,0:0|0:0,0:0:0:0:
48,170,155300,1,0,0:0:0:0:
48,170,155405,6,0,P|41:218|76:291,1,120,4|0,0:0|0:0,0:0:0:0:
151,331,155931,1,0,0:0:0:0:
151,331,156036,2,0,B|207:260|207:260|245:238,1,120,12|2,0:0|0:0,0:0:0:0:
329,239,156563,2,0,P|381:258|458:219,1,120
475,204,156984,2,0,L|451:127,1,80,8|0,0:0|0:0,0:0:0:0:
476,86,157300,2,0,L|395:43,1,80,4|0,0:0|0:0,0:0:0:0:
378,9,157615,2,0,L|258:48,1,120,10|4,0:0|0:0,0:0:0:0:
137,116,158247,5,0,0:0:0:0:
80,248,158563,1,0,0:0:0:0:
166,362,158878,1,8,0:0:0:0:
346,362,159194,1,8,0:0:0:0:
432,248,159510,1,8,0:0:0:0:
375,114,159826,6,0,L|352:73,2,40,8|0|0,0:0|0:0|0:0,0:0:0:0:
285,114,160142,2,0,L|246:94,2,40,8|0|0,0:0|0:0|0:0,0:0:0:0:
209,165,160457,6,0,L|123:190,1,80,4|0,0:0|0:0,0:0:0:0:
110,220,160773,1,8,0:0:0:0:
89,254,160878,1,2,0:0:0:0:
67,287,160984,1,2,0:0:0:0:
43,319,161089,2,0,P|110:326|190:317,1,120,2|12,0:0|0:0,0:0:0:0:
251,285,161615,5,2,0:0:0:0:
295,267,161721,2,0,L|347:270,2,40,8|8|2,0:0|0:0|0:0,0:0:0:0:
259,234,162036,2,0,P|249:174|267:103,1,120,2|4,0:0|0:0,0:0:0:0:
361,12,162668,1,8,0:0:0:0:
448,126,162984,5,4,0:0:0:0:
256,192,170563,12,4,171826,0:0:0:0:
301,129,172142,6,0,B|286:106|286:106|256:118|226:106|226:106|203:136,2,120,0|0|8,0:0|0:0|0:0,0:0:0:0:
345,214,172984,1,0,0:0:0:0:
345,214,173089,6,0,P|344:279|324:310,1,80,4|0,0:0|0:0,0:0:0:0:
305,327,173405,2,0,P|256:322|202:328,1,80
178,335,173721,2,0,P|138:305|116:220,1,120,12|2,0:0|0:0,0:0:0:0:
122,145,174247,2,0,P|105:84|66:39,1,120
25,21,174668,2,0,L|17:108,1,80
8,148,174984,1,12,0:0:0:0:
15,291,175300,1,2,0:0:0:0:
149,341,175615,6,0,P|212:346|282:337,1,120,4|0,0:0|0:0,0:0:0:0:
331,267,176142,1,0,0:0:0:0:
331,267,176247,2,0,P|383:274|437:212,1,120,12|2,0:0|0:0,0:0:0:0:
458,139,176773,2,0,B|449:117|449:117|430:102|430:102|421:69|351:35,1,120
334,37,177194,2,0,L|252:71,1,80
211,71,177510,2,0,L|118:45,1,80,12|0,0:0|0:0,0:0:0:0:
85,44,177826,2,0,P|56:91|45:129,1,80,2|0,0:0|0:0,0:0:0:0:
39,161,178142,5,4,0:0:0:0:
111,285,178457,1,0,0:0:0:0:
186,224,178668,1,0,0:0:0:0:
186,224,178773,2,0,P|235:220|323:228,1,120,8|2,0:0|0:0,0:0:0:0:
390,271,179300,2,0,P|400:219|354:141,1,120
345,119,179721,2,0,L|433:132,1,80
461,100,180036,2,0,L|326:80,1,120,8|2,0:0|0:0,0:0:0:0:
258,34,180563,1,0,0:0:0:0:
258,34,180668,6,0,P|192:52|144:98,1,120,4|0,0:0|0:0,0:0:0:0:
180,177,181194,1,0,0:0:0:0:
180,177,181300,2,0,P|164:235|92:275,1,120,12|2,0:0|0:0,0:0:0:0:
23,286,181826,2,0,B|159:324|159:324|206:314,1,160,4|0,0:0|0:0,0:0:0:0:
265,282,182457,1,0,0:0:0:0:
265,282,182563,2,0,L|285:326,2,40,8|0|0,0:0|0:0|0:0,0:0:0:0:
335,237,182878,2,0,L|372:255,2,40,10|0|0,0:0|0:0|0:0,0:0:0:0:
383,172,183194,6,0,P|419:145|435:57,1,120,4|0,0:0|0:0,0:0:0:0:
347,45,183721,1,0,0:0:0:0:
347,45,183826,2,0,P|283:40|214:43,1,120,12|2,0:0|0:0,0:0:0:0:
140,83,184352,2,0,B|161:132|157:173|157:173|118:166,1,120
81,166,184773,2,0,P|35:189|14:216,1,80
7,257,185089,2,0,B|62:322|62:322|111:335,1,120,12|2,0:0|0:0,0:0:0:0:
175,277,185615,1,0,0:0:0:0:
175,277,185721,6,0,P|221:268|303:281,1,120,4|0,0:0|0:0,0:0:0:0:
382,313,186247,1,0,0:0:0:0:
382,313,186352,2,0,P|409:269|418:183,1,120,12|2,0:0|0:0,0:0:0:0:
388,111,186878,2,0,B|402:91|431:66|431:66|378:69|318:37,1,160,4|8,0:0|0:0,0:0:0:0:
244,18,187510,1,0,0:0:0:0:
244,18,187615,2,0,L|211:110,1,80,8|0,0:0|0:0,0:0:0:0:
179,123,187931,2,0,L|198:220,1,80,2|0,0:0|0:0,0:0:0:0:
217,243,188247,6,0,B|132:222|132:222|97:229,1,120,4|0,0:0|0:0,0:0:0:0:
16,276,188773,1,0,0:0:0:0:
16,276,188878,2,0,P|47:320|88:332,1,80,8|0,0:0|0:0,0:0:0:0:
118,329,189194,2,0,P|172:322|218:333,1,80,2|0,0:0|0:0,0:0:0:0:
245,329,189510,2,0,B|295:335|336:320|336:320|326:275,1,120,0|8,0:0|0:0,0:0:0:0:
315,197,190036,1,0,0:0:0:0:
315,197,190142,2,0,P|314:141|364:71,1,120,8|10,0:0|0:0,0:0:0:0:
423,31,190668,1,0,0:0:0:0:
423,31,190773,6,0,L|451:110,1,80,4|4,0:0|0:0,0:0:0:0:
484,140,191089,2,0,L|468:228,1,80,8|4,0:0|0:0,0:0:0:0:
485,264,191405,2,0,B|412:318|412:318|364:316,1,120,12|2,0:0|0:0,0:0:0:0:
291,287,191931,2,0,P|233:279|150:294,1,120,4|0,0:0|0:0,0:0:0:0:
126,301,192352,2,0,L|142:206,1,80,12|0,0:0|0:0,0:0:0:0:
143,173,192668,2,0,L|112:128,2,40,8|0|0,0:0|0:0|0:0,0:0:0:0:
190,104,192984,2,0,L|175:51,2,40,10|0|0,0:0|0:0|0:0,0:0:0:0:
263,63,193300,6,0,P|308:56|386:66,1,120,4|0,0:0|0:0,0:0:0:0:
464,113,193826,1,0,0:0:0:0:
464,113,193931,2,0,P|478:174|464:246,1,120,8|2,0:0|0:0,0:0:0:0:
407,303,194457,2,0,B|476:365|476:365|522:365,2,120
367,275,195194,2,0,P|310:270|230:275,1,120,12|2,0:0|0:0,0:0:0:0:
113,326,195826,5,4,0:0:0:0:
29,208,196142,1,0,0:0:0:0:
81,127,196352,1,0,0:0:0:0:
81,127,196457,2,0,P|119:94|200:74,1,120,12|2,0:0|0:0,0:0:0:0:
258,136,196984,2,0,P|311:153|384:134,1,120
412,113,197405,2,0,L|427:220,1,80
458,224,197721,2,0,L|432:301,1,80,12|0,0:0|0:0,0:0:0:0:
452,343,198036,2,0,B|369:360|369:360|323:344,1,120,2|4,0:0|0:0,0:0:0:0:
203,289,198668,6,0,P|155:287|114:289,1,80
75,298,198984,2,0,L|109:171,1,120,12|2,0:0|0:0,0:0:0:0:
73,91,199510,2,0,P|125:95|211:87,1,120
234,66,199931,2,0,B|265:120|265:120|300:134,1,80
329,127,200247,2,0,P|386:121|466:170,1,120,12|2,0:0|0:0,0:0:0:0:
490,228,200773,1,0,0:0:0:0:
490,228,200878,6,0,P|466:275|383:309,1,120,4|0,0:0|0:0,0:0:0:0:
314,288,201405,1,0,0:0:0:0:
314,288,201510,2,0,P|255:281|187:291,1,120,12|2,0:0|0:0,0:0:0:0:
107,327,202036,2,0,B|88:298|88:298|97:207,1,120,8|0,0:0|0:0,0:0:0:0:
104,165,202457,2,0,P|59:147|39:107,1,80
26,76,202773,2,0,B|119:33|119:33|146:34,1,120,12|2,0:0|0:0,0:0:0:0:
254,117,203405,6,0,L|254:199,1,80,4|0,0:0|0:0,0:0:0:0:
279,238,203721,2,0,L|234:313,1,80
195,328,204036,2,0,P|137:335|56:324,1,120,12|2,0:0|0:0,0:0:0:0:
45,237,204563,2,0,P|90:200|122:130,1,120
117,97,204984,2,0,L|205:137,1,80
235,146,205300,2,0,P|229:93|275:23,1,120,12|2,0:0|0:0,0:0:0:0:
399,58,205931,5,4,0:0:0:0:
483,176,206247,1,0,0:0:0:0:
431,257,206457,1,0,0:0:0:0:
431,257,206563,2,2,P|393:290|312:310,1,120,14|2,0:0|0:0,0:0:0:0:
254,248,207089,2,0,P|201:231|128:250,1,120
100,271,207510,2,0,L|85:164,1,80
54,160,207826,2,0,L|80:83,1,80,12|0,0:0|0:0,0:0:0:0:
60,41,208142,2,0,B|143:24|143:24|189:40,1,120,2|4,0:0|0:0,0:0:0:0:
309,95,208773,6,0,P|357:97|398:95,1,80
437,86,209089,2,0,L|403:213,1,120,12|2,0:0|0:0,0:0:0:0:
439,293,209615,2,0,P|387:289|301:297,1,120
278,318,210036,2,0,B|247:264|247:264|212:250,1,80
183,257,210352,2,0,P|126:263|46:214,1,120,12|2,0:0|0:0,0:0:0:0:
22,156,210878,1,0,0:0:0:0:
22,156,210984,6,0,P|46:109|129:75,1,120,4|0,0:0|0:0,0:0:0:0:
198,96,211510,1,0,0:0:0:0:
198,96,211615,2,0,P|257:103|325:93,1,120,12|2,0:0|0:0,0:0:0:0:
405,57,212142,2,0,B|424:86|424:86|415:177,1,120,4|0,0:0|0:0,0:0:0:0:
408,219,212563,2,0,P|453:237|473:277,1,80
486,308,212878,2,0,B|393:351|393:351|366:350,1,120,8|2,0:0|0:0,0:0:0:0:
282,325,213405,1,0,0:0:0:0:
282,325,213510,6,0,P|231:311|148:322,1,120,4|0,0:0|0:0,0:0:0:0:
72,344,214036,1,0,0:0:0:0:
72,344,214142,2,0,L|60:264,1,80,8|0,0:0|0:0,0:0:0:0:
34,224,214457,2,0,L|53:143,1,80,2|0,0:0|0:0,0:0:0:0:
42,98,214773,2,0,B|127:38|127:38|164:31,1,120
227,81,215300,1,0,0:0:0:0:
227,81,215405,2,0,P|260:125|288:132,1,80,8|0,0:0|0:0,0:0:0:0:
330,126,215721,6,0,B|289:217|289:217|291:257,2,120,2|0|0,0:0|0:0|0:0,0:0:0:0:
396,56,216563,1,0,0:0:0:0:
396,56,216668,2,0,P|437:90|454:123,1,80,8|0,0:0|0:0,0:0:0:0:
455,160,216984,2,0,P|443:223|457:295,1,120,2|0,0:0|0:0,0:0:0:0:
488,366,217510,1,0,0:0:0:0:
488,366,217615,2,0,L|402:355,1,80
365,333,217931,2,0,L|237:354,1,120,8|2,0:0|0:0,0:0:0:0:
151,365,218457,1,0,0:0:0:0:
151,365,218563,6,0,P|120:313|112:231,1,120,4|0,0:0|0:0,0:0:0:0:
117,159,219089,1,0,0:0:0:0:
117,159,219194,2,0,B|51:97|51:97|43:52,2,120,8|2|0,0:0|0:0|0:0,0:0:0:0:
257,124,220142,1,0,0:0:0:0:
393,168,220457,1,8,0:0:0:0:
256,192,220773,12,4,223615,0:0:0:0:
