osu file format v14

[General]
AudioFilename: Neru - Ningen Shikkaku.mp3
AudioLeadIn: 1000
PreviewTime: 84252
Countdown: 0
SampleSet: None
StackLeniency: 0.7
Mode: 3
LetterboxInBreaks: 0
SpecialStyle: 0
WidescreenStoryboard: 0

[Editor]
Bookmarks: 22222,24722,44722,64722,102222,114722,134722,154722,172222,184722,194722,204565,224722,245972,269722
DistanceSpacing: 0.7
BeatDivisor: 4
GridSize: 4
TimelineZoom: 1.7

[Metadata]
Title:Ningen Shikkaku
TitleUnicode:人間失格
Artist:Neru
ArtistUnicode:Neru
Creator:puxtu
Version:LordRaika's 7K HD
Source:
Tags:pxt arcwinolivirus Blocko -Kamikaze- LordRaika [_M_o_m_o_] Tidek ExUsagi Eternalie Zenx Z3nx lZenxl PyaKura Hydria Harbyter No Longer Human Vocaloid Kagamine Rin Len 鏡音リン・レン
BeatmapID:553621
BeatmapSetID:239471

[Difficulty]
HPDrainRate:8
CircleSize:7
OverallDifficulty:8
ApproachRate:5
SliderMultiplier:1.4
SliderTickRate:1

[Events]
//Background and Video events
0,0,"SakuraTree.jpg",0,0
//Break Periods
//Storyboard Layer 0 (Background)
//Storyboard Layer 1 (Fail)
//Storyboard Layer 2 (Pass)
//Storyboard Layer 3 (Foreground)
//Storyboard Sound Samples

[TimingPoints]
1322,444.444444444444,3,2,0,20,1,0
11968,451.127819548872,3,2,0,20,1,0
11968,-98.0392156862745,3,2,0,20,0,0
12644,444.444444444444,3,2,0,20,1,0
13310,447.761194029851,3,2,0,20,1,0
13310,-99.009900990099,3,2,0,20,0,0
17389,500,3,2,0,20,1,0
17389,-92.5925925925926,3,2,0,20,0,0
18129,600,3,2,0,20,1,0
18129,-83.3333333333333,3,2,0,20,0,0
18429,571.428571428571,3,2,0,20,1,0
18429,-87.719298245614,3,2,0,20,0,0
19000,705.882352941176,3,2,0,20,1,0
19000,-77.5193798449612,3,2,0,20,0,0
19665,705.882352941176,3,2,0,20,1,0
19665,-77.5193798449612,3,2,0,20,0,0
19990,1000,3,2,0,20,1,0
19990,-59.8802395209581,3,2,0,20,0,0
20490,1500,3,2,0,20,1,0
20490,-40,3,2,0,20,0,0
22222,312.5,4,3,99,43,1,0
23628,-84.7457627118644,4,3,99,43,0,0
23706,-121.951219512195,4,3,99,43,0,0
23784,-84.7457627118644,4,3,99,43,0,0
23862,-121.951219512195,4,3,99,43,0,0
23943,-84.7457627118644,4,3,99,43,0,0
24018,-121.951219512195,4,3,99,43,0,0
24097,-84.7457627118644,4,3,99,43,0,0
24175,-121.951219512195,4,3,99,43,0,0
24409,-76.9230769230769,4,3,99,43,0,0
24487,-121.951219512195,4,3,99,43,0,0
24722,-100,4,3,99,43,0,0
84409,-95.2380952380952,4,3,99,43,0,0
84565,-90.9090909090909,4,3,99,43,0,0
84722,-100,4,3,99,43,0,1
102222,-100,4,3,99,43,0,0
103628,-84.7457627118644,4,3,99,43,0,0
103706,-121.951219512195,4,3,99,43,0,0
103784,-84.7457627118644,4,3,99,43,0,0
103862,-121.951219512195,4,3,99,43,0,0
103940,-84.7457627118644,4,3,99,43,0,0
104018,-121.951219512195,4,3,99,43,0,0
104097,-84.7457627118644,4,3,99,43,0,0
104175,-121.951219512195,4,3,99,43,0,0
104409,-76.9230769230769,4,3,99,43,0,0
104487,-121.951219512195,4,3,99,43,0,0
104722,-100,4,3,99,43,0,0
154409,-95.2380952380952,4,3,99,43,0,0
154565,-90.9090909090909,4,3,99,43,0,0
154722,-100,4,3,99,43,0,1
173628,-84.7457627118644,4,3,99,43,0,1
173706,-121.951219512195,4,3,99,43,0,1
173784,-84.7457627118644,4,3,99,43,0,1
173862,-121.951219512195,4,3,99,43,0,1
173940,-84.7457627118644,4,3,99,43,0,1
174018,-121.951219512195,4,3,99,43,0,1
174097,-84.7457627118644,4,3,99,43,0,1
174175,-121.951219512195,4,3,99,43,0,1
174409,-76.9230769230769,4,3,99,43,0,1
174487,-121.951219512195,4,3,99,43,0,1
174722,-104.166666666667,4,3,99,29,0,0
176597,-96.1538461538461,4,3,99,29,0,0
177222,-104.166666666667,4,3,99,29,0,0
179097,-96.1538461538461,4,3,99,29,0,0
179722,-104.166666666667,4,3,99,29,0,0
181597,-96.1538461538461,4,3,99,29,0,0
182222,-104.166666666667,4,3,99,29,0,0
184097,-96.1538461538461,4,3,99,29,0,0
184722,-100,4,3,99,43,0,0
194722,-80.6451612903226,4,3,99,43,0,0
194800,-100,4,3,99,43,0,0
195347,-80.6451612903226,4,3,99,43,0,0
195425,-100,4,3,99,43,0,0
195972,-80.6451612903226,4,3,99,43,0,0
196050,-100,4,3,99,43,0,0
196597,-80.6451612903226,4,3,99,43,0,0
196675,-100,4,3,99,43,0,0
197222,-80.6451612903226,4,3,99,43,0,0
197300,-100,4,3,99,43,0,0
197847,-80.6451612903226,4,3,99,43,0,0
197925,-100,4,3,99,43,0,0
198472,-80.6451612903226,4,3,99,43,0,0
198550,-100,4,3,99,43,0,0
199097,-80.6451612903226,4,3,99,43,0,0
199175,-100,4,3,99,43,0,0
223628,-80.6451612903226,4,3,99,43,0,0
223706,-121.951219512195,4,3,99,43,0,0
223784,-84.7457627118644,4,3,99,43,0,0
223862,-121.951219512195,4,3,99,43,0,0
223940,-84.7457627118644,4,3,99,43,0,0
224018,-121.951219512195,4,3,99,43,0,0
224097,-84.7457627118644,4,3,99,43,0,0
224175,-121.951219512195,4,3,99,43,0,0
224409,-76.9230769230769,4,3,99,43,0,0
224487,-121.951219512195,4,3,99,43,0,0
224722,-100,4,3,99,43,0,0
244878,-117.647058823529,4,3,99,43,0,0
245347,-100,4,3,99,43,0,0
245659,-95.2380952380952,4,3,99,43,0,0
245815,-90.9090909090909,4,3,99,43,0,0
245972,-100,4,3,99,43,0,1
263628,-84.7457627118644,4,3,99,43,0,1
263706,-121.951219512195,4,3,99,43,0,1
263784,-84.7457627118644,4,3,99,43,0,1
263862,-121.951219512195,4,3,99,43,0,1
263940,-84.7457627118644,4,3,99,43,0,1
264018,-121.951219512195,4,3,99,43,0,1
264097,-100,4,3,99,43,0,0
264722,-100,4,3,99,43,0,1
266128,-84.7457627118644,4,3,99,43,0,1
266206,-121.951219512195,4,3,99,43,0,1
266284,-84.7457627118644,4,3,99,43,0,1
266362,-121.951219512195,4,3,99,43,0,1
266440,-84.7457627118644,4,3,99,43,0,1
266518,-121.951219512195,4,3,99,43,0,1
266597,-100,4,3,99,43,0,0
267222,-100,4,3,99,43,0,1
269409,-121.951219512195,4,3,99,43,0,0
269565,-84.7457627118644,4,3,99,43,0,0
269722,-100,4,3,99,43,0,1
269722,-100,4,3,99,43,0,1
288472,-30.03003003003,4,3,99,43,0,1
288491,-100,4,3,99,43,0,1
288628,-142.857142857143,4,3,99,43,0,0

[HitObjects]
256,192,22222,128,4,23159:2:0:0:0:
109,192,22534,128,0,23628:0:0:0:0:
402,192,22534,128,0,23628:0:0:0:0:
182,192,22847,128,8,23628:0:0:0:0:
329,192,22847,128,8,23628:0:0:0:0:
36,192,23159,128,0,23628:0:0:0:0:
475,192,23159,128,0,23628:0:0:0:0:
256,192,23628,1,8,0:0:0:0:
182,192,23784,1,2,0:0:0:0:
329,192,23784,1,8,0:0:0:0:
109,192,23940,1,2,0:0:0:0:
402,192,23940,1,8,0:0:0:0:
36,192,24097,1,0,0:0:0:66:LR_Drum Rpd vFast.wav
475,192,24097,1,8,0:0:0:0:
256,192,24097,1,2,0:0:0:0:
109,192,24409,1,0,0:0:0:22:LR_Drum Low Long.wav
182,192,24409,1,0,0:0:0:22:LR_Drum Low Long.wav
329,192,24409,1,0,0:0:0:22:LR_Drum Low Long.wav
402,192,24409,1,0,0:0:0:22:LR_Drum Low Long.wav
36,192,24722,128,0,24878:0:0:0:0:
475,192,24722,1,4,2:0:0:0:
329,192,24878,128,0,25034:0:0:0:0:
109,192,25034,128,0,25190:0:0:0:0:
256,192,25034,1,8,0:0:0:0:
475,192,25190,128,0,25347:0:0:0:0:
182,192,25347,128,0,25503:0:0:0:0:
402,192,25503,128,0,25659:0:0:0:0:
36,192,25659,128,0,25815:0:0:0:0:
256,192,25659,1,8,0:0:0:0:
329,192,25815,128,0,25972:0:0:0:0:
182,192,25972,128,0,26128:0:0:0:0:
402,192,26128,128,0,26284:0:0:0:0:
256,192,26284,128,0,26440:0:0:0:0:
475,192,26284,1,8,0:0:0:0:
109,192,26440,128,0,26597:0:0:0:0:
329,192,26597,128,0,26753:0:0:0:0:
36,192,26753,128,0,26909:0:0:0:0:
402,192,26909,128,0,27065:0:0:0:0:
256,192,26909,1,8,0:0:0:0:
182,192,27065,128,0,27222:0:0:0:0:
329,192,27222,128,0,27378:0:0:0:0:
36,192,27378,128,0,27534:0:0:0:0:
402,192,27534,128,0,27690:0:0:0:0:
256,192,27534,1,8,0:0:0:0:
109,192,27690,128,0,27847:0:0:0:0:
329,192,27847,128,0,28003:0:0:0:0:
475,192,28003,128,0,28159:0:0:0:0:
36,192,28159,128,0,28315:0:0:0:0:
256,192,28159,1,8,0:0:0:0:
182,192,28315,128,0,28472:0:0:0:0:
402,192,28472,128,0,28628:0:0:0:0:
256,192,28628,128,0,28784:0:0:0:0:
109,192,28784,128,0,28940:0:0:0:0:
475,192,28784,1,8,0:0:0:0:
329,192,28940,128,0,29097:0:0:0:0:
182,192,29097,128,0,29253:0:0:0:0:
256,192,29253,128,0,29409:0:0:0:0:
109,192,29409,1,2,0:0:0:0:
402,192,29409,1,8,0:0:0:0:
182,192,29722,1,0,0:0:0:0:
475,192,29722,1,4,2:0:0:0:
36,192,29722,1,8,0:0:0:0:
329,192,29722,1,0,0:0:0:0:
182,192,29878,1,0,0:0:0:0:
475,192,29878,1,0,0:0:0:0:
36,192,30034,1,2,0:0:0:0:
329,192,30034,1,8,0:0:0:0:
329,192,30190,1,0,0:0:0:0:
36,192,30190,1,0,0:0:0:0:
182,192,30347,1,0,0:0:0:0:
475,192,30347,1,0,0:0:0:0:
182,192,30503,1,0,0:0:0:0:
475,192,30503,1,0,0:0:0:0:
329,192,30659,1,8,0:0:0:0:
36,192,30659,1,2,0:0:0:0:
329,192,30815,1,0,0:0:0:0:
36,192,30815,1,0,0:0:0:0:
109,192,30972,1,0,0:0:0:0:
402,192,30972,1,0,0:0:0:0:
109,192,31128,1,0,0:0:0:0:
402,192,31128,1,0,0:0:0:0:
475,192,31284,1,8,0:0:0:0:
182,192,31284,1,2,0:0:0:0:
475,192,31440,1,0,0:0:0:0:
182,192,31440,1,0,0:0:0:0:
402,192,31597,1,0,0:0:0:0:
109,192,31597,1,0,0:0:0:0:
402,192,31753,1,0,0:0:0:0:
109,192,31753,1,0,0:0:0:0:
329,192,31909,1,8,0:0:0:0:
36,192,31909,1,2,0:0:0:0:
36,192,32065,1,0,0:0:0:0:
329,192,32065,1,0,0:0:0:0:
109,192,32222,1,0,0:0:0:0:
402,192,32222,1,0,0:0:0:0:
402,192,32378,1,0,0:0:0:0:
109,192,32378,1,0,0:0:0:0:
182,192,32534,1,2,0:0:0:0:
329,192,32534,1,8,0:0:0:0:
182,192,32690,1,0,0:0:0:0:
329,192,32690,1,0,0:0:0:0:
402,192,32847,1,0,0:0:0:0:
109,192,32847,1,0,0:0:0:0:
109,192,33003,1,0,0:0:0:0:
402,192,33003,1,0,0:0:0:0:
36,192,33159,1,2,0:0:0:0:
475,192,33159,1,8,0:0:0:0:
36,192,33315,1,0,0:0:0:0:
475,192,33315,1,0,0:0:0:0:
402,192,33472,1,0,0:0:0:0:
109,192,33472,1,0,0:0:0:0:
402,192,33628,1,0,0:0:0:0:
109,192,33628,1,0,0:0:0:0:
182,192,33784,1,2,0:0:0:0:
329,192,33784,1,8,0:0:0:0:
182,192,33940,1,0,0:0:0:0:
329,192,33940,1,0,0:0:0:0:
36,192,34097,1,0,0:0:0:0:
475,192,34097,1,0,0:0:0:0:
256,192,34253,1,0,0:0:0:0:
402,192,34253,1,8,0:0:0:0:
109,192,34253,1,2,0:0:0:0:
36,192,34409,1,0,0:0:0:0:
475,192,34409,1,0,0:0:0:0:
182,192,34565,1,0,0:0:0:60:LR_Drum Rpd Fast .wav
329,192,34565,1,2,0:0:0:0:
109,192,34643,1,8,0:0:0:0:
402,192,34643,1,0,0:0:0:80:LR_Drum Rpd vFast.wav
256,192,34722,1,4,2:0:0:0:
36,192,34722,1,0,0:0:0:0:
475,192,34722,1,8,0:0:0:0:
329,192,34878,128,0,35034:0:0:0:0:
182,192,35034,128,0,35190:0:0:0:0:
256,192,35034,1,8,0:0:0:0:
402,192,35190,128,0,35347:0:0:0:0:
109,192,35347,128,0,35503:0:0:0:0:
475,192,35503,128,0,35659:0:0:0:0:
36,192,35659,128,0,35815:0:0:0:0:
256,192,35659,1,8,0:0:0:0:
402,192,35815,128,0,35972:0:0:0:0:
109,192,35972,128,0,36128:0:0:0:0:
329,192,36128,128,0,36284:0:0:0:0:
182,192,36284,128,0,36440:0:0:0:0:
256,192,36284,1,8,0:0:0:0:
402,192,36440,128,0,36597:0:0:0:0:
109,192,36597,128,0,36753:0:0:0:0:
475,192,36753,128,0,36909:0:0:0:0:
36,192,36909,128,0,37065:0:0:0:0:
256,192,36909,1,8,0:0:0:0:
402,192,37065,128,0,37222:0:0:0:0:
109,192,37222,128,0,37378:0:0:0:0:
329,192,37378,128,0,37534:0:0:0:0:
256,192,37534,1,8,0:0:0:0:
182,192,37534,128,0,37690:0:0:0:0:
402,192,37690,128,0,37847:0:0:0:0:
109,192,37847,128,0,38003:0:0:0:0:
475,192,38003,128,0,38159:0:0:0:0:
36,192,38159,128,0,38315:0:0:0:0:
256,192,38159,1,8,0:0:0:0:
402,192,38315,128,0,38472:0:0:0:0:
109,192,38472,128,0,38628:0:0:0:0:
329,192,38628,128,0,38784:0:0:0:0:
182,192,38784,128,0,38940:0:0:0:0:
256,192,38784,1,8,0:0:0:0:
402,192,38940,128,0,39097:0:0:0:0:
109,192,39097,128,0,39253:0:0:0:0:
475,192,39253,128,0,39409:0:0:0:0:
256,192,39409,1,8,0:0:0:0:
36,192,39409,1,2,0:0:0:0:
329,192,39722,1,0,0:0:0:0:
182,192,39722,1,0,0:0:0:0:
475,192,39722,1,4,2:0:0:0:
36,192,39722,1,8,0:0:0:0:
329,192,39878,1,0,0:0:0:0:
36,192,39878,1,0,0:0:0:0:
182,192,40034,1,8,0:0:0:0:
475,192,40034,1,2,0:0:0:0:
475,192,40190,1,0,0:0:0:0:
182,192,40190,1,0,0:0:0:0:
329,192,40347,1,0,0:0:0:0:
36,192,40347,1,0,0:0:0:0:
36,192,40503,1,0,0:0:0:0:
329,192,40503,1,0,0:0:0:0:
182,192,40659,1,2,0:0:0:0:
475,192,40659,1,8,0:0:0:0:
182,192,40815,1,0,0:0:0:0:
475,192,40815,1,0,0:0:0:0:
402,192,40972,1,0,0:0:0:0:
109,192,40972,1,0,0:0:0:0:
109,192,41128,1,0,0:0:0:0:
402,192,41128,1,0,0:0:0:0:
36,192,41284,1,2,0:0:0:0:
329,192,41284,1,8,0:0:0:0:
36,192,41440,1,0,0:0:0:0:
329,192,41440,1,0,0:0:0:0:
475,192,41597,1,0,0:0:0:0:
182,192,41597,1,0,0:0:0:0:
182,192,41753,1,0,0:0:0:0:
475,192,41753,1,0,0:0:0:0:
109,192,41909,1,2,0:0:0:0:
402,192,41909,1,8,0:0:0:0:
402,192,42065,1,0,0:0:0:0:
109,192,42065,1,0,0:0:0:0:
36,192,42222,1,0,0:0:0:0:
329,192,42222,1,2,0:0:0:0:
329,192,42378,1,0,0:0:0:0:
36,192,42378,1,0,0:0:0:0:
475,192,42534,1,2,0:0:0:0:
182,192,42534,1,8,0:0:0:0:
475,192,42690,1,0,0:0:0:0:
182,192,42690,1,2,0:0:0:0:
329,192,42847,1,0,0:0:0:0:
36,192,42847,1,0,0:0:0:0:
36,192,43003,1,0,0:0:0:0:
329,192,43003,1,0,0:0:0:0:
402,192,43159,1,2,0:0:0:0:
109,192,43159,1,8,0:0:0:0:
109,192,43315,1,0,0:0:0:0:
402,192,43315,1,0,0:0:0:0:
475,192,43472,1,0,0:0:0:0:
182,192,43472,1,0,0:0:0:0:
182,192,43628,5,0,0:0:0:0:
475,192,43628,1,0,0:0:0:0:
329,192,43784,1,8,0:0:0:0:
36,192,43784,1,2,0:0:0:0:
182,192,43940,1,0,0:0:0:0:
402,192,44097,1,0,0:0:0:0:
109,192,44097,1,0,0:0:0:0:
475,192,44253,1,8,0:0:0:0:
182,192,44253,1,2,0:0:0:0:
402,192,44409,1,0,0:0:0:0:
109,192,44409,1,0,0:0:0:0:
475,192,44565,1,2,0:0:0:0:
36,192,44565,1,0,0:0:0:60:LR_Drum Rpd Fast .wav
109,192,44643,1,8,0:0:0:0:
402,192,44643,1,0,0:0:0:80:LR_Drum Rpd vFast.wav
182,192,44722,1,0,0:0:0:0:
329,192,44722,1,8,0:0:0:0:
256,192,44722,1,4,2:0:0:0:
475,192,44878,1,0,0:0:0:0:
36,192,45034,128,10,45347:0:0:0:0:
402,192,45034,1,0,0:0:0:0:
329,192,45190,1,0,0:0:0:0:
109,192,45347,128,0,45659:0:0:0:0:
402,192,45347,1,0,0:0:0:0:
475,192,45503,1,0,0:0:0:0:
182,192,45659,128,10,45972:0:0:0:0:
402,192,45659,1,0,0:0:0:0:
329,192,45815,1,0,0:0:0:0:
109,192,45972,128,0,46284:0:0:0:0:
402,192,45972,1,0,0:0:0:0:
475,192,46128,1,0,0:0:0:0:
36,192,46284,128,10,46597:0:0:0:0:
402,192,46284,1,0,0:0:0:0:
329,192,46440,1,0,0:0:0:0:
182,192,46597,1,4,2:0:0:0:
109,192,46597,1,0,0:0:0:0:
256,192,46597,1,8,0:0:0:0:
475,192,46597,1,2,0:0:0:0:
256,192,46909,1,8,0:0:0:0:
475,192,46909,1,2,0:0:0:0:
182,192,46909,1,4,2:0:0:0:
109,192,46909,1,0,0:0:0:0:
402,192,47222,128,0,47534:0:0:0:0:
109,192,47378,1,0,0:0:0:0:
182,192,47534,1,0,0:0:0:0:
475,192,47534,128,10,47847:0:0:0:0:
109,192,47690,1,0,0:0:0:0:
402,192,47847,128,0,48159:0:0:0:0:
36,192,47847,1,0,0:0:0:0:
109,192,48003,1,0,0:0:0:0:
329,192,48159,128,10,48472:0:0:0:0:
182,192,48159,1,0,0:0:0:0:
109,192,48315,1,0,0:0:0:0:
402,192,48472,128,0,48784:0:0:0:0:
36,192,48472,1,0,0:0:0:0:
109,192,48628,1,0,0:0:0:0:
475,192,48784,128,10,49097:0:0:0:0:
182,192,48784,1,0,0:0:0:0:
109,192,48940,1,0,0:0:0:0:
36,192,49097,1,4,2:0:0:0:
256,192,49097,1,8,0:0:0:0:
402,192,49097,1,2,0:0:0:0:
36,192,49409,1,4,2:0:0:0:
402,192,49409,1,2,0:0:0:0:
256,192,49409,1,8,0:0:0:0:
256,192,49722,128,0,50034:0:0:0:0:
36,192,49878,1,0,0:0:0:0:
329,192,50034,128,10,50347:0:0:0:0:
109,192,50034,1,0,0:0:0:0:
182,192,50190,1,0,0:0:0:0:
402,192,50347,128,0,50659:0:0:0:0:
109,192,50347,1,0,0:0:0:0:
182,192,50503,1,0,0:0:0:0:
475,192,50659,128,10,50972:0:0:0:0:
256,192,50659,1,0,0:0:0:0:
182,192,50815,1,0,0:0:0:0:
36,192,50972,128,0,51284:0:0:0:0:
256,192,50972,1,0,0:0:0:0:
329,192,51128,1,0,0:0:0:0:
109,192,51284,128,10,51597:0:0:0:0:
256,192,51284,1,0,0:0:0:0:
329,192,51440,1,0,0:0:0:0:
475,192,51597,1,2,0:0:0:0:
402,192,51597,1,8,0:0:0:0:
182,192,51597,1,4,2:0:0:0:
36,192,51597,1,0,0:0:0:0:
402,192,51909,1,8,0:0:0:0:
475,192,51909,1,2,0:0:0:0:
182,192,51909,1,4,2:0:0:0:
36,192,51909,1,0,0:0:0:0:
256,192,52222,128,0,53628:0:0:0:0:
109,192,52847,128,0,53315:0:0:0:0:
402,192,53159,128,0,53940:0:0:0:0:
109,192,53472,128,0,54253:0:0:0:0:
256,192,53784,128,0,54253:0:0:0:0:
402,192,54097,128,0,54253:0:0:0:0:
109,192,54409,1,0,0:0:0:0:
256,192,54409,1,0,0:0:0:0:
402,192,54409,1,0,0:0:0:0:
182,192,54722,128,0,55034:0:0:0:0:
402,192,54878,128,0,55190:0:0:0:0:
109,192,55034,128,10,55347:0:0:0:0:
329,192,55190,128,0,55503:0:0:0:0:
36,192,55347,128,0,55659:0:0:0:0:
256,192,55503,128,0,55815:0:0:0:0:
109,192,55659,128,10,55972:0:0:0:0:
329,192,55815,128,0,56128:0:0:0:0:
182,192,55972,128,0,56284:0:0:0:0:
402,192,56128,128,0,56440:0:0:0:0:
256,192,56284,128,10,56597:0:0:0:0:
475,192,56440,128,0,56597:0:0:0:0:
109,192,56597,1,4,2:0:0:0:
182,192,56597,1,8,0:0:0:0:
402,192,56597,1,2,0:0:0:0:
329,192,56597,1,0,0:0:0:0:
109,192,56909,1,4,2:0:0:0:
402,192,56909,1,2,0:0:0:0:
182,192,56909,1,8,0:0:0:0:
329,192,56909,1,0,0:0:0:0:
256,192,57222,128,0,57534:0:0:0:0:
182,192,57378,128,0,57690:0:0:0:0:
329,192,57534,128,10,57847:0:0:0:0:
109,192,57690,128,0,58003:0:0:0:0:
402,192,57847,128,0,58159:0:0:0:0:
36,192,58003,128,0,58315:0:0:0:0:
475,192,58159,128,10,58472:0:0:0:0:
109,192,58315,128,0,58628:0:0:0:0:
402,192,58472,128,0,58784:0:0:0:0:
182,192,58628,128,0,58940:0:0:0:0:
329,192,58784,128,10,59097:0:0:0:0:
109,192,58940,128,0,59097:0:0:0:0:
36,192,59097,1,2,0:0:0:0:
256,192,59097,1,8,0:0:0:0:
475,192,59097,1,4,2:0:0:0:
256,192,59409,1,8,0:0:0:0:
36,192,59409,1,2,0:0:0:0:
475,192,59409,1,4,2:0:0:0:
329,192,59722,128,0,60034:0:0:0:0:
109,192,59878,128,0,60190:0:0:0:0:
402,192,60034,128,10,60347:0:0:0:0:
182,192,60190,128,0,60503:0:0:0:0:
475,192,60347,128,0,60659:0:0:0:0:
256,192,60503,128,0,60815:0:0:0:0:
402,192,60659,128,10,60972:0:0:0:0:
182,192,60815,128,0,61128:0:0:0:0:
329,192,60972,128,0,61284:0:0:0:0:
109,192,61128,128,0,61440:0:0:0:0:
256,192,61284,128,10,61597:0:0:0:0:
182,192,61440,128,0,61597:0:0:0:0:
109,192,61597,1,4,2:0:0:0:
36,192,61597,1,8,0:0:0:0:
402,192,61597,1,2,0:0:0:0:
475,192,61597,1,0,0:0:0:0:
109,192,61909,1,4,2:0:0:0:
402,192,61909,1,2,0:0:0:0:
36,192,61909,1,8,0:0:0:0:
475,192,61909,1,0,0:0:0:0:
182,192,62222,128,2,63315:0:0:0:0:
256,192,62222,128,0,63628:0:0:0:0:
329,192,62222,128,8,63940:0:0:0:0:
109,192,62847,128,0,64253:0:0:0:0:
402,192,63159,128,0,64253:0:0:0:0:
182,192,63472,128,0,64253:0:0:0:0:
256,192,63784,128,0,64253:0:0:0:0:
329,192,64097,128,0,64253:0:0:0:0:
109,192,64409,1,0,0:0:0:0:
182,192,64409,1,0,0:0:0:0:
256,192,64409,1,0,0:0:0:0:
329,192,64409,1,2,0:0:0:0:
402,192,64409,1,8,0:0:0:0:
36,192,64722,5,4,2:0:0:0:
329,192,64722,1,0,0:0:0:0:
475,192,64722,1,0,0:0:0:0:
182,192,64878,1,0,0:0:0:0:
329,192,65034,1,2,0:0:0:0:
475,192,65034,1,8,0:0:0:0:
109,192,65190,1,0,0:0:0:0:
475,192,65347,1,8,0:0:0:0:
329,192,65347,1,2,0:0:0:0:
36,192,65503,1,0,0:0:0:0:
329,192,65659,1,2,0:0:0:0:
475,192,65659,1,8,0:0:0:0:
109,192,65815,1,0,0:0:0:0:
475,192,65972,1,8,0:0:0:0:
329,192,65972,1,2,0:0:0:0:
182,192,66128,1,0,0:0:0:0:
329,192,66284,1,2,0:0:0:0:
475,192,66284,1,8,0:0:0:0:
109,192,66440,1,0,0:0:0:0:
475,192,66597,1,8,0:0:0:0:
329,192,66597,1,2,0:0:0:0:
36,192,66753,1,0,0:0:0:0:
329,192,66909,1,2,0:0:0:0:
475,192,66909,1,8,0:0:0:0:
109,192,67065,1,0,0:0:0:0:
475,192,67222,1,8,0:0:0:0:
329,192,67222,1,2,0:0:0:0:
182,192,67378,1,0,0:0:0:0:
329,192,67534,1,2,0:0:0:0:
475,192,67534,1,8,0:0:0:0:
109,192,67690,1,0,0:0:0:0:
475,192,67847,1,8,0:0:0:0:
329,192,67847,1,2,0:0:0:0:
36,192,68003,1,0,0:0:0:0:
329,192,68159,1,2,0:0:0:0:
475,192,68159,1,8,0:0:0:0:
109,192,68315,1,0,0:0:0:0:
475,192,68472,1,8,0:0:0:0:
329,192,68472,1,2,0:0:0:0:
182,192,68628,1,0,0:0:0:0:
329,192,68784,1,2,0:0:0:0:
475,192,68784,1,8,0:0:0:0:
109,192,68940,1,0,0:0:0:0:
475,192,69097,1,8,0:0:0:0:
329,192,69097,1,2,0:0:0:0:
36,192,69253,1,0,0:0:0:0:
329,192,69409,1,2,0:0:0:0:
475,192,69409,1,8,0:0:0:0:
109,192,69565,1,0,0:0:0:0:
329,192,69722,1,0,0:0:0:0:
36,192,69722,1,8,0:0:0:0:
182,192,69722,1,2,0:0:0:0:
402,192,69878,1,0,0:0:0:0:
182,192,70034,1,2,0:0:0:0:
36,192,70034,1,8,0:0:0:0:
475,192,70190,1,0,0:0:0:0:
36,192,70347,1,8,0:0:0:0:
182,192,70347,1,2,0:0:0:0:
402,192,70503,1,0,0:0:0:0:
36,192,70659,1,8,0:0:0:0:
182,192,70659,1,2,0:0:0:0:
329,192,70815,1,0,0:0:0:0:
182,192,70972,1,2,0:0:0:0:
36,192,70972,1,8,0:0:0:0:
402,192,71128,1,0,0:0:0:0:
182,192,71284,1,2,0:0:0:0:
36,192,71284,1,8,0:0:0:0:
475,192,71440,1,0,0:0:0:0:
36,192,71597,1,8,0:0:0:0:
182,192,71597,1,2,0:0:0:0:
402,192,71753,1,0,0:0:0:0:
36,192,71909,1,8,0:0:0:0:
182,192,71909,1,2,0:0:0:0:
329,192,72065,1,0,0:0:0:0:
182,192,72222,1,2,0:0:0:0:
36,192,72222,1,8,0:0:0:0:
402,192,72378,1,0,0:0:0:0:
182,192,72534,1,2,0:0:0:0:
36,192,72534,1,8,0:0:0:0:
475,192,72690,1,0,0:0:0:0:
36,192,72847,1,8,0:0:0:0:
182,192,72847,1,2,0:0:0:0:
402,192,73003,1,0,0:0:0:0:
36,192,73159,1,8,0:0:0:0:
182,192,73159,1,2,0:0:0:0:
329,192,73315,1,0,0:0:0:0:
182,192,73472,1,2,0:0:0:0:
36,192,73472,1,8,0:0:0:0:
402,192,73628,1,0,0:0:0:0:
182,192,73784,1,2,0:0:0:0:
36,192,73784,1,8,0:0:0:0:
475,192,73940,1,0,0:0:0:0:
36,192,74097,1,8,0:0:0:0:
182,192,74097,1,2,0:0:0:0:
402,192,74253,1,0,0:0:0:0:
36,192,74409,1,8,0:0:0:0:
182,192,74409,1,2,0:0:0:0:
329,192,74565,1,0,0:0:0:0:
36,192,74722,1,0,0:0:0:0:
475,192,74722,1,0,0:0:0:0:
256,192,74722,1,0,0:0:0:0:
182,192,74878,1,0,0:0:0:0:
475,192,75034,1,2,0:0:0:0:
36,192,75034,1,8,0:0:0:0:
256,192,75190,1,0,0:0:0:0:
475,192,75347,1,2,0:0:0:0:
36,192,75347,1,8,0:0:0:0:
329,192,75503,1,0,0:0:0:0:
475,192,75659,1,2,0:0:0:0:
36,192,75659,1,8,0:0:0:0:
256,192,75815,1,0,0:0:0:0:
36,192,75972,1,8,0:0:0:0:
475,192,75972,1,2,0:0:0:0:
182,192,76128,1,0,0:0:0:0:
36,192,76284,1,8,0:0:0:0:
475,192,76284,1,2,0:0:0:0:
256,192,76440,1,0,0:0:0:0:
475,192,76597,1,2,0:0:0:0:
36,192,76597,1,8,0:0:0:0:
329,192,76753,1,0,0:0:0:0:
475,192,76909,1,2,0:0:0:0:
36,192,76909,1,8,0:0:0:0:
256,192,77065,1,0,0:0:0:0:
36,192,77222,1,8,0:0:0:0:
475,192,77222,1,2,0:0:0:0:
182,192,77378,1,0,0:0:0:0:
36,192,77534,1,8,0:0:0:0:
475,192,77534,1,2,0:0:0:0:
256,192,77690,1,0,0:0:0:0:
475,192,77847,1,2,0:0:0:0:
36,192,77847,1,8,0:0:0:0:
329,192,78003,1,0,0:0:0:0:
475,192,78159,1,2,0:0:0:0:
36,192,78159,1,8,0:0:0:0:
256,192,78315,1,0,0:0:0:0:
36,192,78472,1,8,0:0:0:0:
475,192,78472,1,2,0:0:0:0:
182,192,78628,1,0,0:0:0:0:
36,192,78784,1,8,0:0:0:0:
475,192,78784,1,2,0:0:0:0:
256,192,78940,1,0,0:0:0:0:
475,192,79097,1,2,0:0:0:0:
36,192,79097,1,8,0:0:0:0:
329,192,79253,1,0,0:0:0:0:
475,192,79409,1,2,0:0:0:0:
36,192,79409,1,8,0:0:0:0:
256,192,79565,1,0,0:0:0:0:
109,192,79722,128,8,80815:0:0:0:0:
182,192,79722,128,0,80815:0:0:0:0:
329,192,79722,128,2,80815:0:0:0:0:
402,192,79722,128,4,80815:2:0:0:0:
329,192,80972,128,2,81597:0:0:0:0:
402,192,80972,128,4,81597:2:0:0:0:
182,192,80972,128,0,81597:0:0:0:0:
109,192,80972,128,8,81597:0:0:0:0:
256,192,81597,1,4,2:0:0:0:
36,192,81597,1,2,0:0:0:0:
475,192,81597,1,8,0:0:0:0:
109,192,81909,1,8,0:0:0:0:
402,192,81909,1,2,0:0:0:0:
36,192,82222,1,2,0:0:0:0:
256,192,82222,1,4,2:0:0:0:
475,192,82222,1,8,0:0:0:0:
256,192,82378,1,0,0:0:0:0:
109,192,82534,1,8,0:0:0:0:
402,192,82534,1,2,0:0:0:0:
256,192,82690,1,0,0:0:0:0:
256,192,82847,1,0,0:0:0:0:
256,192,83003,1,0,0:0:0:0:
402,192,83159,1,2,0:0:0:0:
109,192,83159,1,8,0:0:0:0:
256,192,83315,1,0,0:0:0:0:
475,192,83472,1,8,0:0:0:0:
182,192,83472,1,4,2:0:0:0:
36,192,83472,1,2,0:0:0:0:
329,192,83472,1,0,0:0:0:0:
109,192,83706,5,8,0:0:0:0:
402,192,83706,1,2,0:0:0:0:
256,192,83940,1,0,0:0:0:0:
256,192,84097,1,0,0:0:0:0:
402,192,84253,1,10,0:0:0:0:
109,192,84331,1,10,0:0:0:0:
329,192,84409,1,10,0:0:0:0:
182,192,84487,1,10,0:0:0:0:
402,192,84565,1,10,0:0:0:0:
109,192,84643,1,10,0:0:0:0:
256,192,84722,5,4,2:0:0:0:
36,192,84722,1,2,0:0:0:0:
475,192,84722,1,8,0:0:0:0:
36,192,85034,1,8,0:0:0:0:
475,192,85034,1,6,0:0:0:0:
256,192,85034,1,0,0:0:0:0:
329,192,85190,1,0,0:0:0:0:
109,192,85347,128,4,85503:0:0:0:0:
402,192,85347,1,4,0:0:0:0:
329,192,85503,1,0,0:0:0:0:
256,192,85659,1,0,0:0:0:0:
475,192,85659,1,2,0:0:0:0:
36,192,85659,1,8,0:0:0:0:
182,192,85815,1,0,0:0:0:0:
402,192,85972,128,4,86128:0:0:0:0:
109,192,85972,1,4,0:0:0:0:
182,192,86128,1,0,0:0:0:0:
256,192,86284,1,0,0:0:0:0:
36,192,86284,1,8,0:0:0:0:
475,192,86284,1,2,0:0:0:0:
329,192,86440,1,0,0:0:0:0:
109,192,86597,128,4,86753:0:0:0:0:
402,192,86597,1,4,0:0:0:0:
329,192,86753,1,0,0:0:0:0:
256,192,86909,1,0,0:0:0:0:
36,192,86909,1,8,0:0:0:0:
475,192,86909,1,2,0:0:0:0:
182,192,87065,1,0,0:0:0:0:
402,192,87222,128,4,87378:0:0:0:0:
109,192,87222,1,4,0:0:0:0:
182,192,87378,1,0,0:0:0:0:
256,192,87534,1,0,0:0:0:0:
475,192,87534,1,2,0:0:0:0:
36,192,87534,1,8,0:0:0:0:
329,192,87690,1,0,0:0:0:0:
109,192,87847,128,4,88003:0:0:0:0:
402,192,87847,1,4,0:0:0:0:
329,192,88003,1,0,0:0:0:0:
256,192,88159,1,0,0:0:0:0:
475,192,88159,1,2,0:0:0:0:
36,192,88159,1,8,0:0:0:0:
182,192,88315,1,0,0:0:0:0:
402,192,88472,128,4,88628:0:0:0:0:
109,192,88472,1,4,0:0:0:0:
182,192,88628,1,0,0:0:0:0:
256,192,88784,1,0,0:0:0:0:
36,192,88784,1,8,0:0:0:0:
475,192,88784,1,2,0:0:0:0:
329,192,88940,1,0,0:0:0:0:
109,192,89097,128,4,89253:0:0:0:0:
402,192,89097,1,4,0:0:0:0:
329,192,89253,1,0,0:0:0:0:
256,192,89409,1,0,0:0:0:0:
475,192,89409,1,8,0:0:0:0:
36,192,89409,1,2,0:0:0:0:
182,192,89722,1,0,0:0:0:0:
256,192,89722,1,0,0:0:0:0:
402,192,89722,1,0,0:0:0:0:
109,192,89878,1,0,0:0:0:0:
36,192,90034,1,2,0:0:0:0:
475,192,90034,1,8,0:0:0:0:
109,192,90190,1,0,0:0:0:0:
329,192,90347,128,4,90503:0:0:0:0:
182,192,90347,128,4,90503:0:0:0:0:
256,192,90347,1,0,0:0:0:0:
402,192,90503,1,0,0:0:0:0:
36,192,90659,1,2,0:0:0:0:
475,192,90659,1,8,0:0:0:0:
402,192,90815,1,0,0:0:0:0:
182,192,90972,128,4,91128:0:0:0:0:
329,192,90972,128,4,91128:0:0:0:0:
256,192,90972,1,0,0:0:0:0:
109,192,91128,1,0,0:0:0:0:
36,192,91284,1,2,0:0:0:0:
475,192,91284,1,8,0:0:0:0:
109,192,91440,1,0,0:0:0:0:
329,192,91597,128,4,91753:0:0:0:0:
182,192,91597,128,4,91753:0:0:0:0:
256,192,91597,1,0,0:0:0:0:
402,192,91753,1,0,0:0:0:0:
36,192,91909,1,2,0:0:0:0:
475,192,91909,1,8,0:0:0:0:
402,192,92065,1,0,0:0:0:0:
182,192,92222,128,4,92378:0:0:0:0:
329,192,92222,128,4,92378:0:0:0:0:
256,192,92222,1,0,0:0:0:0:
109,192,92378,1,0,0:0:0:0:
36,192,92534,1,2,0:0:0:0:
475,192,92534,1,8,0:0:0:0:
109,192,92690,1,0,0:0:0:0:
329,192,92847,128,4,93003:0:0:0:0:
182,192,92847,128,4,93003:0:0:0:0:
256,192,92847,1,0,0:0:0:0:
402,192,93003,1,0,0:0:0:0:
475,192,93159,1,8,0:0:0:0:
36,192,93159,1,2,0:0:0:0:
402,192,93315,1,0,0:0:0:0:
182,192,93472,128,4,93628:0:0:0:0:
329,192,93472,128,4,93628:0:0:0:0:
256,192,93472,1,0,0:0:0:0:
36,192,93628,1,4,2:0:0:0:
109,192,93628,1,8,0:0:0:0:
402,192,93628,1,2,0:0:0:0:
475,192,93628,1,0,0:0:0:0:
256,192,93784,1,0,0:0:0:0:
256,192,93940,1,0,0:0:0:0:
109,192,94097,1,4,2:0:0:0:
182,192,94097,1,8,0:0:0:0:
329,192,94097,1,2,0:0:0:0:
402,192,94097,1,0,0:0:0:0:
182,192,94409,1,8,0:0:0:0:
256,192,94409,1,0,0:0:0:0:
329,192,94409,1,2,0:0:0:0:
36,192,94409,1,4,2:0:0:0:
475,192,94409,1,0,0:0:0:0:
329,192,94722,1,2,0:0:0:0:
475,192,94722,1,8,0:0:0:0:
36,192,94722,1,4,2:0:0:0:
109,192,94878,1,0,0:0:0:0:
182,192,95034,1,2,0:0:0:0:
329,192,95034,1,8,0:0:0:0:
256,192,95034,1,0,0:0:0:0:
402,192,95190,1,0,0:0:0:0:
109,192,95347,128,4,95503:0:0:0:0:
475,192,95347,128,4,95503:0:0:0:0:
402,192,95503,1,0,0:0:0:0:
256,192,95659,1,8,0:0:0:0:
329,192,95659,1,2,0:0:0:0:
182,192,95659,1,0,0:0:0:0:
109,192,95815,1,0,0:0:0:0:
402,192,95972,128,4,96128:0:0:0:0:
36,192,95972,128,4,96128:0:0:0:0:
109,192,96128,1,0,0:0:0:0:
256,192,96284,1,8,0:0:0:0:
182,192,96284,1,0,0:0:0:0:
329,192,96284,1,2,0:0:0:0:
402,192,96440,1,0,0:0:0:0:
475,192,96597,128,4,96753:0:0:0:0:
109,192,96597,128,4,96753:0:0:0:0:
402,192,96753,1,0,0:0:0:0:
256,192,96909,1,8,0:0:0:0:
329,192,96909,1,2,0:0:0:0:
182,192,96909,1,0,0:0:0:0:
109,192,97065,1,0,0:0:0:0:
36,192,97222,128,4,97378:0:0:0:0:
402,192,97222,128,4,97378:0:0:0:0:
109,192,97378,1,0,0:0:0:0:
182,192,97534,1,0,0:0:0:0:
256,192,97534,1,8,0:0:0:0:
329,192,97534,1,2,0:0:0:0:
402,192,97690,1,0,0:0:0:0:
109,192,97847,128,4,98003:0:0:0:0:
475,192,97847,128,4,98003:0:0:0:0:
402,192,98003,1,0,0:0:0:0:
182,192,98159,1,0,0:0:0:0:
329,192,98159,1,2,0:0:0:0:
256,192,98159,1,8,0:0:0:0:
109,192,98315,1,0,0:0:0:0:
402,192,98472,128,4,98628:0:0:0:0:
36,192,98472,128,4,98628:0:0:0:0:
109,192,98628,1,0,0:0:0:0:
329,192,98784,1,2,0:0:0:0:
256,192,98784,1,8,0:0:0:0:
182,192,98784,1,0,0:0:0:0:
402,192,98940,1,0,0:0:0:0:
475,192,99097,128,4,99253:0:0:0:0:
109,192,99097,128,4,99253:0:0:0:0:
402,192,99253,1,0,0:0:0:0:
256,192,99409,1,8,0:0:0:0:
329,192,99409,1,2,0:0:0:0:
182,192,99409,1,0,0:0:0:0:
109,192,99565,1,0,0:0:0:0:
36,192,99722,1,0,0:0:0:0:
182,192,99722,1,4,2:0:0:0:
329,192,99722,1,8,0:0:0:0:
475,192,99722,1,2,0:0:0:0:
36,192,100034,1,0,0:0:0:0:
256,192,100034,1,8,0:0:0:0:
475,192,100034,1,2,0:0:0:0:
329,192,100190,1,0,0:0:0:0:
402,192,100347,128,4,100503:0:0:0:0:
109,192,100347,128,4,100503:0:0:0:0:
182,192,100503,1,0,0:0:0:0:
36,192,100659,1,0,0:0:0:0:
475,192,100659,1,2,0:0:0:0:
256,192,100659,1,8,0:0:0:0:
329,192,100815,1,0,0:0:0:0:
109,192,100972,128,4,101128:0:0:0:0:
402,192,100972,128,4,101128:0:0:0:0:
182,192,101128,1,0,0:0:0:0:
256,192,101284,1,8,0:0:0:0:
36,192,101284,1,0,0:0:0:0:
475,192,101284,1,2,0:0:0:0:
329,192,101440,1,0,0:0:0:0:
402,192,101597,128,4,101753:0:0:0:0:
109,192,101597,128,4,101753:0:0:0:0:
182,192,101753,1,0,0:0:0:0:
475,192,101909,1,2,0:0:0:0:
256,192,101909,1,8,0:0:0:0:
36,192,101909,1,0,0:0:0:0:
329,192,102065,1,0,0:0:0:0:
109,192,102222,128,0,103628:0:0:0:0:
402,192,102222,128,4,103628:2:0:0:0:
182,192,102847,128,0,103628:0:0:0:0:
329,192,102847,128,0,103628:0:0:0:0:
256,192,102847,128,0,103159:0:0:0:0:
475,192,103159,128,0,103628:0:0:0:0:
36,192,103159,128,0,103628:0:0:0:0:
256,192,103628,1,8,0:0:0:0:
182,192,103784,1,2,0:0:0:0:
329,192,103784,1,8,0:0:0:0:
109,192,103940,1,2,0:0:0:0:
402,192,103940,1,8,0:0:0:0:
256,192,104097,1,2,0:0:0:0:
475,192,104097,1,8,0:0:0:0:
36,192,104097,1,0,0:0:0:66:LR_Drum Rpd vFast.wav
109,192,104409,1,0,0:0:0:22:LR_Drum Low Long.wav
182,192,104409,1,0,0:0:0:22:LR_Drum Low Long.wav
402,192,104409,1,0,0:0:0:22:LR_Drum Low Long.wav
329,192,104409,1,0,0:0:0:22:LR_Drum Low Long.wav
36,192,104722,1,0,0:0:0:0:
256,192,104722,1,4,2:0:0:0:
475,192,104722,1,8,0:0:0:0:
109,192,104878,1,0,0:0:0:0:
182,192,105034,1,0,0:0:0:0:
256,192,105034,1,8,0:0:0:0:
329,192,105034,1,2,0:0:0:0:
109,192,105190,1,0,0:0:0:0:
182,192,105347,1,0,0:0:0:0:
256,192,105503,1,0,0:0:0:0:
402,192,105659,1,0,0:0:0:0:
329,192,105659,1,8,0:0:0:0:
475,192,105659,1,2,0:0:0:0:
475,192,105972,1,0,0:0:0:0:
36,192,105972,1,0,0:0:0:0:
402,192,106128,1,0,0:0:0:0:
182,192,106284,1,2,0:0:0:0:
329,192,106284,1,8,0:0:0:0:
256,192,106284,1,0,0:0:0:0:
402,192,106440,1,0,0:0:0:0:
329,192,106597,1,0,0:0:0:0:
256,192,106753,1,0,0:0:0:0:
109,192,106909,1,0,0:0:0:0:
36,192,106909,1,0,0:0:0:0:
182,192,106909,1,0,0:0:0:0:
36,192,107222,1,0,0:0:0:0:
402,192,107222,1,0,0:0:0:0:
109,192,107378,1,0,0:0:0:0:
182,192,107534,1,8,0:0:0:0:
475,192,107534,1,0,0:0:0:0:
329,192,107534,1,2,0:0:0:0:
109,192,107690,1,0,0:0:0:0:
36,192,107847,1,0,0:0:0:0:
109,192,108003,1,0,0:0:0:0:
182,192,108159,1,0,0:0:0:0:
475,192,108159,1,0,0:0:0:0:
329,192,108159,1,0,0:0:0:0:
475,192,108472,1,0,0:0:0:0:
109,192,108472,1,0,0:0:0:0:
402,192,108628,1,0,0:0:0:0:
36,192,108784,1,0,0:0:0:0:
329,192,108784,1,8,0:0:0:0:
182,192,108784,1,2,0:0:0:0:
402,192,108940,1,0,0:0:0:0:
475,192,109097,1,0,0:0:0:0:
402,192,109253,1,0,0:0:0:0:
329,192,109409,1,0,0:0:0:0:
182,192,109409,1,0,0:0:0:0:
36,192,109409,1,0,0:0:0:0:
475,192,109722,1,0,0:0:0:0:
109,192,109722,1,0,0:0:0:0:
256,192,109722,1,4,2:0:0:0:
402,192,109878,1,0,0:0:0:0:
329,192,110034,1,8,0:0:0:0:
256,192,110034,1,0,0:0:0:0:
182,192,110034,1,2,0:0:0:0:
109,192,110190,1,0,0:0:0:0:
36,192,110347,1,0,0:0:0:0:
109,192,110503,1,0,0:0:0:0:
182,192,110659,1,8,0:0:0:0:
256,192,110659,1,0,0:0:0:0:
329,192,110659,1,2,0:0:0:0:
402,192,110815,1,0,0:0:0:0:
475,192,110972,1,0,0:0:0:0:
36,192,110972,1,0,0:0:0:0:
402,192,111128,1,0,0:0:0:0:
329,192,111284,1,2,0:0:0:0:
256,192,111284,1,0,0:0:0:0:
182,192,111284,1,8,0:0:0:0:
109,192,111440,1,0,0:0:0:0:
36,192,111597,1,0,0:0:0:0:
109,192,111753,1,0,0:0:0:0:
329,192,111909,1,2,0:0:0:0:
256,192,111909,1,0,0:0:0:0:
182,192,111909,1,8,0:0:0:0:
402,192,112065,1,0,0:0:0:0:
475,192,112222,128,4,114565:2:0:0:0:
36,192,112222,128,0,114565:0:0:0:0:
182,192,112534,1,0,0:0:0:0:
256,192,112534,1,8,0:0:0:0:
329,192,112534,1,2,0:0:0:0:
109,192,112847,128,0,114565:0:0:0:0:
256,192,113159,128,0,114565:0:0:0:0:
402,192,113472,128,0,114565:0:0:0:0:
182,192,113784,1,8,0:0:0:0:
182,192,114253,1,0,0:0:0:80:LR_Drum Rpd Fast .wav
182,192,114565,1,0,0:0:0:80:LR_Drum Rpd Fast .wav
329,192,114643,1,2,0:0:0:0:
475,192,114722,1,8,0:0:0:0:
36,192,114722,1,4,2:0:0:0:
36,192,114878,1,4,2:0:0:0:
475,192,114878,1,8,0:0:0:0:
402,192,115190,1,2,0:0:0:0:
256,192,115268,1,0,0:0:0:0:
109,192,115347,1,8,0:0:1:66:
475,192,115659,1,8,0:0:0:0:
36,192,115659,1,2,0:0:0:0:
475,192,115815,1,8,0:0:0:0:
36,192,115815,1,2,0:0:0:0:
109,192,116128,1,2,0:0:0:0:
256,192,116206,1,0,0:0:0:0:
402,192,116284,1,8,0:0:1:66:
329,192,116440,1,2,0:0:0:0:
182,192,116518,1,0,0:0:0:0:
36,192,116597,1,8,0:0:1:66:
475,192,116597,1,8,0:0:0:0:
475,192,116753,1,8,0:0:0:0:
36,192,116753,1,2,0:0:0:0:
329,192,116909,1,8,0:0:0:0:
182,192,116909,1,2,0:0:0:0:
329,192,117065,1,8,0:0:0:0:
182,192,117065,1,2,0:0:0:0:
475,192,117222,1,8,0:0:0:0:
36,192,117222,1,2,0:0:0:0:
475,192,117378,1,8,0:0:0:0:
36,192,117378,1,2,0:0:0:0:
109,192,117690,1,2,0:0:0:0:
256,192,117768,1,0,0:0:0:0:
402,192,117847,1,8,0:0:1:66:
475,192,118159,1,8,0:0:0:0:
36,192,118159,1,2,0:0:0:0:
36,192,118315,1,2,0:0:0:0:
475,192,118315,1,8,0:0:0:0:
402,192,118628,1,2,0:0:0:0:
256,192,118706,1,0,0:0:0:0:
109,192,118784,1,8,0:0:1:66:
182,192,118940,1,2,0:0:0:0:
329,192,119018,1,0,0:0:0:0:
475,192,119097,1,8,0:0:1:66:
36,192,119097,1,8,0:0:0:0:
475,192,119253,1,8,0:0:0:0:
36,192,119253,1,2,0:0:0:0:
329,192,119409,1,8,0:0:0:0:
182,192,119409,1,2,0:0:0:0:
109,192,119565,1,2,0:0:0:0:
402,192,119565,1,8,0:0:0:0:
36,192,119722,1,2,0:0:0:0:
475,192,119722,1,8,0:0:0:0:
256,192,119722,1,4,2:0:0:0:
475,192,119878,1,8,0:0:0:0:
36,192,119878,1,2,0:0:0:0:
256,192,119878,1,4,2:0:0:0:
475,192,120190,1,2,0:0:0:0:
402,192,120268,1,0,0:0:0:0:
329,192,120347,1,8,0:0:1:66:
182,192,120659,1,2,0:0:0:0:
329,192,120659,1,8,0:0:0:0:
329,192,120815,1,8,0:0:0:0:
182,192,120815,1,2,0:0:0:0:
36,192,121128,1,2,0:0:0:0:
109,192,121206,1,0,0:0:0:0:
182,192,121284,1,8,0:0:1:66:
475,192,121440,1,2,0:0:0:0:
402,192,121518,1,0,0:0:0:0:
329,192,121597,1,8,0:0:1:66:
182,192,121597,1,2,0:0:0:0:
182,192,121753,1,2,0:0:0:0:
329,192,121753,1,8,0:0:0:0:
109,192,121909,1,2,0:0:0:0:
402,192,121909,1,8,0:0:0:0:
402,192,122065,1,8,0:0:0:0:
109,192,122065,1,2,0:0:0:0:
475,192,122222,1,8,0:0:0:0:
36,192,122222,1,2,0:0:0:0:
36,192,122378,1,2,0:0:0:0:
475,192,122378,1,8,0:0:0:0:
36,192,122690,1,2,0:0:0:0:
109,192,122768,1,0,0:0:0:0:
182,192,122847,1,8,0:0:1:66:
182,192,123159,1,2,0:0:0:0:
329,192,123159,1,8,0:0:0:0:
329,192,123315,1,8,0:0:0:0:
182,192,123315,1,2,0:0:0:0:
475,192,123628,1,2,0:0:0:0:
402,192,123706,1,0,0:0:0:0:
36,192,123784,1,2,0:0:0:0:
109,192,123784,1,8,0:0:0:0:
329,192,123784,1,0,0:0:0:40:LR_Drum Rpd vFast.wav
475,192,123940,1,2,0:0:0:0:
402,192,124018,1,0,0:0:0:0:
36,192,124097,1,2,0:0:0:0:
109,192,124097,1,8,0:0:0:0:
329,192,124097,1,0,0:0:0:40:LR_Drum Rpd vFast.wav
182,192,124175,1,2,0:0:0:0:
256,192,124175,1,8,0:0:0:0:
475,192,124253,1,8,0:0:1:66:
402,192,124331,1,4,0:0:1:66:
36,192,124409,1,2,0:0:0:0:
329,192,124409,1,8,0:0:1:66:
182,192,124565,1,8,0:0:0:0:
109,192,124565,1,4,2:0:0:0:
402,192,124565,1,2,0:0:0:0:
475,192,124565,1,0,0:0:0:0:
109,192,124878,128,0,125034:0:0:0:0:
402,192,125034,1,8,0:0:0:0:
256,192,125034,1,2,0:0:0:0:
182,192,125190,128,0,125347:0:0:0:0:
329,192,125347,1,0,0:0:0:0:
475,192,125347,1,0,0:0:0:0:
109,192,125503,128,0,125659:0:0:0:0:
256,192,125659,1,2,0:0:0:0:
402,192,125659,1,8,0:0:0:0:
36,192,125815,128,0,125972:0:0:0:0:
182,192,125972,1,0,0:0:0:0:
329,192,125972,1,0,0:0:0:0:
109,192,126128,128,0,126284:0:0:0:0:
256,192,126284,1,2,0:0:0:0:
402,192,126284,1,8,0:0:0:0:
182,192,126440,128,0,126597:0:0:0:0:
109,192,126597,1,4,2:0:0:0:
329,192,126597,1,0,0:0:0:0:
36,192,126597,1,8,0:0:0:0:
475,192,126597,1,2,0:0:0:0:
475,192,126909,1,2,0:0:0:0:
36,192,126909,1,8,0:0:0:0:
329,192,126909,1,0,0:0:0:0:
109,192,126909,1,4,2:0:0:0:
182,192,127378,128,0,127534:0:0:0:0:
109,192,127534,1,2,0:0:0:0:
402,192,127534,1,8,0:0:0:0:
256,192,127690,128,0,127847:0:0:0:0:
475,192,127847,1,0,0:0:0:0:
36,192,127847,1,0,0:0:0:0:
329,192,128003,128,0,128159:0:0:0:0:
109,192,128159,1,2,0:0:0:0:
402,192,128159,1,8,0:0:0:0:
256,192,128315,128,0,128472:0:0:0:0:
36,192,128472,1,0,0:0:0:0:
475,192,128472,1,0,0:0:0:0:
182,192,128628,128,0,128784:0:0:0:0:
109,192,128784,1,2,0:0:0:0:
402,192,128784,1,8,0:0:0:0:
256,192,128940,128,0,129097:0:0:0:0:
475,192,129097,1,2,0:0:0:0:
36,192,129097,1,8,0:0:0:0:
182,192,129097,1,4,2:0:0:0:
329,192,129097,1,0,0:0:0:0:
182,192,129409,1,4,2:0:0:0:
329,192,129409,1,0,0:0:0:0:
475,192,129409,1,2,0:0:0:0:
36,192,129409,1,8,0:0:0:0:
402,192,129878,128,0,130034:0:0:0:0:
109,192,130034,1,8,0:0:0:0:
256,192,130034,1,2,0:0:0:0:
329,192,130190,128,0,130347:0:0:0:0:
182,192,130347,1,0,0:0:0:0:
36,192,130347,1,0,0:0:0:0:
402,192,130503,128,0,130659:0:0:0:0:
109,192,130659,1,8,0:0:0:0:
256,192,130659,1,2,0:0:0:0:
475,192,130815,128,0,130972:0:0:0:0:
182,192,130972,1,0,0:0:0:0:
329,192,130972,1,0,0:0:0:0:
402,192,131128,128,0,131284:0:0:0:0:
256,192,131284,1,2,0:0:0:0:
109,192,131284,1,8,0:0:0:0:
329,192,131440,128,0,131597:0:0:0:0:
475,192,131597,1,8,0:0:0:0:
402,192,131597,1,4,2:0:0:0:
182,192,131597,1,0,0:0:0:0:
36,192,131597,1,2,0:0:0:0:
36,192,131909,1,2,0:0:0:0:
402,192,131909,1,4,2:0:0:0:
475,192,131909,1,8,0:0:0:0:
182,192,131909,1,0,0:0:0:0:
256,192,132222,128,4,132690:2:0:0:0:
36,192,132222,128,2,133315:0:0:0:0:
475,192,132222,128,8,133003:0:0:0:0:
256,192,132847,128,0,133940:0:0:0:0:
475,192,133159,128,0,134253:0:0:0:0:
36,192,133472,128,0,133628:0:0:0:0:
36,192,133784,128,0,134722:0:0:0:0:
256,192,134097,128,0,134722:0:0:0:0:
475,192,134409,128,0,134722:0:0:0:0:
402,192,134722,1,0,0:0:0:0:
109,192,134722,1,0,0:0:0:0:
256,192,134878,1,0,0:0:0:0:
182,192,135034,1,8,0:0:0:0:
329,192,135034,1,2,0:0:0:0:
256,192,135190,1,0,0:0:0:0:
109,192,135347,1,8,0:0:0:0:
402,192,135347,1,2,0:0:0:0:
256,192,135503,1,0,0:0:0:0:
36,192,135659,1,8,0:0:0:0:
475,192,135659,1,2,0:0:0:0:
256,192,135815,1,0,0:0:0:0:
109,192,135972,1,8,0:0:0:0:
402,192,135972,1,2,0:0:0:0:
256,192,136128,1,0,0:0:0:0:
182,192,136284,1,8,0:0:0:0:
329,192,136284,1,2,0:0:0:0:
256,192,136440,1,0,0:0:0:0:
109,192,136597,1,8,0:0:0:0:
402,192,136597,1,2,0:0:0:0:
256,192,136753,1,0,0:0:0:0:
475,192,136909,1,8,0:0:0:0:
36,192,136909,1,2,0:0:0:0:
256,192,137065,1,0,0:0:0:0:
109,192,137222,1,2,0:0:0:0:
402,192,137222,1,8,0:0:0:0:
256,192,137378,1,0,0:0:0:0:
182,192,137534,1,2,0:0:0:0:
329,192,137534,1,8,0:0:0:0:
256,192,137690,1,0,0:0:0:0:
109,192,137847,1,2,0:0:0:0:
402,192,137847,1,8,0:0:0:0:
256,192,138003,1,0,0:0:0:0:
36,192,138159,1,2,0:0:0:0:
475,192,138159,1,8,0:0:0:0:
256,192,138315,1,0,0:0:0:0:
109,192,138472,1,2,0:0:0:0:
402,192,138472,1,8,0:0:0:0:
256,192,138628,1,0,0:0:0:0:
182,192,138784,1,2,0:0:0:0:
329,192,138784,1,8,0:0:0:0:
256,192,138940,1,0,0:0:0:0:
109,192,139097,1,2,0:0:0:0:
402,192,139097,1,8,0:0:0:0:
256,192,139253,1,0,0:0:0:0:
36,192,139409,1,2,0:0:0:0:
475,192,139409,1,8,0:0:0:0:
256,192,139565,1,0,0:0:0:0:
182,192,139722,1,4,2:0:0:0:
109,192,139722,1,2,0:0:0:0:
402,192,139722,1,0,0:0:0:0:
475,192,139722,1,8,0:0:0:0:
329,192,139878,1,0,0:0:0:0:
402,192,140034,1,8,0:0:0:0:
182,192,140034,1,2,0:0:0:0:
256,192,140190,1,0,0:0:0:0:
329,192,140347,1,8,0:0:0:0:
109,192,140347,1,2,0:0:0:0:
182,192,140503,1,0,0:0:0:0:
36,192,140659,1,2,0:0:0:0:
256,192,140659,1,8,0:0:0:0:
109,192,140815,1,8,0:0:0:0:
329,192,140815,1,2,0:0:0:0:
256,192,140972,1,0,0:0:0:0:
402,192,141128,1,2,0:0:0:0:
182,192,141128,1,8,0:0:0:0:
329,192,141284,1,0,0:0:0:0:
256,192,141440,1,8,0:0:0:0:
475,192,141440,1,2,0:0:0:0:
182,192,141597,1,2,0:0:0:0:
402,192,141597,1,8,0:0:0:0:
256,192,141753,1,0,0:0:0:0:
329,192,141909,1,8,0:0:0:0:
109,192,141909,1,2,0:0:0:0:
182,192,142065,1,0,0:0:0:0:
36,192,142222,1,2,0:0:0:0:
256,192,142222,1,8,0:0:0:0:
109,192,142378,1,8,0:0:0:0:
329,192,142378,1,2,0:0:0:0:
256,192,142534,1,0,0:0:0:0:
402,192,142690,1,2,0:0:0:0:
182,192,142690,1,8,0:0:0:0:
329,192,142847,1,0,0:0:0:0:
256,192,143003,1,8,0:0:0:0:
475,192,143003,1,2,0:0:0:0:
182,192,143159,1,2,0:0:0:0:
402,192,143159,1,8,0:0:0:0:
256,192,143315,1,0,0:0:0:0:
329,192,143472,1,8,0:0:0:0:
109,192,143472,1,2,0:0:0:0:
182,192,143628,5,0,0:0:0:0:
36,192,143784,1,2,0:0:0:0:
256,192,143784,1,8,0:0:0:0:
109,192,143940,1,8,0:0:0:0:
329,192,143940,1,2,0:0:0:0:
256,192,144097,1,0,0:0:0:0:
402,192,144253,1,2,0:0:0:0:
182,192,144253,1,8,0:0:0:0:
329,192,144409,1,0,0:0:0:0:
256,192,144565,1,8,0:0:0:0:
475,192,144565,1,2,0:0:0:0:
109,192,144722,1,0,0:0:0:0:
182,192,144722,1,4,2:0:0:0:
329,192,144722,1,2,0:0:0:0:
402,192,144722,1,8,0:0:0:0:
475,192,144878,1,0,0:0:0:0:
36,192,145034,1,2,0:0:0:0:
402,192,145034,1,8,0:0:0:0:
329,192,145190,1,0,0:0:0:0:
402,192,145347,1,8,0:0:0:0:
36,192,145347,1,2,0:0:0:0:
475,192,145503,1,0,0:0:0:0:
36,192,145659,1,2,0:0:0:0:
402,192,145659,1,8,0:0:0:0:
329,192,145815,1,0,0:0:0:0:
36,192,145972,1,8,0:0:0:0:
402,192,145972,1,2,0:0:0:0:
475,192,146128,1,0,0:0:0:0:
36,192,146284,1,2,0:0:0:0:
402,192,146284,1,8,0:0:0:0:
329,192,146440,1,0,0:0:0:0:
36,192,146597,1,8,0:0:0:0:
256,192,146597,1,2,0:0:0:0:
182,192,146753,1,0,0:0:0:0:
109,192,146909,1,2,0:0:0:0:
475,192,146909,1,8,0:0:0:0:
36,192,147065,1,0,0:0:0:0:
475,192,147222,1,8,0:0:0:0:
109,192,147222,1,2,0:0:0:0:
182,192,147378,1,0,0:0:0:0:
109,192,147534,1,2,0:0:0:0:
475,192,147534,1,8,0:0:0:0:
36,192,147690,1,0,0:0:0:0:
109,192,147847,1,2,0:0:0:0:
475,192,147847,1,8,0:0:0:0:
182,192,148003,1,0,0:0:0:0:
109,192,148159,1,8,0:0:0:0:
475,192,148159,1,2,0:0:0:0:
36,192,148315,1,0,0:0:0:0:
475,192,148472,1,8,0:0:0:0:
109,192,148472,1,2,0:0:0:0:
182,192,148628,1,0,0:0:0:0:
36,192,148784,1,2,0:0:0:0:
256,192,148784,1,8,0:0:0:0:
329,192,148940,1,0,0:0:0:0:
36,192,149097,1,2,0:0:0:0:
402,192,149097,1,8,0:0:0:0:
475,192,149253,1,0,0:0:0:0:
402,192,149409,1,8,0:0:0:0:
36,192,149409,1,2,0:0:0:0:
329,192,149565,1,0,0:0:0:0:
109,192,149722,128,8,150815:0:0:0:0:
256,192,149722,128,2,150815:0:0:0:0:
402,192,149722,128,4,150815:2:0:0:0:
402,192,150972,128,2,151597:0:0:0:0:
256,192,150972,128,4,151597:2:0:0:0:
109,192,150972,128,8,151597:0:0:0:0:
36,192,151597,1,2,0:0:0:0:
329,192,151597,1,4,2:0:0:0:
475,192,151597,1,8,0:0:0:0:
182,192,151597,1,0,0:0:0:0:
402,192,151909,1,2,0:0:0:0:
109,192,151909,1,8,0:0:0:0:
475,192,152222,1,8,0:0:0:0:
36,192,152222,1,2,0:0:0:0:
256,192,152222,1,4,2:0:0:0:
256,192,152378,1,0,0:0:0:0:
402,192,152534,1,2,0:0:0:0:
109,192,152534,1,8,0:0:0:0:
256,192,152690,1,0,0:0:0:0:
256,192,152847,1,0,0:0:0:0:
256,192,153003,1,0,0:0:0:0:
109,192,153159,1,8,0:0:0:0:
402,192,153159,1,2,0:0:0:0:
256,192,153315,1,0,0:0:0:0:
36,192,153472,1,2,0:0:0:0:
182,192,153472,1,4,2:0:0:0:
329,192,153472,1,0,0:0:0:0:
475,192,153472,1,8,0:0:0:0:
109,192,153706,5,8,0:0:0:0:
402,192,153706,1,2,0:0:0:0:
256,192,153940,1,0,0:0:0:0:
256,192,154097,1,0,0:0:0:0:
402,192,154253,1,10,0:0:0:0:
109,192,154331,1,10,0:0:0:0:
329,192,154409,1,10,0:0:0:0:
182,192,154487,1,10,0:0:0:0:
402,192,154565,1,10,0:0:0:0:
109,192,154643,1,10,0:0:0:0:
256,192,154722,5,4,2:0:0:0:
475,192,154722,1,8,0:0:0:0:
36,192,154722,128,2,155034:0:0:0:0:
402,192,154878,1,0,0:0:0:0:
109,192,155034,1,2,0:0:0:0:
329,192,155034,1,0,0:0:0:0:
182,192,155034,1,8,0:0:0:0:
402,192,155190,1,0,0:0:0:0:
36,192,155347,1,4,0:0:0:0:
475,192,155347,128,4,155659:0:0:0:0:
109,192,155503,1,0,0:0:0:0:
402,192,155659,1,2,0:0:0:0:
329,192,155659,1,0,0:0:0:0:
182,192,155659,1,8,0:0:0:0:
109,192,155815,1,0,0:0:0:0:
475,192,155972,1,4,0:0:0:0:
36,192,155972,128,4,156284:0:0:0:0:
402,192,156128,1,0,0:0:0:0:
182,192,156284,1,8,0:0:0:0:
329,192,156284,1,0,0:0:0:0:
109,192,156284,1,2,0:0:0:0:
402,192,156440,1,0,0:0:0:0:
36,192,156597,1,4,0:0:0:0:
475,192,156597,128,4,156909:0:0:0:0:
109,192,156753,1,0,0:0:0:0:
402,192,156909,1,2,0:0:0:0:
329,192,156909,1,0,0:0:0:0:
182,192,156909,1,8,0:0:0:0:
109,192,157065,1,0,0:0:0:0:
36,192,157222,128,4,157534:0:0:0:0:
475,192,157222,1,4,0:0:0:0:
402,192,157378,1,0,0:0:0:0:
182,192,157534,1,8,0:0:0:0:
109,192,157534,1,2,0:0:0:0:
329,192,157534,1,0,0:0:0:0:
402,192,157690,1,0,0:0:0:0:
36,192,157847,1,4,0:0:0:0:
475,192,157847,128,4,158159:0:0:0:0:
109,192,158003,1,0,0:0:0:0:
329,192,158159,1,0,0:0:0:0:
402,192,158159,1,2,0:0:0:0:
182,192,158159,1,8,0:0:0:0:
109,192,158315,1,0,0:0:0:0:
475,192,158472,1,4,0:0:0:0:
36,192,158472,128,4,158784:0:0:0:0:
402,192,158628,1,0,0:0:0:0:
329,192,158784,1,0,0:0:0:0:
109,192,158784,1,2,0:0:0:0:
182,192,158784,1,8,0:0:0:0:
402,192,158940,1,0,0:0:0:0:
475,192,159097,128,4,159409:0:0:0:0:
36,192,159097,1,4,0:0:0:0:
109,192,159253,1,0,0:0:0:0:
182,192,159409,1,8,0:0:0:0:
402,192,159409,1,2,0:0:0:0:
329,192,159409,1,0,0:0:0:0:
109,192,159565,1,0,0:0:0:0:
36,192,159722,1,0,0:0:0:0:
182,192,159722,1,2,0:0:0:0:
329,192,159722,1,4,2:0:0:0:
475,192,159722,1,8,0:0:0:0:
36,192,160034,1,8,0:0:0:0:
475,192,160034,1,2,0:0:0:0:
256,192,160034,1,0,0:0:0:0:
402,192,160190,1,0,0:0:0:0:
329,192,160347,128,4,160659:0:0:0:0:
182,192,160347,1,4,0:0:0:0:
109,192,160503,1,0,0:0:0:0:
402,192,160659,1,0,0:0:0:0:
36,192,160659,1,8,0:0:0:0:
475,192,160659,1,2,0:0:0:0:
109,192,160815,1,0,0:0:0:0:
329,192,160972,1,4,0:0:0:0:
182,192,160972,128,4,161284:0:0:0:0:
402,192,161128,1,0,0:0:0:0:
36,192,161284,1,2,0:0:0:0:
475,192,161284,1,0,0:0:0:0:
109,192,161284,1,8,0:0:0:0:
402,192,161440,1,0,0:0:0:0:
329,192,161597,128,4,161909:0:0:0:0:
182,192,161597,1,4,0:0:0:0:
109,192,161753,1,0,0:0:0:0:
36,192,161909,1,8,0:0:0:0:
402,192,161909,1,0,0:0:0:0:
475,192,161909,1,2,0:0:0:0:
109,192,162065,1,0,0:0:0:0:
182,192,162222,128,4,162534:0:0:0:0:
329,192,162222,1,4,0:0:0:0:
402,192,162378,1,0,0:0:0:0:
36,192,162534,1,2,0:0:0:0:
109,192,162534,1,8,0:0:0:0:
475,192,162534,1,0,0:0:0:0:
402,192,162690,1,0,0:0:0:0:
182,192,162847,1,4,0:0:0:0:
329,192,162847,128,4,163159:0:0:0:0:
109,192,163003,1,0,0:0:0:0:
402,192,163159,1,0,0:0:0:0:
475,192,163159,1,2,0:0:0:0:
36,192,163159,1,8,0:0:0:0:
109,192,163315,1,0,0:0:0:0:
182,192,163472,128,4,163628:0:0:0:0:
329,192,163472,1,4,0:0:0:0:
402,192,163628,1,0,0:0:0:0:
475,192,163628,1,0,0:0:0:0:
109,192,163628,1,8,0:0:0:0:
36,192,163628,1,2,0:0:0:0:
256,192,163784,1,0,0:0:0:0:
256,192,163940,1,0,0:0:0:0:
402,192,164097,1,2,0:0:0:0:
36,192,164097,1,4,2:0:0:0:
109,192,164097,1,8,0:0:0:0:
475,192,164097,1,0,0:0:0:0:
109,192,164409,1,8,0:0:0:0:
182,192,164409,1,4,2:0:0:0:
402,192,164409,1,2,0:0:0:0:
329,192,164409,1,0,0:0:0:0:
256,192,164722,1,2,0:0:0:0:
36,192,164722,1,4,2:0:0:0:
475,192,164722,1,8,0:0:0:0:
329,192,165034,1,8,0:0:0:0:
109,192,165034,1,0,0:0:0:0:
402,192,165034,1,2,0:0:0:0:
182,192,165190,1,0,0:0:0:0:
256,192,165347,1,4,0:0:0:0:
36,192,165347,128,4,165659:0:0:0:0:
329,192,165503,1,0,0:0:0:0:
402,192,165659,1,8,0:0:0:0:
182,192,165659,1,0,0:0:0:0:
109,192,165659,1,2,0:0:0:0:
329,192,165815,1,0,0:0:0:0:
475,192,165972,128,4,166284:0:0:0:0:
256,192,165972,1,4,0:0:0:0:
182,192,166128,1,0,0:0:0:0:
109,192,166284,1,0,0:0:0:0:
329,192,166284,1,8,0:0:0:0:
402,192,166284,1,2,0:0:0:0:
182,192,166440,1,0,0:0:0:0:
256,192,166597,1,4,0:0:0:0:
36,192,166597,128,4,166909:0:0:0:0:
329,192,166753,1,0,0:0:0:0:
402,192,166909,1,8,0:0:0:0:
109,192,166909,1,2,0:0:0:0:
182,192,166909,1,0,0:0:0:0:
329,192,167065,1,0,0:0:0:0:
475,192,167222,128,4,167534:0:0:0:0:
256,192,167222,1,4,0:0:0:0:
182,192,167378,1,0,0:0:0:0:
402,192,167534,1,2,0:0:0:0:
329,192,167534,1,8,0:0:0:0:
109,192,167534,1,0,0:0:0:0:
182,192,167690,1,0,0:0:0:0:
36,192,167847,128,4,168159:0:0:0:0:
256,192,167847,1,4,0:0:0:0:
329,192,168003,1,0,0:0:0:0:
182,192,168159,1,0,0:0:0:0:
109,192,168159,1,2,0:0:0:0:
402,192,168159,1,8,0:0:0:0:
329,192,168315,1,0,0:0:0:0:
256,192,168472,1,4,0:0:0:0:
475,192,168472,128,4,168784:0:0:0:0:
182,192,168628,1,0,0:0:0:0:
109,192,168784,1,0,0:0:0:0:
329,192,168784,1,8,0:0:0:0:
402,192,168784,1,2,0:0:0:0:
182,192,168940,1,0,0:0:0:0:
256,192,169097,1,4,0:0:0:0:
36,192,169097,128,4,169409:0:0:0:0:
329,192,169253,1,0,0:0:0:0:
402,192,169409,1,8,0:0:0:0:
109,192,169409,1,2,0:0:0:0:
182,192,169409,1,0,0:0:0:0:
329,192,169565,1,0,0:0:0:0:
256,192,169722,1,2,0:0:0:0:
36,192,169722,1,8,0:0:0:0:
475,192,169722,1,4,2:0:0:0:
182,192,169878,1,0,0:0:0:0:
329,192,170034,1,0,0:0:0:0:
402,192,170034,1,8,0:0:0:0:
109,192,170034,1,2,0:0:0:0:
182,192,170190,1,0,0:0:0:0:
36,192,170347,128,4,170659:0:0:0:0:
256,192,170347,1,4,0:0:0:0:
329,192,170503,1,0,0:0:0:0:
182,192,170659,1,8,0:0:0:0:
402,192,170659,1,0,0:0:0:0:
109,192,170659,1,2,0:0:0:0:
329,192,170815,1,0,0:0:0:0:
256,192,170972,1,4,0:0:0:0:
475,192,170972,128,4,171284:0:0:0:0:
182,192,171128,1,0,0:0:0:0:
402,192,171284,1,8,0:0:0:0:
109,192,171284,1,2,0:0:0:0:
329,192,171284,1,0,0:0:0:0:
182,192,171440,1,0,0:0:0:0:
36,192,171597,128,4,171909:0:0:0:0:
256,192,171597,1,4,0:0:0:0:
329,192,171753,1,0,0:0:0:0:
109,192,171909,1,2,0:0:0:0:
182,192,171909,1,8,0:0:0:0:
402,192,171909,1,0,0:0:0:0:
329,192,172065,1,0,0:0:0:0:
36,192,172222,1,8,0:0:0:0:
475,192,172222,1,2,0:0:0:0:
256,192,172222,128,4,173159:2:0:0:0:
329,192,172534,128,0,173628:0:0:0:0:
182,192,172534,128,0,173628:0:0:0:0:
36,192,172847,128,8,173628:0:0:0:0:
475,192,172847,128,8,173628:0:0:0:0:
109,192,173159,128,0,173628:0:0:0:0:
402,192,173159,128,0,173628:0:0:0:0:
256,192,173628,1,8,0:0:0:0:
182,192,173784,1,2,0:0:0:0:
329,192,173784,1,8,0:0:0:0:
109,192,173940,1,2,0:0:0:0:
402,192,173940,1,8,0:0:0:0:
36,192,174097,1,0,0:0:0:66:LR_Drum Rpd vFast.wav
475,192,174097,1,8,0:0:0:0:
256,192,174097,1,2,0:0:0:0:
329,192,174409,1,0,0:0:0:22:LR_Drum Low Long.wav
182,192,174409,1,0,0:0:0:22:LR_Drum Low Long.wav
402,192,174409,1,0,0:0:0:22:LR_Drum Low Long.wav
109,192,174409,1,0,0:0:0:22:LR_Drum Low Long.wav
36,192,174722,1,0,0:0:0:0:
109,192,174722,1,0,0:0:0:0:
475,192,174722,128,0,174930:0:0:0:0:
329,192,174930,128,4,175138:0:0:0:0:
402,192,175138,128,0,175347:0:0:0:0:
256,192,175347,128,4,175555:0:0:0:0:
329,192,175555,128,0,175763:0:0:0:0:
182,192,175763,128,4,175972:0:0:0:0:
256,192,175972,128,0,176180:0:0:0:0:
109,192,176180,128,4,176388:0:0:0:0:
182,192,176388,128,0,176597:0:0:0:0:
256,192,176597,1,8,0:0:0:0:
36,192,176597,1,2,0:0:0:0:
109,192,176805,1,2,0:0:0:0:
329,192,176805,1,8,0:0:0:0:
182,192,177013,1,2,0:0:0:0:
402,192,177013,1,8,0:0:0:0:
256,192,177222,1,2,0:0:0:0:
475,192,177222,1,8,0:0:0:0:
36,192,177222,128,0,177430:0:0:0:0:
182,192,177430,128,4,177638:0:0:0:0:
109,192,177638,128,0,177847:0:0:0:0:
256,192,177847,128,4,178055:0:0:0:0:
182,192,178055,128,0,178263:0:0:0:0:
329,192,178263,128,4,178472:0:0:0:0:
256,192,178472,128,0,178680:0:0:0:0:
402,192,178680,128,4,178888:0:0:0:0:
329,192,178888,128,0,179097:0:0:0:0:
475,192,179097,1,2,0:0:0:0:
256,192,179097,1,8,0:0:0:0:
182,192,179305,1,8,0:0:0:0:
402,192,179305,1,2,0:0:0:0:
329,192,179513,1,2,0:0:0:0:
109,192,179513,1,8,0:0:0:0:
36,192,179722,1,8,0:0:0:0:
256,192,179722,1,2,0:0:0:0:
475,192,179722,128,0,179930:0:0:0:0:
329,192,179930,128,4,180138:0:0:0:0:
402,192,180138,128,0,180347:0:0:0:0:
256,192,180347,128,4,180555:0:0:0:0:
329,192,180555,128,0,180763:0:0:0:0:
182,192,180763,128,4,180972:0:0:0:0:
256,192,180972,128,0,181180:0:0:0:0:
109,192,181180,128,4,181388:0:0:0:0:
182,192,181388,128,0,181597:0:0:0:0:
256,192,181597,1,8,0:0:0:0:
36,192,181597,1,2,0:0:0:0:
109,192,181805,1,2,0:0:0:0:
329,192,181805,1,8,0:0:0:0:
402,192,182013,1,8,0:0:0:0:
182,192,182013,1,2,0:0:0:0:
256,192,182222,1,2,0:0:0:0:
475,192,182222,1,4,2:0:0:0:
36,192,182222,128,0,182430:0:0:0:0:
182,192,182430,128,4,182638:0:0:0:0:
109,192,182638,128,0,182847:0:0:0:0:
256,192,182847,128,4,183055:0:0:0:0:
182,192,183055,128,0,183263:0:0:0:0:
329,192,183263,128,4,183472:0:0:0:0:
256,192,183472,128,0,183680:0:0:0:0:
402,192,183680,128,4,183888:0:0:0:0:
329,192,183888,128,0,184097:0:0:0:0:
475,192,184097,5,2,0:0:0:0:
256,192,184097,1,8,0:0:0:0:
182,192,184305,1,8,0:0:0:0:
402,192,184305,1,2,0:0:0:0:
329,192,184513,1,2,0:0:0:0:
109,192,184513,1,8,0:0:0:0:
475,192,184722,1,4,2:0:0:0:
256,192,184722,1,2,0:0:0:0:
36,192,184722,128,8,185034:0:0:0:0:
256,192,185034,128,0,185190:0:0:0:0:
402,192,185034,1,8,0:0:0:0:
109,192,185190,128,0,185347:0:0:0:0:
329,192,185347,128,0,185503:0:0:0:0:
182,192,185503,128,0,185659:0:0:0:0:
402,192,185659,128,0,185815:0:0:0:0:
36,192,185659,1,8,0:0:0:0:
256,192,185815,128,0,185972:0:0:0:0:
475,192,185972,128,0,186284:0:0:0:0:
329,192,185972,128,0,186284:0:0:0:0:
256,192,186284,128,0,186440:0:0:0:0:
109,192,186284,1,8,0:0:0:0:
402,192,186440,128,0,186597:0:0:0:0:
182,192,186597,128,0,186753:0:0:0:0:
329,192,186753,128,0,186909:0:0:0:0:
109,192,186909,128,0,187065:0:0:0:0:
402,192,186909,1,8,0:0:0:0:
256,192,187065,128,0,187222:0:0:0:0:
36,192,187222,128,0,187534:0:0:0:0:
182,192,187222,128,0,187534:0:0:0:0:
329,192,187534,128,0,187690:0:0:0:0:
475,192,187534,1,8,0:0:0:0:
109,192,187690,128,0,187847:0:0:0:0:
402,192,187847,128,0,188003:0:0:0:0:
182,192,188003,128,0,188159:0:0:0:0:
329,192,188159,128,0,188315:0:0:0:0:
36,192,188159,1,8,0:0:0:0:
109,192,188315,128,0,188472:0:0:0:0:
256,192,188472,128,0,188628:0:0:0:0:
36,192,188628,128,0,188784:0:0:0:0:
256,192,188784,128,0,188940:0:0:0:0:
182,192,188784,1,8,0:0:0:0:
329,192,188940,128,0,189722:0:0:0:0:
402,192,189097,128,0,189722:0:0:0:0:
36,192,189097,1,0,0:0:0:0:
475,192,189409,128,0,189722:0:0:0:0:
109,192,189409,1,8,0:0:0:0:
256,192,189722,1,8,0:0:0:0:
182,192,189722,1,2,0:0:0:0:
36,192,189722,128,4,190034:2:0:0:0:
475,192,190034,1,8,0:0:0:0:
182,192,190034,128,0,190190:0:0:0:0:
329,192,190190,128,0,190347:0:0:0:0:
109,192,190347,128,0,190503:0:0:0:0:
256,192,190503,128,0,190659:0:0:0:0:
36,192,190659,128,0,190815:0:0:0:0:
402,192,190659,1,8,0:0:0:0:
182,192,190815,128,0,190972:0:0:0:0:
475,192,190972,128,0,191284:0:0:0:0:
402,192,190972,128,0,191284:0:0:0:0:
329,192,191284,128,0,191440:0:0:0:0:
36,192,191284,1,8,0:0:0:0:
182,192,191440,128,0,191597:0:0:0:0:
402,192,191597,128,0,191753:0:0:0:0:
256,192,191753,128,0,191909:0:0:0:0:
109,192,191909,1,8,0:0:0:0:
475,192,191909,128,0,192065:0:0:0:0:
329,192,192065,128,0,192222:0:0:0:0:
36,192,192222,128,0,192534:0:0:0:0:
109,192,192222,128,0,192534:0:0:0:0:
475,192,192534,1,8,0:0:0:0:
182,192,192534,128,0,192690:0:0:0:0:
329,192,192690,128,0,192847:0:0:0:0:
109,192,192847,128,0,193003:0:0:0:0:
256,192,193003,128,0,193159:0:0:0:0:
36,192,193159,128,0,193315:0:0:0:0:
402,192,193159,1,8,0:0:0:0:
182,192,193315,128,0,193472:0:0:0:0:
329,192,193472,128,0,193628:0:0:0:0:
109,192,193628,128,0,193784:0:0:0:0:
329,192,193784,128,0,193940:0:0:0:0:
36,192,193940,128,0,194409:0:0:0:0:
109,192,194097,128,0,194409:0:0:0:0:
182,192,194409,1,8,0:0:0:0:
256,192,194487,1,0,0:0:0:55:LR_Drum Rpd vFast.wav
329,192,194565,1,8,0:0:0:0:
402,192,194643,1,0,0:0:0:55:LR_Drum Rpd vFast.wav
329,192,194722,128,0,195034:0:0:0:0:
36,192,194722,1,4,2:0:0:0:
475,192,194722,128,8,195034:0:0:0:0:
109,192,195034,1,0,0:0:0:0:
402,192,195190,1,0,0:0:0:0:
256,192,195268,1,0,0:0:0:0:
182,192,195347,128,8,195659:0:0:0:0:
36,192,195347,128,2,195659:0:0:0:0:
329,192,195503,1,0,0:0:0:0:
402,192,195659,1,0,0:0:0:0:
109,192,195815,1,0,0:0:0:0:
329,192,195972,128,8,196284:0:0:0:0:
475,192,195972,128,2,196284:0:0:0:0:
109,192,196284,1,0,0:0:0:0:
402,192,196440,1,0,0:0:0:0:
256,192,196518,1,0,0:0:0:0:
36,192,196597,128,2,196909:0:0:0:0:
182,192,196597,128,8,196909:0:0:0:0:
329,192,196753,1,0,0:0:0:0:
402,192,196909,1,0,0:0:0:0:
109,192,197065,1,0,0:0:0:0:
475,192,197222,128,2,197534:0:0:0:0:
329,192,197222,128,8,197534:0:0:0:0:
36,192,197534,1,0,0:0:0:0:
402,192,197690,1,0,0:0:0:0:
256,192,197768,1,0,0:0:0:0:
475,192,197847,128,2,198159:0:0:0:0:
182,192,197847,128,8,198159:0:0:0:0:
36,192,198003,1,0,0:0:0:0:
329,192,198159,1,0,0:0:0:0:
256,192,198315,1,0,0:0:0:0:
182,192,198472,128,8,198784:0:0:0:0:
329,192,198472,128,2,198784:0:0:0:0:
402,192,198784,128,2,198940:0:0:0:0:
109,192,198784,128,0,198940:0:0:0:0:
182,192,199097,128,2,199409:0:0:0:0:
329,192,199097,128,8,199409:0:0:0:0:
402,192,199409,128,2,199565:0:0:0:0:
109,192,199409,128,0,199565:0:0:0:0:
475,192,199722,1,8,0:0:0:0:
36,192,199722,1,2,0:0:0:0:
182,192,199878,1,8,0:0:0:0:
329,192,199878,1,0,0:0:0:0:
475,192,200034,1,8,0:0:0:0:
36,192,200034,1,2,0:0:0:0:
182,192,200190,1,8,0:0:0:0:
329,192,200190,1,0,0:0:0:0:
109,192,200347,1,2,0:0:0:0:
402,192,200347,1,8,0:0:0:0:
256,192,200503,128,8,200659:0:0:0:0:
402,192,200659,1,8,0:0:0:0:
109,192,200659,1,2,0:0:0:0:
256,192,200815,128,8,200972:0:0:0:0:
36,192,200972,1,2,0:0:0:0:
475,192,200972,1,8,0:0:0:0:
182,192,201128,1,8,0:0:0:0:
329,192,201128,1,0,0:0:0:0:
36,192,201284,1,2,0:0:0:0:
475,192,201284,1,8,0:0:0:0:
182,192,201440,1,8,0:0:0:0:
329,192,201440,1,0,0:0:0:0:
109,192,201597,1,2,0:0:0:0:
402,192,201597,1,8,0:0:0:0:
256,192,201753,128,8,201909:0:0:0:0:
402,192,201909,1,8,0:0:0:0:
109,192,201909,1,2,0:0:0:0:
256,192,202065,128,8,202222:0:0:0:0:
36,192,202222,1,2,0:0:0:0:
475,192,202222,1,8,0:0:0:0:
182,192,202378,1,2,0:0:0:0:
329,192,202378,1,0,0:0:0:0:
36,192,202534,1,2,0:0:0:0:
475,192,202534,1,8,0:0:0:0:
182,192,202690,1,8,0:0:0:0:
329,192,202690,1,0,0:0:0:0:
109,192,202847,1,2,0:0:0:0:
402,192,202847,1,8,0:0:0:0:
256,192,203003,128,2,203159:0:0:0:0:
109,192,203159,1,2,0:0:0:0:
402,192,203159,1,8,0:0:0:0:
256,192,203315,128,8,203472:0:0:0:0:
475,192,203472,1,8,0:0:0:0:
36,192,203472,1,2,0:0:0:0:
402,192,203550,1,0,0:0:0:33:LR_Drum Rpd vFast.wav
109,192,203550,1,0,0:0:0:0:
329,192,203628,1,0,0:0:0:33:LR_Drum Rpd Fast .wav
182,192,203628,1,0,0:0:0:0:
256,192,203706,1,0,0:0:0:33:LR_Drum Low Long.wav
36,192,203784,1,2,0:0:0:0:
475,192,203784,1,8,0:0:0:0:
109,192,203862,1,0,0:0:0:0:
402,192,203862,1,0,0:0:0:33:LR_Drum Rpd vFast.wav
182,192,203940,1,0,0:0:0:0:
329,192,203940,1,0,0:0:0:33:LR_Drum Rpd Fast .wav
256,192,204018,1,0,0:0:0:33:LR_Drum Low Long.wav
36,192,204097,128,0,205034:0:0:0:0:
475,192,204097,128,0,205034:0:0:0:0:
182,192,204565,128,0,205034:0:0:0:0:
329,192,204565,128,0,205034:0:0:0:0:
256,192,205034,128,0,205347:0:0:0:0:
402,192,205034,1,2,0:0:0:0:
109,192,205034,1,4,0:0:0:0:
182,192,205347,128,0,205503:0:0:0:0:
402,192,205347,1,4,0:0:0:0:
329,192,205503,128,0,205659:0:0:0:0:
475,192,205659,128,2,205815:0:0:0:0:
109,192,205659,1,12,0:0:0:0:
402,192,205815,128,0,206284:0:0:0:0:
182,192,205972,1,4,0:0:0:0:
256,192,206284,128,8,206597:0:0:0:0:
109,192,206284,1,6,0:0:0:0:
329,192,206597,128,0,206753:0:0:0:0:
475,192,206597,1,4,0:0:0:0:
182,192,206753,128,0,206909:0:0:0:0:
36,192,206909,128,8,207065:0:0:0:0:
402,192,206909,1,6,0:0:0:0:
109,192,207065,128,0,207534:0:0:0:0:
329,192,207222,1,4,0:0:0:0:
256,192,207534,128,8,207847:0:0:0:0:
36,192,207534,1,6,0:0:0:0:
182,192,207847,128,0,208003:0:0:0:0:
402,192,207847,1,4,0:0:0:0:
329,192,208003,128,0,208159:0:0:0:0:
182,192,208159,128,8,208315:0:0:0:0:
475,192,208159,1,6,0:0:0:0:
402,192,208315,128,0,208628:0:0:0:0:
109,192,208472,1,4,0:0:0:0:
329,192,208628,1,0,0:0:0:0:
182,192,208706,1,0,0:0:0:0:
36,192,208784,128,6,209097:0:0:0:0:
475,192,208784,1,8,0:0:0:0:
256,192,209097,128,0,209409:0:0:0:0:
109,192,209097,1,4,0:0:0:0:
329,192,209409,1,6,0:0:0:0:
182,192,209409,1,8,0:0:0:0:
402,192,209565,128,8,210034:0:0:0:0:
36,192,209565,1,4,2:0:0:0:
109,192,209565,1,2,0:0:0:0:
256,192,210034,128,8,210347:0:0:0:0:
109,192,210034,1,6,0:0:0:0:
182,192,210347,128,0,210503:0:0:0:0:
36,192,210347,1,4,0:0:0:0:
329,192,210503,128,0,210659:0:0:0:0:
475,192,210659,128,8,210815:0:0:0:0:
109,192,210659,1,6,0:0:0:0:
402,192,210815,128,0,211284:0:0:0:0:
182,192,210972,1,4,0:0:0:0:
256,192,211284,128,8,211597:0:0:0:0:
36,192,211284,1,6,0:0:0:0:
329,192,211597,128,0,211753:0:0:0:0:
109,192,211597,1,4,0:0:0:0:
36,192,211753,128,0,211909:0:0:0:0:
182,192,211909,128,6,212065:0:0:0:0:
475,192,211909,1,8,0:0:0:0:
402,192,212065,128,0,212378:0:0:0:0:
109,192,212222,1,4,0:0:0:0:
329,192,212378,128,0,212534:0:0:0:0:
475,192,212534,128,6,212690:0:0:0:0:
182,192,212534,1,8,0:0:0:0:
256,192,212690,128,0,213003:0:0:0:0:
109,192,212847,1,4,0:0:0:0:
36,192,213003,128,0,213159:0:0:0:0:
182,192,213159,128,8,213315:0:0:0:0:
402,192,213159,1,6,0:0:0:0:
329,192,213315,128,0,213628:0:0:0:0:
109,192,213472,1,4,0:0:0:0:
256,192,213628,128,0,213784:0:0:0:0:
402,192,213784,128,6,214253:0:0:0:0:
182,192,213784,1,8,0:0:0:0:
109,192,214097,1,0,0:0:0:0:
475,192,214253,1,8,0:0:0:0:
182,192,214331,1,2,0:0:0:0:
402,192,214409,1,8,0:0:0:0:
109,192,214487,1,2,0:0:0:0:
36,192,214565,128,2,215034:0:0:0:0:
256,192,214565,1,4,2:0:0:0:
329,192,214565,1,8,0:0:0:0:
256,192,215034,128,4,215347:0:0:0:0:
475,192,215034,1,2,0:0:0:0:
109,192,215034,1,8,0:0:0:0:
182,192,215347,128,0,215503:0:0:0:0:
402,192,215347,1,4,0:0:0:0:
329,192,215503,128,0,215659:0:0:0:0:
475,192,215659,128,4,215815:0:0:0:0:
36,192,215659,1,2,0:0:0:0:
109,192,215659,1,8,0:0:0:0:
402,192,215815,128,0,216284:0:0:0:0:
182,192,215972,1,4,0:0:0:0:
256,192,216284,128,4,216597:0:0:0:0:
36,192,216284,1,2,0:0:0:0:
475,192,216284,1,8,0:0:0:0:
329,192,216597,128,0,216753:0:0:0:0:
109,192,216597,1,4,0:0:0:0:
182,192,216753,128,0,216909:0:0:0:0:
36,192,216909,128,4,217065:0:0:0:0:
402,192,216909,1,8,0:0:0:0:
475,192,216909,1,2,0:0:0:0:
109,192,217065,128,0,217534:0:0:0:0:
329,192,217222,1,4,0:0:0:0:
182,192,217534,128,2,217847:0:0:0:0:
402,192,217534,1,8,0:0:0:0:
36,192,217534,1,4,0:0:0:0:
256,192,217847,128,0,218003:0:0:0:0:
109,192,217847,1,4,0:0:0:0:
329,192,218003,128,0,218159:0:0:0:0:
402,192,218159,128,4,218315:0:0:0:0:
182,192,218159,1,2,0:0:0:0:
36,192,218159,1,8,0:0:0:0:
475,192,218315,128,0,218628:0:0:0:0:
109,192,218472,1,4,0:0:0:0:
329,192,218628,1,0,0:0:0:0:
182,192,218706,1,0,0:0:0:0:
36,192,218784,128,0,218940:0:0:0:0:
182,192,218940,1,0,0:0:0:0:
329,192,219018,1,0,0:0:0:0:
475,192,219097,128,0,219253:0:0:0:0:
329,192,219253,1,0,0:0:0:0:
182,192,219331,1,0,0:0:0:0:
36,192,219409,128,0,219565:0:0:0:0:
329,192,219565,128,8,220034:0:0:0:0:
109,192,219565,1,2,0:0:0:0:
475,192,219565,1,4,2:0:0:0:
256,192,220034,128,2,220347:0:0:0:0:
36,192,220034,1,8,0:0:0:0:
475,192,220034,1,4,0:0:0:0:
182,192,220347,128,0,220503:0:0:0:0:
402,192,220347,1,4,0:0:0:0:
329,192,220503,128,0,220659:0:0:0:0:
475,192,220659,128,2,220815:0:0:0:0:
36,192,220659,1,4,0:0:0:0:
109,192,220659,1,8,0:0:0:0:
402,192,220815,128,0,221284:0:0:0:0:
182,192,220972,1,4,0:0:0:0:
256,192,221284,128,2,221597:0:0:0:0:
109,192,221284,1,8,0:0:0:0:
475,192,221284,1,4,0:0:0:0:
329,192,221597,128,0,221753:0:0:0:0:
36,192,221597,1,4,0:0:0:0:
182,192,221753,128,0,221909:0:0:0:0:
36,192,221909,128,2,222065:0:0:0:0:
475,192,221909,1,8,0:0:0:0:
109,192,222065,128,2,222222:0:0:0:0:
402,192,222065,1,8,0:0:0:0:
256,192,222222,128,0,223159:0:0:0:0:
36,192,222534,128,0,223628:0:0:0:0:
475,192,222534,128,0,223628:0:0:0:0:
182,192,222847,128,0,223628:0:0:0:0:
329,192,222847,128,0,223628:0:0:0:0:
109,192,223159,128,0,223628:0:0:0:0:
402,192,223159,128,0,223628:0:0:0:0:
256,192,223628,1,8,0:0:0:0:
182,192,223784,1,2,0:0:0:0:
329,192,223784,1,8,0:0:0:0:
402,192,223940,1,8,0:0:0:0:
109,192,223940,1,2,0:0:0:0:
256,192,224097,1,2,0:0:0:0:
475,192,224097,1,8,0:0:0:0:
36,192,224097,1,0,0:0:0:66:LR_Drum Rpd vFast.wav
402,192,224409,1,0,0:0:0:22:LR_Drum Low Long.wav
182,192,224409,1,0,0:0:0:22:LR_Drum Low Long.wav
109,192,224409,1,0,0:0:0:22:LR_Drum Low Long.wav
329,192,224409,1,0,0:0:0:22:LR_Drum Low Long.wav
36,192,224722,1,2,0:0:0:0:
256,192,224722,1,4,2:0:0:0:
475,192,224722,1,8,0:0:0:0:
109,192,224878,1,0,0:0:0:0:
182,192,225034,1,2,0:0:0:0:
329,192,225034,1,8,0:0:0:0:
256,192,225190,1,0,0:0:0:0:
329,192,225347,1,8,0:0:0:0:
182,192,225347,1,2,0:0:0:0:
402,192,225503,1,0,0:0:0:0:
36,192,225659,1,2,0:0:0:0:
475,192,225659,1,8,0:0:0:0:
402,192,225815,1,0,0:0:0:0:
182,192,225972,1,2,0:0:0:0:
329,192,225972,1,8,0:0:0:0:
256,192,226128,1,0,0:0:0:0:
329,192,226284,1,8,0:0:0:0:
182,192,226284,1,2,0:0:0:0:
109,192,226440,1,0,0:0:0:0:
475,192,226597,1,8,0:0:0:0:
36,192,226597,1,2,0:0:0:0:
109,192,226753,1,0,0:0:0:0:
182,192,226909,1,2,0:0:0:0:
329,192,226909,1,8,0:0:0:0:
256,192,227065,1,0,0:0:0:0:
182,192,227222,1,2,0:0:0:0:
329,192,227222,1,8,0:0:0:0:
402,192,227378,1,0,0:0:0:0:
475,192,227534,1,8,0:0:0:0:
36,192,227534,1,2,0:0:0:0:
402,192,227690,1,0,0:0:0:0:
329,192,227847,1,8,0:0:0:0:
182,192,227847,1,2,0:0:0:0:
256,192,228003,1,0,0:0:0:0:
182,192,228159,1,2,0:0:0:0:
329,192,228159,1,8,0:0:0:0:
109,192,228315,1,0,0:0:0:0:
36,192,228472,1,2,0:0:0:0:
475,192,228472,1,8,0:0:0:0:
109,192,228628,1,0,0:0:0:0:
329,192,228784,1,8,0:0:0:0:
182,192,228784,1,2,0:0:0:0:
256,192,228940,1,0,0:0:0:0:
329,192,229097,1,8,0:0:0:0:
182,192,229097,1,2,0:0:0:0:
402,192,229253,1,0,0:0:0:0:
36,192,229409,1,2,0:0:0:0:
475,192,229409,1,8,0:0:0:0:
402,192,229565,1,0,0:0:0:0:
109,192,229722,1,2,0:0:0:0:
329,192,229722,1,8,0:0:0:0:
256,192,229722,1,4,2:0:0:0:
475,192,230034,1,8,0:0:0:0:
36,192,230034,1,2,0:0:0:0:
402,192,230190,1,0,0:0:0:0:
182,192,230347,1,2,0:0:0:0:
329,192,230347,1,8,0:0:0:0:
402,192,230503,1,0,0:0:0:0:
36,192,230659,1,8,0:0:0:0:
475,192,230659,1,2,0:0:0:0:
402,192,230815,1,0,0:0:0:0:
182,192,230972,1,8,0:0:0:0:
329,192,230972,1,2,0:0:0:0:
109,192,231128,1,0,0:0:0:0:
36,192,231284,1,8,0:0:0:0:
475,192,231284,1,2,0:0:0:0:
109,192,231440,1,0,0:0:0:0:
182,192,231597,1,2,0:0:0:0:
329,192,231597,1,8,0:0:0:0:
109,192,231753,1,0,0:0:0:0:
36,192,231909,1,2,0:0:0:0:
475,192,231909,1,8,0:0:0:0:
109,192,232065,1,0,0:0:0:0:
329,192,232222,1,8,0:0:0:0:
182,192,232222,1,2,0:0:0:0:
402,192,232378,1,0,0:0:0:0:
475,192,232534,1,8,0:0:0:0:
36,192,232534,1,2,0:0:0:0:
402,192,232690,1,0,0:0:0:0:
329,192,232847,1,8,0:0:0:0:
182,192,232847,1,2,0:0:0:0:
402,192,233003,1,0,0:0:0:0:
36,192,233159,1,2,0:0:0:0:
475,192,233159,1,8,0:0:0:0:
402,192,233315,1,0,0:0:0:0:
182,192,233472,1,2,0:0:0:0:
329,192,233472,1,8,0:0:0:0:
109,192,233628,1,0,0:0:0:0:
475,192,233784,1,8,0:0:0:0:
36,192,233784,1,2,0:0:0:0:
109,192,233940,1,0,0:0:0:0:
329,192,234097,1,8,0:0:0:0:
182,192,234097,1,2,0:0:0:0:
109,192,234253,1,0,0:0:0:0:
36,192,234409,1,8,0:0:0:0:
475,192,234409,1,2,0:0:0:0:
109,192,234565,1,0,0:0:0:0:
182,192,234722,1,8,0:0:0:0:
402,192,234722,1,2,0:0:0:0:
256,192,234722,1,4,2:0:0:0:
475,192,235034,1,2,0:0:0:0:
402,192,235034,1,8,0:0:0:0:
329,192,235190,1,0,0:0:0:0:
109,192,235347,1,8,0:0:0:0:
36,192,235347,1,2,0:0:0:0:
256,192,235503,1,0,0:0:0:0:
402,192,235659,1,8,0:0:0:0:
475,192,235659,1,2,0:0:0:0:
182,192,235815,1,0,0:0:0:0:
109,192,235972,1,8,0:0:0:0:
36,192,235972,1,2,0:0:0:0:
256,192,236128,1,0,0:0:0:0:
475,192,236284,1,2,0:0:0:0:
402,192,236284,1,8,0:0:0:0:
329,192,236440,1,0,0:0:0:0:
109,192,236597,1,2,0:0:0:0:
36,192,236597,1,8,0:0:0:0:
256,192,236753,1,0,0:0:0:0:
402,192,236909,1,8,0:0:0:0:
475,192,236909,1,2,0:0:0:0:
182,192,237065,1,0,0:0:0:0:
36,192,237222,1,8,0:0:0:0:
109,192,237222,1,2,0:0:0:0:
256,192,237378,1,0,0:0:0:0:
475,192,237534,1,2,0:0:0:0:
402,192,237534,1,8,0:0:0:0:
329,192,237690,1,0,0:0:0:0:
109,192,237847,1,2,0:0:0:0:
36,192,237847,1,8,0:0:0:0:
256,192,238003,1,0,0:0:0:0:
402,192,238159,1,8,0:0:0:0:
475,192,238159,1,2,0:0:0:0:
182,192,238315,1,0,0:0:0:0:
36,192,238472,1,8,0:0:0:0:
109,192,238472,1,2,0:0:0:0:
256,192,238628,1,0,0:0:0:0:
475,192,238784,1,2,0:0:0:0:
402,192,238784,1,8,0:0:0:0:
329,192,238940,1,0,0:0:0:0:
109,192,239097,1,2,0:0:0:0:
36,192,239097,1,8,0:0:0:0:
256,192,239253,1,0,0:0:0:0:
402,192,239409,1,8,0:0:0:0:
475,192,239409,1,2,0:0:0:0:
182,192,239565,1,0,0:0:0:0:
109,192,239722,128,2,241597:0:0:0:0:
36,192,239722,128,8,241597:0:0:0:0:
402,192,240972,128,0,241597:0:0:0:0:
475,192,240972,128,0,241597:0:0:0:0:
329,192,241597,1,8,0:0:0:0:
256,192,241597,1,4,2:0:0:0:
182,192,241597,1,2,0:0:0:0:
109,192,241909,1,8,0:0:0:0:
402,192,241909,1,2,0:0:0:0:
256,192,242222,1,4,2:0:0:0:
36,192,242222,1,2,0:0:0:0:
475,192,242222,1,8,0:0:0:0:
256,192,242378,1,0,0:0:0:0:
182,192,242534,1,8,0:0:0:0:
329,192,242534,1,2,0:0:0:0:
256,192,242690,1,0,0:0:0:0:
256,192,242847,1,0,0:0:0:0:
256,192,243003,1,0,0:0:0:0:
182,192,243159,1,8,0:0:0:0:
329,192,243159,1,2,0:0:0:0:
256,192,243315,1,0,0:0:0:0:
36,192,243472,1,0,0:0:0:0:
475,192,243472,1,4,2:0:0:0:
402,192,243550,1,0,0:0:0:66:LR_Drum Rpd Fast .wav
109,192,243550,1,8,0:0:0:0:
329,192,243628,1,0,0:0:0:66:LR_Drum Rpd Fast .wav
182,192,243628,1,8,0:0:0:0:
256,192,243706,1,0,0:0:0:66:LR_Drum Rpd vFast.wav
182,192,243784,1,4,0:0:2:41:
329,192,243784,1,4,0:0:2:41:
109,192,243862,1,8,0:0:0:0:
402,192,243862,1,2,0:0:0:0:
36,192,243940,1,0,0:0:0:45:LR_Drum Low Long.wav
475,192,243940,1,0,0:0:0:45:LR_Drum Low Long.wav
329,192,244097,1,0,0:0:0:0:
256,192,244136,1,0,0:0:0:0:
182,192,244175,1,0,0:0:0:0:
402,192,244253,1,10,0:0:0:0:
256,192,244331,1,10,0:0:0:0:
109,192,244409,1,10,0:0:0:0:
475,192,244487,1,10,0:0:0:0:
329,192,244565,1,10,0:0:0:0:
182,192,244643,1,10,0:0:0:0:
36,192,244722,128,10,245347:0:0:0:0:
475,192,244722,128,4,245347:2:0:0:0:
402,192,245347,1,0,0:0:0:0:
329,192,245425,1,0,0:0:0:0:
182,192,245503,1,0,0:0:0:0:
109,192,245581,1,0,0:0:0:0:
256,192,245659,1,0,0:0:0:0:
329,192,245737,1,0,0:0:0:0:
475,192,245815,1,0,0:0:0:0:
402,192,245893,1,0,0:0:0:0:
36,192,245972,1,0,0:0:0:0:
182,192,245972,1,0,0:0:0:0:
329,192,245972,1,0,0:0:0:0:
256,192,246128,1,0,0:0:0:0:
109,192,246284,1,0,0:0:0:0:
329,192,246284,1,0,0:0:0:0:
256,192,246440,1,0,0:0:0:0:
329,192,246597,128,4,246753:0:0:0:0:
36,192,246597,128,8,246753:0:0:0:0:
182,192,246597,1,0,0:0:0:0:
109,192,246753,1,0,0:0:0:0:
402,192,246909,1,6,0:0:0:0:
182,192,246909,1,8,0:0:0:0:
256,192,247065,1,0,0:0:0:0:
329,192,247222,1,0,0:0:0:0:
182,192,247222,128,4,247378:0:0:0:0:
475,192,247222,128,4,247378:0:0:0:0:
402,192,247378,1,0,0:0:0:0:
109,192,247534,1,8,0:0:0:0:
329,192,247534,1,2,0:0:0:0:
256,192,247690,1,0,0:0:0:0:
329,192,247847,128,4,248003:0:0:0:0:
36,192,247847,128,4,248003:0:0:0:0:
182,192,247847,1,0,0:0:0:0:
109,192,248003,1,0,0:0:0:0:
182,192,248159,1,8,0:0:0:0:
402,192,248159,1,6,0:0:0:0:
256,192,248315,1,0,0:0:0:0:
182,192,248472,128,4,248628:0:0:0:0:
475,192,248472,128,4,248628:0:0:0:0:
329,192,248472,1,0,0:0:0:0:
402,192,248628,1,0,0:0:0:0:
109,192,248784,1,8,0:0:0:0:
329,192,248784,1,2,0:0:0:0:
256,192,248940,1,0,0:0:0:0:
182,192,249097,1,0,0:0:0:0:
36,192,249097,128,4,249253:0:0:0:0:
329,192,249097,128,4,249253:0:0:0:0:
109,192,249253,1,0,0:0:0:0:
402,192,249409,1,6,0:0:0:0:
182,192,249409,1,8,0:0:0:0:
256,192,249565,1,0,0:0:0:0:
475,192,249722,1,4,2:0:0:0:
36,192,249722,1,2,0:0:0:0:
329,192,249722,1,8,0:0:0:0:
256,192,249878,1,0,0:0:0:0:
329,192,250034,1,8,0:0:0:0:
182,192,250034,1,6,0:0:0:0:
109,192,250190,1,0,0:0:0:0:
36,192,250347,128,4,250503:0:0:0:0:
402,192,250347,128,4,250503:0:0:0:0:
182,192,250347,1,0,0:0:0:0:
256,192,250503,1,0,0:0:0:0:
182,192,250659,1,2,0:0:0:0:
329,192,250659,1,8,0:0:0:0:
402,192,250815,1,0,0:0:0:0:
475,192,250972,128,4,251128:0:0:0:0:
109,192,250972,128,4,251128:0:0:0:0:
329,192,250972,1,0,0:0:0:0:
256,192,251128,1,0,0:0:0:0:
182,192,251284,1,2,0:0:0:0:
329,192,251284,1,8,0:0:0:0:
109,192,251440,1,0,0:0:0:0:
402,192,251597,128,4,251753:0:0:0:0:
182,192,251597,1,0,0:0:0:0:
36,192,251597,128,4,251753:0:0:0:0:
256,192,251753,1,0,0:0:0:0:
329,192,251909,1,8,0:0:0:0:
182,192,251909,1,2,0:0:0:0:
402,192,252065,1,0,0:0:0:0:
109,192,252222,128,4,252378:0:0:0:0:
329,192,252222,1,0,0:0:0:0:
475,192,252222,128,4,252378:0:0:0:0:
256,192,252378,1,0,0:0:0:0:
182,192,252534,1,2,0:0:0:0:
329,192,252534,1,8,0:0:0:0:
109,192,252690,1,0,0:0:0:0:
36,192,252847,128,4,253003:0:0:0:0:
402,192,252847,128,4,253003:0:0:0:0:
182,192,252847,1,0,0:0:0:0:
256,192,253003,1,0,0:0:0:0:
329,192,253159,1,8,0:0:0:0:
182,192,253159,1,2,0:0:0:0:
402,192,253315,1,0,0:0:0:0:
475,192,253472,1,2,0:0:0:0:
182,192,253472,1,8,0:0:55:66:LR_Drum Rpd Fast .wav
402,192,253550,1,2,0:0:0:0:
109,192,253550,1,8,0:0:0:0:
329,192,253628,1,4,0:0:55:88:
36,192,253628,1,8,0:0:0:0:
36,192,253784,1,0,0:0:0:66:LR_Drum Rpd Fast .wav
329,192,253784,1,4,0:0:55:88:
109,192,253862,1,0,0:0:0:66:LR_Drum Rpd vFast.wav
402,192,253862,1,4,0:0:55:75:
182,192,253940,1,8,0:0:0:0:
475,192,253940,1,2,0:0:0:0:
109,192,254018,1,8,0:0:0:0:
402,192,254018,1,2,0:0:0:0:
36,192,254097,1,2,0:0:0:0:
329,192,254097,1,4,0:0:55:88:
329,192,254253,1,4,0:0:55:88:
36,192,254253,1,2,0:0:0:0:
36,192,254409,1,2,0:0:0:0:
329,192,254409,1,4,0:0:55:88:
109,192,254565,1,2,0:0:0:0:
402,192,254565,1,2,0:0:0:0:
182,192,254722,1,0,0:0:0:0:
256,192,254722,1,4,2:0:0:0:
475,192,254722,1,2,0:0:0:0:
329,192,254722,1,8,0:0:0:0:
109,192,255034,1,2,0:0:0:0:
402,192,255034,1,8,0:0:0:0:
36,192,255034,1,0,0:0:0:0:
256,192,255190,1,0,0:0:0:0:
329,192,255347,128,4,255503:0:0:0:0:
36,192,255347,128,4,255503:0:0:0:0:
182,192,255503,1,0,0:0:0:0:
402,192,255659,1,8,0:0:0:0:
109,192,255659,1,2,0:0:0:0:
475,192,255659,1,0,0:0:0:0:
256,192,255815,1,0,0:0:0:0:
475,192,255972,128,4,256128:0:0:0:0:
182,192,255972,128,4,256128:0:0:0:0:
329,192,256128,1,0,0:0:0:0:
109,192,256284,1,2,0:0:0:0:
36,192,256284,1,0,0:0:0:0:
402,192,256284,1,8,0:0:0:0:
256,192,256440,1,0,0:0:0:0:
329,192,256597,128,4,256753:0:0:0:0:
36,192,256597,128,4,256753:0:0:0:0:
182,192,256753,1,0,0:0:0:0:
475,192,256909,1,0,0:0:0:0:
109,192,256909,1,8,0:0:0:0:
402,192,256909,1,2,0:0:0:0:
256,192,257065,1,0,0:0:0:0:
182,192,257222,128,4,257378:0:0:0:0:
475,192,257222,128,4,257378:0:0:0:0:
329,192,257378,1,0,0:0:0:0:
402,192,257534,1,8,0:0:0:0:
36,192,257534,1,0,0:0:0:0:
109,192,257534,1,2,0:0:0:0:
256,192,257690,1,0,0:0:0:0:
329,192,257847,128,4,258003:0:0:0:0:
36,192,257847,128,4,258003:0:0:0:0:
182,192,258003,1,0,0:0:0:0:
402,192,258159,1,2,0:0:0:0:
109,192,258159,1,8,0:0:0:0:
475,192,258159,1,0,0:0:0:0:
256,192,258315,1,0,0:0:0:0:
182,192,258472,128,4,258628:0:0:0:0:
475,192,258472,128,4,258628:0:0:0:0:
329,192,258628,1,0,0:0:0:0:
109,192,258784,1,2,0:0:0:0:
36,192,258784,1,0,0:0:0:0:
402,192,258784,1,8,0:0:0:0:
256,192,258940,1,0,0:0:0:0:
36,192,259097,128,4,259253:0:0:0:0:
329,192,259097,128,4,259253:0:0:0:0:
182,192,259253,1,0,0:0:0:0:
475,192,259409,1,0,0:0:0:0:
109,192,259409,1,8,0:0:0:0:
402,192,259409,1,2,0:0:0:0:
256,192,259565,1,0,0:0:0:0:
36,192,259722,1,0,0:0:0:0:
182,192,259722,1,4,2:0:0:0:
329,192,259722,1,8,0:0:0:0:
475,192,259722,1,2,0:0:0:0:
256,192,260034,5,8,0:0:0:0:
402,192,260034,1,0,0:0:0:0:
109,192,260034,1,2,0:0:0:0:
182,192,260190,1,0,0:0:0:22:
329,192,260190,1,0,0:0:0:22:
36,192,260347,1,4,0:0:0:0:
475,192,260347,1,4,0:0:0:0:
329,192,260503,5,0,0:0:0:22:
182,192,260503,1,0,0:0:0:22:
402,192,260659,5,8,0:0:0:0:
109,192,260659,1,2,0:0:0:0:
256,192,260659,1,0,0:0:0:0:
329,192,260815,5,0,0:0:0:22:
182,192,260815,1,0,0:0:0:22:
36,192,260972,1,4,0:0:0:0:
475,192,260972,1,4,0:0:0:0:
329,192,261128,5,0,0:0:0:22:
182,192,261128,1,0,0:0:0:22:
402,192,261284,5,8,0:0:0:0:
256,192,261284,1,0,0:0:0:0:
109,192,261284,1,2,0:0:0:0:
182,192,261440,1,0,0:0:0:22:
329,192,261440,1,0,0:0:0:22:
36,192,261597,1,4,0:0:0:0:
475,192,261597,1,4,0:0:0:0:
329,192,261753,5,0,0:0:0:22:
182,192,261753,1,0,0:0:0:22:
109,192,261909,5,8,0:0:0:0:
256,192,261909,1,0,0:0:0:0:
402,192,261909,1,2,0:0:0:0:
329,192,262065,5,0,0:0:0:22:
182,192,262065,1,0,0:0:0:22:
256,192,262222,128,0,263159:0:0:0:0:
182,192,262534,128,0,263628:0:0:0:0:
329,192,262534,128,0,263628:0:0:0:0:
109,192,262847,128,0,263628:0:0:0:0:
402,192,262847,128,0,263628:0:0:0:0:
36,192,263159,128,0,263628:0:0:0:0:
475,192,263159,128,0,263628:0:0:0:0:
256,192,263628,1,8,0:0:0:0:
182,192,263784,1,2,0:0:0:0:
329,192,263784,1,8,0:0:0:0:
402,192,263940,1,8,0:0:0:0:
109,192,263940,1,2,0:0:0:0:
36,192,264097,1,0,0:0:0:66:LR_Drum Rpd vFast.wav
475,192,264097,1,8,0:0:0:0:
256,192,264097,1,2,0:0:0:0:
109,192,264409,1,0,0:0:0:0:
402,192,264409,1,8,0:0:0:0:
109,192,264565,1,0,0:0:0:0:
402,192,264565,1,8,0:0:0:0:
36,192,264722,128,10,265659:0:0:0:0:
475,192,264722,128,4,265659:2:0:0:0:
402,192,265034,128,0,266128:0:0:0:0:
109,192,265034,128,0,266128:0:0:0:0:
329,192,265347,128,8,266128:0:0:0:0:
182,192,265347,128,2,266128:0:0:0:0:
256,192,265659,128,0,266128:0:0:0:0:
475,192,266128,5,8,0:0:0:0:
36,192,266128,1,2,0:0:0:0:
402,192,266284,1,8,0:0:0:0:
109,192,266284,1,2,0:0:0:0:
182,192,266440,1,2,0:0:0:0:
329,192,266440,1,8,0:0:0:0:
256,192,266597,1,10,0:0:0:0:
109,192,266675,1,2,0:0:0:0:
402,192,266753,1,2,0:0:0:0:
182,192,266831,1,10,0:0:0:0:
329,192,266909,1,8,0:0:55:66:
109,192,266987,1,4,0:0:55:56:
256,192,267065,1,4,0:0:55:48:
402,192,267143,1,8,0:0:55:38:
36,192,267222,128,10,271909:0:0:0:0:
475,192,267222,1,4,2:0:0:0:
182,192,267378,1,8,0:0:0:0:
256,192,267456,1,0,0:0:0:0:
329,192,267534,1,2,0:0:0:0:
109,192,267690,1,4,0:0:2:51:
256,192,267847,1,8,0:0:0:0:
329,192,267925,1,8,0:0:0:0:
402,192,268003,1,2,0:0:0:0:
182,192,268159,1,4,2:0:0:0:
329,192,268315,1,0,0:0:0:60:LR_Drum Rpd Fast .wav
402,192,268393,1,0,0:0:0:60:LR_Drum Rpd vFast.wav
109,192,268472,128,0,271909:0:0:0:0:
475,192,268472,128,10,269097:0:0:0:0:
402,192,269097,5,0,0:0:0:50:LR_Drum Rpd vFast.wav
329,192,269175,1,0,0:0:0:50:LR_Drum Rpd Fast .wav
256,192,269253,1,2,0:0:0:0:
329,192,269409,1,8,3:0:2:35:
475,192,269409,1,2,0:0:0:0:
182,192,269722,128,2,271909:0:0:0:0:
256,192,269722,1,8,0:0:0:0:
402,192,269722,1,4,2:0:0:0:
329,192,270034,1,8,0:0:0:0:
475,192,270034,1,2,0:0:0:0:
402,192,270347,128,4,270659:0:0:99:60:
329,192,270659,1,8,0:0:0:0:
475,192,270659,1,2,0:0:0:0:
402,192,270972,128,4,271284:0:0:99:60:
329,192,271284,1,8,0:0:0:0:
475,192,271284,1,2,0:0:0:0:
402,192,271597,128,4,271909:0:0:99:60:
475,192,271909,1,2,0:0:0:0:
329,192,271909,1,8,0:0:0:0:
402,192,272222,128,4,272534:0:0:99:60:
36,192,272222,128,0,274565:0:0:0:0:
475,192,272534,1,2,0:0:0:0:
329,192,272534,1,8,0:0:0:0:
402,192,272847,128,4,273159:0:0:99:60:
109,192,272847,128,0,274565:0:0:0:0:
475,192,273159,1,2,0:0:0:0:
329,192,273159,1,8,0:0:0:0:
182,192,273472,128,0,274565:0:0:0:0:
402,192,273472,128,4,273784:0:0:99:60:
329,192,273784,1,8,0:0:0:0:
475,192,273784,1,2,0:0:0:0:
402,192,274097,128,4,274409:0:0:99:60:
475,192,274409,1,2,0:0:0:0:
329,192,274409,1,8,0:0:0:0:
36,192,274722,1,0,0:0:0:22:
109,192,274722,1,0,0:0:0:22:
182,192,274722,1,0,0:0:0:22:LR_Drum Rpd Fast .wav
329,192,274722,1,2,0:0:0:22:
475,192,274722,1,4,2:0:0:0:
36,192,275034,1,8,0:0:0:0:
329,192,275034,1,2,0:0:0:0:
256,192,275190,1,0,0:0:0:0:
402,192,275347,128,4,275659:0:0:0:0:
109,192,275347,128,4,275659:0:0:0:0:
182,192,275659,1,8,0:0:0:0:
475,192,275659,1,2,0:0:0:0:
256,192,275815,1,0,0:0:0:0:
109,192,275972,128,4,276284:0:0:0:0:
402,192,275972,128,4,276284:0:0:0:0:
36,192,276284,1,2,0:0:0:0:
329,192,276284,1,8,0:0:0:0:
256,192,276440,1,0,0:0:0:0:
402,192,276597,128,4,276909:0:0:0:0:
109,192,276597,128,4,276909:0:0:0:0:
182,192,276909,1,8,0:0:0:0:
475,192,276909,1,2,0:0:0:0:
256,192,277065,1,0,0:0:0:0:
402,192,277222,128,4,277534:0:0:0:0:
109,192,277222,128,4,277534:0:0:0:0:
36,192,277534,1,2,0:0:0:0:
329,192,277534,1,8,0:0:0:0:
256,192,277690,1,0,0:0:0:0:
109,192,277847,128,4,278159:0:0:0:0:
402,192,277847,128,4,278159:0:0:0:0:
475,192,278159,1,2,0:0:0:0:
182,192,278159,1,8,0:0:0:0:
256,192,278315,1,0,0:0:0:0:
109,192,278472,1,4,0:0:0:0:
402,192,278472,1,4,0:0:0:0:
182,192,278628,1,8,0:0:0:0:
36,192,278628,1,2,0:0:0:0:
329,192,278628,1,0,0:0:0:0:
475,192,278628,1,4,2:0:0:0:
256,192,278784,1,0,0:0:0:0:
256,192,278940,1,0,0:0:0:0:
329,192,279097,1,0,0:0:0:0:
475,192,279097,1,4,2:0:0:0:
182,192,279097,1,8,0:0:0:0:
36,192,279097,1,2,0:0:0:0:
109,192,279409,1,2,0:0:0:0:
256,192,279409,1,4,2:0:0:0:
402,192,279409,1,8,0:0:0:0:
36,192,279722,1,0,0:0:0:0:
182,192,279722,1,0,0:0:0:0:
329,192,279722,1,8,0:0:0:0:
256,192,279722,1,0,2:0:0:0:
475,192,279722,1,2,0:0:0:0:
109,192,280034,1,8,0:0:0:0:
402,192,280034,1,2,0:0:0:0:
256,192,280190,1,0,0:0:0:0:
36,192,280347,128,4,280659:0:0:0:0:
329,192,280347,128,4,280659:0:0:0:0:
182,192,280659,1,2,0:0:0:0:
475,192,280659,1,8,0:0:0:0:
256,192,280815,1,0,0:0:0:0:
109,192,280972,128,4,281284:0:0:0:0:
402,192,280972,128,4,281284:0:0:0:0:
329,192,281284,1,2,0:0:0:0:
36,192,281284,1,8,0:0:0:0:
256,192,281440,1,0,0:0:0:0:
182,192,281597,128,4,281909:0:0:0:0:
475,192,281597,128,4,281909:0:0:0:0:
36,192,281909,1,2,0:0:0:0:
329,192,281909,1,8,0:0:0:0:
256,192,282065,1,0,0:0:0:0:
402,192,282222,128,4,282534:0:0:0:0:
109,192,282222,128,4,282534:0:0:0:0:
475,192,282534,1,2,0:0:0:0:
182,192,282534,1,8,0:0:0:0:
256,192,282690,1,0,0:0:0:0:
329,192,282847,128,4,283159:0:0:0:0:
36,192,282847,128,4,283159:0:0:0:0:
475,192,283159,1,8,0:0:0:0:
182,192,283159,1,2,0:0:0:0:
256,192,283315,1,0,0:0:0:0:
109,192,283472,128,4,283784:0:0:0:0:
402,192,283472,128,4,283784:0:0:0:0:
36,192,283784,1,8,0:0:0:0:
329,192,283784,1,2,0:0:0:0:
256,192,283940,1,0,0:0:0:0:
182,192,284097,128,4,284409:0:0:0:0:
475,192,284097,128,4,284409:0:0:0:0:
402,192,284409,1,8,0:0:0:0:
109,192,284409,1,2,0:0:0:0:
256,192,284565,1,0,0:0:0:0:
36,192,284722,128,2,286597:0:0:0:0:
329,192,284722,128,8,286597:0:0:0:0:
475,192,284722,1,0,0:0:0:0:
182,192,284722,1,0,2:0:0:0:
109,192,285347,128,0,286597:0:0:0:0:
402,192,285347,128,0,286597:0:0:0:0:
182,192,285972,128,0,286597:0:0:0:0:
475,192,285972,128,0,286597:0:0:0:0:
256,192,286597,5,2,0:0:0:0:
182,192,286753,1,0,0:0:0:0:
329,192,286753,1,2,0:0:0:0:
109,192,286909,1,0,0:0:0:0:
402,192,286909,1,8,0:0:0:0:
475,192,287222,5,8,0:0:0:0:
36,192,287222,1,0,0:0:0:0:
182,192,287222,1,2,0:0:0:0:
329,192,287222,1,4,2:0:0:0:
256,192,287534,128,0,288472:0:0:0:0:
182,192,287847,128,0,288472:0:0:0:0:
329,192,287847,128,0,288472:0:0:0:0:
475,192,288159,128,0,288472:0:0:0:0:
36,192,288159,128,0,288472:0:0:0:0:
329,192,288628,128,2,290972:0:0:0:10:drum-hitwhistle9998.wav
182,192,288628,128,2,290972:0:0:0:10:drum-hitwhistle9998.wav
475,192,288628,128,2,290972:0:0:0:10:drum-hitwhistle9998.wav
36,192,288628,128,2,290972:0:0:0:10:drum-hitwhistle9998.wav
