osu file format v14

[General]
AudioFilename: Neru - Ningen Shikkaku.mp3
AudioLeadIn: 1000
PreviewTime: 84252
Countdown: 0
SampleSet: Soft
StackLeniency: 0.7
Mode: 3
LetterboxInBreaks: 0
SpecialStyle: 0
WidescreenStoryboard: 0

[Editor]
Bookmarks: 44721,108472,126597,135034
DistanceSpacing: 0.7
BeatDivisor: 4
GridSize: 4
TimelineZoom: 1.5

[Metadata]
Title:Ningen Shikkaku
TitleUnicode:人間失格
Artist:Neru
ArtistUnicode:Neru
Creator:puxtu
Version:Kami's 7K MX
Source:
Tags:pxt arcwinolivirus Blocko -Kamikaze- LordRaika [_M_o_m_o_] Tidek ExUsagi Eternalie Zenx Z3nx lZenxl PyaKura Hydria Harbyter No Longer Human Vocaloid Kagamine Rin Len 鏡音リン・レン
BeatmapID:553620
BeatmapSetID:239471

[Difficulty]
HPDrainRate:8.5
CircleSize:7
OverallDifficulty:8.5
ApproachRate:5
SliderMultiplier:1.4
SliderTickRate:1

[Events]
//Background and Video events
0,0,"SakuraTree.jpg",0,0
//Break Periods
//Storyboard Layer 0 (Background)
//Storyboard Layer 1 (Fail)
//Storyboard Layer 2 (Pass)
//Storyboard Layer 3 (Foreground)
//Storyboard Sound Samples

[TimingPoints]
1322,444.444444444444,3,2,0,20,1,0
11968,451.127819548872,3,2,0,20,1,0
11968,-98.0392156862745,3,2,0,20,0,0
12644,444.444444444444,3,2,0,20,1,0
13310,447.761194029851,3,2,0,20,1,0
13310,-99.009900990099,3,2,0,20,0,0
17389,500,3,2,0,20,1,0
17389,-92.5925925925926,3,2,0,20,0,0
18129,600,3,2,0,20,1,0
18129,-83.3333333333333,3,2,0,20,0,0
18429,571.428571428571,3,2,0,20,1,0
18429,-87.719298245614,3,2,0,20,0,0
19000,705.882352941176,3,2,0,20,1,0
19000,-77.5193798449612,3,2,0,20,0,0
19665,705.882352941176,3,2,0,20,1,0
19665,-77.5193798449612,3,2,0,20,0,0
19990,1000,3,2,0,20,1,0
19990,-59.8802395209581,3,2,0,20,0,0
20490,1500,3,2,0,20,1,0
20490,-40,3,2,0,20,0,0
22222,312.5,4,1,1,50,1,0
23629,-71.4285714285714,4,1,1,50,0,0
23706,-250,4,1,1,50,0,0
23784,-71.4285714285714,4,1,1,50,0,0
23862,-250,4,1,1,50,0,0
23940,-71.4285714285714,4,1,1,50,0,0
24018,-250,4,1,1,50,0,0
24097,-71.4285714285714,4,1,1,50,0,0
24253,-133.333333333333,4,1,1,50,0,0
24409,-100,4,1,1,50,0,0
46597,-57.1428571428571,4,1,1,50,0,0
46753,-133.333333333333,4,1,1,50,0,0
46909,-100,4,1,1,50,0,0
49097,-57.1428571428571,4,1,1,50,0,0
49253,-133.333333333333,4,1,1,50,0,0
49409,-100,4,1,1,50,0,0
51597,-57.1428571428571,4,1,1,50,0,0
51753,-133.333333333333,4,1,1,50,0,0
51909,-100,4,1,1,50,0,0
53472,-66.6666666666667,4,1,1,50,0,0
53628,-133.333333333333,4,1,1,50,0,0
53784,-66.6666666666667,4,1,1,50,0,0
53940,-133.333333333333,4,1,1,50,0,0
54097,-66.6666666666667,4,1,1,50,0,0
54253,-133.333333333333,4,1,1,50,0,0
54409,-100,4,1,1,50,0,0
56597,-57.1428571428571,4,1,1,50,0,0
56753,-133.333333333333,4,1,1,50,0,0
56909,-100,4,1,1,50,0,0
59097,-57.1428571428571,4,1,1,50,0,0
59253,-133.333333333333,4,1,1,50,0,0
59409,-100,4,1,1,50,0,0
61597,-57.1428571428571,4,1,1,50,0,0
61753,-133.333333333333,4,1,1,50,0,0
61909,-100,4,1,1,50,0,0
84878,-100,4,1,1,50,0,1
103628,-71.4285714285714,4,1,1,50,0,1
103706,-250,4,1,1,50,0,1
103784,-71.4285714285714,4,1,1,50,0,1
103862,-250,4,1,1,50,0,1
103940,-71.4285714285714,4,1,1,50,0,1
104018,-250,4,1,1,50,0,1
104097,-111.111111111111,4,1,1,50,0,0
104722,-100,4,1,1,50,0,0
114722,-83.3333333333333,4,1,1,50,0,0
114800,-125,4,1,1,50,0,0
114878,-100,4,1,1,50,0,0
115659,-71.4285714285714,4,1,1,50,0,0
115737,-166.666666666667,4,1,1,50,0,0
115815,-100,4,1,1,50,0,0
116597,-71.4285714285714,4,1,1,50,0,0
116675,-166.666666666667,4,1,1,50,0,0
116753,-71.4285714285714,4,1,1,50,0,0
116831,-166.666666666667,4,1,1,50,0,0
116909,-71.4285714285714,4,1,1,50,0,0
116987,-166.666666666667,4,1,1,50,0,0
117065,-71.4285714285714,4,1,1,50,0,0
117143,-166.666666666667,3,1,1,50,0,0
117222,-71.4285714285714,4,1,1,50,0,0
117300,-166.666666666667,4,1,1,50,0,0
117378,-100,4,1,1,50,0,0
118159,-71.4285714285714,4,1,1,50,0,0
118237,-166.666666666667,4,1,1,50,0,0
118315,-100,4,1,1,50,0,0
119097,-71.4285714285714,4,1,1,50,0,0
119175,-166.666666666667,4,1,1,50,0,0
119253,-71.4285714285714,4,1,1,50,0,0
119331,-166.666666666667,4,1,1,50,0,0
119409,-71.4285714285714,4,1,1,50,0,0
119487,-166.666666666667,4,1,1,50,0,0
119565,-71.4285714285714,4,1,1,50,0,0
119643,-166.666666666667,4,1,1,50,0,0
119722,-71.4285714285714,4,1,1,50,0,0
119800,-166.666666666667,4,1,1,50,0,0
119878,-100,4,1,1,50,0,0
120659,-71.4285714285714,4,1,1,50,0,0
120737,-166.666666666667,4,1,1,50,0,0
120815,-100,4,1,1,50,0,0
121597,-71.4285714285714,4,1,1,50,0,0
121675,-166.666666666667,4,1,1,50,0,0
121753,-71.4285714285714,4,1,1,50,0,0
121831,-166.666666666667,4,1,1,50,0,0
121909,-71.4285714285714,4,1,1,50,0,0
121987,-166.666666666667,4,1,1,50,0,0
122065,-71.4285714285714,4,1,1,50,0,0
122143,-166.666666666667,4,1,1,50,0,0
122222,-71.4285714285714,4,1,1,50,0,0
122300,-166.666666666667,4,1,1,50,0,0
122378,-100,4,1,1,50,0,0
123159,-66.6666666666667,4,1,1,50,0,0
123237,-200,4,1,1,50,0,0
123315,-100,4,1,1,50,0,0
124097,-125,4,1,1,50,0,0
124409,-100,4,1,1,50,0,0
126597,-57.1428571428571,4,1,1,50,0,0
126753,-133.333333333333,4,1,1,50,0,0
126909,-100,4,1,1,50,0,0
129097,-57.1428571428571,4,1,1,50,0,0
129253,-133.333333333333,4,1,1,50,0,0
129409,-100,4,1,1,50,0,0
131597,-57.1428571428571,4,1,1,50,0,0
131753,-133.333333333333,4,1,1,50,0,0
131909,-100,4,1,1,50,0,0
149722,-166.666666666667,4,1,1,50,0,0
150972,-125,4,1,1,50,0,0
151909,-100,4,1,1,50,0,0
153472,-71.4285714285714,4,1,1,50,0,0
153589,-166.666666666667,4,1,1,50,0,0
153706,-100,4,1,1,50,0,0
154722,-100,4,1,1,50,0,1
173628,-71.4285714285714,4,1,1,50,0,1
173706,-250,4,1,1,50,0,1
173784,-71.4285714285714,4,1,1,50,0,1
173862,-250,4,1,1,50,0,1
173940,-71.4285714285714,4,1,1,50,0,1
174018,-250,4,1,1,50,0,1
174097,-100,4,1,1,50,0,1
174409,-111.111111111111,4,1,1,50,0,0
174722,-125,4,1,1,50,0,0
176597,-83.3333333333333,4,1,1,50,0,0
176694,-125,4,1,1,50,0,0
176792,-83.3333333333333,4,1,1,50,0,0
176889,-125,4,1,1,50,0,0
176987,-83.3333333333333,4,1,1,50,0,0
177104,-125,4,1,1,50,0,0
179097,-83.3333333333333,4,1,1,50,0,0
179194,-125,4,1,1,50,0,0
179292,-83.3333333333333,4,1,1,50,0,0
179389,-125,4,1,1,50,0,0
179487,-83.3333333333333,4,1,1,50,0,0
179604,-125,4,1,1,50,0,0
181597,-83.3333333333333,4,1,1,50,0,0
181694,-125,4,1,1,50,0,0
181792,-83.3333333333333,4,1,1,50,0,0
181889,-125,4,1,1,50,0,0
181987,-83.3333333333333,4,1,1,50,0,0
182104,-125,4,1,1,50,0,0
184097,-76.9230769230769,4,1,1,50,0,0
184194,-111.111111111111,4,1,1,50,0,0
184292,-71.4285714285714,4,1,1,50,0,0
184389,-100,4,1,1,50,0,0
184487,-71.4285714285714,4,1,1,50,0,0
184604,-100,4,1,1,50,0,0
194722,-62.5,4,1,1,50,0,0
195190,-250,4,1,1,50,0,0
195347,-62.5,4,1,1,50,0,0
195815,-250,4,1,1,50,0,0
195972,-62.5,4,1,1,50,0,0
196440,-250,4,1,1,50,0,0
196597,-62.5,4,1,1,50,0,0
197065,-250,4,1,1,50,0,0
197222,-62.5,4,1,1,50,0,0
197690,-250,4,1,1,50,0,0
197847,-62.5,4,1,1,50,0,0
198315,-250,4,1,1,50,0,0
198472,-62.5,4,1,1,50,0,0
198940,-250,4,1,1,50,0,0
199097,-62.5,4,1,1,50,0,0
199565,-250,4,1,1,50,0,0
199722,-100,4,1,1,50,0,0
223628,-71.4285714285714,4,1,1,50,0,0
223706,-166.666666666667,4,1,1,50,0,0
223784,-71.4285714285714,4,1,1,50,0,0
223862,-166.666666666667,4,1,1,50,0,0
223940,-71.4285714285714,4,1,1,50,0,0
224018,-166.666666666667,4,1,1,50,0,0
224097,-100,4,1,1,50,0,0
245972,-100,4,1,1,50,0,1
263628,-71.4285714285714,4,1,1,50,0,1
263706,-166.666666666667,4,1,1,50,0,1
263784,-71.4285714285714,4,1,1,50,0,1
263862,-166.666666666667,4,1,1,50,0,1
263940,-71.4285714285714,4,1,1,50,0,1
264018,-166.666666666667,4,1,1,50,0,1
264097,-100,4,1,1,50,0,1
266128,-71.4285714285714,4,1,1,50,0,1
266206,-166.666666666667,4,1,1,50,0,1
266284,-71.4285714285714,4,1,1,50,0,1
266362,-166.666666666667,4,1,1,50,0,1
266440,-71.4285714285714,4,1,1,50,0,1
266518,-166.666666666667,4,1,1,50,0,1
266597,-100,4,1,1,50,0,1
266909,-100,4,1,1,50,0,0
288472,-66.6666666666667,4,1,1,50,0,0
288550,-200,4,1,1,50,0,0

[HitObjects]
475,192,1322,5,0,0:0:0:0:
109,192,1322,1,0,0:0:0:0:
402,192,1544,1,0,0:0:0:0:
329,192,1766,1,0,0:0:0:0:
256,192,1988,1,0,0:0:0:0:
36,192,1988,1,0,0:0:0:0:
182,192,2210,1,0,0:0:0:0:
329,192,2433,1,0,0:0:0:0:
402,192,2655,1,0,0:0:0:0:
475,192,2655,1,0,0:0:0:0:
329,192,2877,1,0,0:0:0:0:
256,192,3099,1,0,0:0:0:0:
182,192,3321,1,0,0:0:0:0:
475,192,3321,1,0,0:0:0:0:
329,192,3544,1,0,0:0:0:0:
182,192,3766,1,0,0:0:0:0:
36,192,3988,1,0,0:0:0:0:
475,192,3988,1,0,0:0:0:0:
402,192,4210,1,0,0:0:0:0:
329,192,4433,1,0,0:0:0:0:
256,192,4655,1,0,0:0:0:0:
109,192,4655,1,0,0:0:0:0:
329,192,4877,1,0,0:0:0:0:
402,192,5099,1,0,0:0:0:0:
36,192,5321,1,0,0:0:0:0:
475,192,5321,1,0,0:0:0:0:
109,192,5544,1,0,0:0:0:0:
182,192,5766,1,0,0:0:0:0:
402,192,5766,1,0,0:0:0:0:
256,192,5988,1,0,0:0:0:0:
402,192,5988,1,0,0:0:0:0:
329,192,6655,1,0,0:0:0:0:
475,192,6655,1,0,0:0:0:0:
402,192,6877,1,0,0:0:0:0:
329,192,7099,1,0,0:0:0:0:
256,192,7321,1,0,0:0:0:0:
109,192,7321,1,0,0:0:0:0:
329,192,7544,1,0,0:0:0:0:
182,192,7766,1,0,0:0:0:0:
402,192,7988,1,0,0:0:0:0:
36,192,7988,1,0,0:0:0:0:
109,192,8210,1,0,0:0:0:0:
182,192,8433,1,0,0:0:0:0:
256,192,8655,1,0,0:0:0:0:
402,192,8655,1,0,0:0:0:0:
329,192,8877,1,0,0:0:0:0:
182,192,9099,1,0,0:0:0:0:
36,192,9321,1,0,0:0:0:0:
475,192,9321,1,0,0:0:0:0:
402,192,9544,1,0,0:0:0:0:
329,192,9766,1,0,0:0:0:0:
256,192,9988,1,0,0:0:0:0:
36,192,9988,1,0,0:0:0:0:
182,192,10210,1,0,0:0:0:0:
329,192,10433,1,0,0:0:0:0:
475,192,10655,1,0,0:0:0:0:
36,192,10655,1,0,0:0:0:0:
109,192,10877,1,0,0:0:0:0:
182,192,11099,1,0,0:0:0:0:
256,192,11321,1,0,0:0:0:0:
475,192,11968,1,0,0:0:0:0:
182,192,11968,1,0,0:0:0:0:
402,192,12193,1,0,0:0:0:0:
329,192,12419,1,0,0:0:0:0:
256,192,12644,1,0,0:0:0:0:
109,192,12644,1,0,0:0:0:0:
329,192,12866,1,0,0:0:0:0:
182,192,13088,1,0,0:0:0:0:
402,192,13310,1,0,0:0:0:0:
36,192,13310,1,0,0:0:0:0:
109,192,13533,1,0,0:0:0:0:
182,192,13757,1,0,0:0:0:0:
256,192,13981,1,0,0:0:0:0:
475,192,13981,1,0,0:0:0:0:
329,192,14205,1,0,0:0:0:0:
182,192,14429,1,0,0:0:0:0:
36,192,14653,1,0,0:0:0:0:
475,192,14653,1,0,0:0:0:0:
402,192,14877,1,0,0:0:0:0:
329,192,15101,1,0,0:0:0:0:
256,192,15324,1,0,0:0:0:0:
36,192,15324,1,0,0:0:0:0:
182,192,15548,1,0,0:0:0:0:
329,192,15772,1,0,0:0:0:0:
475,192,15996,1,0,0:0:0:0:
36,192,15996,1,0,0:0:0:0:
109,192,16220,1,0,0:0:0:0:
182,192,16444,1,0,0:0:0:0:
402,192,16444,1,0,0:0:0:0:
256,192,16668,1,0,0:0:0:0:
402,192,16668,1,0,0:0:0:0:
475,192,17389,1,0,0:0:0:0:
182,192,17389,1,0,0:0:0:0:
402,192,17639,1,0,0:0:0:0:
329,192,17889,1,0,0:0:0:0:
256,192,18129,1,0,0:0:0:0:
36,192,18129,1,0,0:0:0:0:
182,192,18429,1,0,0:0:0:0:
329,192,18714,1,0,0:0:0:0:
475,192,19000,1,0,0:0:0:0:
36,192,19000,1,0,0:0:0:0:
109,192,19352,1,0,0:0:0:0:
182,192,19665,1,0,0:0:0:0:
256,192,19990,1,0,0:0:0:0:
402,192,19990,1,0,0:0:0:0:
329,192,20490,1,0,0:0:0:0:
256,192,21240,1,0,0:0:0:0:
475,192,22222,128,4,23472:2:0:0:0:
36,192,22534,128,4,23472:2:0:0:0:
329,192,22847,128,4,23472:2:0:0:0:
182,192,23159,128,4,23472:2:0:0:0:
109,192,23628,1,8,0:0:0:0:
256,192,23628,1,0,0:0:0:0:
402,192,23628,1,0,0:0:0:0:
109,192,23784,1,8,0:0:0:0:
256,192,23784,1,0,0:0:0:0:
402,192,23784,1,0,0:0:0:0:
109,192,23940,1,8,0:0:0:0:
256,192,23940,1,0,0:0:0:0:
402,192,23940,1,0,0:0:0:0:
109,192,24097,1,8,0:0:0:0:
256,192,24097,1,0,0:0:0:0:
402,192,24097,1,0,0:0:0:0:
256,192,24409,1,4,3:0:0:0:
36,192,24722,1,4,0:0:0:0:
109,192,24722,1,0,0:0:0:0:
329,192,24722,1,0,0:0:0:0:
402,192,24800,1,0,0:0:0:0:
475,192,24878,1,0,0:0:0:0:
329,192,24956,1,0,0:0:0:0:
256,192,25034,1,8,0:0:0:0:
36,192,25034,1,0,0:0:0:0:
109,192,25112,1,0,0:0:0:0:
182,192,25190,1,0,0:0:0:0:
329,192,25190,1,0,0:0:0:0:
402,192,25268,1,0,0:0:0:0:
475,192,25347,1,0,0:0:0:0:
256,192,25347,1,0,0:0:0:0:
182,192,25425,1,0,0:0:0:0:
109,192,25503,1,0,0:0:0:0:
36,192,25581,1,0,0:0:0:0:
475,192,25659,1,8,0:0:0:0:
402,192,25659,1,0,0:0:0:0:
256,192,25659,1,0,0:0:0:0:
182,192,25737,1,0,0:0:0:0:
329,192,25815,1,0,0:0:0:0:
109,192,25815,1,0,0:0:0:0:
36,192,25893,1,0,0:0:0:0:
475,192,25972,1,0,0:0:0:0:
256,192,25972,1,0,0:0:0:0:
182,192,25972,1,0,0:0:0:0:
402,192,26050,1,0,0:0:0:0:
329,192,26128,1,0,0:0:0:0:
182,192,26206,1,0,0:0:0:0:
36,192,26284,1,8,0:0:0:0:
256,192,26284,1,0,0:0:0:0:
475,192,26362,1,0,0:0:0:0:
329,192,26440,1,0,0:0:0:0:
109,192,26440,1,0,0:0:0:0:
182,192,26440,1,0,0:0:0:0:
402,192,26518,1,0,0:0:0:0:
36,192,26597,1,0,0:0:0:0:
475,192,26597,1,0,0:0:0:0:
329,192,26675,1,0,0:0:0:0:
109,192,26753,1,0,0:0:0:0:
256,192,26831,1,0,0:0:0:0:
182,192,26909,1,8,0:0:0:0:
402,192,26909,1,0,0:0:0:0:
329,192,26987,1,0,0:0:0:0:
475,192,27065,1,0,0:0:0:0:
36,192,27065,1,0,0:0:0:0:
402,192,27143,1,0,0:0:0:0:
109,192,27143,1,0,0:0:0:0:
182,192,27222,1,0,0:0:0:0:
329,192,27222,1,0,0:0:0:0:
256,192,27300,1,0,0:0:0:0:
402,192,27378,1,0,0:0:0:0:
109,192,27456,1,0,0:0:0:0:
36,192,27534,1,8,0:0:0:0:
329,192,27534,1,0,0:0:0:0:
256,192,27612,1,0,0:0:0:0:
182,192,27690,1,0,0:0:0:0:
475,192,27690,1,0,0:0:0:0:
402,192,27690,1,0,0:0:0:0:
36,192,27768,1,0,0:0:0:0:
329,192,27847,1,0,0:0:0:0:
109,192,27847,1,0,0:0:0:0:
182,192,27925,1,0,0:0:0:0:
475,192,28003,1,0,0:0:0:0:
36,192,28003,1,0,0:0:0:0:
402,192,28081,1,0,0:0:0:0:
256,192,28159,1,8,0:0:0:0:
329,192,28159,1,0,0:0:0:0:
182,192,28159,1,0,0:0:0:0:
36,192,28237,1,0,0:0:0:0:
109,192,28315,1,0,0:0:0:0:
182,192,28393,1,0,0:0:0:0:
256,192,28472,1,0,0:0:0:0:
36,192,28472,1,0,0:0:0:0:
402,192,28472,1,0,0:0:0:0:
475,192,28472,1,0,0:0:0:0:
109,192,28628,1,0,0:0:0:0:
256,192,28784,1,8,0:0:0:0:
36,192,28784,1,0,0:0:0:0:
182,192,28784,1,0,0:0:0:0:
402,192,28784,1,0,0:0:0:0:
329,192,28940,1,0,0:0:0:0:
109,192,29097,1,0,0:0:0:0:
475,192,29097,1,0,0:0:0:0:
256,192,29097,1,0,0:0:0:0:
36,192,29097,1,0,0:0:0:0:
182,192,29253,1,0,0:0:0:0:
256,192,29409,1,8,0:0:0:0:
402,192,29409,1,0,0:0:0:0:
109,192,29409,1,0,0:0:0:0:
329,192,29409,1,0,0:0:0:0:
475,192,29565,1,0,0:0:0:0:
36,192,29722,1,4,0:0:0:0:
329,192,29722,1,0,0:0:0:0:
256,192,29722,1,0,0:0:0:0:
182,192,29722,1,0,0:0:0:0:
475,192,29800,1,0,0:0:0:0:
402,192,29878,1,0,0:0:0:0:
329,192,29956,1,0,0:0:0:0:
109,192,30034,1,8,0:0:0:0:
36,192,30034,1,0,0:0:0:0:
182,192,30112,1,0,0:0:0:0:
329,192,30190,1,0,0:0:0:0:
402,192,30268,1,0,0:0:0:0:
475,192,30347,1,0,0:0:0:0:
256,192,30347,1,0,0:0:0:0:
109,192,30347,1,0,0:0:0:0:
36,192,30425,1,0,0:0:0:0:
329,192,30503,1,0,0:0:0:0:
256,192,30581,1,0,0:0:0:0:
182,192,30659,1,8,0:0:0:0:
475,192,30659,1,0,0:0:0:0:
36,192,30737,1,0,0:0:0:0:
109,192,30815,1,0,0:0:0:0:
475,192,30893,1,0,0:0:0:0:
182,192,30893,1,0,0:0:0:0:
402,192,30972,1,0,0:0:0:0:
329,192,30972,1,0,0:0:0:0:
256,192,30972,1,0,0:0:0:0:
36,192,31050,1,0,0:0:0:0:
109,192,31128,1,0,0:0:0:0:
182,192,31206,1,0,0:0:0:0:
402,192,31284,1,8,0:0:0:0:
329,192,31284,1,0,0:0:0:0:
256,192,31362,1,0,0:0:0:0:
182,192,31440,1,0,0:0:0:0:
402,192,31518,1,0,0:0:0:0:
329,192,31597,1,0,0:0:0:0:
109,192,31597,1,0,0:0:0:0:
256,192,31675,1,0,0:0:0:0:
36,192,31753,1,0,0:0:0:0:
109,192,31831,1,0,0:0:0:0:
182,192,31909,1,8,0:0:0:0:
256,192,31909,1,0,0:0:0:0:
329,192,31909,1,0,0:0:0:0:
402,192,31987,1,0,0:0:0:0:
475,192,31987,1,0,0:0:0:0:
36,192,32065,1,0,0:0:0:0:
109,192,32065,1,0,0:0:0:0:
182,192,32143,1,0,0:0:0:0:
256,192,32143,1,0,0:0:0:0:
475,192,32222,1,0,0:0:0:0:
329,192,32222,1,0,0:0:0:0:
402,192,32222,1,0,0:0:0:0:
36,192,32300,1,0,0:0:0:0:
182,192,32378,1,0,0:0:0:0:
329,192,32456,1,0,0:0:0:0:
475,192,32534,1,8,0:0:0:0:
109,192,32534,1,0,0:0:0:0:
36,192,32612,1,0,0:0:0:0:
402,192,32690,1,0,0:0:0:0:
256,192,32690,1,0,0:0:0:0:
329,192,32768,1,0,0:0:0:0:
475,192,32847,1,0,0:0:0:0:
109,192,32847,1,0,0:0:0:0:
182,192,32925,1,0,0:0:0:0:
256,192,33003,1,0,0:0:0:0:
329,192,33081,1,0,0:0:0:0:
402,192,33159,1,8,0:0:0:0:
182,192,33159,1,0,0:0:0:0:
475,192,33159,1,0,0:0:0:0:
109,192,33237,1,0,0:0:0:0:
36,192,33315,1,0,0:0:0:0:
109,192,33393,1,0,0:0:0:0:
182,192,33472,1,0,0:0:0:0:
475,192,33472,1,0,0:0:0:0:
256,192,33472,1,0,0:0:0:0:
402,192,33550,1,0,0:0:0:0:
329,192,33628,1,0,0:0:0:0:
256,192,33706,1,0,0:0:0:0:
182,192,33784,1,8,0:0:0:0:
475,192,33784,1,0,0:0:0:0:
36,192,33784,1,0,0:0:0:0:
329,192,33862,1,0,0:0:0:0:
109,192,33940,1,0,0:0:0:0:
402,192,33940,1,0,0:0:0:0:
475,192,34018,1,0,0:0:0:0:
329,192,34097,1,0,0:0:0:0:
256,192,34097,1,0,0:0:0:0:
182,192,34175,1,0,0:0:0:0:
36,192,34253,1,0,0:0:0:0:
402,192,34253,1,0,0:0:0:0:
402,192,34565,1,0,0:0:0:0:
329,192,34565,1,0,0:0:0:0:
182,192,34643,1,0,0:0:0:0:
109,192,34643,1,0,0:0:0:0:
329,192,34722,1,4,0:0:0:0:
475,192,34722,1,0,0:0:0:0:
402,192,34722,1,0,0:0:0:0:
256,192,34800,1,0,0:0:0:0:
182,192,34878,1,0,0:0:0:0:
109,192,34956,1,0,0:0:0:0:
329,192,35034,1,8,0:0:0:0:
475,192,35034,1,0,0:0:0:0:
36,192,35034,1,0,0:0:0:0:
109,192,35112,1,0,0:0:0:0:
182,192,35190,1,0,0:0:0:0:
256,192,35268,1,0,0:0:0:0:
36,192,35347,1,0,0:0:0:0:
329,192,35347,1,0,0:0:0:0:
402,192,35425,1,0,0:0:0:0:
329,192,35503,1,0,0:0:0:0:
256,192,35581,1,0,0:0:0:0:
109,192,35659,1,8,0:0:0:0:
475,192,35659,1,0,0:0:0:0:
182,192,35659,1,0,0:0:0:0:
329,192,35737,1,0,0:0:0:0:
402,192,35815,1,0,0:0:0:0:
256,192,35815,1,0,0:0:0:0:
182,192,35893,1,0,0:0:0:0:
36,192,35972,1,0,0:0:0:0:
475,192,35972,1,0,0:0:0:0:
109,192,35972,1,0,0:0:0:0:
402,192,36050,1,0,0:0:0:0:
329,192,36128,1,0,0:0:0:0:
109,192,36206,1,0,0:0:0:0:
256,192,36284,1,8,0:0:0:0:
475,192,36284,1,0,0:0:0:0:
182,192,36284,1,0,0:0:0:0:
329,192,36362,1,0,0:0:0:0:
36,192,36440,1,0,0:0:0:0:
402,192,36440,1,0,0:0:0:0:
109,192,36518,1,0,0:0:0:0:
256,192,36597,1,0,0:0:0:0:
182,192,36597,1,0,0:0:0:0:
475,192,36675,1,0,0:0:0:0:
329,192,36753,1,0,0:0:0:0:
182,192,36831,1,0,0:0:0:0:
109,192,36909,1,8,0:0:0:0:
36,192,36909,1,0,0:0:0:0:
475,192,36987,1,0,0:0:0:0:
256,192,37065,1,0,0:0:0:0:
329,192,37065,1,0,0:0:0:0:
402,192,37143,1,0,0:0:0:0:
475,192,37222,1,0,0:0:0:0:
182,192,37222,1,0,0:0:0:0:
109,192,37222,1,0,0:0:0:0:
256,192,37300,1,0,0:0:0:0:
402,192,37456,1,0,0:0:0:0:
329,192,37534,1,8,0:0:0:0:
36,192,37534,1,0,0:0:0:0:
256,192,37612,1,0,0:0:0:0:
182,192,37690,1,0,0:0:0:0:
109,192,37768,1,0,0:0:0:0:
256,192,37847,1,0,0:0:0:0:
36,192,37847,1,0,0:0:0:0:
329,192,37925,1,0,0:0:0:0:
402,192,38003,1,0,0:0:0:0:
475,192,38081,1,0,0:0:0:0:
36,192,38159,1,8,0:0:0:0:
109,192,38159,1,0,0:0:0:0:
182,192,38159,1,0,0:0:0:0:
329,192,38237,1,0,0:0:0:0:
256,192,38315,1,0,0:0:0:0:
182,192,38393,1,0,0:0:0:0:
109,192,38472,1,0,0:0:0:0:
329,192,38472,1,0,0:0:0:0:
402,192,38472,1,0,0:0:0:0:
475,192,38472,1,0,0:0:0:0:
256,192,38628,1,0,0:0:0:0:
109,192,38784,1,8,0:0:0:0:
475,192,38784,1,0,0:0:0:0:
329,192,38784,1,0,0:0:0:0:
182,192,38784,1,0,0:0:0:0:
402,192,38940,1,0,0:0:0:0:
475,192,39097,1,0,0:0:0:0:
36,192,39097,1,0,0:0:0:0:
256,192,39097,1,0,0:0:0:0:
329,192,39097,1,0,0:0:0:0:
182,192,39253,1,0,0:0:0:0:
109,192,39409,1,8,0:0:0:0:
402,192,39409,1,0,0:0:0:0:
36,192,39409,1,0,0:0:0:0:
256,192,39409,1,0,0:0:0:0:
329,192,39565,1,0,0:0:0:0:
402,192,39722,1,4,0:0:0:0:
109,192,39722,1,4,0:0:0:0:
475,192,39722,1,0,0:0:0:0:
182,192,39722,1,0,0:0:0:0:
329,192,39800,1,0,0:0:0:0:
36,192,39878,1,0,0:0:0:0:
182,192,39956,1,0,0:0:0:0:
475,192,40034,1,8,0:0:0:0:
329,192,40034,1,0,0:0:0:0:
182,192,40112,1,0,0:0:0:0:
36,192,40190,1,0,0:0:0:0:
329,192,40190,1,0,0:0:0:0:
256,192,40268,1,0,0:0:0:0:
402,192,40347,1,0,0:0:0:0:
109,192,40347,1,0,0:0:0:0:
36,192,40425,1,0,0:0:0:0:
475,192,40503,1,0,0:0:0:0:
109,192,40581,1,0,0:0:0:0:
329,192,40659,1,8,0:0:0:0:
402,192,40659,1,0,0:0:0:0:
256,192,40737,1,0,0:0:0:0:
109,192,40815,1,0,0:0:0:0:
182,192,40815,1,0,0:0:0:0:
329,192,40893,1,0,0:0:0:0:
36,192,40972,1,0,0:0:0:0:
402,192,40972,1,0,0:0:0:0:
475,192,40972,1,0,0:0:0:0:
182,192,41050,1,0,0:0:0:0:
256,192,41128,1,0,0:0:0:0:
329,192,41206,1,0,0:0:0:0:
109,192,41284,1,8,0:0:0:0:
475,192,41284,1,0,0:0:0:0:
182,192,41362,1,0,0:0:0:0:
256,192,41440,1,0,0:0:0:0:
36,192,41518,1,0,0:0:0:0:
475,192,41597,1,0,0:0:0:0:
109,192,41597,1,0,0:0:0:0:
182,192,41675,1,0,0:0:0:0:
329,192,41753,1,0,0:0:0:0:
256,192,41831,1,0,0:0:0:0:
402,192,41909,1,8,0:0:0:0:
182,192,41909,1,0,0:0:0:0:
475,192,41909,1,0,0:0:0:0:
109,192,41987,1,0,0:0:0:0:
329,192,42065,1,0,0:0:0:0:
256,192,42065,1,0,0:0:0:0:
182,192,42143,1,0,0:0:0:0:
402,192,42222,1,0,0:0:0:0:
475,192,42222,1,0,0:0:0:0:
36,192,42222,1,0,0:0:0:0:
329,192,42300,1,0,0:0:0:0:
182,192,42378,1,0,0:0:0:0:
256,192,42456,1,0,0:0:0:0:
475,192,42534,1,8,0:0:0:0:
329,192,42534,1,0,0:0:0:0:
36,192,42612,1,0,0:0:0:0:
402,192,42690,1,0,0:0:0:0:
256,192,42690,1,0,0:0:0:0:
182,192,42768,1,0,0:0:0:0:
475,192,42847,1,0,0:0:0:0:
109,192,42847,1,0,0:0:0:0:
256,192,42925,1,0,0:0:0:0:
402,192,43003,1,0,0:0:0:0:
329,192,43081,1,0,0:0:0:0:
182,192,43159,5,8,0:0:0:0:
475,192,43159,1,0,0:0:0:0:
256,192,43159,1,0,0:0:0:0:
36,192,43237,1,0,0:0:0:0:
109,192,43315,1,0,0:0:0:0:
182,192,43393,1,0,0:0:0:0:
402,192,43472,5,0,0:0:0:0:
256,192,43472,1,0,0:0:0:0:
475,192,43472,1,0,0:0:0:0:
329,192,43550,1,0,0:0:0:0:
182,192,43628,1,0,0:0:0:0:
109,192,43706,1,0,0:0:0:0:
475,192,43784,1,8,0:0:0:0:
329,192,43784,1,0,0:0:0:0:
36,192,43784,1,0,0:0:0:0:
402,192,43940,1,0,0:0:0:0:
256,192,44097,1,0,0:0:0:0:
36,192,44253,1,0,0:0:0:0:
475,192,44253,1,0,0:0:0:0:
182,192,44253,1,0,0:0:0:0:
329,192,44565,1,0,0:0:0:0:
182,192,44565,1,0,0:0:0:0:
402,192,44643,1,0,0:0:0:0:
109,192,44643,1,0,0:0:0:0:
475,192,44722,1,4,0:0:0:0:
256,192,44722,1,0,0:0:0:0:
36,192,44722,1,0,0:0:0:0:
109,192,44878,1,0,0:0:0:0:
182,192,44878,1,0,0:0:0:0:
402,192,44878,1,0,0:0:0:0:
182,192,45034,1,8,0:0:0:0:
256,192,45034,1,0,0:0:0:0:
475,192,45034,1,0,0:0:0:0:
256,192,45190,1,0,0:0:0:0:
329,192,45190,1,0,0:0:0:0:
36,192,45190,1,0,0:0:0:0:
329,192,45347,1,0,0:0:0:0:
402,192,45347,1,0,0:0:0:0:
109,192,45347,1,0,0:0:0:0:
402,192,45503,1,0,0:0:0:0:
475,192,45503,1,0,0:0:0:0:
182,192,45503,1,0,0:0:0:0:
475,192,45659,1,8,0:0:0:0:
36,192,45659,1,0,0:0:0:0:
256,192,45659,1,0,0:0:0:0:
36,192,45815,1,0,0:0:0:0:
109,192,45815,1,0,0:0:0:0:
329,192,45815,1,0,0:0:0:0:
109,192,45972,1,0,0:0:0:0:
182,192,45972,1,0,0:0:0:0:
402,192,45972,1,0,0:0:0:0:
182,192,46128,1,0,0:0:0:0:
256,192,46128,1,0,0:0:0:0:
475,192,46128,1,0,0:0:0:0:
256,192,46284,1,8,0:0:0:0:
329,192,46284,1,0,0:0:0:0:
36,192,46284,1,0,0:0:0:0:
329,192,46440,1,0,0:0:0:0:
402,192,46440,1,0,0:0:0:0:
109,192,46440,1,0,0:0:0:0:
402,192,46597,1,8,0:0:0:0:
475,192,46597,1,4,2:0:0:0:
182,192,46597,1,0,0:0:0:0:
256,192,46597,1,0,0:0:0:0:
36,192,46909,1,4,2:0:0:0:
109,192,46909,1,8,0:0:0:0:
329,192,46909,1,0,0:0:0:0:
402,192,46909,1,0,0:0:0:0:
329,192,47222,1,0,0:0:0:0:
475,192,47378,1,0,0:0:0:0:
256,192,47378,1,0,0:0:0:0:
36,192,47378,1,0,0:0:0:0:
109,192,47534,1,8,0:0:0:0:
402,192,47534,1,0,0:0:0:0:
329,192,47534,1,0,0:0:0:0:
182,192,47690,1,0,0:0:0:0:
475,192,47690,1,0,0:0:0:0:
329,192,47690,1,0,0:0:0:0:
36,192,47847,1,0,0:0:0:0:
182,192,47847,1,0,0:0:0:0:
402,192,47847,1,0,0:0:0:0:
36,192,48003,1,0,0:0:0:0:
109,192,48003,1,0,0:0:0:0:
256,192,48003,1,0,0:0:0:0:
256,192,48159,1,8,0:0:0:0:
475,192,48159,1,0,0:0:0:0:
402,192,48159,1,0,0:0:0:0:
182,192,48315,1,0,0:0:0:0:
475,192,48315,1,0,0:0:0:0:
329,192,48315,1,0,0:0:0:0:
36,192,48472,1,0,0:0:0:0:
109,192,48472,1,0,0:0:0:0:
329,192,48472,1,0,0:0:0:0:
182,192,48628,1,0,0:0:0:0:
36,192,48628,1,0,0:0:0:0:
475,192,48628,1,0,0:0:0:0:
109,192,48784,1,8,0:0:0:0:
402,192,48784,1,0,0:0:0:0:
256,192,48784,1,0,0:0:0:0:
109,192,48940,1,0,0:0:0:0:
256,192,48940,1,0,0:0:0:0:
402,192,48940,1,0,0:0:0:0:
36,192,49097,1,8,0:0:0:0:
182,192,49097,1,4,2:0:0:0:
329,192,49097,1,0,0:0:0:0:
475,192,49097,1,0,0:0:0:0:
182,192,49409,1,8,0:0:0:0:
329,192,49409,1,4,2:0:0:0:
109,192,49409,1,0,0:0:0:0:
402,192,49409,1,0,0:0:0:0:
256,192,49722,1,0,0:0:0:0:
36,192,49722,1,0,0:0:0:0:
475,192,49722,1,0,0:0:0:0:
402,192,49878,128,0,50034:0:0:0:0:
182,192,49878,1,0,0:0:0:0:
109,192,50034,128,8,50347:0:0:0:0:
36,192,50034,1,0,0:0:0:0:
475,192,50034,1,0,0:0:0:0:
182,192,50190,128,0,50347:0:0:0:0:
329,192,50190,1,0,0:0:0:0:
402,192,50347,128,0,50659:0:0:0:0:
256,192,50347,1,0,0:0:0:0:
329,192,50503,128,0,50659:0:0:0:0:
182,192,50503,1,0,0:0:0:0:
36,192,50659,1,8,0:0:0:0:
475,192,50659,1,0,0:0:0:0:
256,192,50815,128,0,50972:0:0:0:0:
182,192,50815,1,0,0:0:0:0:
109,192,50972,1,0,0:0:0:0:
475,192,51128,128,0,51284:0:0:0:0:
256,192,51128,1,0,0:0:0:0:
182,192,51284,1,8,0:0:0:0:
329,192,51284,1,0,0:0:0:0:
36,192,51440,128,0,51597:0:0:0:0:
256,192,51440,1,0,0:0:0:0:
109,192,51597,1,4,2:0:0:0:
402,192,51597,1,8,0:0:0:0:
256,192,51597,1,0,0:0:0:0:
36,192,51909,1,8,0:0:0:0:
182,192,51909,1,4,2:0:0:0:
329,192,51909,1,0,0:0:0:0:
475,192,51909,1,0,0:0:0:0:
36,192,52222,128,4,52534:0:0:0:0:
256,192,52222,1,0,0:0:0:0:
475,192,52222,1,0,0:0:0:0:
402,192,52378,128,0,52690:0:0:0:0:
109,192,52534,128,8,52847:0:0:0:0:
182,192,52534,1,0,0:0:0:0:
329,192,52534,1,0,0:0:0:0:
475,192,52690,128,0,53003:0:0:0:0:
182,192,52847,128,0,53159:0:0:0:0:
256,192,52847,1,0,0:0:0:0:
402,192,53003,128,0,53315:0:0:0:0:
329,192,53159,1,8,0:0:0:0:
256,192,53159,1,0,0:0:0:0:
109,192,53159,128,0,53472:0:0:0:0:
475,192,53315,128,0,53472:0:0:0:0:
36,192,53472,128,4,53784:2:0:0:0:
402,192,53472,128,0,53784:0:0:0:0:
329,192,53472,128,0,53784:0:0:0:0:
109,192,53784,128,8,54097:0:0:0:0:
256,192,53784,128,4,54097:2:0:0:0:
475,192,54097,128,4,54409:2:0:0:0:
182,192,54097,128,0,54409:0:0:0:0:
329,192,54097,128,0,54409:0:0:0:0:
256,192,54409,1,8,0:0:0:0:
36,192,54409,1,4,2:0:0:0:
402,192,54409,1,0,0:0:0:0:
36,192,54565,1,8,0:0:0:0:
256,192,54565,1,0,0:0:0:0:
109,192,54643,1,8,0:0:0:0:
329,192,54643,1,0,0:0:0:0:
182,192,54722,1,8,0:0:0:0:
402,192,54722,1,4,0:0:0:0:
475,192,54722,1,0,0:0:0:0:
256,192,54800,1,0,0:0:0:0:
329,192,54878,1,0,0:0:0:0:
402,192,54956,1,0,0:0:0:0:
475,192,55034,1,8,0:0:0:0:
109,192,55034,1,0,0:0:0:0:
256,192,55034,1,0,0:0:0:0:
36,192,55112,1,0,0:0:0:0:
109,192,55190,1,0,0:0:0:0:
182,192,55268,1,0,0:0:0:0:
256,192,55347,1,0,0:0:0:0:
475,192,55347,1,0,0:0:0:0:
329,192,55425,1,0,0:0:0:0:
402,192,55503,1,0,0:0:0:0:
475,192,55581,1,0,0:0:0:0:
109,192,55659,1,8,0:0:0:0:
402,192,55659,1,0,0:0:0:0:
36,192,55659,1,0,0:0:0:0:
329,192,55737,1,0,0:0:0:0:
256,192,55815,1,0,0:0:0:0:
182,192,55893,1,0,0:0:0:0:
109,192,55972,1,0,0:0:0:0:
329,192,55972,1,0,0:0:0:0:
36,192,56050,1,0,0:0:0:0:
475,192,56128,1,0,0:0:0:0:
402,192,56206,1,0,0:0:0:0:
329,192,56284,1,8,0:0:0:0:
36,192,56284,1,0,0:0:0:0:
109,192,56284,1,0,0:0:0:0:
256,192,56362,1,0,0:0:0:0:
182,192,56440,1,0,0:0:0:0:
109,192,56518,1,0,0:0:0:0:
36,192,56597,1,4,2:0:0:0:
256,192,56597,1,8,0:0:0:0:
475,192,56597,1,0,0:0:0:0:
402,192,56597,1,0,0:0:0:0:
109,192,56909,1,8,0:0:0:0:
329,192,56909,1,4,2:0:0:0:
256,192,56909,1,0,0:0:0:0:
475,192,56909,1,0,0:0:0:0:
182,192,57065,1,0,0:0:0:0:
402,192,57143,1,0,0:0:0:0:
256,192,57222,1,0,0:0:0:0:
36,192,57222,1,0,0:0:0:0:
109,192,57222,1,0,0:0:0:0:
329,192,57300,1,0,0:0:0:0:
182,192,57378,1,0,0:0:0:0:
402,192,57456,1,0,0:0:0:0:
475,192,57534,1,8,0:0:0:0:
109,192,57534,1,0,0:0:0:0:
256,192,57534,1,0,0:0:0:0:
329,192,57612,1,0,0:0:0:0:
402,192,57690,1,0,0:0:0:0:
36,192,57768,1,0,0:0:0:0:
475,192,57847,1,0,0:0:0:0:
182,192,57847,1,0,0:0:0:0:
329,192,57925,1,0,0:0:0:0:
109,192,58003,1,0,0:0:0:0:
402,192,58081,1,0,0:0:0:0:
329,192,58159,1,8,0:0:0:0:
36,192,58159,1,0,0:0:0:0:
256,192,58159,1,0,0:0:0:0:
109,192,58237,1,0,0:0:0:0:
475,192,58315,1,0,0:0:0:0:
329,192,58393,1,0,0:0:0:0:
182,192,58472,1,0,0:0:0:0:
402,192,58472,1,0,0:0:0:0:
475,192,58550,1,0,0:0:0:0:
36,192,58628,1,0,0:0:0:0:
329,192,58706,1,0,0:0:0:0:
475,192,58784,1,8,0:0:0:0:
182,192,58784,1,0,0:0:0:0:
109,192,58784,1,0,0:0:0:0:
402,192,58862,1,0,0:0:0:0:
329,192,58940,1,0,0:0:0:0:
256,192,59018,1,0,0:0:0:0:
36,192,59097,1,4,2:0:0:0:
182,192,59097,1,8,0:0:0:0:
402,192,59097,1,0,0:0:0:0:
475,192,59097,1,0,0:0:0:0:
109,192,59409,1,4,2:0:0:0:
256,192,59409,1,8,0:0:0:0:
402,192,59409,1,0,0:0:0:0:
475,192,59409,1,0,0:0:0:0:
329,192,59565,1,0,0:0:0:0:
182,192,59643,1,0,0:0:0:0:
36,192,59722,1,0,0:0:0:0:
402,192,59722,1,0,0:0:0:0:
475,192,59722,1,0,0:0:0:0:
329,192,59800,1,0,0:0:0:0:
256,192,59878,1,0,0:0:0:0:
182,192,59956,1,0,0:0:0:0:
475,192,60034,1,8,0:0:0:0:
36,192,60034,1,0,0:0:0:0:
109,192,60034,1,0,0:0:0:0:
402,192,60112,1,0,0:0:0:0:
329,192,60190,1,0,0:0:0:0:
256,192,60268,1,0,0:0:0:0:
109,192,60347,1,0,0:0:0:0:
475,192,60347,1,0,0:0:0:0:
182,192,60425,1,0,0:0:0:0:
256,192,60503,1,0,0:0:0:0:
329,192,60581,1,0,0:0:0:0:
109,192,60659,1,8,0:0:0:0:
402,192,60659,1,0,0:0:0:0:
475,192,60659,1,0,0:0:0:0:
36,192,60737,1,0,0:0:0:0:
182,192,60815,1,0,0:0:0:0:
329,192,60893,1,0,0:0:0:0:
475,192,60972,1,0,0:0:0:0:
109,192,60972,1,0,0:0:0:0:
402,192,61050,1,0,0:0:0:0:
329,192,61128,1,0,0:0:0:0:
36,192,61206,1,0,0:0:0:0:
109,192,61284,1,8,0:0:0:0:
475,192,61284,1,0,0:0:0:0:
402,192,61284,1,0,0:0:0:0:
182,192,61362,1,0,0:0:0:0:
256,192,61440,1,0,0:0:0:0:
329,192,61518,1,0,0:0:0:0:
402,192,61597,1,4,2:0:0:0:
475,192,61597,1,8,0:0:0:0:
36,192,61597,1,0,0:0:0:0:
109,192,61597,1,0,0:0:0:0:
109,192,61909,1,8,0:0:0:0:
402,192,61909,1,4,2:0:0:0:
182,192,61909,1,0,0:0:0:0:
329,192,61909,1,0,0:0:0:0:
36,192,62222,128,4,63472:0:0:0:0:
256,192,62222,1,0,0:0:0:0:
475,192,62534,128,8,63472:0:0:0:0:
182,192,62534,1,0,0:0:0:0:
329,192,62534,1,0,0:0:0:0:
109,192,62847,128,0,63472:0:0:0:0:
256,192,62847,1,0,0:0:0:0:
402,192,63159,128,8,63472:0:0:0:0:
182,192,63159,1,0,0:0:0:0:
329,192,63159,1,0,0:0:0:0:
256,192,63472,1,4,2:0:0:0:
182,192,63472,128,0,63784:0:0:0:0:
329,192,63784,128,4,64097:2:0:0:0:
402,192,63784,1,8,0:0:0:0:
475,192,63784,1,0,0:0:0:0:
475,192,64097,128,4,64409:2:0:0:0:
36,192,64097,1,0,0:0:0:0:
36,192,64409,1,4,2:0:0:0:
329,192,64409,1,8,0:0:0:0:
36,192,64565,1,8,0:0:0:0:
329,192,64565,1,0,0:0:0:0:
109,192,64643,1,8,0:0:0:0:
402,192,64643,1,0,0:0:0:0:
182,192,64722,1,8,0:0:0:0:
475,192,64722,1,4,0:0:0:0:
256,192,64722,1,0,0:0:0:0:
36,192,64878,1,0,0:0:0:0:
109,192,64956,1,0,0:0:0:0:
182,192,65034,1,8,0:0:0:0:
402,192,65034,1,0,0:0:0:0:
329,192,65034,1,0,0:0:0:0:
475,192,65190,1,0,0:0:0:0:
402,192,65268,1,0,0:0:0:0:
36,192,65347,1,8,0:0:0:0:
256,192,65347,1,0,0:0:0:0:
329,192,65347,1,0,0:0:0:0:
182,192,65503,1,0,0:0:0:0:
256,192,65581,1,0,0:0:0:0:
182,192,65659,1,8,0:0:0:0:
36,192,65659,1,0,0:0:0:0:
109,192,65659,1,0,0:0:0:0:
329,192,65815,1,0,0:0:0:0:
256,192,65893,1,0,0:0:0:0:
329,192,65972,1,8,0:0:0:0:
402,192,65972,1,0,0:0:0:0:
475,192,65972,1,0,0:0:0:0:
36,192,66128,1,0,0:0:0:0:
182,192,66206,1,0,0:0:0:0:
329,192,66284,1,8,0:0:0:0:
402,192,66284,1,0,0:0:0:0:
475,192,66284,1,0,0:0:0:0:
182,192,66440,1,0,0:0:0:0:
109,192,66518,1,0,0:0:0:0:
402,192,66597,1,8,0:0:0:0:
256,192,66597,1,0,0:0:0:0:
36,192,66597,1,0,0:0:0:0:
329,192,66753,1,0,0:0:0:0:
182,192,66831,1,0,0:0:0:0:
475,192,66909,1,8,0:0:0:0:
109,192,66909,1,0,0:0:0:0:
402,192,66909,1,0,0:0:0:0:
36,192,67065,1,0,0:0:0:0:
182,192,67143,1,0,0:0:0:0:
329,192,67222,1,8,0:0:0:0:
256,192,67222,1,0,0:0:0:0:
402,192,67222,1,0,0:0:0:0:
475,192,67378,1,0,0:0:0:0:
329,192,67456,1,0,0:0:0:0:
182,192,67534,1,8,0:0:0:0:
36,192,67534,1,0,0:0:0:0:
109,192,67534,1,0,0:0:0:0:
329,192,67690,1,0,0:0:0:0:
402,192,67768,1,0,0:0:0:0:
256,192,67847,1,8,0:0:0:0:
109,192,67847,1,0,0:0:0:0:
329,192,67847,1,0,0:0:0:0:
182,192,68003,1,0,0:0:0:0:
109,192,68081,1,0,0:0:0:0:
36,192,68159,1,8,0:0:0:0:
182,192,68159,1,0,0:0:0:0:
402,192,68159,1,0,0:0:0:0:
329,192,68315,1,0,0:0:0:0:
402,192,68393,1,0,0:0:0:0:
475,192,68472,1,8,0:0:0:0:
256,192,68472,1,0,0:0:0:0:
36,192,68472,1,0,0:0:0:0:
182,192,68628,1,0,0:0:0:0:
109,192,68706,1,0,0:0:0:0:
475,192,68784,1,8,0:0:0:0:
256,192,68784,1,0,0:0:0:0:
36,192,68784,1,0,0:0:0:0:
329,192,68940,1,0,0:0:0:0:
182,192,69018,1,0,0:0:0:0:
36,192,69097,1,8,0:0:0:0:
475,192,69097,1,0,0:0:0:0:
256,192,69097,1,0,0:0:0:0:
109,192,69253,1,0,0:0:0:0:
402,192,69331,1,0,0:0:0:0:
256,192,69409,1,8,0:0:0:0:
329,192,69409,1,0,0:0:0:0:
36,192,69409,1,0,0:0:0:0:
182,192,69565,1,0,0:0:0:0:
109,192,69643,1,0,0:0:0:0:
36,192,69722,1,4,0:0:0:0:
182,192,69722,1,8,0:0:0:0:
329,192,69722,1,0,0:0:0:0:
475,192,69722,1,0,0:0:0:0:
256,192,69878,1,0,0:0:0:0:
329,192,69956,1,0,0:0:0:0:
402,192,70034,1,8,0:0:0:0:
109,192,70034,1,0,0:0:0:0:
475,192,70034,1,0,0:0:0:0:
256,192,70190,1,0,0:0:0:0:
36,192,70268,1,0,0:0:0:0:
182,192,70347,1,8,0:0:0:0:
109,192,70347,1,0,0:0:0:0:
402,192,70347,1,0,0:0:0:0:
256,192,70503,1,0,0:0:0:0:
475,192,70581,1,0,0:0:0:0:
329,192,70659,1,8,0:0:0:0:
109,192,70659,1,0,0:0:0:0:
402,192,70659,1,0,0:0:0:0:
182,192,70815,1,0,0:0:0:0:
256,192,70893,1,0,0:0:0:0:
329,192,70972,1,8,0:0:0:0:
402,192,70972,1,0,0:0:0:0:
36,192,70972,1,0,0:0:0:0:
109,192,71128,1,0,0:0:0:0:
182,192,71206,1,0,0:0:0:0:
256,192,71284,1,8,0:0:0:0:
475,192,71284,1,0,0:0:0:0:
402,192,71284,1,0,0:0:0:0:
36,192,71440,1,0,0:0:0:0:
109,192,71518,1,0,0:0:0:0:
182,192,71597,1,8,0:0:0:0:
475,192,71597,1,0,0:0:0:0:
402,192,71597,1,0,0:0:0:0:
329,192,71753,1,0,0:0:0:0:
256,192,71831,1,0,0:0:0:0:
182,192,71909,1,8,0:0:0:0:
36,192,71909,1,0,0:0:0:0:
109,192,71909,1,0,0:0:0:0:
402,192,72065,1,0,0:0:0:0:
329,192,72143,1,0,0:0:0:0:
256,192,72222,1,8,0:0:0:0:
182,192,72222,1,0,0:0:0:0:
109,192,72222,1,0,0:0:0:0:
475,192,72378,1,0,0:0:0:0:
402,192,72456,1,0,0:0:0:0:
329,192,72534,1,8,0:0:0:0:
256,192,72534,1,0,0:0:0:0:
182,192,72534,1,0,0:0:0:0:
36,192,72690,1,0,0:0:0:0:
109,192,72768,1,0,0:0:0:0:
475,192,72847,1,8,0:0:0:0:
182,192,72847,128,0,73159:0:0:0:0:
329,192,72847,1,0,0:0:0:0:
402,192,73003,1,0,0:0:0:0:
329,192,73081,1,0,0:0:0:0:
36,192,73159,1,8,0:0:0:0:
109,192,73159,1,0,0:0:0:0:
256,192,73315,1,0,0:0:0:0:
329,192,73393,1,0,0:0:0:0:
402,192,73472,128,8,73784:0:0:0:0:
475,192,73472,1,0,0:0:0:0:
182,192,73472,1,0,0:0:0:0:
256,192,73628,1,0,0:0:0:0:
182,192,73706,1,0,0:0:0:0:
36,192,73784,1,8,0:0:0:0:
109,192,73784,1,0,0:0:0:0:
182,192,73862,1,0,0:0:0:0:
256,192,73940,128,0,74722:0:0:0:0:
475,192,73940,128,0,74722:0:0:0:0:
402,192,74097,1,8,0:0:0:0:
329,192,74097,1,0,0:0:0:0:
36,192,74409,1,8,0:0:0:0:
109,192,74409,1,0,0:0:0:0:
182,192,74722,1,8,0:0:0:0:
109,192,74722,1,4,0:0:0:0:
36,192,74722,128,0,75034:0:0:0:0:
256,192,74878,1,0,0:0:0:0:
402,192,75034,128,8,75347:0:0:0:0:
182,192,75034,1,0,0:0:0:0:
329,192,75034,1,0,0:0:0:0:
475,192,75190,1,0,0:0:0:0:
109,192,75347,128,8,75659:0:0:0:0:
256,192,75347,1,0,0:0:0:0:
182,192,75347,1,0,0:0:0:0:
329,192,75503,1,0,0:0:0:0:
475,192,75659,128,8,75972:0:0:0:0:
256,192,75659,1,0,0:0:0:0:
402,192,75659,1,0,0:0:0:0:
182,192,75815,1,0,0:0:0:0:
256,192,75972,128,8,76284:0:0:0:0:
36,192,75972,1,0,0:0:0:0:
109,192,75972,1,0,0:0:0:0:
182,192,76128,1,0,0:0:0:0:
329,192,76284,128,8,76597:0:0:0:0:
402,192,76284,1,0,0:0:0:0:
475,192,76284,1,0,0:0:0:0:
36,192,76440,1,0,0:0:0:0:
182,192,76597,128,8,76909:0:0:0:0:
109,192,76597,1,0,0:0:0:0:
256,192,76597,1,0,0:0:0:0:
475,192,76753,1,0,0:0:0:0:
402,192,76909,128,8,77222:0:0:0:0:
329,192,76909,1,0,0:0:0:0:
36,192,76909,1,0,0:0:0:0:
256,192,77065,1,0,0:0:0:0:
109,192,77222,128,8,77690:0:0:0:0:
182,192,77222,1,0,0:0:0:0:
475,192,77222,1,0,0:0:0:0:
256,192,77378,1,0,0:0:0:0:
329,192,77534,1,8,0:0:0:0:
402,192,77534,1,0,0:0:0:0:
256,192,77690,1,0,0:0:0:0:
182,192,77847,128,8,78784:0:0:0:0:
402,192,77847,128,0,78784:0:0:0:0:
36,192,77847,1,0,0:0:0:0:
475,192,77847,1,0,0:0:0:0:
109,192,78003,1,0,0:0:0:0:
256,192,78159,1,8,0:0:0:0:
475,192,78159,1,0,0:0:0:0:
329,192,78315,1,0,0:0:0:0:
475,192,78472,1,8,0:0:0:0:
36,192,78472,1,0,0:0:0:0:
329,192,78628,1,0,0:0:0:0:
256,192,78706,1,0,0:0:0:0:
109,192,78784,1,8,0:0:0:0:
36,192,78940,1,0,0:0:0:0:
109,192,79018,1,0,0:0:0:0:
182,192,79097,1,8,0:0:0:0:
475,192,79097,1,0,0:0:0:0:
329,192,79097,1,0,0:0:0:0:
475,192,79253,1,0,0:0:0:0:
402,192,79331,1,0,0:0:0:0:
182,192,79409,1,8,0:0:0:0:
36,192,79409,1,0,0:0:0:0:
329,192,79409,1,0,0:0:0:0:
402,192,79565,1,0,0:0:0:0:
182,192,79643,1,0,0:0:0:0:
256,192,79722,1,8,0:0:0:0:
109,192,79722,128,4,80972:0:0:0:0:
475,192,79722,128,0,80972:0:0:0:0:
36,192,80972,128,8,82222:0:0:0:0:
402,192,80972,128,4,81597:0:0:0:0:
475,192,81597,128,8,82222:0:0:0:0:
329,192,81597,1,4,0:0:0:0:
256,192,81597,1,0,0:0:0:0:
109,192,81753,1,0,0:0:0:0:
182,192,81831,1,0,0:0:0:0:
256,192,81909,1,8,0:0:0:0:
256,192,82222,1,8,0:0:0:0:
329,192,82222,1,4,0:0:0:0:
109,192,82222,1,0,0:0:0:0:
109,192,82378,1,0,0:0:0:0:
109,192,82534,1,8,0:0:0:0:
402,192,82534,1,0,0:0:0:0:
329,192,82534,1,0,0:0:0:0:
182,192,82690,1,0,0:0:0:0:
109,192,82847,1,8,0:0:0:0:
475,192,82847,1,0,0:0:0:0:
109,192,83003,1,0,0:0:0:0:
182,192,83159,1,8,0:0:0:0:
329,192,83159,1,0,0:0:0:0:
402,192,83159,1,0,0:0:0:0:
109,192,83315,1,0,0:0:0:0:
109,192,83472,1,4,0:0:0:0:
256,192,83472,1,0,0:0:0:0:
475,192,83472,1,0,0:0:0:0:
36,192,83706,1,8,0:0:0:0:
182,192,83706,1,0,0:0:0:0:
402,192,83706,1,0,0:0:0:0:
475,192,84057,1,0,0:0:0:0:
402,192,84097,1,0,0:0:0:0:
329,192,84136,1,0,0:0:0:0:
256,192,84175,1,0,0:0:0:0:
182,192,84214,1,0,0:0:0:0:
109,192,84253,1,0,0:0:0:0:
36,192,84292,1,0,0:0:0:0:
475,192,84331,1,0,0:0:0:0:
402,192,84370,1,0,0:0:0:0:
329,192,84409,1,0,0:0:0:0:
256,192,84448,1,0,0:0:0:0:
182,192,84487,1,0,0:0:0:0:
109,192,84526,1,0,0:0:0:0:
36,192,84565,1,0,0:0:0:0:
475,192,84604,1,0,0:0:0:0:
402,192,84643,1,0,0:0:0:0:
329,192,84682,1,0,0:0:0:0:
256,192,84722,1,4,0:0:0:0:
36,192,84722,128,8,85972:0:0:0:0:
109,192,84722,1,0,0:0:0:0:
475,192,84800,1,0,0:0:0:0:
402,192,84878,1,0,0:0:0:0:
329,192,84956,1,0,0:0:0:0:
109,192,85034,1,8,0:0:0:0:
182,192,85034,1,0,0:0:0:0:
256,192,85112,1,0,0:0:0:0:
329,192,85190,1,0,0:0:0:0:
402,192,85268,1,0,0:0:0:0:
109,192,85347,1,0,0:0:0:0:
182,192,85425,1,0,0:0:0:0:
475,192,85503,1,0,0:0:0:0:
402,192,85581,1,0,0:0:0:0:
109,192,85659,1,8,0:0:0:0:
256,192,85659,1,0,0:0:0:0:
182,192,85815,1,0,0:0:0:0:
256,192,85893,1,0,0:0:0:0:
475,192,85972,128,0,87222:0:0:0:0:
402,192,85972,1,0,0:0:0:0:
109,192,86050,1,0,0:0:0:0:
182,192,86128,1,0,0:0:0:0:
329,192,86206,1,0,0:0:0:0:
36,192,86284,1,8,0:0:0:0:
256,192,86284,1,0,0:0:0:0:
182,192,86362,1,0,0:0:0:0:
109,192,86440,1,0,0:0:0:0:
329,192,86518,1,0,0:0:0:0:
36,192,86597,1,0,0:0:0:0:
256,192,86675,1,0,0:0:0:0:
402,192,86753,1,0,0:0:0:0:
109,192,86831,1,0,0:0:0:0:
36,192,86909,1,8,0:0:0:0:
329,192,86909,1,0,0:0:0:0:
182,192,86987,1,0,0:0:0:0:
402,192,87065,1,0,0:0:0:0:
329,192,87143,1,0,0:0:0:0:
256,192,87222,128,0,88472:0:0:0:0:
36,192,87222,1,0,0:0:0:0:
182,192,87300,1,0,0:0:0:0:
329,192,87378,1,0,0:0:0:0:
402,192,87456,1,0,0:0:0:0:
475,192,87534,1,8,0:0:0:0:
182,192,87534,1,0,0:0:0:0:
109,192,87612,1,0,0:0:0:0:
36,192,87690,1,0,0:0:0:0:
329,192,87768,1,0,0:0:0:0:
402,192,87847,1,0,0:0:0:0:
475,192,87925,1,0,0:0:0:0:
36,192,88003,1,0,0:0:0:0:
109,192,88081,1,0,0:0:0:0:
182,192,88159,1,8,0:0:0:0:
475,192,88159,1,0,0:0:0:0:
402,192,88237,1,0,0:0:0:0:
329,192,88315,1,0,0:0:0:0:
182,192,88393,1,0,0:0:0:0:
109,192,88472,128,0,89722:0:0:0:0:
475,192,88472,1,0,0:0:0:0:
402,192,88550,1,0,0:0:0:0:
182,192,88628,1,0,0:0:0:0:
256,192,88706,1,0,0:0:0:0:
329,192,88784,1,8,0:0:0:0:
36,192,88784,1,0,0:0:0:0:
402,192,88862,1,0,0:0:0:0:
256,192,88940,1,0,0:0:0:0:
182,192,89018,1,0,0:0:0:0:
475,192,89097,1,0,0:0:0:0:
402,192,89175,1,0,0:0:0:0:
329,192,89253,1,0,0:0:0:0:
182,192,89331,1,0,0:0:0:0:
256,192,89409,1,8,0:0:0:0:
475,192,89409,1,0,0:0:0:0:
329,192,89487,1,0,0:0:0:0:
402,192,89565,1,0,0:0:0:0:
475,192,89643,1,0,0:0:0:0:
329,192,89722,128,8,90972:0:0:0:0:
402,192,89722,1,4,0:0:0:0:
36,192,89722,1,0,0:0:0:0:
182,192,89800,1,0,0:0:0:0:
256,192,89878,1,0,0:0:0:0:
402,192,89956,1,0,0:0:0:0:
36,192,90034,1,8,0:0:0:0:
475,192,90034,1,0,0:0:0:0:
109,192,90112,1,0,0:0:0:0:
256,192,90190,1,0,0:0:0:0:
402,192,90268,1,0,0:0:0:0:
182,192,90347,1,0,0:0:0:0:
36,192,90425,1,0,0:0:0:0:
182,192,90503,1,0,0:0:0:0:
36,192,90581,1,0,0:0:0:0:
475,192,90659,1,8,0:0:0:0:
109,192,90659,1,0,0:0:0:0:
256,192,90737,1,0,0:0:0:0:
475,192,90815,1,0,0:0:0:0:
256,192,90893,1,0,0:0:0:0:
182,192,90972,128,0,92222:0:0:0:0:
109,192,90972,1,0,0:0:0:0:
36,192,91050,1,0,0:0:0:0:
475,192,91128,1,0,0:0:0:0:
329,192,91206,1,0,0:0:0:0:
109,192,91284,1,8,0:0:0:0:
256,192,91284,1,0,0:0:0:0:
402,192,91362,1,0,0:0:0:0:
329,192,91440,1,0,0:0:0:0:
36,192,91518,1,0,0:0:0:0:
256,192,91597,1,0,0:0:0:0:
329,192,91675,1,0,0:0:0:0:
402,192,91753,1,0,0:0:0:0:
475,192,91831,1,0,0:0:0:0:
402,192,91909,1,8,0:0:0:0:
36,192,91909,1,0,0:0:0:0:
329,192,91987,1,0,0:0:0:0:
256,192,92065,1,0,0:0:0:0:
109,192,92143,1,0,0:0:0:0:
36,192,92222,128,0,93472:0:0:0:0:
402,192,92222,1,0,0:0:0:0:
475,192,92300,1,0,0:0:0:0:
256,192,92378,1,0,0:0:0:0:
402,192,92456,1,0,0:0:0:0:
109,192,92534,1,8,0:0:0:0:
182,192,92534,1,0,0:0:0:0:
329,192,92612,1,0,0:0:0:0:
475,192,92690,1,0,0:0:0:0:
182,192,92768,1,0,0:0:0:0:
402,192,92847,1,0,0:0:0:0:
256,192,92925,1,0,0:0:0:0:
109,192,93003,1,0,0:0:0:0:
329,192,93081,1,0,0:0:0:0:
402,192,93159,1,8,0:0:0:0:
182,192,93159,1,0,0:0:0:0:
475,192,93237,1,0,0:0:0:0:
109,192,93315,1,0,0:0:0:0:
256,192,93393,1,0,0:0:0:0:
329,192,93472,1,0,0:0:0:0:
475,192,93472,1,0,0:0:0:0:
182,192,93472,1,0,0:0:0:0:
402,192,93628,1,8,0:0:0:0:
256,192,93628,1,4,0:0:0:0:
182,192,93628,1,0,0:0:0:0:
109,192,93628,1,0,0:0:0:0:
329,192,93784,1,0,0:0:0:0:
329,192,93940,1,0,0:0:0:0:
109,192,94097,1,8,0:0:0:0:
402,192,94097,1,0,0:0:0:0:
475,192,94097,1,0,0:0:0:0:
256,192,94097,1,0,0:0:0:0:
182,192,94253,1,0,0:0:0:0:
182,192,94409,1,8,0:0:0:0:
329,192,94409,1,0,0:0:0:0:
36,192,94409,1,0,0:0:0:0:
475,192,94409,1,0,0:0:0:0:
256,192,94565,1,0,0:0:0:0:
256,192,94722,1,8,0:0:0:0:
402,192,94722,1,4,0:0:0:0:
36,192,94722,128,0,95972:0:0:0:0:
109,192,94722,1,0,0:0:0:0:
329,192,94878,1,0,0:0:0:0:
475,192,95034,1,8,0:0:0:0:
109,192,95034,1,0,0:0:0:0:
256,192,95034,1,0,0:0:0:0:
402,192,95034,1,0,0:0:0:0:
182,192,95190,1,0,0:0:0:0:
256,192,95347,1,0,0:0:0:0:
475,192,95347,1,0,0:0:0:0:
329,192,95347,1,0,0:0:0:0:
402,192,95503,1,0,0:0:0:0:
182,192,95659,1,8,0:0:0:0:
475,192,95659,1,0,0:0:0:0:
329,192,95659,1,0,0:0:0:0:
109,192,95659,1,0,0:0:0:0:
256,192,95815,1,0,0:0:0:0:
475,192,95972,128,0,97222:0:0:0:0:
109,192,95972,1,0,0:0:0:0:
402,192,95972,1,0,0:0:0:0:
182,192,96128,1,0,0:0:0:0:
36,192,96284,1,8,0:0:0:0:
256,192,96284,1,0,0:0:0:0:
329,192,96284,1,0,0:0:0:0:
109,192,96284,1,0,0:0:0:0:
402,192,96440,1,0,0:0:0:0:
182,192,96597,1,0,0:0:0:0:
329,192,96597,1,0,0:0:0:0:
36,192,96597,1,0,0:0:0:0:
109,192,96753,1,0,0:0:0:0:
402,192,96909,1,8,0:0:0:0:
36,192,96909,1,0,0:0:0:0:
182,192,96909,1,0,0:0:0:0:
256,192,96909,1,0,0:0:0:0:
329,192,97065,1,0,0:0:0:0:
402,192,97222,1,0,0:0:0:0:
109,192,97222,1,0,0:0:0:0:
256,192,97222,128,0,98472:0:0:0:0:
329,192,97378,1,0,0:0:0:0:
182,192,97534,1,8,0:0:0:0:
36,192,97534,1,0,0:0:0:0:
402,192,97534,1,0,0:0:0:0:
109,192,97534,1,0,0:0:0:0:
475,192,97690,1,0,0:0:0:0:
402,192,97847,1,0,0:0:0:0:
329,192,97847,1,0,0:0:0:0:
182,192,97847,1,0,0:0:0:0:
109,192,98003,1,0,0:0:0:0:
329,192,98159,1,8,0:0:0:0:
475,192,98159,1,0,0:0:0:0:
36,192,98159,1,0,0:0:0:0:
182,192,98159,1,0,0:0:0:0:
402,192,98315,1,0,0:0:0:0:
182,192,98472,1,0,0:0:0:0:
109,192,98472,128,0,99722:0:0:0:0:
475,192,98472,1,0,0:0:0:0:
329,192,98628,1,0,0:0:0:0:
36,192,98784,1,8,0:0:0:0:
402,192,98784,1,0,0:0:0:0:
256,192,98784,1,0,0:0:0:0:
475,192,98784,1,0,0:0:0:0:
329,192,98940,1,0,0:0:0:0:
256,192,99097,1,0,0:0:0:0:
475,192,99097,1,0,0:0:0:0:
182,192,99097,1,0,0:0:0:0:
402,192,99253,1,0,0:0:0:0:
475,192,99409,1,8,0:0:0:0:
36,192,99409,1,0,0:0:0:0:
329,192,99409,1,0,0:0:0:0:
182,192,99409,1,0,0:0:0:0:
402,192,99565,1,0,0:0:0:0:
256,192,99722,1,8,0:0:0:0:
36,192,99722,1,4,0:0:0:0:
182,192,99722,1,0,0:0:0:0:
329,192,99722,128,0,100972:0:0:0:0:
475,192,99722,1,0,0:0:0:0:
402,192,99878,1,0,0:0:0:0:
182,192,100034,1,8,0:0:0:0:
475,192,100034,1,0,0:0:0:0:
36,192,100034,1,0,0:0:0:0:
256,192,100034,1,0,0:0:0:0:
109,192,100190,1,0,0:0:0:0:
256,192,100347,5,0,0:0:0:0:
36,192,100347,5,0,0:0:0:0:
402,192,100347,1,0,0:0:0:0:
475,192,100503,1,0,0:0:0:0:
182,192,100659,1,8,0:0:0:0:
36,192,100659,1,0,0:0:0:0:
402,192,100659,1,0,0:0:0:0:
109,192,100659,1,0,0:0:0:0:
256,192,100815,1,0,0:0:0:0:
182,192,100972,128,0,102222:0:0:0:0:
475,192,100972,1,0,0:0:0:0:
402,192,100972,1,0,0:0:0:0:
109,192,101128,1,0,0:0:0:0:
36,192,101284,1,8,0:0:0:0:
256,192,101284,1,0,0:0:0:0:
475,192,101284,1,0,0:0:0:0:
329,192,101284,1,0,0:0:0:0:
402,192,101440,1,0,0:0:0:0:
256,192,101597,1,0,0:0:0:0:
109,192,101597,1,0,0:0:0:0:
475,192,101597,1,0,0:0:0:0:
329,192,101753,1,0,0:0:0:0:
402,192,101909,1,8,0:0:0:0:
36,192,101909,1,0,0:0:0:0:
475,192,101909,1,0,0:0:0:0:
256,192,101909,1,0,0:0:0:0:
329,192,102065,1,0,0:0:0:0:
36,192,102222,1,8,0:0:0:0:
475,192,102222,1,4,0:0:0:0:
109,192,102222,128,0,103472:0:0:0:0:
402,192,102534,128,8,103472:0:0:0:0:
256,192,102690,1,0,0:0:0:0:
329,192,102768,1,0,0:0:0:0:
182,192,102847,128,8,103472:0:0:0:0:
256,192,102847,1,0,0:0:0:0:
329,192,103159,128,8,103472:0:0:0:0:
36,192,103628,1,8,0:0:0:0:
256,192,103628,1,0,0:0:0:0:
475,192,103628,1,0,0:0:0:0:
36,192,103784,1,8,0:0:0:0:
256,192,103784,1,0,0:0:0:0:
475,192,103784,1,0,0:0:0:0:
36,192,103940,1,8,0:0:0:0:
256,192,103940,1,0,0:0:0:0:
475,192,103940,1,0,0:0:0:0:
36,192,104097,1,8,0:0:0:0:
256,192,104097,1,0,0:0:0:0:
475,192,104097,1,0,0:0:0:0:
256,192,104409,1,4,3:0:0:0:
36,192,104722,1,4,0:0:0:0:
475,192,104722,1,0,0:0:0:0:
329,192,104722,1,0,0:0:0:0:
109,192,104800,1,0,0:0:0:0:
182,192,104878,1,0,0:0:0:0:
256,192,104956,1,0,0:0:0:0:
329,192,105034,1,8,0:0:0:0:
475,192,105034,1,0,0:0:0:0:
182,192,105112,1,0,0:0:0:0:
109,192,105190,1,0,0:0:0:0:
36,192,105268,1,0,0:0:0:0:
182,192,105347,1,0,0:0:0:0:
329,192,105347,1,0,0:0:0:0:
475,192,105425,1,0,0:0:0:0:
402,192,105503,1,0,0:0:0:0:
329,192,105581,1,0,0:0:0:0:
109,192,105659,1,8,0:0:0:0:
182,192,105659,1,0,0:0:0:0:
256,192,105737,1,0,0:0:0:0:
329,192,105815,1,0,0:0:0:0:
402,192,105815,1,0,0:0:0:0:
256,192,105893,1,0,0:0:0:0:
182,192,105972,1,0,0:0:0:0:
109,192,105972,1,0,0:0:0:0:
475,192,106050,1,0,0:0:0:0:
329,192,106128,1,0,0:0:0:0:
182,192,106206,1,0,0:0:0:0:
475,192,106284,1,8,0:0:0:0:
109,192,106284,1,0,0:0:0:0:
36,192,106362,1,0,0:0:0:0:
182,192,106440,1,0,0:0:0:0:
402,192,106440,1,0,0:0:0:0:
329,192,106518,1,0,0:0:0:0:
475,192,106597,1,0,0:0:0:0:
109,192,106597,1,0,0:0:0:0:
182,192,106675,1,0,0:0:0:0:
256,192,106753,1,0,0:0:0:0:
329,192,106831,1,0,0:0:0:0:
402,192,106909,1,8,0:0:0:0:
109,192,106909,1,0,0:0:0:0:
256,192,106987,1,0,0:0:0:0:
329,192,107065,1,0,0:0:0:0:
182,192,107065,1,0,0:0:0:0:
109,192,107143,1,0,0:0:0:0:
402,192,107143,1,0,0:0:0:0:
475,192,107222,1,0,0:0:0:0:
36,192,107222,1,0,0:0:0:0:
256,192,107300,1,0,0:0:0:0:
109,192,107378,1,0,0:0:0:0:
402,192,107456,1,0,0:0:0:0:
475,192,107534,1,8,0:0:0:0:
182,192,107534,1,0,0:0:0:0:
256,192,107612,1,0,0:0:0:0:
36,192,107690,1,0,0:0:0:0:
329,192,107690,1,0,0:0:0:0:
402,192,107768,1,0,0:0:0:0:
256,192,107847,1,0,0:0:0:0:
475,192,107847,1,0,0:0:0:0:
182,192,107925,1,0,0:0:0:0:
36,192,108003,1,0,0:0:0:0:
109,192,108081,1,0,0:0:0:0:
256,192,108159,1,8,0:0:0:0:
329,192,108159,1,0,0:0:0:0:
182,192,108159,1,0,0:0:0:0:
475,192,108237,1,0,0:0:0:0:
402,192,108315,1,0,0:0:0:0:
329,192,108393,1,0,0:0:0:0:
36,192,108472,5,0,0:0:0:0:
256,192,108472,1,0,0:0:0:0:
475,192,108472,1,0,0:0:0:0:
109,192,108472,1,0,0:0:0:0:
182,192,108628,1,0,0:0:0:0:
402,192,108784,1,8,0:0:0:0:
329,192,108784,1,0,0:0:0:0:
109,192,108784,1,0,0:0:0:0:
475,192,108784,1,0,0:0:0:0:
182,192,108940,1,0,0:0:0:0:
402,192,109097,1,0,0:0:0:0:
256,192,109097,1,0,0:0:0:0:
475,192,109097,1,0,0:0:0:0:
36,192,109097,1,0,0:0:0:0:
329,192,109253,1,0,0:0:0:0:
402,192,109409,1,8,0:0:0:0:
36,192,109409,1,0,0:0:0:0:
109,192,109409,1,0,0:0:0:0:
256,192,109409,1,0,0:0:0:0:
182,192,109565,1,0,0:0:0:0:
36,192,109722,1,4,0:0:0:0:
256,192,109722,1,0,0:0:0:0:
329,192,109722,1,0,0:0:0:0:
475,192,109722,1,0,0:0:0:0:
109,192,109800,1,0,0:0:0:0:
182,192,109878,1,0,0:0:0:0:
402,192,109956,1,0,0:0:0:0:
256,192,110034,1,8,0:0:0:0:
475,192,110034,1,0,0:0:0:0:
329,192,110112,1,0,0:0:0:0:
182,192,110190,1,0,0:0:0:0:
402,192,110190,1,0,0:0:0:0:
36,192,110268,1,0,0:0:0:0:
109,192,110347,1,0,0:0:0:0:
256,192,110347,1,0,0:0:0:0:
475,192,110425,1,0,0:0:0:0:
402,192,110503,1,0,0:0:0:0:
329,192,110581,1,0,0:0:0:0:
109,192,110659,1,8,0:0:0:0:
36,192,110659,1,0,0:0:0:0:
182,192,110737,1,0,0:0:0:0:
475,192,110815,1,0,0:0:0:0:
256,192,110815,1,0,0:0:0:0:
329,192,110893,1,0,0:0:0:0:
402,192,110972,1,0,0:0:0:0:
109,192,110972,1,0,0:0:0:0:
36,192,110972,1,0,0:0:0:0:
256,192,111050,1,0,0:0:0:0:
182,192,111128,1,0,0:0:0:0:
109,192,111206,1,0,0:0:0:0:
475,192,111284,1,8,0:0:0:0:
329,192,111284,1,0,0:0:0:0:
256,192,111362,1,0,0:0:0:0:
36,192,111440,1,0,0:0:0:0:
109,192,111518,1,0,0:0:0:0:
182,192,111597,1,0,0:0:0:0:
329,192,111597,1,0,0:0:0:0:
402,192,111675,1,0,0:0:0:0:
475,192,111753,1,0,0:0:0:0:
256,192,111831,1,0,0:0:0:0:
36,192,111909,1,8,0:0:0:0:
109,192,111909,1,0,0:0:0:0:
329,192,111909,1,0,0:0:0:0:
402,192,111987,1,0,0:0:0:0:
256,192,112065,1,0,0:0:0:0:
475,192,112065,1,0,0:0:0:0:
182,192,112143,1,0,0:0:0:0:
329,192,112222,1,0,0:0:0:0:
109,192,112222,1,0,0:0:0:0:
402,192,112222,1,0,0:0:0:0:
256,192,112300,1,0,0:0:0:0:
182,192,112378,1,0,0:0:0:0:
329,192,112456,1,0,0:0:0:0:
402,192,112534,1,8,0:0:0:0:
36,192,112534,1,0,0:0:0:0:
475,192,112612,1,0,0:0:0:0:
109,192,112690,1,0,0:0:0:0:
329,192,112690,1,0,0:0:0:0:
182,192,112768,1,0,0:0:0:0:
402,192,112847,1,0,0:0:0:0:
36,192,112847,1,0,0:0:0:0:
329,192,112925,1,0,0:0:0:0:
182,192,113003,1,0,0:0:0:0:
109,192,113081,1,0,0:0:0:0:
402,192,113159,1,8,0:0:0:0:
256,192,113159,1,0,0:0:0:0:
36,192,113159,1,0,0:0:0:0:
182,192,113237,1,0,0:0:0:0:
475,192,113315,1,0,0:0:0:0:
402,192,113393,1,0,0:0:0:0:
329,192,113472,1,0,0:0:0:0:
182,192,113472,1,0,0:0:0:0:
109,192,113472,1,0,0:0:0:0:
256,192,113550,1,0,0:0:0:0:
402,192,113628,1,0,0:0:0:0:
109,192,113706,1,0,0:0:0:0:
475,192,113784,1,8,0:0:0:0:
329,192,113784,1,0,0:0:0:0:
36,192,113784,1,0,0:0:0:0:
256,192,113862,1,0,0:0:0:0:
402,192,113940,1,0,0:0:0:0:
182,192,113940,1,0,0:0:0:0:
36,192,114018,1,0,0:0:0:0:
329,192,114097,1,0,0:0:0:0:
109,192,114097,1,0,0:0:0:0:
256,192,114175,1,0,0:0:0:0:
182,192,114253,1,0,0:0:0:0:
475,192,114253,1,0,0:0:0:0:
182,192,114565,1,0,0:0:0:0:
329,192,114565,1,0,0:0:0:0:
402,192,114643,1,0,0:0:0:0:
256,192,114643,1,0,0:0:0:0:
329,192,114722,1,8,0:0:0:0:
36,192,114722,1,4,0:0:0:0:
475,192,114722,1,0,0:0:0:0:
109,192,114722,1,0,0:0:0:0:
329,192,114878,1,8,0:0:0:0:
475,192,114878,1,0,0:0:0:0:
109,192,114878,1,0,0:0:0:0:
256,192,115659,1,8,0:0:0:0:
402,192,115659,1,0,0:0:0:0:
109,192,115659,1,0,0:0:0:0:
256,192,115815,1,8,0:0:0:0:
109,192,115815,1,0,0:0:0:0:
402,192,115815,1,0,0:0:0:0:
36,192,116597,1,8,0:0:0:0:
182,192,116597,1,0,0:0:0:0:
329,192,116597,1,0,0:0:0:0:
36,192,116753,1,8,0:0:0:0:
182,192,116753,1,0,0:0:0:0:
329,192,116753,1,0,0:0:0:0:
36,192,116909,1,8,0:0:0:0:
182,192,116909,1,0,0:0:0:0:
329,192,116909,1,0,0:0:0:0:
36,192,117065,1,8,0:0:0:0:
182,192,117065,1,0,0:0:0:0:
329,192,117065,1,0,0:0:0:0:
256,192,117222,1,8,0:0:0:0:
475,192,117222,1,0,0:0:0:0:
109,192,117222,1,0,0:0:0:0:
475,192,117378,1,8,0:0:0:0:
256,192,117378,1,0,0:0:0:0:
109,192,117378,1,0,0:0:0:0:
402,192,118159,1,8,0:0:0:0:
256,192,118159,1,0,0:0:0:0:
182,192,118159,1,0,0:0:0:0:
182,192,118315,1,8,0:0:0:0:
256,192,118315,1,0,0:0:0:0:
402,192,118315,1,0,0:0:0:0:
109,192,119097,1,8,0:0:0:0:
475,192,119097,1,0,0:0:0:0:
402,192,119097,1,0,0:0:0:0:
109,192,119253,1,8,0:0:0:0:
475,192,119253,1,0,0:0:0:0:
402,192,119253,1,0,0:0:0:0:
109,192,119409,1,8,0:0:0:0:
475,192,119409,1,0,0:0:0:0:
402,192,119409,1,0,0:0:0:0:
109,192,119565,1,8,0:0:0:0:
475,192,119565,1,0,0:0:0:0:
402,192,119565,1,0,0:0:0:0:
329,192,119722,1,12,0:0:0:0:
256,192,119722,1,0,0:0:0:0:
182,192,119722,1,0,0:0:0:0:
36,192,119722,1,0,0:0:0:0:
182,192,119878,1,8,0:0:0:0:
256,192,119878,1,0,0:0:0:0:
329,192,119878,1,0,0:0:0:0:
36,192,120659,1,8,0:0:0:0:
329,192,120659,1,0,0:0:0:0:
109,192,120659,1,0,0:0:0:0:
36,192,120815,1,8,0:0:0:0:
329,192,120815,1,0,0:0:0:0:
109,192,120815,1,0,0:0:0:0:
475,192,121597,1,8,0:0:0:0:
256,192,121597,1,0,0:0:0:0:
402,192,121597,1,0,0:0:0:0:
256,192,121753,1,8,0:0:0:0:
402,192,121753,1,0,0:0:0:0:
475,192,121753,1,0,0:0:0:0:
256,192,121909,1,8,0:0:0:0:
402,192,121909,1,0,0:0:0:0:
475,192,121909,1,0,0:0:0:0:
256,192,122065,1,8,0:0:0:0:
402,192,122065,1,0,0:0:0:0:
475,192,122065,1,0,0:0:0:0:
36,192,122222,1,8,0:0:0:0:
109,192,122222,1,0,0:0:0:0:
329,192,122222,1,0,0:0:0:0:
36,192,122378,1,8,0:0:0:0:
109,192,122378,1,0,0:0:0:0:
329,192,122378,1,0,0:0:0:0:
36,192,123159,1,8,0:0:0:0:
182,192,123159,1,0,0:0:0:0:
475,192,123159,1,0,0:0:0:0:
329,192,123159,1,0,0:0:0:0:
329,192,123315,1,8,0:0:0:0:
475,192,123315,1,0,0:0:0:0:
182,192,123315,1,0,0:0:0:0:
36,192,123315,1,0,0:0:0:0:
36,192,124097,128,8,124565:0:0:0:0:
402,192,124565,128,8,124878:0:0:0:0:
109,192,124565,128,4,124878:0:0:0:0:
329,192,125034,1,8,0:0:0:0:
36,192,125034,1,0,0:0:0:0:
182,192,125034,1,0,0:0:0:0:
402,192,125112,1,0,0:0:0:0:
475,192,125190,1,0,0:0:0:0:
36,192,125268,1,0,0:0:0:0:
109,192,125347,1,0,0:0:0:0:
329,192,125347,1,0,0:0:0:0:
182,192,125425,1,0,0:0:0:0:
256,192,125503,1,0,0:0:0:0:
329,192,125581,1,0,0:0:0:0:
402,192,125659,1,8,0:0:0:0:
109,192,125659,1,0,0:0:0:0:
475,192,125659,1,0,0:0:0:0:
329,192,125737,1,0,0:0:0:0:
256,192,125815,1,0,0:0:0:0:
182,192,125893,1,0,0:0:0:0:
109,192,125972,1,0,0:0:0:0:
402,192,125972,1,0,0:0:0:0:
36,192,126050,1,0,0:0:0:0:
182,192,126128,1,0,0:0:0:0:
329,192,126206,1,0,0:0:0:0:
475,192,126284,1,8,0:0:0:0:
109,192,126284,1,0,0:0:0:0:
402,192,126362,1,0,0:0:0:0:
256,192,126440,1,0,0:0:0:0:
109,192,126518,1,0,0:0:0:0:
36,192,126597,1,8,0:0:0:0:
182,192,126597,1,4,2:0:0:0:
329,192,126597,1,0,0:0:0:0:
475,192,126597,1,0,0:0:0:0:
109,192,126909,1,4,2:0:0:0:
182,192,126909,1,8,0:0:0:0:
329,192,126909,1,0,0:0:0:0:
475,192,126909,1,0,0:0:0:0:
36,192,127222,1,0,0:0:0:0:
182,192,127222,1,0,0:0:0:0:
402,192,127222,1,0,0:0:0:0:
109,192,127378,1,0,0:0:0:0:
329,192,127378,1,0,0:0:0:0:
256,192,127534,1,8,0:0:0:0:
475,192,127534,1,0,0:0:0:0:
402,192,127534,1,0,0:0:0:0:
36,192,127690,1,0,0:0:0:0:
329,192,127690,1,0,0:0:0:0:
256,192,127847,1,0,0:0:0:0:
109,192,127847,1,0,0:0:0:0:
182,192,128003,1,0,0:0:0:0:
402,192,128003,1,0,0:0:0:0:
36,192,128159,1,8,0:0:0:0:
109,192,128159,1,0,0:0:0:0:
256,192,128159,1,0,0:0:0:0:
182,192,128315,1,0,0:0:0:0:
402,192,128315,1,0,0:0:0:0:
329,192,128472,1,0,0:0:0:0:
109,192,128472,1,0,0:0:0:0:
402,192,128628,1,0,0:0:0:0:
182,192,128628,1,0,0:0:0:0:
329,192,128784,1,8,0:0:0:0:
475,192,128784,1,0,0:0:0:0:
109,192,128784,1,0,0:0:0:0:
182,192,128940,1,0,0:0:0:0:
36,192,128940,1,0,0:0:0:0:
475,192,129097,1,8,0:0:0:0:
109,192,129097,1,4,2:0:0:0:
256,192,129097,1,0,0:0:0:0:
402,192,129097,1,0,0:0:0:0:
36,192,129409,1,8,0:0:0:0:
109,192,129409,1,4,2:0:0:0:
402,192,129409,1,0,0:0:0:0:
256,192,129409,1,0,0:0:0:0:
182,192,129722,1,0,0:0:0:0:
329,192,129722,1,0,0:0:0:0:
475,192,129722,1,0,0:0:0:0:
402,192,129800,1,0,0:0:0:0:
109,192,129878,1,0,0:0:0:0:
182,192,129956,1,0,0:0:0:0:
36,192,130034,1,8,0:0:0:0:
329,192,130034,1,0,0:0:0:0:
256,192,130034,1,0,0:0:0:0:
402,192,130112,1,0,0:0:0:0:
182,192,130190,1,0,0:0:0:0:
475,192,130268,1,0,0:0:0:0:
402,192,130347,1,0,0:0:0:0:
36,192,130347,1,0,0:0:0:0:
109,192,130425,1,0,0:0:0:0:
329,192,130503,1,0,0:0:0:0:
256,192,130581,1,0,0:0:0:0:
109,192,130659,1,8,0:0:0:0:
329,192,130659,1,0,0:0:0:0:
182,192,130659,1,0,0:0:0:0:
475,192,130737,1,0,0:0:0:0:
36,192,130815,1,0,0:0:0:0:
182,192,130893,1,0,0:0:0:0:
329,192,130972,1,0,0:0:0:0:
109,192,130972,1,0,0:0:0:0:
256,192,131050,1,0,0:0:0:0:
402,192,131128,1,0,0:0:0:0:
475,192,131206,1,0,0:0:0:0:
329,192,131284,1,8,0:0:0:0:
36,192,131284,1,0,0:0:0:0:
182,192,131284,1,0,0:0:0:0:
109,192,131362,1,0,0:0:0:0:
402,192,131440,1,0,0:0:0:0:
329,192,131518,1,0,0:0:0:0:
36,192,131597,1,4,2:0:0:0:
475,192,131597,1,8,0:0:0:0:
182,192,131597,1,0,0:0:0:0:
256,192,131597,1,0,0:0:0:0:
36,192,131909,1,8,0:0:0:0:
109,192,131909,1,4,2:0:0:0:
329,192,131909,1,0,0:0:0:0:
402,192,131909,1,0,0:0:0:0:
36,192,132222,128,4,133472:0:0:0:0:
475,192,132222,128,0,132847:0:0:0:0:
182,192,132534,1,8,0:0:0:0:
329,192,132534,1,0,0:0:0:0:
256,192,132847,128,0,133472:0:0:0:0:
329,192,133159,128,8,133472:0:0:0:0:
402,192,133159,1,0,0:0:0:0:
475,192,133159,1,0,0:0:0:0:
182,192,133472,128,4,134097:2:0:0:0:
475,192,133472,128,0,133784:0:0:0:0:
329,192,133784,128,8,134097:0:0:0:0:
109,192,133784,1,4,2:0:0:0:
36,192,133784,1,0,0:0:0:0:
402,192,134097,128,4,134722:2:0:0:0:
109,192,134097,128,0,134409:0:0:0:0:
475,192,134097,128,0,134722:0:0:0:0:
36,192,134409,128,4,134722:2:0:0:0:
256,192,134409,1,8,0:0:0:0:
329,192,134409,128,0,134722:0:0:0:0:
256,192,134565,1,8,0:0:0:0:
182,192,134643,1,8,0:0:0:0:
109,192,134722,1,8,0:0:0:0:
256,192,134878,1,0,0:0:0:0:
182,192,135034,1,8,0:0:0:0:
329,192,135034,1,0,0:0:0:0:
109,192,135034,1,0,0:0:0:0:
402,192,135034,1,0,0:0:0:0:
256,192,135190,1,0,0:0:0:0:
402,192,135347,1,8,0:0:0:0:
109,192,135347,1,0,0:0:0:0:
475,192,135347,1,0,0:0:0:0:
36,192,135347,1,0,0:0:0:0:
329,192,135503,1,0,0:0:0:0:
36,192,135659,1,8,0:0:0:0:
256,192,135659,1,0,0:0:0:0:
475,192,135659,1,0,0:0:0:0:
182,192,135659,1,0,0:0:0:0:
109,192,135815,1,0,0:0:0:0:
182,192,135972,1,8,0:0:0:0:
329,192,135972,1,0,0:0:0:0:
475,192,135972,1,0,0:0:0:0:
36,192,135972,1,0,0:0:0:0:
402,192,136128,1,0,0:0:0:0:
36,192,136284,1,8,0:0:0:0:
109,192,136284,1,0,0:0:0:0:
475,192,136284,1,0,0:0:0:0:
256,192,136284,1,0,0:0:0:0:
182,192,136440,1,0,0:0:0:0:
109,192,136597,1,8,0:0:0:0:
402,192,136597,1,0,0:0:0:0:
256,192,136597,1,0,0:0:0:0:
329,192,136597,1,0,0:0:0:0:
36,192,136753,1,0,0:0:0:0:
182,192,136909,1,8,0:0:0:0:
475,192,136909,1,0,0:0:0:0:
256,192,136909,1,0,0:0:0:0:
109,192,136909,1,0,0:0:0:0:
329,192,137065,1,0,0:0:0:0:
475,192,137222,1,8,0:0:0:0:
36,192,137222,1,0,0:0:0:0:
402,192,137222,1,0,0:0:0:0:
182,192,137222,1,0,0:0:0:0:
256,192,137378,1,0,0:0:0:0:
329,192,137534,1,8,0:0:0:0:
402,192,137534,1,0,0:0:0:0:
109,192,137534,1,0,0:0:0:0:
36,192,137534,1,0,0:0:0:0:
182,192,137690,1,0,0:0:0:0:
256,192,137847,1,8,0:0:0:0:
475,192,137847,1,0,0:0:0:0:
329,192,137847,1,0,0:0:0:0:
36,192,137847,1,0,0:0:0:0:
109,192,138003,1,0,0:0:0:0:
182,192,138159,1,8,0:0:0:0:
256,192,138159,1,0,0:0:0:0:
475,192,138159,1,0,0:0:0:0:
402,192,138159,1,0,0:0:0:0:
329,192,138315,1,0,0:0:0:0:
36,192,138472,1,8,0:0:0:0:
182,192,138472,1,0,0:0:0:0:
109,192,138472,1,0,0:0:0:0:
402,192,138472,1,0,0:0:0:0:
475,192,138628,1,0,0:0:0:0:
402,192,138784,1,8,0:0:0:0:
256,192,138784,1,0,0:0:0:0:
109,192,138784,1,0,0:0:0:0:
36,192,138784,1,0,0:0:0:0:
182,192,138940,1,0,0:0:0:0:
402,192,139097,1,8,0:0:0:0:
475,192,139097,1,0,0:0:0:0:
109,192,139097,1,0,0:0:0:0:
256,192,139097,1,0,0:0:0:0:
329,192,139253,1,0,0:0:0:0:
36,192,139409,1,8,0:0:0:0:
182,192,139409,1,0,0:0:0:0:
256,192,139409,1,0,0:0:0:0:
402,192,139409,1,0,0:0:0:0:
109,192,139565,1,0,0:0:0:0:
475,192,139722,1,8,0:0:0:0:
182,192,139722,1,4,0:0:0:0:
36,192,139722,1,0,0:0:0:0:
256,192,139722,1,0,0:0:0:0:
329,192,139722,1,0,0:0:0:0:
402,192,139878,1,0,0:0:0:0:
109,192,140034,1,8,0:0:0:0:
182,192,140034,1,0,0:0:0:0:
475,192,140034,1,0,0:0:0:0:
256,192,140034,1,0,0:0:0:0:
36,192,140190,1,0,0:0:0:0:
182,192,140347,1,8,0:0:0:0:
475,192,140347,1,0,0:0:0:0:
109,192,140347,1,0,0:0:0:0:
329,192,140347,1,0,0:0:0:0:
402,192,140503,1,0,0:0:0:0:
256,192,140659,1,8,0:0:0:0:
36,192,140659,1,0,0:0:0:0:
182,192,140659,1,0,0:0:0:0:
475,192,140659,1,0,0:0:0:0:
109,192,140815,1,0,0:0:0:0:
329,192,140972,1,8,0:0:0:0:
256,192,140972,1,0,0:0:0:0:
402,192,140972,1,0,0:0:0:0:
36,192,140972,1,0,0:0:0:0:
182,192,141128,1,0,0:0:0:0:
475,192,141284,1,8,0:0:0:0:
109,192,141284,1,0,0:0:0:0:
402,192,141284,1,0,0:0:0:0:
256,192,141284,1,0,0:0:0:0:
329,192,141440,1,0,0:0:0:0:
36,192,141597,1,8,0:0:0:0:
182,192,141597,1,0,0:0:0:0:
109,192,141597,1,0,0:0:0:0:
475,192,141597,1,0,0:0:0:0:
256,192,141753,1,0,0:0:0:0:
402,192,141909,1,8,0:0:0:0:
329,192,141909,1,0,0:0:0:0:
36,192,141909,1,0,0:0:0:0:
182,192,141909,1,0,0:0:0:0:
109,192,142065,1,0,0:0:0:0:
256,192,142222,1,8,0:0:0:0:
475,192,142222,1,0,0:0:0:0:
402,192,142222,1,0,0:0:0:0:
182,192,142222,1,0,0:0:0:0:
329,192,142378,1,0,0:0:0:0:
36,192,142534,1,8,0:0:0:0:
109,192,142534,1,0,0:0:0:0:
475,192,142534,1,0,0:0:0:0:
256,192,142534,1,0,0:0:0:0:
182,192,142690,1,0,0:0:0:0:
109,192,142847,1,8,0:0:0:0:
402,192,142847,1,0,0:0:0:0:
329,192,142847,1,0,0:0:0:0:
256,192,142847,1,0,0:0:0:0:
36,192,143003,1,0,0:0:0:0:
109,192,143159,1,8,0:0:0:0:
475,192,143159,1,0,0:0:0:0:
329,192,143159,1,0,0:0:0:0:
182,192,143159,1,0,0:0:0:0:
402,192,143315,1,0,0:0:0:0:
256,192,143472,1,8,0:0:0:0:
36,192,143472,1,0,0:0:0:0:
329,192,143472,1,0,0:0:0:0:
475,192,143472,1,0,0:0:0:0:
182,192,143628,1,0,0:0:0:0:
109,192,143784,1,8,0:0:0:0:
402,192,143784,1,0,0:0:0:0:
36,192,143784,1,0,0:0:0:0:
256,192,143784,1,0,0:0:0:0:
329,192,143940,1,0,0:0:0:0:
182,192,144097,1,8,0:0:0:0:
475,192,144097,1,0,0:0:0:0:
109,192,144097,1,0,0:0:0:0:
402,192,144097,1,0,0:0:0:0:
36,192,144253,1,0,0:0:0:0:
109,192,144409,1,8,0:0:0:0:
256,192,144409,1,0,0:0:0:0:
475,192,144409,1,0,0:0:0:0:
182,192,144409,1,0,0:0:0:0:
402,192,144565,1,0,0:0:0:0:
329,192,144722,1,4,0:0:0:0:
36,192,144722,1,8,0:0:0:0:
256,192,144722,1,0,0:0:0:0:
475,192,144722,1,0,0:0:0:0:
109,192,144722,1,0,0:0:0:0:
182,192,144878,1,0,0:0:0:0:
36,192,145034,1,8,0:0:0:0:
475,192,145034,1,0,0:0:0:0:
402,192,145034,1,0,0:0:0:0:
256,192,145034,1,0,0:0:0:0:
329,192,145190,1,0,0:0:0:0:
402,192,145347,1,8,0:0:0:0:
256,192,145347,1,0,0:0:0:0:
36,192,145347,1,0,0:0:0:0:
109,192,145347,1,0,0:0:0:0:
475,192,145503,1,0,0:0:0:0:
329,192,145659,1,8,0:0:0:0:
109,192,145659,1,0,0:0:0:0:
256,192,145659,1,0,0:0:0:0:
402,192,145659,1,0,0:0:0:0:
182,192,145815,1,0,0:0:0:0:
36,192,145972,1,8,0:0:0:0:
475,192,145972,1,0,0:0:0:0:
109,192,145972,1,0,0:0:0:0:
256,192,145972,1,0,0:0:0:0:
402,192,146128,1,0,0:0:0:0:
256,192,146284,1,8,0:0:0:0:
182,192,146284,1,0,0:0:0:0:
475,192,146284,1,0,0:0:0:0:
36,192,146284,1,0,0:0:0:0:
109,192,146440,1,0,0:0:0:0:
329,192,146597,1,8,0:0:0:0:
182,192,146597,1,0,0:0:0:0:
402,192,146597,1,0,0:0:0:0:
475,192,146597,1,0,0:0:0:0:
256,192,146753,1,0,0:0:0:0:
36,192,146909,1,8,0:0:0:0:
182,192,146909,1,0,0:0:0:0:
475,192,146909,1,0,0:0:0:0:
109,192,146909,1,0,0:0:0:0:
329,192,147065,1,0,0:0:0:0:
182,192,147222,1,8,0:0:0:0:
402,192,147222,1,0,0:0:0:0:
109,192,147222,1,0,0:0:0:0:
475,192,147222,1,0,0:0:0:0:
329,192,147378,1,0,0:0:0:0:
182,192,147534,1,8,0:0:0:0:
36,192,147534,1,0,0:0:0:0:
256,192,147534,1,0,0:0:0:0:
402,192,147534,1,0,0:0:0:0:
109,192,147690,1,0,0:0:0:0:
475,192,147847,1,8,0:0:0:0:
182,192,147847,1,0,0:0:0:0:
402,192,147847,1,0,0:0:0:0:
36,192,147847,1,0,0:0:0:0:
329,192,148003,1,0,0:0:0:0:
109,192,148159,1,8,0:0:0:0:
256,192,148159,1,0,0:0:0:0:
475,192,148159,1,0,0:0:0:0:
36,192,148159,1,0,0:0:0:0:
182,192,148315,1,0,0:0:0:0:
109,192,148472,1,8,0:0:0:0:
402,192,148472,1,0,0:0:0:0:
475,192,148472,1,0,0:0:0:0:
256,192,148472,1,0,0:0:0:0:
329,192,148628,1,0,0:0:0:0:
256,192,148784,1,8,0:0:0:0:
36,192,148784,1,0,0:0:0:0:
475,192,148784,1,0,0:0:0:0:
109,192,148784,1,0,0:0:0:0:
182,192,148940,1,0,0:0:0:0:
256,192,149097,1,8,0:0:0:0:
402,192,149097,1,0,0:0:0:0:
109,192,149097,1,0,0:0:0:0:
36,192,149097,1,0,0:0:0:0:
329,192,149253,1,0,0:0:0:0:
36,192,149409,1,8,0:0:0:0:
475,192,149409,1,0,0:0:0:0:
182,192,149409,1,0,0:0:0:0:
402,192,149409,1,0,0:0:0:0:
256,192,149565,1,0,0:0:0:0:
182,192,149722,1,4,0:0:0:0:
329,192,149722,1,8,0:0:0:0:
109,192,149722,128,0,150972:0:0:0:0:
402,192,149722,128,0,150972:0:0:0:0:
36,192,150972,128,4,152222:0:0:0:0:
475,192,150972,128,8,152222:0:0:0:0:
182,192,150972,1,0,0:0:0:0:
329,192,150972,1,0,0:0:0:0:
182,192,151597,1,8,0:0:0:0:
329,192,151597,1,4,0:0:0:0:
256,192,151753,1,0,0:0:0:0:
109,192,151831,1,0,0:0:0:0:
402,192,151909,1,8,0:0:0:0:
402,192,152222,1,4,0:0:0:0:
256,192,152222,1,8,0:0:0:0:
109,192,152222,1,0,0:0:0:0:
402,192,152378,1,0,0:0:0:0:
402,192,152534,1,8,0:0:0:0:
182,192,152534,1,0,0:0:0:0:
36,192,152534,1,0,0:0:0:0:
329,192,152690,1,0,0:0:0:0:
402,192,152847,1,8,0:0:0:0:
109,192,152847,1,0,0:0:0:0:
402,192,153003,1,0,0:0:0:0:
329,192,153159,1,8,0:0:0:0:
36,192,153159,1,0,0:0:0:0:
182,192,153159,1,0,0:0:0:0:
402,192,153315,1,0,0:0:0:0:
329,192,153472,1,8,0:0:0:0:
109,192,153472,1,0,0:0:0:0:
36,192,153472,1,0,0:0:0:0:
182,192,153706,1,8,0:0:0:0:
475,192,153706,1,0,0:0:0:0:
256,192,153706,1,0,0:0:0:0:
475,192,154097,1,0,0:0:0:0:
402,192,154136,1,0,0:0:0:0:
329,192,154175,1,0,0:0:0:0:
256,192,154214,1,0,0:0:0:0:
182,192,154253,1,0,0:0:0:0:
109,192,154292,1,0,0:0:0:0:
36,192,154331,1,0,0:0:0:0:
475,192,154370,1,0,0:0:0:0:
402,192,154409,1,0,0:0:0:0:
329,192,154448,1,0,0:0:0:0:
256,192,154487,1,0,0:0:0:0:
182,192,154526,1,0,0:0:0:0:
109,192,154565,1,0,0:0:0:0:
36,192,154604,1,0,0:0:0:0:
475,192,154643,1,0,0:0:0:0:
402,192,154682,1,0,0:0:0:0:
329,192,154722,1,4,0:0:0:0:
182,192,154722,128,0,155972:0:0:0:0:
109,192,154722,128,0,155972:0:0:0:0:
256,192,154800,1,0,0:0:0:0:
475,192,154878,1,0,0:0:0:0:
402,192,154956,1,0,0:0:0:0:
329,192,155034,1,8,0:0:0:0:
36,192,155034,1,0,0:0:0:0:
475,192,155112,1,0,0:0:0:0:
402,192,155190,1,0,0:0:0:0:
256,192,155268,1,0,0:0:0:0:
329,192,155347,1,0,0:0:0:0:
475,192,155425,1,0,0:0:0:0:
329,192,155503,1,0,0:0:0:0:
475,192,155581,1,0,0:0:0:0:
36,192,155659,1,8,0:0:0:0:
329,192,155659,1,0,0:0:0:0:
256,192,155737,1,0,0:0:0:0:
402,192,155815,1,0,0:0:0:0:
329,192,155893,1,0,0:0:0:0:
475,192,155972,128,0,157222:0:0:0:0:
36,192,155972,128,0,157222:0:0:0:0:
256,192,155972,1,0,0:0:0:0:
402,192,156050,1,0,0:0:0:0:
329,192,156128,1,0,0:0:0:0:
256,192,156206,1,0,0:0:0:0:
402,192,156284,1,0,0:0:0:0:
109,192,156284,1,8,0:0:0:0:
182,192,156362,1,0,0:0:0:0:
256,192,156440,1,0,0:0:0:0:
329,192,156518,1,0,0:0:0:0:
109,192,156597,1,0,0:0:0:0:
402,192,156675,1,0,0:0:0:0:
329,192,156753,1,0,0:0:0:0:
182,192,156831,1,0,0:0:0:0:
109,192,156909,1,0,0:0:0:0:
256,192,156909,1,8,0:0:0:0:
329,192,156987,1,0,0:0:0:0:
402,192,157065,1,0,0:0:0:0:
182,192,157143,1,0,0:0:0:0:
402,192,157222,128,0,158472:0:0:0:0:
109,192,157222,128,0,158472:0:0:0:0:
256,192,157222,1,0,0:0:0:0:
329,192,157300,1,0,0:0:0:0:
182,192,157378,1,0,0:0:0:0:
256,192,157456,1,0,0:0:0:0:
36,192,157534,1,0,0:0:0:0:
475,192,157534,1,8,0:0:0:0:
182,192,157612,1,0,0:0:0:0:
329,192,157690,1,0,0:0:0:0:
256,192,157768,1,0,0:0:0:0:
182,192,157847,1,0,0:0:0:0:
36,192,157925,1,0,0:0:0:0:
256,192,158003,1,0,0:0:0:0:
475,192,158081,1,0,0:0:0:0:
329,192,158159,1,0,0:0:0:0:
182,192,158159,1,8,0:0:0:0:
36,192,158237,1,0,0:0:0:0:
475,192,158315,1,0,0:0:0:0:
256,192,158393,1,0,0:0:0:0:
329,192,158472,128,0,159722:0:0:0:0:
182,192,158472,128,0,159722:0:0:0:0:
36,192,158472,1,0,0:0:0:0:
475,192,158550,1,0,0:0:0:0:
109,192,158628,1,0,0:0:0:0:
402,192,158706,1,0,0:0:0:0:
256,192,158784,1,0,0:0:0:0:
36,192,158784,1,8,0:0:0:0:
475,192,158862,1,0,0:0:0:0:
109,192,158940,1,0,0:0:0:0:
402,192,159018,1,0,0:0:0:0:
36,192,159097,1,0,0:0:0:0:
475,192,159175,1,0,0:0:0:0:
109,192,159253,1,0,0:0:0:0:
402,192,159331,1,0,0:0:0:0:
36,192,159409,1,0,0:0:0:0:
256,192,159409,1,8,0:0:0:0:
475,192,159487,1,0,0:0:0:0:
109,192,159565,1,0,0:0:0:0:
475,192,159643,1,0,0:0:0:0:
402,192,159722,128,4,160972:0:0:0:0:
36,192,159722,128,0,160972:0:0:0:0:
256,192,159722,1,0,0:0:0:0:
109,192,159722,1,0,0:0:0:0:
182,192,159878,1,0,0:0:0:0:
109,192,160034,1,8,0:0:0:0:
256,192,160034,1,0,0:0:0:0:
329,192,160034,1,0,0:0:0:0:
475,192,160190,1,0,0:0:0:0:
182,192,160347,1,0,0:0:0:0:
256,192,160503,1,0,0:0:0:0:
329,192,160659,1,8,0:0:0:0:
475,192,160659,1,0,0:0:0:0:
109,192,160659,1,0,0:0:0:0:
256,192,160815,1,0,0:0:0:0:
182,192,160972,128,0,162222:0:0:0:0:
329,192,160972,128,0,162222:0:0:0:0:
109,192,160972,1,0,0:0:0:0:
256,192,160972,1,0,0:0:0:0:
475,192,161128,1,0,0:0:0:0:
402,192,161284,1,8,0:0:0:0:
256,192,161284,1,0,0:0:0:0:
109,192,161284,1,0,0:0:0:0:
36,192,161440,1,0,0:0:0:0:
109,192,161597,1,0,0:0:0:0:
256,192,161753,1,0,0:0:0:0:
475,192,161909,1,8,0:0:0:0:
402,192,161909,1,0,0:0:0:0:
36,192,161909,1,0,0:0:0:0:
256,192,162065,1,0,0:0:0:0:
36,192,162222,128,0,163472:0:0:0:0:
475,192,162222,128,0,163472:0:0:0:0:
402,192,162222,1,0,0:0:0:0:
109,192,162222,1,0,0:0:0:0:
256,192,162378,1,0,0:0:0:0:
109,192,162534,1,8,0:0:0:0:
329,192,162534,1,0,0:0:0:0:
402,192,162534,1,0,0:0:0:0:
182,192,162690,1,0,0:0:0:0:
256,192,162847,1,0,0:0:0:0:
402,192,163003,1,0,0:0:0:0:
109,192,163159,1,8,0:0:0:0:
182,192,163159,1,0,0:0:0:0:
329,192,163159,1,0,0:0:0:0:
256,192,163315,1,0,0:0:0:0:
109,192,163472,1,0,0:0:0:0:
329,192,163472,1,0,0:0:0:0:
402,192,163628,1,4,0:0:0:0:
109,192,163628,1,8,0:0:0:0:
182,192,163628,1,0,0:0:0:0:
256,192,163628,1,0,0:0:0:0:
329,192,163784,1,0,0:0:0:0:
329,192,163940,1,0,0:0:0:0:
402,192,164097,1,8,0:0:0:0:
256,192,164097,1,0,0:0:0:0:
109,192,164097,1,0,0:0:0:0:
475,192,164097,1,0,0:0:0:0:
182,192,164253,1,0,0:0:0:0:
329,192,164409,1,4,0:0:0:0:
36,192,164409,1,8,0:0:0:0:
182,192,164409,1,0,0:0:0:0:
475,192,164409,1,0,0:0:0:0:
256,192,164565,1,0,0:0:0:0:
36,192,164722,1,4,0:0:0:0:
182,192,164722,1,0,0:0:0:0:
475,192,164722,1,0,0:0:0:0:
329,192,164722,1,0,0:0:0:0:
109,192,164800,1,0,0:0:0:0:
256,192,164878,1,0,0:0:0:0:
402,192,164956,1,0,0:0:0:0:
182,192,165034,1,8,0:0:0:0:
36,192,165034,1,0,0:0:0:0:
475,192,165034,1,0,0:0:0:0:
109,192,165034,1,0,0:0:0:0:
256,192,165112,1,0,0:0:0:0:
329,192,165190,1,0,0:0:0:0:
475,192,165268,1,0,0:0:0:0:
36,192,165347,1,0,0:0:0:0:
109,192,165347,1,0,0:0:0:0:
402,192,165347,1,0,0:0:0:0:
329,192,165425,1,0,0:0:0:0:
182,192,165503,1,0,0:0:0:0:
256,192,165581,1,0,0:0:0:0:
109,192,165659,1,8,0:0:0:0:
329,192,165659,1,0,0:0:0:0:
475,192,165659,1,0,0:0:0:0:
36,192,165659,1,0,0:0:0:0:
182,192,165737,1,0,0:0:0:0:
256,192,165815,1,0,0:0:0:0:
402,192,165815,1,0,0:0:0:0:
36,192,165893,1,0,0:0:0:0:
329,192,165972,1,0,0:0:0:0:
109,192,165972,1,0,0:0:0:0:
182,192,165972,1,0,0:0:0:0:
402,192,166050,1,0,0:0:0:0:
475,192,166128,1,0,0:0:0:0:
182,192,166206,1,0,0:0:0:0:
329,192,166284,1,8,0:0:0:0:
256,192,166284,1,0,0:0:0:0:
402,192,166284,1,0,0:0:0:0:
109,192,166284,1,0,0:0:0:0:
36,192,166362,1,0,0:0:0:0:
182,192,166440,1,0,0:0:0:0:
329,192,166518,1,0,0:0:0:0:
256,192,166597,1,0,0:0:0:0:
109,192,166597,1,0,0:0:0:0:
475,192,166597,1,0,0:0:0:0:
36,192,166675,1,0,0:0:0:0:
182,192,166753,1,0,0:0:0:0:
329,192,166831,1,0,0:0:0:0:
475,192,166909,1,8,0:0:0:0:
36,192,166909,1,0,0:0:0:0:
109,192,166909,1,0,0:0:0:0:
256,192,166909,1,0,0:0:0:0:
402,192,166987,1,0,0:0:0:0:
329,192,167065,1,0,0:0:0:0:
36,192,167143,1,0,0:0:0:0:
402,192,167222,1,0,0:0:0:0:
109,192,167222,1,0,0:0:0:0:
475,192,167222,1,0,0:0:0:0:
182,192,167300,1,0,0:0:0:0:
329,192,167378,1,0,0:0:0:0:
256,192,167456,1,0,0:0:0:0:
475,192,167534,1,8,0:0:0:0:
182,192,167534,1,0,0:0:0:0:
36,192,167534,1,0,0:0:0:0:
109,192,167534,1,0,0:0:0:0:
402,192,167612,1,0,0:0:0:0:
329,192,167690,1,0,0:0:0:0:
36,192,167768,1,0,0:0:0:0:
475,192,167847,1,0,0:0:0:0:
109,192,167847,1,0,0:0:0:0:
402,192,167847,1,0,0:0:0:0:
182,192,167925,1,0,0:0:0:0:
329,192,168003,1,0,0:0:0:0:
256,192,168081,1,0,0:0:0:0:
475,192,168159,1,8,0:0:0:0:
182,192,168159,1,0,0:0:0:0:
109,192,168159,1,0,0:0:0:0:
36,192,168159,1,0,0:0:0:0:
402,192,168237,1,0,0:0:0:0:
329,192,168315,1,0,0:0:0:0:
109,192,168393,1,0,0:0:0:0:
475,192,168472,1,0,0:0:0:0:
402,192,168472,1,0,0:0:0:0:
182,192,168472,1,0,0:0:0:0:
256,192,168550,1,0,0:0:0:0:
36,192,168628,1,0,0:0:0:0:
109,192,168706,1,0,0:0:0:0:
402,192,168784,1,8,0:0:0:0:
256,192,168784,1,0,0:0:0:0:
182,192,168784,1,0,0:0:0:0:
475,192,168784,1,0,0:0:0:0:
36,192,168862,1,0,0:0:0:0:
329,192,168940,1,0,0:0:0:0:
109,192,169018,1,0,0:0:0:0:
36,192,169097,1,0,0:0:0:0:
475,192,169097,1,0,0:0:0:0:
256,192,169097,1,0,0:0:0:0:
402,192,169175,1,0,0:0:0:0:
182,192,169253,1,0,0:0:0:0:
256,192,169331,1,0,0:0:0:0:
475,192,169409,1,8,0:0:0:0:
36,192,169409,1,0,0:0:0:0:
329,192,169409,1,0,0:0:0:0:
402,192,169409,1,0,0:0:0:0:
109,192,169487,1,0,0:0:0:0:
182,192,169565,1,0,0:0:0:0:
256,192,169643,1,0,0:0:0:0:
109,192,169722,1,4,0:0:0:0:
329,192,169722,1,0,0:0:0:0:
475,192,169722,1,0,0:0:0:0:
36,192,169722,1,0,0:0:0:0:
402,192,169722,1,0,0:0:0:0:
182,192,169800,1,0,0:0:0:0:
256,192,169878,1,0,0:0:0:0:
329,192,169956,1,0,0:0:0:0:
109,192,170034,1,8,0:0:0:0:
475,192,170034,1,0,0:0:0:0:
36,192,170034,1,0,0:0:0:0:
402,192,170034,1,0,0:0:0:0:
182,192,170112,1,0,0:0:0:0:
329,192,170190,1,0,0:0:0:0:
109,192,170268,1,0,0:0:0:0:
475,192,170347,1,0,0:0:0:0:
256,192,170347,1,0,0:0:0:0:
182,192,170347,1,0,0:0:0:0:
402,192,170425,1,0,0:0:0:0:
329,192,170503,1,0,0:0:0:0:
36,192,170581,1,0,0:0:0:0:
109,192,170659,1,8,0:0:0:0:
182,192,170659,1,0,0:0:0:0:
402,192,170659,1,0,0:0:0:0:
475,192,170659,1,0,0:0:0:0:
256,192,170737,1,0,0:0:0:0:
402,192,170815,1,0,0:0:0:0:
329,192,170815,1,0,0:0:0:0:
109,192,170893,1,0,0:0:0:0:
475,192,170972,1,0,0:0:0:0:
182,192,170972,1,0,0:0:0:0:
256,192,170972,1,0,0:0:0:0:
402,192,171050,1,0,0:0:0:0:
329,192,171128,1,0,0:0:0:0:
256,192,171206,1,0,0:0:0:0:
109,192,171284,1,8,0:0:0:0:
475,192,171284,1,0,0:0:0:0:
182,192,171284,1,0,0:0:0:0:
36,192,171284,1,0,0:0:0:0:
402,192,171362,1,0,0:0:0:0:
329,192,171440,1,0,0:0:0:0:
36,192,171518,1,0,0:0:0:0:
475,192,171597,1,0,0:0:0:0:
402,192,171597,1,0,0:0:0:0:
109,192,171597,1,0,0:0:0:0:
182,192,171675,1,0,0:0:0:0:
329,192,171753,1,0,0:0:0:0:
256,192,171831,1,0,0:0:0:0:
109,192,171909,1,8,0:0:0:0:
182,192,171909,1,0,0:0:0:0:
475,192,171909,1,0,0:0:0:0:
36,192,171909,1,0,0:0:0:0:
402,192,171987,1,0,0:0:0:0:
329,192,172065,1,0,0:0:0:0:
256,192,172143,1,0,0:0:0:0:
36,192,172222,128,4,173472:0:0:0:0:
402,192,172222,128,0,173472:0:0:0:0:
182,192,172222,1,0,0:0:0:0:
329,192,172222,1,0,0:0:0:0:
109,192,172534,128,8,173472:0:0:0:0:
182,192,172690,1,0,0:0:0:0:
256,192,172768,1,0,0:0:0:0:
475,192,172847,128,8,173472:0:0:0:0:
329,192,172847,1,0,0:0:0:0:
256,192,173055,1,0,0:0:0:0:
256,192,173159,128,8,173472:0:0:0:0:
402,192,173628,1,8,0:0:0:0:
475,192,173628,1,0,0:0:0:0:
109,192,173628,1,0,0:0:0:0:
36,192,173628,1,0,0:0:0:0:
36,192,173784,1,8,0:0:0:0:
109,192,173784,1,0,0:0:0:0:
402,192,173784,1,0,0:0:0:0:
475,192,173784,1,0,0:0:0:0:
109,192,173940,1,8,0:0:0:0:
36,192,173940,1,0,0:0:0:0:
402,192,173940,1,0,0:0:0:0:
475,192,173940,1,0,0:0:0:0:
36,192,174097,1,8,0:0:0:0:
109,192,174097,1,0,0:0:0:0:
402,192,174097,1,0,0:0:0:0:
475,192,174097,1,0,0:0:0:0:
256,192,174409,1,4,3:0:0:0:
36,192,174722,128,4,176597:0:0:0:0:
475,192,174722,128,2,176597:0:0:0:0:
402,192,174722,128,0,174930:0:0:0:0:
329,192,174930,128,2,175138:0:0:0:0:
256,192,175138,128,2,175347:0:0:0:0:
182,192,175347,128,2,175555:0:0:0:0:
109,192,175555,128,2,175763:0:0:0:0:
402,192,175763,128,2,175972:0:0:0:0:
329,192,175972,128,2,176180:0:0:0:0:
256,192,176180,128,2,176388:0:0:0:0:
182,192,176388,128,2,176597:0:0:0:0:
109,192,176597,128,8,176792:0:0:0:0:
402,192,176597,128,0,176792:0:0:0:0:
182,192,176792,128,0,176987:0:0:0:0:
329,192,176792,128,0,176987:0:0:0:0:
256,192,176987,128,0,177222:0:0:0:0:
329,192,177222,1,4,0:0:0:0:
182,192,177222,1,2,0:0:0:0:
36,192,177222,128,0,179097:0:0:0:0:
402,192,177222,128,0,177430:0:0:0:0:
475,192,177222,128,0,179097:0:0:0:0:
329,192,177430,128,2,177638:0:0:0:0:
256,192,177638,128,2,177847:0:0:0:0:
182,192,177847,128,2,178055:0:0:0:0:
109,192,178055,128,2,178263:0:0:0:0:
402,192,178263,128,2,178472:0:0:0:0:
329,192,178472,128,2,178680:0:0:0:0:
256,192,178680,128,2,178888:0:0:0:0:
182,192,178888,128,2,179097:0:0:0:0:
402,192,179097,128,8,179292:0:0:0:0:
109,192,179097,128,0,179292:0:0:0:0:
36,192,179292,128,0,179487:0:0:0:0:
475,192,179292,128,0,179487:0:0:0:0:
256,192,179487,128,0,179722:0:0:0:0:
329,192,179722,1,4,0:0:0:0:
182,192,179722,1,2,0:0:0:0:
475,192,179722,128,0,181597:0:0:0:0:
402,192,179722,128,0,179930:0:0:0:0:
36,192,179722,128,0,181597:0:0:0:0:
329,192,179930,128,2,180138:0:0:0:0:
256,192,180138,128,2,180347:0:0:0:0:
182,192,180347,128,2,180555:0:0:0:0:
109,192,180555,128,2,180763:0:0:0:0:
402,192,180763,128,2,180972:0:0:0:0:
329,192,180972,128,2,181180:0:0:0:0:
256,192,181180,128,2,181388:0:0:0:0:
182,192,181388,128,2,181597:0:0:0:0:
109,192,181597,128,8,181792:0:0:0:0:
402,192,181597,128,0,181792:0:0:0:0:
329,192,181792,128,0,181987:0:0:0:0:
182,192,181792,128,0,181987:0:0:0:0:
256,192,181987,128,0,182222:0:0:0:0:
182,192,182222,1,4,0:0:0:0:
329,192,182222,1,2,0:0:0:0:
36,192,182222,128,0,184097:0:0:0:0:
402,192,182222,128,0,182430:0:0:0:0:
475,192,182222,128,0,184097:0:0:0:0:
329,192,182430,128,2,182638:0:0:0:0:
256,192,182638,128,2,182847:0:0:0:0:
182,192,182847,128,2,183055:0:0:0:0:
109,192,183055,128,2,183263:0:0:0:0:
402,192,183263,128,2,183472:0:0:0:0:
329,192,183472,128,2,183680:0:0:0:0:
256,192,183680,128,2,183888:0:0:0:0:
182,192,183888,128,2,184097:0:0:0:0:
402,192,184097,128,8,184292:0:0:0:0:
109,192,184097,128,0,184292:0:0:0:0:
36,192,184292,128,0,184487:0:0:0:0:
475,192,184292,128,0,184487:0:0:0:0:
256,192,184487,128,0,184722:0:0:0:0:
182,192,184722,128,4,185034:0:0:0:0:
109,192,184722,1,0,0:0:0:0:
402,192,184722,1,0,0:0:0:0:
329,192,184878,1,0,0:0:0:0:
256,192,185034,128,8,185190:0:0:0:0:
475,192,185034,1,0,0:0:0:0:
182,192,185190,1,2,0:0:0:0:
109,192,185268,1,0,0:0:0:0:
36,192,185347,128,0,185503:0:0:0:0:
329,192,185347,1,0,0:0:0:0:
109,192,185503,128,2,185659:0:0:0:0:
256,192,185503,1,0,0:0:0:0:
182,192,185659,128,8,185815:0:0:0:0:
402,192,185659,1,0,0:0:0:0:
329,192,185815,128,2,185972:0:0:0:0:
475,192,185815,1,0,0:0:0:0:
256,192,185972,128,0,186284:0:0:0:0:
36,192,185972,1,0,0:0:0:0:
182,192,186128,1,0,0:0:0:0:
329,192,186284,128,8,186440:0:0:0:0:
475,192,186284,1,0,0:0:0:0:
256,192,186440,1,2,0:0:0:0:
182,192,186518,1,0,0:0:0:0:
109,192,186597,128,0,186753:0:0:0:0:
475,192,186597,1,0,0:0:0:0:
182,192,186753,128,2,186909:0:0:0:0:
402,192,186753,1,0,0:0:0:0:
256,192,186909,128,8,187065:0:0:0:0:
36,192,186909,1,0,0:0:0:0:
402,192,187065,128,2,187222:0:0:0:0:
475,192,187065,1,0,0:0:0:0:
329,192,187222,128,0,187534:0:0:0:0:
109,192,187222,1,0,0:0:0:0:
182,192,187378,1,0,0:0:0:0:
402,192,187534,128,8,187690:0:0:0:0:
36,192,187534,1,0,0:0:0:0:
329,192,187690,1,2,0:0:0:0:
182,192,187768,1,0,0:0:0:0:
109,192,187847,128,0,188003:0:0:0:0:
475,192,187847,1,0,0:0:0:0:
182,192,188003,128,2,188159:0:0:0:0:
402,192,188003,1,0,0:0:0:0:
256,192,188159,128,8,188315:0:0:0:0:
329,192,188159,1,0,0:0:0:0:
329,192,188315,128,2,188472:0:0:0:0:
36,192,188315,1,0,0:0:0:0:
402,192,188472,128,0,188628:0:0:0:0:
109,192,188472,1,0,0:0:0:0:
475,192,188628,1,2,0:0:0:0:
402,192,188706,1,0,0:0:0:0:
329,192,188784,128,8,188940:0:0:0:0:
182,192,188784,1,0,0:0:0:0:
36,192,188940,128,2,189097:0:0:0:0:
402,192,188940,1,0,0:0:0:0:
475,192,189097,5,0,0:0:0:0:
182,192,189097,128,0,189409:0:0:0:0:
402,192,189253,1,0,0:0:0:0:
36,192,189409,128,8,189722:0:0:0:0:
329,192,189409,1,0,0:0:0:0:
402,192,189565,1,0,0:0:0:0:
256,192,189722,128,4,190034:0:0:0:0:
475,192,189722,1,0,0:0:0:0:
329,192,189722,1,0,0:0:0:0:
109,192,189878,1,0,0:0:0:0:
402,192,190034,128,8,190190:0:0:0:0:
475,192,190034,1,0,0:0:0:0:
329,192,190190,1,2,0:0:0:0:
182,192,190268,1,0,0:0:0:0:
36,192,190347,5,0,0:0:0:0:
109,192,190347,128,0,190503:0:0:0:0:
182,192,190503,128,2,190659:0:0:0:0:
475,192,190503,1,0,0:0:0:0:
329,192,190659,128,8,190815:0:0:0:0:
256,192,190659,1,0,0:0:0:0:
402,192,190815,128,2,190972:0:0:0:0:
109,192,190815,1,0,0:0:0:0:
256,192,190972,128,0,191284:0:0:0:0:
36,192,190972,1,0,0:0:0:0:
182,192,191128,1,0,0:0:0:0:
475,192,191284,128,8,191440:0:0:0:0:
402,192,191284,1,0,0:0:0:0:
329,192,191440,1,2,0:0:0:0:
182,192,191518,1,0,0:0:0:0:
36,192,191597,128,0,191753:0:0:0:0:
256,192,191597,1,0,0:0:0:0:
182,192,191753,128,2,191909:0:0:0:0:
402,192,191753,1,0,0:0:0:0:
329,192,191909,128,8,192065:0:0:0:0:
109,192,191909,1,0,0:0:0:0:
475,192,192065,128,2,192222:0:0:0:0:
402,192,192065,1,0,0:0:0:0:
256,192,192222,128,0,192534:0:0:0:0:
36,192,192222,1,0,0:0:0:0:
109,192,192378,1,0,0:0:0:0:
475,192,192534,128,8,192690:0:0:0:0:
182,192,192534,1,0,0:0:0:0:
402,192,192690,1,2,0:0:0:0:
109,192,192768,1,0,0:0:0:0:
36,192,192847,128,0,193003:0:0:0:0:
329,192,192847,1,0,0:0:0:0:
109,192,193003,128,2,193159:0:0:0:0:
256,192,193003,1,0,0:0:0:0:
402,192,193159,128,8,193315:0:0:0:0:
182,192,193159,1,0,0:0:0:0:
475,192,193315,128,2,193472:0:0:0:0:
329,192,193315,1,0,0:0:0:0:
256,192,193472,128,0,193628:0:0:0:0:
36,192,193472,1,0,0:0:0:0:
182,192,193628,1,2,0:0:0:0:
256,192,193706,1,0,0:0:0:0:
329,192,193784,128,8,193940:0:0:0:0:
402,192,193784,1,0,0:0:0:0:
36,192,193940,128,2,194097:0:0:0:0:
109,192,193940,1,0,0:0:0:0:
475,192,194097,128,0,194409:0:0:0:0:
256,192,194097,1,0,0:0:0:0:
182,192,194253,1,0,0:0:0:0:
329,192,194409,1,8,0:0:0:0:
402,192,194409,1,0,0:0:0:0:
109,192,194487,1,8,0:0:0:0:
182,192,194487,1,0,0:0:0:0:
329,192,194565,1,8,0:0:0:0:
402,192,194565,1,0,0:0:0:0:
109,192,194643,1,8,0:0:0:0:
182,192,194643,1,0,0:0:0:0:
329,192,194722,1,8,0:0:0:0:
402,192,194722,1,4,0:0:0:0:
256,192,194722,1,0,0:0:0:0:
475,192,194722,1,0,0:0:0:0:
36,192,194722,1,0,0:0:0:0:
36,192,195347,1,4,2:0:0:0:
109,192,195347,1,8,0:0:0:0:
256,192,195347,1,0,0:0:0:0:
475,192,195347,1,0,0:0:0:0:
182,192,195347,1,0,0:0:0:0:
182,192,195972,1,4,2:0:0:0:
256,192,195972,1,8,0:0:0:0:
329,192,195972,1,0,0:0:0:0:
475,192,195972,1,0,0:0:0:0:
109,192,195972,1,0,0:0:0:0:
329,192,196597,1,4,2:0:0:0:
402,192,196597,1,8,0:0:0:0:
36,192,196597,1,0,0:0:0:0:
182,192,196597,1,0,0:0:0:0:
256,192,196597,1,0,0:0:0:0:
256,192,197222,1,8,0:0:0:0:
329,192,197222,1,4,2:0:0:0:
402,192,197222,1,0,0:0:0:0:
475,192,197222,1,0,0:0:0:0:
109,192,197222,1,0,0:0:0:0:
329,192,197847,1,4,2:0:0:0:
402,192,197847,1,8,0:0:0:0:
475,192,197847,1,0,0:0:0:0:
182,192,197847,1,0,0:0:0:0:
36,192,197847,1,0,0:0:0:0:
182,192,198472,1,8,0:0:0:0:
256,192,198472,1,4,2:0:0:0:
329,192,198472,1,0,0:0:0:0:
402,192,198472,1,0,0:0:0:0:
475,192,198472,1,0,0:0:0:0:
182,192,199097,1,8,0:0:0:0:
256,192,199097,1,4,2:0:0:0:
329,192,199097,1,0,0:0:0:0:
402,192,199097,1,0,0:0:0:0:
475,192,199097,1,0,0:0:0:0:
402,192,199722,1,4,2:0:0:0:
256,192,199722,1,8,0:0:0:0:
109,192,199722,1,0,0:0:0:0:
182,192,199722,1,0,0:0:0:0:
256,192,200034,1,4,2:0:0:0:
109,192,200034,1,8,0:0:0:0:
182,192,200034,1,0,0:0:0:0:
402,192,200034,1,0,0:0:0:0:
36,192,200347,1,8,0:0:0:0:
109,192,200347,1,4,2:0:0:0:
256,192,200347,1,0,0:0:0:0:
475,192,200347,1,0,0:0:0:0:
36,192,200659,1,8,0:0:0:0:
109,192,200659,1,4,2:0:0:0:
256,192,200659,1,0,0:0:0:0:
475,192,200659,1,0,0:0:0:0:
329,192,200972,1,4,2:0:0:0:
402,192,200972,1,8,0:0:0:0:
475,192,200972,1,0,0:0:0:0:
182,192,200972,1,0,0:0:0:0:
329,192,201284,1,4,2:0:0:0:
402,192,201284,1,8,0:0:0:0:
475,192,201284,1,0,0:0:0:0:
182,192,201284,1,0,0:0:0:0:
36,192,201597,1,4,2:0:0:0:
402,192,201597,1,8,0:0:0:0:
109,192,201597,1,0,0:0:0:0:
256,192,201597,1,0,0:0:0:0:
36,192,201909,1,8,0:0:0:0:
402,192,201909,1,4,2:0:0:0:
109,192,201909,1,0,0:0:0:0:
256,192,201909,1,0,0:0:0:0:
256,192,202222,1,8,0:0:0:0:
475,192,202222,1,4,2:0:0:0:
329,192,202222,1,0,0:0:0:0:
182,192,202222,1,0,0:0:0:0:
329,192,202534,1,8,0:0:0:0:
256,192,202534,1,4,2:0:0:0:
475,192,202534,1,0,0:0:0:0:
182,192,202534,1,0,0:0:0:0:
329,192,202847,1,8,0:0:0:0:
182,192,202847,1,4,2:0:0:0:
109,192,202847,1,0,0:0:0:0:
402,192,202847,1,0,0:0:0:0:
329,192,203159,1,4,2:0:0:0:
182,192,203159,1,8,0:0:0:0:
109,192,203159,1,0,0:0:0:0:
402,192,203159,1,0,0:0:0:0:
402,192,203472,1,4,2:0:0:0:
475,192,203472,1,8,0:0:0:0:
182,192,203472,1,0,0:0:0:0:
329,192,203550,1,0,0:0:0:0:
256,192,203628,1,0,0:0:0:0:
182,192,203706,1,0,0:0:0:0:
109,192,203784,1,0,0:0:0:0:
329,192,203784,1,0,0:0:0:0:
402,192,203784,1,0,0:0:0:0:
256,192,203862,1,0,0:0:0:0:
182,192,203940,1,0,0:0:0:0:
109,192,204018,1,0,0:0:0:0:
36,192,204097,1,4,0:0:0:0:
256,192,204097,1,0,0:0:0:0:
329,192,204097,1,0,0:0:0:0:
475,192,204253,1,8,0:0:0:0:
475,192,204409,1,8,0:0:0:0:
402,192,204565,1,4,0:0:0:0:
182,192,204565,128,8,205815:0:0:0:0:
36,192,205034,128,8,205347:0:0:0:0:
329,192,205347,128,0,206284:0:0:0:0:
402,192,205503,128,0,206284:0:0:0:0:
475,192,205659,128,8,206284:0:0:0:0:
256,192,205815,128,0,206284:0:0:0:0:
182,192,206284,128,8,206909:0:0:0:0:
475,192,206597,128,0,207065:0:0:0:0:
402,192,206753,128,0,206831:0:0:0:0:
329,192,206831,128,0,206909:0:0:0:0:
256,192,206909,128,8,208315:0:0:0:0:
109,192,207065,128,0,207534:0:0:0:0:
36,192,207534,128,8,208315:0:0:0:0:
402,192,207847,128,0,208003:0:0:0:0:
109,192,208003,128,0,208159:0:0:0:0:
402,192,208159,128,8,208315:0:0:0:0:
329,192,208315,128,0,208628:0:0:0:0:
182,192,208315,128,0,209565:0:0:0:0:
402,192,208628,128,0,208706:0:0:0:0:
329,192,208706,128,0,208784:0:0:0:0:
256,192,208784,128,8,209565:0:0:0:0:
329,192,209097,128,0,209565:0:0:0:0:
402,192,209409,128,8,209565:0:0:0:0:
475,192,209565,1,4,0:0:0:0:
109,192,209565,128,0,210034:0:0:0:0:
36,192,209565,128,0,210815:0:0:0:0:
402,192,210034,128,8,210347:0:0:0:0:
329,192,210347,128,0,210815:0:0:0:0:
256,192,210503,128,0,210815:0:0:0:0:
182,192,210659,128,8,210815:0:0:0:0:
109,192,210815,128,0,211440:0:0:0:0:
475,192,210815,128,0,212065:0:0:0:0:
182,192,211284,128,8,211597:0:0:0:0:
256,192,211597,128,0,211753:0:0:0:0:
329,192,211753,128,0,211831:0:0:0:0:
256,192,211831,128,0,211909:0:0:0:0:
182,192,211909,128,8,212065:0:0:0:0:
402,192,212065,128,0,212378:0:0:0:0:
109,192,212065,128,0,212378:0:0:0:0:
182,192,212378,128,0,212534:0:0:0:0:
329,192,212378,128,0,212534:0:0:0:0:
402,192,212534,128,8,212690:0:0:0:0:
256,192,212534,128,0,212690:0:0:0:0:
475,192,212690,128,0,213003:0:0:0:0:
329,192,212690,128,0,213003:0:0:0:0:
402,192,213003,128,0,213159:0:0:0:0:
256,192,213003,128,0,213159:0:0:0:0:
182,192,213159,128,8,213315:0:0:0:0:
329,192,213159,128,0,213315:0:0:0:0:
36,192,213315,128,0,213628:0:0:0:0:
109,192,213315,128,0,213628:0:0:0:0:
475,192,213628,1,0,0:0:0:0:
256,192,213784,128,8,214565:0:0:0:0:
109,192,214253,1,8,0:0:0:0:
182,192,214253,1,0,0:0:0:0:
329,192,214331,1,8,0:0:0:0:
402,192,214331,1,0,0:0:0:0:
109,192,214409,1,8,0:0:0:0:
182,192,214409,1,0,0:0:0:0:
329,192,214487,1,8,0:0:0:0:
402,192,214487,1,0,0:0:0:0:
36,192,214565,128,8,215034:0:0:0:0:
109,192,214565,1,4,0:0:0:0:
182,192,214565,1,0,0:0:0:0:
109,192,215034,128,8,215347:0:0:0:0:
475,192,215034,1,0,0:0:0:0:
182,192,215347,128,0,216284:0:0:0:0:
475,192,215347,1,0,0:0:0:0:
329,192,215503,128,0,215972:0:0:0:0:
402,192,215659,128,8,215972:0:0:0:0:
36,192,215659,1,0,0:0:0:0:
475,192,215815,128,0,216284:0:0:0:0:
36,192,215972,1,0,0:0:0:0:
256,192,216284,1,8,0:0:0:0:
329,192,216284,128,0,216597:0:0:0:0:
402,192,216284,128,0,216597:0:0:0:0:
256,192,216597,1,0,0:0:0:0:
182,192,216597,128,0,216753:0:0:0:0:
109,192,216753,128,0,216831:0:0:0:0:
36,192,216831,128,0,216909:0:0:0:0:
402,192,216909,1,8,0:0:0:0:
109,192,216909,128,0,217065:0:0:0:0:
182,192,217065,128,0,217534:0:0:0:0:
402,192,217222,1,0,0:0:0:0:
109,192,217534,1,8,0:0:0:0:
475,192,217534,128,0,217847:0:0:0:0:
329,192,217534,128,0,217847:0:0:0:0:
109,192,217847,1,0,0:0:0:0:
402,192,217847,128,0,218003:0:0:0:0:
182,192,217847,128,0,218003:0:0:0:0:
36,192,218003,128,0,218159:0:0:0:0:
256,192,218003,128,0,218159:0:0:0:0:
109,192,218159,128,8,218315:0:0:0:0:
329,192,218159,128,0,218315:0:0:0:0:
475,192,218159,1,0,0:0:0:0:
402,192,218315,128,0,218628:0:0:0:0:
182,192,218315,128,0,218628:0:0:0:0:
256,192,218472,1,0,0:0:0:0:
475,192,218628,128,0,218706:0:0:0:0:
402,192,218706,128,0,218784:0:0:0:0:
329,192,218784,128,8,218940:0:0:0:0:
36,192,218784,1,0,0:0:0:0:
402,192,218940,128,0,219018:0:0:0:0:
329,192,219018,128,0,219097:0:0:0:0:
256,192,219097,128,0,219253:0:0:0:0:
109,192,219097,1,0,0:0:0:0:
329,192,219253,128,0,219331:0:0:0:0:
256,192,219331,128,0,219409:0:0:0:0:
182,192,219409,128,8,219487:0:0:0:0:
109,192,219487,128,0,219565:0:0:0:0:
329,192,219565,1,4,0:0:0:0:
402,192,219565,1,0,0:0:0:0:
475,192,219565,128,0,220034:0:0:0:0:
182,192,219878,1,0,0:0:0:0:
329,192,220034,128,8,220347:0:0:0:0:
36,192,220034,1,0,0:0:0:0:
109,192,220034,1,0,0:0:0:0:
182,192,220190,1,0,0:0:0:0:
402,192,220347,128,0,220503:0:0:0:0:
109,192,220347,1,0,0:0:0:0:
475,192,220503,128,0,220659:0:0:0:0:
182,192,220503,1,0,0:0:0:0:
36,192,220659,128,8,220815:0:0:0:0:
256,192,220659,1,0,0:0:0:0:
402,192,220659,1,0,0:0:0:0:
329,192,220815,128,0,221284:0:0:0:0:
109,192,220815,1,0,0:0:0:0:
182,192,220815,128,0,221597:0:0:0:0:
256,192,220972,1,0,0:0:0:0:
402,192,221128,1,0,0:0:0:0:
475,192,221284,128,8,221597:0:0:0:0:
36,192,221284,128,0,221597:0:0:0:0:
256,192,221440,1,0,0:0:0:0:
402,192,221597,1,0,0:0:0:0:
329,192,221753,1,0,0:0:0:0:
109,192,221753,1,0,0:0:0:0:
256,192,221831,1,0,0:0:0:0:
182,192,221909,1,8,0:0:0:0:
402,192,221909,1,8,0:0:0:0:
109,192,221987,1,0,0:0:0:0:
36,192,222065,1,8,0:0:0:0:
475,192,222065,1,0,0:0:0:0:
256,192,222065,1,0,0:0:0:0:
402,192,222143,1,0,0:0:0:0:
329,192,222222,1,4,0:0:0:0:
182,192,222222,1,0,0:0:0:0:
109,192,222222,128,0,223472:0:0:0:0:
475,192,222534,128,4,223472:2:0:0:0:
402,192,222690,1,0,0:0:0:0:
329,192,222768,1,0,0:0:0:0:
182,192,222847,128,4,223472:2:0:0:0:
256,192,222847,1,0,0:0:0:0:
402,192,223159,128,4,223472:2:0:0:0:
109,192,223628,1,8,0:0:0:0:
182,192,223628,1,0,0:0:0:0:
402,192,223628,1,0,0:0:0:0:
475,192,223628,1,0,0:0:0:0:
109,192,223784,1,8,0:0:0:0:
182,192,223784,1,0,0:0:0:0:
402,192,223784,1,0,0:0:0:0:
475,192,223784,1,0,0:0:0:0:
109,192,223940,1,8,0:0:0:0:
182,192,223940,1,0,0:0:0:0:
402,192,223940,1,0,0:0:0:0:
475,192,223940,1,0,0:0:0:0:
109,192,224097,1,8,0:0:0:0:
182,192,224097,1,0,0:0:0:0:
402,192,224097,1,0,0:0:0:0:
475,192,224097,1,0,0:0:0:0:
256,192,224409,1,4,3:0:0:0:
329,192,224722,1,4,0:0:0:0:
109,192,224722,1,8,0:0:0:0:
36,192,224722,1,0,0:0:0:0:
475,192,224722,1,0,0:0:0:0:
182,192,224826,1,0,0:0:0:0:
256,192,224930,1,0,0:0:0:0:
182,192,225034,1,8,0:0:0:0:
36,192,225034,1,0,0:0:0:0:
475,192,225034,1,0,0:0:0:0:
256,192,225138,1,0,0:0:0:0:
329,192,225242,1,0,0:0:0:0:
402,192,225347,1,8,0:0:0:0:
182,192,225347,1,0,0:0:0:0:
109,192,225347,1,0,0:0:0:0:
475,192,225451,1,0,0:0:0:0:
402,192,225555,1,0,0:0:0:0:
36,192,225659,1,8,0:0:0:0:
329,192,225659,1,0,0:0:0:0:
109,192,225659,1,0,0:0:0:0:
256,192,225763,1,0,0:0:0:0:
182,192,225867,1,0,0:0:0:0:
402,192,225972,1,8,0:0:0:0:
475,192,225972,1,0,0:0:0:0:
36,192,225972,1,0,0:0:0:0:
109,192,226076,1,0,0:0:0:0:
182,192,226180,1,0,0:0:0:0:
475,192,226284,1,8,0:0:0:0:
36,192,226284,1,0,0:0:0:0:
256,192,226284,1,0,0:0:0:0:
329,192,226388,1,0,0:0:0:0:
402,192,226492,1,0,0:0:0:0:
475,192,226597,1,8,0:0:0:0:
182,192,226597,1,0,0:0:0:0:
36,192,226597,1,0,0:0:0:0:
402,192,226701,1,0,0:0:0:0:
329,192,226805,1,0,0:0:0:0:
109,192,226909,1,8,0:0:0:0:
256,192,226909,1,0,0:0:0:0:
402,192,226909,1,0,0:0:0:0:
182,192,227013,1,0,0:0:0:0:
109,192,227117,1,0,0:0:0:0:
329,192,227222,1,8,0:0:0:0:
475,192,227222,1,0,0:0:0:0:
182,192,227222,1,0,0:0:0:0:
256,192,227326,1,0,0:0:0:0:
329,192,227430,1,0,0:0:0:0:
182,192,227534,1,8,0:0:0:0:
109,192,227534,1,0,0:0:0:0:
402,192,227534,1,0,0:0:0:0:
256,192,227690,1,0,0:0:0:0:
109,192,227847,1,8,0:0:0:0:
402,192,227847,1,0,0:0:0:0:
182,192,227847,1,0,0:0:0:0:
329,192,227951,1,0,0:0:0:0:
256,192,228055,1,0,0:0:0:0:
329,192,228159,1,8,0:0:0:0:
36,192,228159,1,0,0:0:0:0:
475,192,228159,1,0,0:0:0:0:
256,192,228263,1,0,0:0:0:0:
182,192,228367,1,0,0:0:0:0:
109,192,228472,1,8,0:0:0:0:
402,192,228472,1,0,0:0:0:0:
256,192,228472,1,0,0:0:0:0:
36,192,228576,1,0,0:0:0:0:
109,192,228680,1,0,0:0:0:0:
182,192,228784,1,8,0:0:0:0:
402,192,228784,1,0,0:0:0:0:
475,192,228784,1,0,0:0:0:0:
256,192,228888,1,0,0:0:0:0:
329,192,228992,1,0,0:0:0:0:
475,192,229097,1,8,0:0:0:0:
36,192,229097,1,0,0:0:0:0:
109,192,229097,1,0,0:0:0:0:
402,192,229201,1,0,0:0:0:0:
329,192,229305,1,0,0:0:0:0:
256,192,229409,1,8,0:0:0:0:
36,192,229409,1,0,0:0:0:0:
475,192,229409,1,0,0:0:0:0:
182,192,229513,1,0,0:0:0:0:
109,192,229617,1,0,0:0:0:0:
329,192,229722,1,4,0:0:0:0:
475,192,229722,1,8,0:0:0:0:
36,192,229722,1,0,0:0:0:0:
109,192,229826,1,0,0:0:0:0:
182,192,229930,1,0,0:0:0:0:
256,192,230034,1,8,0:0:0:0:
402,192,230034,1,0,0:0:0:0:
109,192,230034,1,0,0:0:0:0:
329,192,230138,1,0,0:0:0:0:
402,192,230242,1,0,0:0:0:0:
329,192,230347,1,8,0:0:0:0:
36,192,230347,1,0,0:0:0:0:
182,192,230347,1,0,0:0:0:0:
256,192,230451,1,0,0:0:0:0:
182,192,230555,1,0,0:0:0:0:
109,192,230659,1,8,0:0:0:0:
329,192,230659,1,0,0:0:0:0:
402,192,230659,1,0,0:0:0:0:
36,192,230763,1,0,0:0:0:0:
475,192,230867,1,0,0:0:0:0:
402,192,230972,1,8,0:0:0:0:
109,192,230972,1,0,0:0:0:0:
256,192,230972,1,0,0:0:0:0:
329,192,231076,1,0,0:0:0:0:
402,192,231180,1,0,0:0:0:0:
475,192,231284,1,8,0:0:0:0:
256,192,231284,1,0,0:0:0:0:
109,192,231284,1,0,0:0:0:0:
36,192,231388,1,0,0:0:0:0:
109,192,231492,1,0,0:0:0:0:
182,192,231597,1,8,0:0:0:0:
402,192,231597,1,0,0:0:0:0:
475,192,231597,1,0,0:0:0:0:
256,192,231701,1,0,0:0:0:0:
329,192,231805,1,0,0:0:0:0:
182,192,231909,1,8,0:0:0:0:
36,192,231909,1,0,0:0:0:0:
402,192,231909,1,0,0:0:0:0:
256,192,232013,1,0,0:0:0:0:
329,192,232117,1,0,0:0:0:0:
256,192,232222,1,8,0:0:0:0:
109,192,232222,1,0,0:0:0:0:
475,192,232222,1,0,0:0:0:0:
36,192,232326,1,0,0:0:0:0:
109,192,232430,1,0,0:0:0:0:
182,192,232534,1,8,0:0:0:0:
402,192,232534,1,0,0:0:0:0:
475,192,232534,1,0,0:0:0:0:
256,192,232638,1,0,0:0:0:0:
329,192,232742,1,0,0:0:0:0:
402,192,232847,1,8,0:0:0:0:
109,192,232847,1,0,0:0:0:0:
182,192,232847,1,0,0:0:0:0:
109,192,233159,1,8,0:0:0:0:
329,192,233159,1,0,0:0:0:0:
36,192,233159,1,0,0:0:0:0:
256,192,233237,1,0,0:0:0:0:
182,192,233315,1,0,0:0:0:0:
109,192,233393,1,0,0:0:0:0:
256,192,233472,1,8,0:0:0:0:
402,192,233472,1,0,0:0:0:0:
475,192,233472,1,0,0:0:0:0:
182,192,233628,1,0,0:0:0:0:
256,192,233706,1,0,0:0:0:0:
402,192,233784,1,8,0:0:0:0:
329,192,233784,1,0,0:0:0:0:
36,192,233784,1,0,0:0:0:0:
475,192,233940,128,0,234722:0:0:0:0:
109,192,234097,1,8,0:0:0:0:
182,192,234097,1,0,0:0:0:0:
182,192,234409,1,8,0:0:0:0:
256,192,234409,1,0,0:0:0:0:
256,192,234722,1,4,0:0:0:0:
329,192,234722,1,8,0:0:0:0:
402,192,234722,1,0,0:0:0:0:
182,192,234826,1,0,0:0:0:0:
109,192,234930,1,0,0:0:0:0:
402,192,235034,1,8,0:0:0:0:
182,192,235034,1,0,0:0:0:0:
329,192,235138,1,0,0:0:0:0:
256,192,235242,1,0,0:0:0:0:
109,192,235347,1,8,0:0:0:0:
475,192,235347,1,0,0:0:0:0:
402,192,235451,1,0,0:0:0:0:
329,192,235555,1,0,0:0:0:0:
256,192,235659,1,8,0:0:0:0:
36,192,235659,1,0,0:0:0:0:
182,192,235763,1,0,0:0:0:0:
329,192,235867,1,0,0:0:0:0:
475,192,235972,1,8,0:0:0:0:
256,192,235972,1,0,0:0:0:0:
36,192,236076,1,0,0:0:0:0:
109,192,236180,1,0,0:0:0:0:
182,192,236284,1,8,0:0:0:0:
329,192,236284,1,0,0:0:0:0:
402,192,236388,1,0,0:0:0:0:
329,192,236492,1,0,0:0:0:0:
36,192,236597,1,8,0:0:0:0:
182,192,236597,1,0,0:0:0:0:
256,192,236701,1,0,0:0:0:0:
475,192,236805,1,0,0:0:0:0:
402,192,236909,1,8,0:0:0:0:
109,192,236909,1,0,0:0:0:0:
182,192,237013,1,0,0:0:0:0:
256,192,237117,1,0,0:0:0:0:
36,192,237222,1,8,0:0:0:0:
329,192,237222,1,0,0:0:0:0:
475,192,237222,1,0,0:0:0:0:
109,192,237326,1,0,0:0:0:0:
182,192,237430,1,0,0:0:0:0:
402,192,237534,1,8,0:0:0:0:
109,192,237534,1,0,0:0:0:0:
475,192,237534,1,0,0:0:0:0:
329,192,237638,1,0,0:0:0:0:
256,192,237742,1,0,0:0:0:0:
36,192,237847,1,8,0:0:0:0:
475,192,237847,1,0,0:0:0:0:
329,192,237847,1,0,0:0:0:0:
256,192,237951,1,0,0:0:0:0:
182,192,238055,1,0,0:0:0:0:
402,192,238159,1,8,0:0:0:0:
329,192,238159,1,0,0:0:0:0:
109,192,238159,1,0,0:0:0:0:
36,192,238263,1,0,0:0:0:0:
109,192,238367,1,0,0:0:0:0:
402,192,238472,1,8,0:0:0:0:
182,192,238472,1,0,0:0:0:0:
475,192,238472,1,0,0:0:0:0:
256,192,238576,1,0,0:0:0:0:
329,192,238680,1,0,0:0:0:0:
475,192,238784,1,8,0:0:0:0:
36,192,238784,1,0,0:0:0:0:
109,192,238784,1,0,0:0:0:0:
402,192,238888,1,0,0:0:0:0:
329,192,238992,1,0,0:0:0:0:
256,192,239097,1,8,0:0:0:0:
475,192,239097,1,0,0:0:0:0:
36,192,239097,1,0,0:0:0:0:
182,192,239201,1,0,0:0:0:0:
109,192,239305,1,0,0:0:0:0:
475,192,239409,1,8,0:0:0:0:
329,192,239409,1,0,0:0:0:0:
36,192,239409,1,0,0:0:0:0:
109,192,239513,1,0,0:0:0:0:
182,192,239617,1,0,0:0:0:0:
256,192,239722,1,4,0:0:0:0:
109,192,239722,128,8,240972:0:0:0:0:
402,192,239722,128,0,240972:0:0:0:0:
36,192,240972,128,4,242222:0:0:0:0:
475,192,240972,128,0,242222:0:0:0:0:
256,192,240972,1,0,0:0:0:0:
256,192,241597,1,4,0:0:0:0:
402,192,241753,1,0,0:0:0:0:
329,192,241831,1,0,0:0:0:0:
256,192,241909,1,8,0:0:0:0:
109,192,242222,1,4,0:0:0:0:
256,192,242222,1,8,0:0:0:0:
329,192,242222,1,0,0:0:0:0:
109,192,242378,1,0,0:0:0:0:
402,192,242534,1,8,0:0:0:0:
329,192,242534,1,0,0:0:0:0:
109,192,242534,1,0,0:0:0:0:
182,192,242690,1,0,0:0:0:0:
109,192,242847,1,8,0:0:0:0:
475,192,242847,1,0,0:0:0:0:
109,192,243003,1,0,0:0:0:0:
182,192,243159,1,8,0:0:0:0:
329,192,243159,1,0,0:0:0:0:
402,192,243159,1,0,0:0:0:0:
109,192,243315,1,0,0:0:0:0:
256,192,243472,1,8,0:0:0:0:
475,192,243472,1,0,0:0:0:0:
402,192,243576,1,8,0:0:0:0:
182,192,243576,1,0,0:0:0:0:
109,192,243680,1,8,0:0:0:0:
329,192,243680,1,0,0:0:0:0:
36,192,243784,1,0,0:0:0:0:
109,192,243862,1,0,0:0:0:0:
182,192,243940,1,0,0:0:0:0:
475,192,244097,1,0,0:0:0:0:
402,192,244136,1,0,0:0:0:0:
329,192,244175,1,0,0:0:0:0:
182,192,244253,1,8,0:0:0:0:
109,192,244253,1,0,0:0:0:0:
329,192,244331,1,8,0:0:0:0:
402,192,244331,1,0,0:0:0:0:
256,192,244565,1,0,0:0:0:0:
475,192,244722,1,0,2:0:0:0:
36,192,244722,1,0,0:0:0:0:
109,192,244774,1,0,0:0:0:0:
182,192,244826,1,0,0:0:0:0:
475,192,245347,1,4,0:0:0:0:
402,192,245386,1,0,0:0:0:0:
329,192,245425,1,0,0:0:0:0:
256,192,245464,1,0,0:0:0:0:
182,192,245503,1,8,0:0:0:0:
109,192,245542,1,0,0:0:0:0:
36,192,245581,1,8,0:0:0:0:
475,192,245620,1,0,0:0:0:0:
402,192,245659,1,8,0:0:0:0:
329,192,245698,1,0,0:0:0:0:
256,192,245737,1,8,0:0:0:0:
182,192,245776,1,0,0:0:0:0:
109,192,245815,1,8,0:0:0:0:
36,192,245854,1,0,0:0:0:0:
475,192,245893,1,8,0:0:0:0:
402,192,245932,1,0,0:0:0:0:
182,192,245972,128,4,247222:0:0:0:0:
329,192,245972,1,0,0:0:0:0:
109,192,246050,1,0,0:0:0:0:
36,192,246128,1,0,0:0:0:0:
256,192,246206,1,0,0:0:0:0:
109,192,246284,1,8,0:0:0:0:
329,192,246284,1,0,0:0:0:0:
402,192,246362,1,0,0:0:0:0:
36,192,246440,1,0,0:0:0:0:
109,192,246518,1,0,0:0:0:0:
256,192,246597,1,0,0:0:0:0:
329,192,246675,1,0,0:0:0:0:
402,192,246753,1,0,0:0:0:0:
329,192,246831,1,0,0:0:0:0:
256,192,246909,1,8,0:0:0:0:
36,192,246909,1,0,0:0:0:0:
109,192,246987,1,0,0:0:0:0:
256,192,247065,1,0,0:0:0:0:
329,192,247143,1,0,0:0:0:0:
475,192,247222,128,0,248472:0:0:0:0:
402,192,247222,1,0,0:0:0:0:
36,192,247300,1,0,0:0:0:0:
109,192,247378,1,0,0:0:0:0:
182,192,247456,1,0,0:0:0:0:
402,192,247534,1,8,0:0:0:0:
329,192,247534,1,0,0:0:0:0:
256,192,247612,1,0,0:0:0:0:
182,192,247690,1,0,0:0:0:0:
109,192,247768,1,0,0:0:0:0:
402,192,247847,1,0,0:0:0:0:
329,192,247925,1,0,0:0:0:0:
256,192,248003,1,0,0:0:0:0:
36,192,248081,1,0,0:0:0:0:
182,192,248159,1,8,0:0:0:0:
109,192,248159,1,0,0:0:0:0:
256,192,248237,1,0,0:0:0:0:
402,192,248315,1,0,0:0:0:0:
329,192,248393,1,0,0:0:0:0:
109,192,248472,128,0,248784:0:0:0:0:
256,192,248472,128,0,249722:0:0:0:0:
182,192,248472,1,0,0:0:0:0:
402,192,248550,1,0,0:0:0:0:
329,192,248628,1,0,0:0:0:0:
475,192,248706,1,0,0:0:0:0:
402,192,248784,1,8,0:0:0:0:
36,192,248784,128,0,249097:0:0:0:0:
182,192,248784,1,0,0:0:0:0:
329,192,248862,1,0,0:0:0:0:
402,192,248940,1,0,0:0:0:0:
475,192,249018,1,0,0:0:0:0:
109,192,249097,128,0,249409:0:0:0:0:
402,192,249097,1,0,0:0:0:0:
329,192,249175,1,0,0:0:0:0:
475,192,249253,1,0,0:0:0:0:
402,192,249331,1,0,0:0:0:0:
36,192,249409,128,8,249722:0:0:0:0:
182,192,249409,1,0,0:0:0:0:
329,192,249409,1,0,0:0:0:0:
402,192,249487,1,0,0:0:0:0:
475,192,249565,1,0,0:0:0:0:
402,192,249643,1,0,0:0:0:0:
109,192,249722,128,4,250972:0:0:0:0:
329,192,249722,1,0,0:0:0:0:
182,192,249722,1,0,0:0:0:0:
475,192,249800,1,0,0:0:0:0:
402,192,249878,1,0,0:0:0:0:
256,192,249956,1,0,0:0:0:0:
182,192,250034,1,8,0:0:0:0:
36,192,250034,1,0,0:0:0:0:
329,192,250112,1,0,0:0:0:0:
475,192,250190,1,0,0:0:0:0:
402,192,250268,1,0,0:0:0:0:
329,192,250347,1,0,0:0:0:0:
182,192,250425,1,0,0:0:0:0:
256,192,250503,1,0,0:0:0:0:
402,192,250581,1,0,0:0:0:0:
329,192,250659,1,8,0:0:0:0:
36,192,250659,1,0,0:0:0:0:
182,192,250737,1,0,0:0:0:0:
256,192,250815,1,0,0:0:0:0:
329,192,250893,1,0,0:0:0:0:
36,192,250972,1,0,0:0:0:0:
475,192,250972,128,0,252222:0:0:0:0:
402,192,250972,1,0,0:0:0:0:
256,192,251050,1,0,0:0:0:0:
182,192,251128,1,0,0:0:0:0:
109,192,251206,1,0,0:0:0:0:
329,192,251284,1,8,0:0:0:0:
36,192,251284,1,0,0:0:0:0:
402,192,251362,1,0,0:0:0:0:
109,192,251440,1,0,0:0:0:0:
329,192,251518,1,0,0:0:0:0:
36,192,251597,1,0,0:0:0:0:
256,192,251675,1,0,0:0:0:0:
402,192,251753,1,0,0:0:0:0:
109,192,251831,1,0,0:0:0:0:
329,192,251909,1,8,0:0:0:0:
36,192,251909,1,0,0:0:0:0:
182,192,251987,1,0,0:0:0:0:
402,192,252065,1,0,0:0:0:0:
329,192,252143,1,0,0:0:0:0:
36,192,252222,1,0,0:0:0:0:
256,192,252222,128,0,253472:0:0:0:0:
182,192,252300,1,0,0:0:0:0:
329,192,252378,1,0,0:0:0:0:
402,192,252456,1,0,0:0:0:0:
475,192,252534,1,8,0:0:0:0:
182,192,252534,1,0,0:0:0:0:
109,192,252612,1,0,0:0:0:0:
36,192,252690,1,0,0:0:0:0:
329,192,252768,1,0,0:0:0:0:
402,192,252847,1,0,0:0:0:0:
475,192,252925,1,0,0:0:0:0:
36,192,253003,1,0,0:0:0:0:
109,192,253081,1,0,0:0:0:0:
182,192,253159,1,8,0:0:0:0:
475,192,253159,1,0,0:0:0:0:
402,192,253237,1,0,0:0:0:0:
36,192,253315,1,0,0:0:0:0:
109,192,253393,1,0,0:0:0:0:
475,192,253472,1,8,0:0:0:0:
329,192,253472,1,0,0:0:0:0:
182,192,253550,1,0,0:0:0:0:
36,192,253550,1,0,0:0:0:0:
402,192,253628,1,0,0:0:0:0:
402,192,253706,1,0,0:0:0:0:
182,192,253784,1,8,0:0:0:0:
182,192,253862,1,0,0:0:0:0:
402,192,253940,1,0,0:0:0:0:
475,192,253940,1,0,0:0:0:0:
109,192,254018,1,0,0:0:0:0:
36,192,254018,1,0,0:0:0:0:
329,192,254097,1,8,0:0:0:0:
329,192,254175,1,0,0:0:0:0:
182,192,254253,1,0,0:0:0:0:
182,192,254331,1,0,0:0:0:0:
402,192,254409,1,8,0:0:0:0:
402,192,254487,1,0,0:0:0:0:
109,192,254565,1,0,0:0:0:0:
109,192,254643,1,0,0:0:0:0:
36,192,254722,1,4,0:0:0:0:
475,192,254722,128,0,255972:0:0:0:0:
182,192,254722,1,0,0:0:0:0:
329,192,254722,1,0,0:0:0:0:
256,192,254878,1,0,0:0:0:0:
109,192,255034,1,8,0:0:0:0:
182,192,255034,1,0,0:0:0:0:
402,192,255034,1,0,0:0:0:0:
36,192,255034,1,0,0:0:0:0:
329,192,255190,1,0,0:0:0:0:
182,192,255347,1,0,0:0:0:0:
36,192,255347,1,0,0:0:0:0:
256,192,255347,1,0,0:0:0:0:
109,192,255503,1,0,0:0:0:0:
182,192,255659,1,8,0:0:0:0:
402,192,255659,1,0,0:0:0:0:
329,192,255659,1,0,0:0:0:0:
36,192,255659,1,0,0:0:0:0:
256,192,255815,1,0,0:0:0:0:
36,192,255972,128,0,257222:0:0:0:0:
402,192,255972,1,0,0:0:0:0:
109,192,255972,1,0,0:0:0:0:
329,192,256128,1,0,0:0:0:0:
182,192,256284,1,8,0:0:0:0:
256,192,256284,1,0,0:0:0:0:
402,192,256284,1,0,0:0:0:0:
475,192,256284,1,0,0:0:0:0:
109,192,256440,1,0,0:0:0:0:
182,192,256597,1,0,0:0:0:0:
329,192,256597,1,0,0:0:0:0:
475,192,256597,1,0,0:0:0:0:
402,192,256753,1,0,0:0:0:0:
109,192,256909,1,8,0:0:0:0:
475,192,256909,1,0,0:0:0:0:
329,192,256909,1,0,0:0:0:0:
256,192,256909,1,0,0:0:0:0:
182,192,257065,1,0,0:0:0:0:
256,192,257222,128,0,258472:0:0:0:0:
109,192,257222,1,0,0:0:0:0:
402,192,257222,1,0,0:0:0:0:
182,192,257378,1,0,0:0:0:0:
109,192,257534,1,8,0:0:0:0:
475,192,257534,1,0,0:0:0:0:
329,192,257534,1,0,0:0:0:0:
402,192,257534,1,0,0:0:0:0:
36,192,257690,1,0,0:0:0:0:
109,192,257847,1,0,0:0:0:0:
182,192,257847,1,0,0:0:0:0:
329,192,257847,1,0,0:0:0:0:
402,192,258003,1,0,0:0:0:0:
36,192,258159,1,8,0:0:0:0:
475,192,258159,1,0,0:0:0:0:
182,192,258159,1,0,0:0:0:0:
329,192,258159,1,0,0:0:0:0:
109,192,258315,1,0,0:0:0:0:
36,192,258472,1,0,0:0:0:0:
329,192,258472,1,0,0:0:0:0:
402,192,258472,128,0,259722:0:0:0:0:
182,192,258628,1,0,0:0:0:0:
109,192,258784,1,8,0:0:0:0:
256,192,258784,1,0,0:0:0:0:
475,192,258784,1,0,0:0:0:0:
36,192,258784,1,0,0:0:0:0:
182,192,258940,1,0,0:0:0:0:
36,192,259097,1,0,0:0:0:0:
256,192,259097,1,0,0:0:0:0:
329,192,259097,1,0,0:0:0:0:
109,192,259253,1,0,0:0:0:0:
182,192,259409,1,8,0:0:0:0:
475,192,259409,1,0,0:0:0:0:
329,192,259409,1,0,0:0:0:0:
36,192,259409,1,0,0:0:0:0:
109,192,259565,1,0,0:0:0:0:
256,192,259722,1,4,0:0:0:0:
36,192,259722,1,0,0:0:0:0:
475,192,259722,1,0,0:0:0:0:
182,192,259722,128,0,260972:0:0:0:0:
329,192,259722,1,0,0:0:0:0:
109,192,259878,1,0,0:0:0:0:
36,192,260034,1,8,0:0:0:0:
475,192,260034,1,0,0:0:0:0:
329,192,260034,1,0,0:0:0:0:
256,192,260034,1,0,0:0:0:0:
402,192,260190,1,0,0:0:0:0:
109,192,260347,1,0,0:0:0:0:
475,192,260347,1,0,0:0:0:0:
256,192,260347,1,0,0:0:0:0:
36,192,260503,1,0,0:0:0:0:
329,192,260659,1,8,0:0:0:0:
475,192,260659,1,0,0:0:0:0:
402,192,260659,1,0,0:0:0:0:
109,192,260659,1,0,0:0:0:0:
256,192,260815,1,0,0:0:0:0:
109,192,260972,1,0,0:0:0:0:
329,192,260972,128,0,262222:0:0:0:0:
36,192,260972,1,0,0:0:0:0:
402,192,261128,1,0,0:0:0:0:
475,192,261284,1,8,0:0:0:0:
36,192,261284,1,0,0:0:0:0:
182,192,261284,1,0,0:0:0:0:
256,192,261284,1,0,0:0:0:0:
109,192,261440,1,0,0:0:0:0:
36,192,261597,1,0,0:0:0:0:
256,192,261597,1,0,0:0:0:0:
402,192,261597,1,0,0:0:0:0:
182,192,261753,1,0,0:0:0:0:
256,192,261909,1,8,0:0:0:0:
109,192,261909,1,0,0:0:0:0:
475,192,261909,1,0,0:0:0:0:
36,192,261909,1,0,0:0:0:0:
182,192,262065,1,0,0:0:0:0:
402,192,262222,1,4,2:0:0:0:
36,192,262222,1,0,0:0:0:0:
475,192,262222,128,0,263472:0:0:0:0:
36,192,262534,128,4,263472:2:0:0:0:
109,192,262690,1,0,0:0:0:0:
182,192,262768,1,0,0:0:0:0:
256,192,262847,1,8,0:0:0:0:
329,192,262847,128,4,263472:2:0:0:0:
182,192,263159,128,4,263472:2:0:0:0:
109,192,263628,1,8,0:0:0:0:
256,192,263628,1,0,0:0:0:0:
402,192,263628,1,0,0:0:0:0:
109,192,263784,1,8,0:0:0:0:
256,192,263784,1,0,0:0:0:0:
402,192,263784,1,0,0:0:0:0:
109,192,263940,1,8,0:0:0:0:
256,192,263940,1,0,0:0:0:0:
402,192,263940,1,0,0:0:0:0:
109,192,264097,1,8,0:0:0:0:
256,192,264097,1,0,0:0:0:0:
402,192,264097,1,0,0:0:0:0:
36,192,264409,128,4,265972:2:0:0:0:
109,192,264565,128,0,265972:0:0:0:0:
182,192,264722,128,4,265972:0:0:0:0:
475,192,265034,128,4,265972:2:0:0:0:
402,192,265347,128,4,265972:2:0:0:0:
329,192,265659,128,4,265972:2:0:0:0:
36,192,266128,1,8,0:0:0:0:
109,192,266128,1,0,0:0:0:0:
402,192,266128,1,0,0:0:0:0:
475,192,266128,1,0,0:0:0:0:
402,192,266284,1,8,0:0:0:0:
475,192,266284,1,0,0:0:0:0:
36,192,266284,1,0,0:0:0:0:
109,192,266284,1,0,0:0:0:0:
36,192,266440,1,8,0:0:0:0:
109,192,266440,1,0,0:0:0:0:
402,192,266440,1,0,0:0:0:0:
475,192,266440,1,0,0:0:0:0:
36,192,266597,1,8,0:0:0:0:
109,192,266597,1,0,0:0:0:0:
402,192,266597,1,0,0:0:0:0:
475,192,266597,1,0,0:0:0:0:
329,192,266675,1,0,0:0:0:0:
256,192,266753,1,0,0:0:0:0:
182,192,266831,1,0,0:0:0:0:
109,192,266909,1,8,0:0:0:0:
36,192,267222,128,4,268159:0:0:0:0:
475,192,267222,128,0,268159:0:0:0:0:
182,192,267222,1,0,0:0:0:0:
329,192,267222,1,0,0:0:0:0:
109,192,267378,1,8,0:0:0:0:
256,192,267456,1,8,0:0:0:0:
402,192,267534,1,8,0:0:0:0:
256,192,267690,1,0,0:0:0:0:
182,192,267847,1,8,0:0:0:0:
256,192,267925,1,8,0:0:0:0:
329,192,268003,1,8,0:0:0:0:
182,192,268159,128,0,269722:0:0:0:0:
402,192,268159,1,0,0:0:0:0:
109,192,268159,1,0,0:0:0:0:
329,192,268315,1,8,0:0:0:0:
402,192,268393,1,8,0:0:0:0:
329,192,268472,128,8,269722:0:0:0:0:
36,192,268472,1,4,0:0:0:0:
475,192,268472,1,0,0:0:0:0:
256,192,269097,128,0,269722:0:0:0:0:
109,192,269253,1,8,0:0:0:0:
36,192,269331,1,8,0:0:0:0:
109,192,269409,1,8,0:0:0:0:
475,192,269722,128,4,271909:0:0:0:0:
36,192,269722,128,0,271909:0:0:0:0:
402,192,269722,128,0,270347:0:0:0:0:
109,192,270034,1,8,0:0:0:0:
329,192,270034,1,0,0:0:0:0:
256,192,270347,128,0,270659:0:0:0:0:
182,192,270347,1,0,0:0:0:0:
329,192,270659,128,8,270815:0:0:0:0:
402,192,270659,1,0,0:0:0:0:
109,192,270659,1,0,0:0:0:0:
182,192,270815,128,0,270972:0:0:0:0:
109,192,270972,128,0,271597:0:0:0:0:
402,192,270972,1,0,0:0:0:0:
256,192,271284,128,8,271597:0:0:0:0:
402,192,271284,1,0,0:0:0:0:
329,192,271284,1,0,0:0:0:0:
182,192,271597,128,0,271831:0:0:0:0:
402,192,271597,1,0,0:0:0:0:
329,192,271831,128,0,272065:0:0:0:0:
109,192,271909,1,8,0:0:0:0:
402,192,272065,128,0,272222:0:0:0:0:
36,192,272222,128,0,272847:0:0:0:0:
475,192,272222,128,0,272690:0:0:0:0:
256,192,272222,1,0,0:0:0:0:
109,192,272534,1,8,0:0:0:0:
182,192,272534,1,0,0:0:0:0:
402,192,272847,128,0,273472:0:0:0:0:
329,192,272847,128,0,273081:0:0:0:0:
182,192,272847,1,0,0:0:0:0:
256,192,273081,128,0,273315:0:0:0:0:
109,192,273159,1,8,0:0:0:0:
36,192,273159,1,0,0:0:0:0:
182,192,273315,128,0,273472:0:0:0:0:
109,192,273472,128,0,277222:0:0:0:0:
36,192,273472,128,0,273940:0:0:0:0:
475,192,273472,1,0,0:0:0:0:
329,192,273784,1,8,0:0:0:0:
475,192,273784,1,0,0:0:0:0:
182,192,273862,1,0,0:0:0:0:
256,192,273940,1,0,0:0:0:0:
402,192,274097,128,0,274722:0:0:0:0:
329,192,274097,1,0,0:0:0:0:
182,192,274409,1,8,0:0:0:0:
329,192,274409,1,0,0:0:0:0:
36,192,274722,1,4,0:0:0:0:
329,192,274722,1,0,0:0:0:0:
475,192,274722,1,0,0:0:0:0:
256,192,274722,128,0,275347:0:0:0:0:
182,192,275034,1,8,0:0:0:0:
402,192,275034,1,0,0:0:0:0:
402,192,275347,128,0,275581:0:0:0:0:
475,192,275347,1,0,0:0:0:0:
329,192,275581,128,0,275815:0:0:0:0:
36,192,275659,1,8,0:0:0:0:
182,192,275659,1,0,0:0:0:0:
402,192,275815,128,0,275972:0:0:0:0:
475,192,275972,128,0,276597:0:0:0:0:
256,192,275972,1,0,0:0:0:0:
36,192,276284,1,8,0:0:0:0:
329,192,276284,1,0,0:0:0:0:
402,192,276597,128,0,276831:0:0:0:0:
182,192,276597,1,0,0:0:0:0:
329,192,276831,128,0,277065:0:0:0:0:
36,192,276909,1,8,0:0:0:0:
256,192,276909,1,0,0:0:0:0:
182,192,277065,128,0,277222:0:0:0:0:
36,192,277222,128,0,277847:0:0:0:0:
402,192,277222,1,0,0:0:0:0:
256,192,277534,1,8,0:0:0:0:
475,192,277534,1,0,0:0:0:0:
329,192,277534,1,0,0:0:0:0:
182,192,277847,128,0,278081:0:0:0:0:
402,192,277847,1,0,0:0:0:0:
329,192,278081,128,0,278315:0:0:0:0:
109,192,278159,1,8,0:0:0:0:
36,192,278159,1,0,0:0:0:0:
475,192,278315,128,0,278472:0:0:0:0:
182,192,278472,1,0,0:0:0:0:
36,192,278472,1,0,0:0:0:0:
329,192,278472,1,0,0:0:0:0:
109,192,278628,1,8,0:0:0:0:
329,192,278628,1,4,0:0:0:0:
402,192,278628,1,0,0:0:0:0:
256,192,278628,1,0,0:0:0:0:
182,192,278784,1,0,0:0:0:0:
182,192,278940,1,0,0:0:0:0:
256,192,279097,1,8,0:0:0:0:
36,192,279097,1,0,0:0:0:0:
109,192,279097,1,0,0:0:0:0:
402,192,279097,1,0,0:0:0:0:
329,192,279253,1,0,0:0:0:0:
182,192,279409,1,8,0:0:0:0:
475,192,279409,1,0,0:0:0:0:
329,192,279409,1,0,0:0:0:0:
36,192,279409,1,0,0:0:0:0:
256,192,279565,1,0,0:0:0:0:
256,192,279722,1,4,0:0:0:0:
36,192,279722,1,0,0:0:0:0:
402,192,279722,1,0,0:0:0:0:
109,192,279800,1,0,0:0:0:0:
475,192,279878,1,0,0:0:0:0:
329,192,279956,1,0,0:0:0:0:
182,192,280034,1,8,0:0:0:0:
402,192,280034,1,0,0:0:0:0:
36,192,280112,1,0,0:0:0:0:
475,192,280190,1,0,0:0:0:0:
402,192,280268,1,0,0:0:0:0:
329,192,280347,128,0,280581:0:0:0:0:
36,192,280425,1,0,0:0:0:0:
109,192,280503,1,0,0:0:0:0:
182,192,280581,128,0,280815:0:0:0:0:
475,192,280659,1,8,0:0:0:0:
256,192,280737,1,0,0:0:0:0:
402,192,280815,128,0,280972:0:0:0:0:
36,192,280893,1,0,0:0:0:0:
475,192,280972,128,0,281597:0:0:0:0:
109,192,280972,1,0,0:0:0:0:
329,192,281050,1,0,0:0:0:0:
256,192,281128,1,0,0:0:0:0:
182,192,281206,1,0,0:0:0:0:
36,192,281284,1,8,0:0:0:0:
402,192,281284,1,0,0:0:0:0:
109,192,281362,1,0,0:0:0:0:
182,192,281440,1,0,0:0:0:0:
256,192,281518,1,0,0:0:0:0:
402,192,281597,128,0,281831:0:0:0:0:
36,192,281597,1,0,0:0:0:0:
182,192,281675,1,0,0:0:0:0:
256,192,281753,1,0,0:0:0:0:
329,192,281831,128,0,282065:0:0:0:0:
36,192,281909,1,8,0:0:0:0:
475,192,281909,1,0,0:0:0:0:
256,192,281987,1,0,0:0:0:0:
182,192,282065,128,0,282222:0:0:0:0:
402,192,282143,1,0,0:0:0:0:
36,192,282222,128,0,282847:0:0:0:0:
475,192,282222,1,0,0:0:0:0:
256,192,282300,1,0,0:0:0:0:
329,192,282378,1,0,0:0:0:0:
109,192,282456,1,0,0:0:0:0:
182,192,282534,1,8,0:0:0:0:
329,192,282534,1,0,0:0:0:0:
402,192,282612,1,0,0:0:0:0:
475,192,282690,1,0,0:0:0:0:
329,192,282768,1,0,0:0:0:0:
182,192,282847,128,0,283081:0:0:0:0:
256,192,282847,1,0,0:0:0:0:
475,192,282925,1,0,0:0:0:0:
402,192,283003,1,0,0:0:0:0:
329,192,283081,128,0,283315:0:0:0:0:
256,192,283081,1,0,0:0:0:0:
36,192,283159,1,8,0:0:0:0:
109,192,283237,1,0,0:0:0:0:
475,192,283315,128,0,283472:0:0:0:0:
182,192,283315,1,0,0:0:0:0:
36,192,283393,1,0,0:0:0:0:
402,192,283472,128,0,283940:0:0:0:0:
182,192,283472,1,0,0:0:0:0:
329,192,283550,1,0,0:0:0:0:
36,192,283628,1,0,0:0:0:0:
109,192,283706,1,0,0:0:0:0:
475,192,283784,1,8,0:0:0:0:
256,192,283862,1,0,0:0:0:0:
329,192,283940,128,0,284097:0:0:0:0:
109,192,283940,1,0,0:0:0:0:
36,192,284018,1,0,0:0:0:0:
256,192,284097,128,0,284722:0:0:0:0:
475,192,284097,1,0,0:0:0:0:
402,192,284175,1,0,0:0:0:0:
329,192,284253,1,0,0:0:0:0:
36,192,284331,1,0,0:0:0:0:
109,192,284409,1,8,0:0:0:0:
182,192,284487,1,0,0:0:0:0:
475,192,284565,1,0,0:0:0:0:
402,192,284643,1,0,0:0:0:0:
36,192,284722,128,4,285347:0:0:0:0:
109,192,284722,1,0,0:0:0:0:
329,192,284722,1,0,0:0:0:0:
182,192,284800,1,0,0:0:0:0:
256,192,284878,1,0,0:0:0:0:
402,192,284956,1,0,0:0:0:0:
109,192,285034,1,8,0:0:0:0:
329,192,285034,1,0,0:0:0:0:
256,192,285112,1,0,0:0:0:0:
402,192,285190,1,0,0:0:0:0:
475,192,285268,1,0,0:0:0:0:
329,192,285347,128,0,285581:0:0:0:0:
256,192,285347,1,0,0:0:0:0:
182,192,285425,1,0,0:0:0:0:
36,192,285503,1,0,0:0:0:0:
109,192,285581,128,0,285815:0:0:0:0:
402,192,285581,1,0,0:0:0:0:
182,192,285659,1,8,0:0:0:0:
256,192,285737,1,0,0:0:0:0:
402,192,285815,128,0,285972:0:0:0:0:
329,192,285815,1,0,0:0:0:0:
182,192,285893,1,0,0:0:0:0:
256,192,285972,1,0,0:0:0:0:
475,192,285972,128,0,286597:0:0:0:0:
36,192,286050,1,0,0:0:0:0:
329,192,286128,1,0,0:0:0:0:
256,192,286206,1,0,0:0:0:0:
109,192,286284,1,8,0:0:0:0:
402,192,286284,1,0,0:0:0:0:
182,192,286362,1,0,0:0:0:0:
36,192,286440,1,0,0:0:0:0:
109,192,286518,1,0,0:0:0:0:
329,192,286597,128,0,286831:0:0:0:0:
256,192,286597,1,0,0:0:0:0:
402,192,286675,1,0,0:0:0:0:
36,192,286753,1,0,0:0:0:0:
182,192,286831,128,0,287065:0:0:0:0:
109,192,286831,1,0,0:0:0:0:
475,192,286909,1,8,0:0:0:0:
402,192,286987,1,0,0:0:0:0:
109,192,287065,128,0,287222:0:0:0:0:
329,192,287065,1,0,0:0:0:0:
402,192,287143,1,0,0:0:0:0:
475,192,287222,128,4,288472:0:0:0:0:
36,192,287222,1,0,0:0:0:0:
36,192,287534,128,0,288472:0:0:0:0:
109,192,287690,1,0,0:0:0:0:
182,192,287768,1,0,0:0:0:0:
329,192,287847,128,8,288472:0:0:0:0:
256,192,287847,1,0,0:0:0:0:
182,192,288159,128,8,288472:0:0:0:0:
256,192,288159,1,0,0:0:0:0:
256,192,288315,1,0,0:0:0:0:
36,192,288628,128,0,297222:0:0:0:0:
109,192,288628,128,0,294722:0:0:0:0:
182,192,288628,128,0,292222:0:0:0:0:
329,192,288628,128,0,290972:0:0:0:0:
402,192,288628,128,0,293472:0:0:0:0:
475,192,288628,128,0,295972:0:0:0:0:
