osu file format v14

[General]
AudioFilename: Neru - Ningen Shikkaku.mp3
AudioLeadIn: 1000
PreviewTime: 84252
Countdown: 0
SampleSet: None
StackLeniency: 0.7
Mode: 3
LetterboxInBreaks: 0
SpecialStyle: 0
WidescreenStoryboard: 1

[Editor]
DistanceSpacing: 0.7
BeatDivisor: 4
GridSize: 4
TimelineZoom: 2.1

[Metadata]
Title:Ningen Shikkaku
TitleUnicode:人間失格
Artist:Neru
ArtistUnicode:Neru
Creator:puxtu
Version:Harby's 4K SC
Source:
Tags:pxt arcwinolivirus Blocko -Kamikaze- LordRaika [_M_o_m_o_] Tidek ExUsagi Eternalie Zenx Z3nx lZenxl PyaKura Hydria Harbyter No Longer Human Vocaloid Kagamine Rin Len 鏡音リン・レン
BeatmapID:1191985
BeatmapSetID:239471

[Difficulty]
HPDrainRate:8
CircleSize:4
OverallDifficulty:8
ApproachRate:5
SliderMultiplier:1.4
SliderTickRate:1

[Events]
//Background and Video events
0,0,"SakuraTree.jpg",0,0
//Break Periods
//Storyboard Layer 0 (Background)
//Storyboard Layer 1 (Fail)
//Storyboard Layer 2 (Pass)
//Storyboard Layer 3 (Foreground)
//Storyboard Sound Samples

[TimingPoints]
1322,444.444444444444,3,1,1,50,1,0
1322,-80.3571428571429,3,1,1,50,0,0
11968,451.127819548872,3,1,1,50,1,0
11968,-79.1666666666667,3,1,1,50,0,0
12644,444.444444444444,3,1,1,50,1,0
12644,-80.3571428571429,3,1,1,50,0,0
13310,447.761194029851,3,1,1,50,1,0
13310,-79.7619047619047,3,1,1,50,0,0
17389,500,3,1,1,50,1,0
17389,-71.4285714285714,3,1,1,50,0,0
18129,600,3,1,1,50,1,0
18129,-59.5238095238095,3,1,1,50,0,0
18429,571.428571428571,3,1,1,50,1,0
18429,-62.5000000000001,3,1,1,50,0,0
19000,705.882352941176,3,1,1,50,1,0
19000,-50.5952380952381,3,1,1,50,0,0
19665,705.882352941176,3,1,1,50,1,0
19665,-50.5952380952381,3,1,1,50,0,0
19990,1000,3,1,1,50,1,0
19990,-35.7142857142857,3,1,1,50,0,0
20490,1500,3,1,1,50,1,0
20490,-23.8095238095238,3,1,1,50,0,0
22222,312.5,4,1,1,50,1,0
23628,-74.0740740740741,4,1,1,50,0,0
23706,-200,4,1,1,50,0,0
23784,-74.0740740740741,4,1,1,50,0,0
23862,-200,4,1,1,50,0,0
23940,-74.0740740740741,4,1,1,50,0,0
24018,-200,4,1,1,50,0,0
24097,-100,4,1,1,50,0,0
44878,-76.9230769230769,4,1,1,50,0,0
44956,-142.857142857143,4,1,1,50,0,0
45034,-76.9230769230769,4,1,1,50,0,0
45112,-142.857142857143,4,1,1,50,0,0
45190,-76.9230769230769,4,1,1,50,0,0
45268,-142.857142857143,4,1,1,50,0,0
45347,-76.9230769230769,4,1,1,50,0,0
45425,-142.857142857143,4,1,1,50,0,0
45503,-76.9230769230769,4,1,1,50,0,0
45581,-142.857142857143,4,1,1,50,0,0
45659,-76.9230769230769,4,1,1,50,0,0
45737,-142.857142857143,4,1,1,50,0,0
45815,-76.9230769230769,4,1,1,50,0,0
45893,-142.857142857143,4,1,1,50,0,0
45972,-76.9230769230769,4,1,1,50,0,0
46050,-142.857142857143,4,1,1,50,0,0
46128,-76.9230769230769,4,1,1,50,0,0
46206,-142.857142857143,4,1,1,50,0,0
46284,-76.9230769230769,4,1,1,50,0,0
46362,-142.857142857143,4,1,1,50,0,0
46440,-76.9230769230769,4,1,1,50,0,0
46518,-142.857142857143,4,1,1,50,0,0
46597,-66.6666666666667,4,1,1,50,0,0
46831,-133.333333333333,4,1,1,50,0,0
46909,-66.6666666666667,4,1,1,50,0,0
47143,-133.333333333333,4,1,1,50,0,0
47222,-100,4,1,1,50,0,0
47378,-76.9230769230769,4,1,1,50,0,0
47456,-142.857142857143,4,1,1,50,0,0
47534,-76.9230769230769,4,1,1,50,0,0
47612,-142.857142857143,4,1,1,50,0,0
47690,-76.9230769230769,4,1,1,50,0,0
47768,-142.857142857143,4,1,1,50,0,0
47847,-76.9230769230769,4,1,1,50,0,0
47925,-142.857142857143,4,1,1,50,0,0
48003,-76.9230769230769,4,1,1,50,0,0
48081,-142.857142857143,4,1,1,50,0,0
48159,-76.9230769230769,4,1,1,50,0,0
48237,-142.857142857143,4,1,1,50,0,0
48315,-76.9230769230769,4,1,1,50,0,0
48393,-142.857142857143,4,1,1,50,0,0
48472,-76.9230769230769,4,1,1,50,0,0
48550,-142.857142857143,4,1,1,50,0,0
48628,-76.9230769230769,4,1,1,50,0,0
48706,-142.857142857143,4,1,1,50,0,0
48784,-76.9230769230769,4,1,1,50,0,0
48862,-142.857142857143,4,1,1,50,0,0
48940,-76.9230769230769,4,1,1,50,0,0
49018,-142.857142857143,4,1,1,50,0,0
49097,-66.6666666666667,4,1,1,50,0,0
49331,-133.333333333333,4,1,1,50,0,0
49409,-66.6666666666667,4,1,1,50,0,0
49643,-133.333333333333,4,1,1,50,0,0
49722,-100,4,1,1,50,0,0
50034,-76.9230769230769,4,1,1,50,0,0
50112,-142.857142857143,4,1,1,50,0,0
50190,-76.9230769230769,4,1,1,50,0,0
50268,-142.857142857143,4,1,1,50,0,0
50347,-100,4,1,1,50,0,0
50503,-76.9230769230769,4,1,1,50,0,0
50581,-142.857142857143,4,1,1,50,0,0
50659,-76.9230769230769,4,1,1,50,0,0
50737,-142.857142857143,4,1,1,50,0,0
50815,-100,4,1,1,50,0,0
50972,-76.9230769230769,4,1,1,50,0,0
51050,-142.857142857143,4,1,1,50,0,0
51128,-76.9230769230769,4,1,1,50,0,0
51206,-142.857142857143,4,1,1,50,0,0
51284,-76.9230769230769,4,1,1,50,0,0
51362,-142.857142857143,4,1,1,50,0,0
51440,-76.9230769230769,4,1,1,50,0,0
51518,-142.857142857143,4,1,1,50,0,0
51597,-76.9230769230769,4,1,1,50,0,0
51675,-142.857142857143,4,1,1,50,0,0
51753,-76.9230769230769,4,1,1,50,0,0
51831,-142.857142857143,4,1,1,50,0,0
51909,-66.6666666666667,4,1,1,50,0,0
52143,-133.333333333333,4,1,1,50,0,0
52222,-66.6666666666667,4,1,1,50,0,0
52378,-100,4,1,1,50,0,0
52534,-66.6666666666667,4,1,1,50,0,0
52690,-100,4,1,1,50,0,0
52847,-66.6666666666667,4,1,1,50,0,0
53003,-100,4,1,1,50,0,0
53159,-66.6666666666667,4,1,1,50,0,0
53315,-100,4,1,1,50,0,0
53472,-33.3333333333333,4,1,1,50,0,0
53511,-133.333333333333,4,1,1,50,0,0
53784,-33.3333333333333,4,1,1,50,0,0
53823,-133.333333333333,4,1,1,50,0,0
54097,-33.3333333333333,4,1,1,50,0,0
54136,-133.333333333333,4,1,1,50,0,0
54409,-100,4,1,1,50,0,0
54878,-76.9230769230769,4,1,1,50,0,0
54956,-142.857142857143,4,1,1,50,0,0
55034,-76.9230769230769,4,1,1,50,0,0
55112,-142.857142857143,4,1,1,50,0,0
55190,-76.9230769230769,4,1,1,50,0,0
55268,-142.857142857143,4,1,1,50,0,0
55347,-76.9230769230769,4,1,1,50,0,0
55425,-142.857142857143,4,1,1,50,0,0
55503,-76.9230769230769,4,1,1,50,0,0
55581,-142.857142857143,4,1,1,50,0,0
55659,-76.9230769230769,4,1,1,50,0,0
55737,-142.857142857143,4,1,1,50,0,0
55815,-76.9230769230769,4,1,1,50,0,0
55893,-142.857142857143,4,1,1,50,0,0
55972,-100,4,1,1,50,0,0
56597,-66.6666666666667,4,1,1,50,0,0
56831,-133.333333333333,4,1,1,50,0,0
56909,-66.6666666666667,4,1,1,50,0,0
57143,-133.333333333333,4,1,1,50,0,0
57222,-100,4,1,1,50,0,0
57378,-76.9230769230769,4,1,1,50,0,0
57456,-142.857142857143,4,1,1,50,0,0
57534,-76.9230769230769,4,1,1,50,0,0
57612,-142.857142857143,4,1,1,50,0,0
57690,-76.9230769230769,4,1,1,50,0,0
57768,-142.857142857143,4,1,1,50,0,0
57847,-76.9230769230769,4,1,1,50,0,0
57925,-142.857142857143,4,1,1,50,0,0
58003,-76.9230769230769,4,1,1,50,0,0
58081,-142.857142857143,4,1,1,50,0,0
58159,-76.9230769230769,4,1,1,50,0,0
58237,-142.857142857143,4,1,1,50,0,0
58315,-76.9230769230769,4,1,1,50,0,0
58393,-142.857142857143,4,1,1,50,0,0
58472,-100,4,1,1,50,0,0
59097,-66.6666666666667,4,1,1,50,0,0
59331,-133.333333333333,4,1,1,50,0,0
59409,-66.6666666666667,4,1,1,50,0,0
59643,-133.333333333333,4,1,1,50,0,0
59722,-100,4,1,1,50,0,0
61597,-66.6666666666667,4,1,1,50,0,0
61831,-133.333333333333,4,1,1,50,0,0
61909,-66.6666666666667,4,1,1,50,0,0
62143,-133.333333333333,4,1,1,50,0,0
62222,-66.6666666666667,4,1,1,50,0,0
62378,-100,4,1,1,50,0,0
62534,-66.6666666666667,4,1,1,50,0,0
62690,-100,4,1,1,50,0,0
62847,-66.6666666666667,4,1,1,50,0,0
63003,-100,4,1,1,50,0,0
63159,-66.6666666666667,4,1,1,50,0,0
63315,-100,4,1,1,50,0,0
63472,-33.3333333333333,4,1,1,50,0,0
63511,-133.333333333333,4,1,1,50,0,0
63784,-33.3333333333333,4,1,1,50,0,0
63823,-133.333333333333,4,1,1,50,0,0
64097,-33.3333333333333,4,1,1,50,0,0
64136,-133.333333333333,4,1,1,50,0,0
64409,-100,4,1,1,50,0,0
84722,-33.3333333333333,4,1,1,50,0,1
84761,-133.333333333333,4,1,1,50,0,1
85034,-100,4,1,1,50,0,1
102222,-66.6666666666667,4,1,1,50,0,0
102378,-100,4,1,1,50,0,0
102534,-66.6666666666667,4,1,1,50,0,0
102690,-100,4,1,1,50,0,0
102847,-66.6666666666667,4,1,1,50,0,0
103003,-100,4,1,1,50,0,0
103628,-74.0740740740741,4,1,1,50,0,0
103706,-200,4,1,1,50,0,0
103784,-74.0740740740741,4,1,1,50,0,0
103862,-200,4,1,1,50,0,0
103940,-74.0740740740741,4,1,1,50,0,0
104018,-200,4,1,1,50,0,0
104097,-100,4,1,1,50,0,0
124565,-33.3333333333333,4,1,1,50,0,0
124604,-133.333333333333,4,1,1,50,0,0
124878,-100,4,1,1,50,0,0
126597,-66.6666666666667,4,1,1,50,0,0
126831,-133.333333333333,4,1,1,50,0,0
126909,-66.6666666666667,4,1,1,50,0,0
127143,-133.333333333333,4,1,1,50,0,0
127222,-100,4,1,1,50,0,0
127378,-76.9230769230769,4,1,1,50,0,0
127456,-142.857142857143,4,1,1,50,0,0
127534,-76.9230769230769,4,1,1,50,0,0
127612,-142.857142857143,4,1,1,50,0,0
127690,-76.9230769230769,4,1,1,50,0,0
127768,-142.857142857143,4,1,1,50,0,0
127847,-100,4,1,1,50,0,0
128159,-76.9230769230769,4,1,1,50,0,0
128237,-142.857142857143,4,1,1,50,0,0
128315,-76.9230769230769,4,1,1,50,0,0
128393,-142.857142857143,4,1,1,50,0,0
128472,-100,4,1,1,50,0,0
128784,-76.9230769230769,4,1,1,50,0,0
128862,-142.857142857143,4,1,1,50,0,0
128940,-76.9230769230769,4,1,1,50,0,0
129018,-142.857142857143,4,1,1,50,0,0
129097,-66.6666666666667,4,1,1,50,0,0
129331,-133.333333333333,4,1,1,50,0,0
129409,-66.6666666666667,4,1,1,50,0,0
129643,-133.333333333333,4,1,1,50,0,0
129722,-100,4,1,1,50,0,0
129878,-76.9230769230769,4,1,1,50,0,0
129956,-142.857142857143,4,1,1,50,0,0
130034,-76.9230769230769,4,1,1,50,0,0
130112,-142.857142857143,4,1,1,50,0,0
130190,-76.9230769230769,4,1,1,50,0,0
130268,-142.857142857143,4,1,1,50,0,0
130347,-100,4,1,1,50,0,0
131909,-66.6666666666667,4,1,1,50,0,0
132143,-133.333333333333,4,1,1,50,0,0
132222,-66.6666666666667,4,1,1,50,0,0
132378,-100,4,1,1,50,0,0
132534,-66.6666666666667,4,1,1,50,0,0
132690,-100,4,1,1,50,0,0
132847,-66.6666666666667,4,1,1,50,0,0
133003,-100,4,1,1,50,0,0
133159,-66.6666666666667,4,1,1,50,0,0
133315,-100,4,1,1,50,0,0
133472,-33.3333333333333,4,1,1,50,0,0
133511,-133.333333333333,4,1,1,50,0,0
133784,-33.3333333333333,4,1,1,50,0,0
133823,-133.333333333333,4,1,1,50,0,0
134097,-33.3333333333333,4,1,1,50,0,0
134136,-133.333333333333,4,1,1,50,0,0
134409,-100,4,1,1,50,0,0
154722,-100,4,1,1,50,0,1
164409,-33.3333333333333,4,1,1,50,0,1
164448,-133.333333333333,4,1,1,50,0,1
164722,-100,4,1,1,50,0,1
172222,-66.6666666666667,4,1,1,50,0,1
172378,-100,4,1,1,50,0,1
172534,-66.6666666666667,4,1,1,50,0,1
172690,-100,4,1,1,50,0,1
172847,-66.6666666666667,4,1,1,50,0,1
173003,-100,4,1,1,50,0,1
173627,-74.0740740740741,4,1,1,50,0,1
173706,-200,4,1,1,50,0,1
173784,-74.0740740740741,4,1,1,50,0,1
173862,-200,4,1,1,50,0,1
173940,-74.0740740740741,4,1,1,50,0,1
174018,-200,4,1,1,50,0,1
174097,-100,4,1,1,50,0,1
174722,-100,4,1,1,50,0,0
223628,-74.0740740740741,4,1,1,50,0,0
223706,-200,4,1,1,50,0,0
223784,-74.0740740740741,4,1,1,50,0,0
223862,-200,4,1,1,50,0,0
223940,-74.0740740740741,4,1,1,50,0,0
224018,-200,4,1,1,50,0,0
224097,-100,4,1,1,50,0,0
239722,-133.333333333333,4,1,1,50,0,0
240034,-125,4,1,1,50,0,0
240347,-117.647058823529,4,1,1,50,0,0
240659,-111.111111111111,4,1,1,50,0,0
240972,-105.263157894737,4,1,1,50,0,0
241284,-100,4,1,1,50,0,0
244826,-16.6666666666667,4,1,1,50,0,0
245034,-133.333333333333,4,1,1,50,0,0
245347,-100,4,1,1,50,0,0
245972,-100,4,1,1,50,0,1
254097,-66.6666666666667,4,1,1,50,0,1
254175,-133.333333333333,4,1,1,50,0,1
254253,-66.6666666666667,4,1,1,50,0,1
254331,-133.333333333333,4,1,1,50,0,1
254409,-66.6666666666667,4,1,1,50,0,1
254487,-133.333333333333,4,1,1,50,0,1
254565,-66.6666666666667,4,1,1,50,0,1
254643,-133.333333333333,4,1,1,50,0,1
254722,-33.3333333333333,4,1,1,50,0,1
254761,-133.333333333333,4,1,1,50,0,1
255034,-100,4,1,1,50,0,1
262222,-66.6666666666667,4,1,1,50,0,1
262378,-100,4,1,1,50,0,1
262534,-66.6666666666667,4,1,1,50,0,1
262690,-100,4,1,1,50,0,1
262847,-66.6666666666667,4,1,1,50,0,1
263003,-100,4,1,1,50,0,1
263628,-74.0740740740741,4,1,1,50,0,1
263706,-200,4,1,1,50,0,1
263784,-74.0740740740741,4,1,1,50,0,1
263862,-200,4,1,1,50,0,1
263940,-74.0740740740741,4,1,1,50,0,1
264018,-200,4,1,1,50,0,1
264097,-100,4,1,1,50,0,0
264722,-100,4,1,1,50,0,1
266128,-74.0740740740741,4,1,1,50,0,1
266206,-200,4,1,1,50,0,1
266284,-74.0740740740741,4,1,1,50,0,1
266362,-200,4,1,1,50,0,1
266440,-74.0740740740741,4,1,1,50,0,1
266518,-200,4,1,1,50,0,1
266597,-100,4,1,1,50,0,0
267222,-100,4,1,1,50,0,1
269643,-100,4,1,1,50,0,0
269722,-100,4,1,1,50,0,1
287222,-66.6666666666667,4,1,1,50,0,1
287378,-100,4,1,1,50,0,1
287534,-66.6666666666667,4,1,1,50,0,1
287690,-100,4,1,1,50,0,1
287847,-66.6666666666667,4,1,1,50,0,1
288003,-100,4,1,1,50,0,1
288159,-1000,4,1,1,50,0,1
288472,-10,4,1,1,50,0,1
288511,-1000,4,1,1,50,0,1
288628,-142.857142857143,4,1,1,50,0,0

[HitObjects]
64,192,1322,5,0,0:0:0:0:
448,192,1322,1,0,0:0:0:0:
192,192,1988,1,0,0:0:0:0:
64,192,2210,1,0,0:0:0:0:
320,192,2433,1,0,0:0:0:0:
448,192,2655,1,0,0:0:0:0:
320,192,3321,1,0,0:0:0:0:
192,192,3544,1,0,0:0:0:0:
448,192,3766,1,0,0:0:0:0:
64,192,3988,1,0,0:0:0:0:
192,192,4655,1,0,0:0:0:0:
320,192,4877,1,0,0:0:0:0:
448,192,5099,1,0,0:0:0:0:
64,192,5321,1,0,0:0:0:0:
192,192,5766,1,0,0:0:0:0:
192,192,5988,1,0,0:0:0:0:
64,192,6655,1,0,0:0:0:0:
192,192,7321,1,0,0:0:0:0:
320,192,7544,1,0,0:0:0:0:
64,192,7766,1,0,0:0:0:0:
448,192,7988,1,0,0:0:0:0:
320,192,8655,1,0,0:0:0:0:
192,192,8877,1,0,0:0:0:0:
448,192,9099,1,0,0:0:0:0:
64,192,9321,1,0,0:0:0:0:
192,192,9988,1,0,0:0:0:0:
64,192,10210,1,0,0:0:0:0:
320,192,10433,1,0,0:0:0:0:
448,192,10655,1,0,0:0:0:0:
192,192,11968,1,0,0:0:0:0:
192,192,12644,1,0,0:0:0:0:
64,192,12866,1,0,0:0:0:0:
320,192,13088,1,0,0:0:0:0:
448,192,13310,1,0,0:0:0:0:
320,192,13981,1,0,0:0:0:0:
192,192,14205,1,0,0:0:0:0:
448,192,14429,1,0,0:0:0:0:
64,192,14653,1,0,0:0:0:0:
192,192,15324,1,0,0:0:0:0:
64,192,15548,1,0,0:0:0:0:
320,192,15772,1,0,0:0:0:0:
448,192,15996,1,0,0:0:0:0:
320,192,16444,1,0,0:0:0:0:
320,192,16668,1,0,0:0:0:0:
192,192,17389,1,0,0:0:0:0:
320,192,18129,1,0,0:0:0:0:
192,192,18429,1,0,0:0:0:0:
448,192,18714,1,0,0:0:0:0:
64,192,19000,1,0,0:0:0:0:
320,192,19990,1,0,0:0:0:0:
192,192,20490,1,0,0:0:0:0:
64,192,21240,1,0,0:0:0:0:
64,192,22222,128,0,22534:0:0:0:0:
448,192,22222,128,0,22534:0:0:0:0:
320,192,22222,1,0,0:0:0:0:
192,192,22222,1,0,0:0:0:0:
192,192,22534,128,0,22847:0:0:0:0:
320,192,22534,128,0,22847:0:0:0:0:
64,192,22847,128,0,23159:0:0:0:0:
448,192,22847,128,0,23159:0:0:0:0:
192,192,23159,1,0,0:0:0:0:
320,192,23159,1,0,0:0:0:0:
64,192,23628,1,0,0:0:0:0:
448,192,23628,1,0,0:0:0:0:
192,192,23628,1,0,0:0:0:0:
192,192,23784,1,0,0:0:0:0:
320,192,23784,1,0,0:0:0:0:
448,192,23784,1,0,0:0:0:0:
64,192,23940,1,0,0:0:0:0:
448,192,23940,1,0,0:0:0:0:
192,192,23940,1,0,0:0:0:0:
448,192,24097,1,0,0:0:0:0:
64,192,24097,1,0,0:0:0:0:
320,192,24097,1,0,0:0:0:0:
192,192,24409,1,0,0:0:0:0:
320,192,24409,1,0,0:0:0:0:
64,192,24722,1,0,0:0:0:0:
448,192,24722,1,0,0:0:0:0:
192,192,24722,128,0,25190:0:0:0:0:
320,192,25190,128,0,25659:0:0:0:0:
64,192,25659,128,0,25972:0:0:0:0:
192,192,25972,128,0,26440:0:0:0:0:
448,192,26440,128,0,26909:0:0:0:0:
320,192,26909,128,0,27222:0:0:0:0:
64,192,27222,128,0,27690:0:0:0:0:
320,192,27690,128,0,28159:0:0:0:0:
64,192,28159,128,0,28472:0:0:0:0:
192,192,28472,1,0,0:0:0:0:
448,192,28472,128,0,28784:0:0:0:0:
320,192,28784,1,0,0:0:0:0:
64,192,28784,128,0,29097:0:0:0:0:
192,192,29097,1,0,0:0:0:0:
448,192,29097,128,0,29409:0:0:0:0:
320,192,29409,1,0,0:0:0:0:
64,192,29409,128,0,29722:0:0:0:0:
192,192,29722,1,0,0:0:0:0:
320,192,29722,128,0,30190:0:0:0:0:
448,192,29722,1,0,0:0:0:0:
64,192,29878,1,0,0:0:0:0:
448,192,30034,1,0,0:0:0:0:
192,192,30190,128,0,30659:0:0:0:0:
64,192,30190,1,0,0:0:0:0:
448,192,30347,1,0,0:0:0:0:
320,192,30503,1,0,0:0:0:0:
448,192,30659,128,0,30972:0:0:0:0:
64,192,30659,1,0,0:0:0:0:
320,192,30815,1,0,0:0:0:0:
192,192,30972,128,0,31440:0:0:0:0:
64,192,30972,1,0,0:0:0:0:
320,192,31128,1,0,0:0:0:0:
64,192,31284,1,0,0:0:0:0:
448,192,31440,128,0,31909:0:0:0:0:
320,192,31440,1,0,0:0:0:0:
64,192,31597,1,0,0:0:0:0:
192,192,31753,1,0,0:0:0:0:
64,192,31909,128,0,32222:0:0:0:0:
320,192,31909,1,0,0:0:0:0:
192,192,32065,1,0,0:0:0:0:
320,192,32222,128,0,32847:0:0:0:0:
448,192,32222,1,0,0:0:0:0:
192,192,32378,1,0,0:0:0:0:
64,192,32534,1,0,0:0:0:0:
448,192,32690,1,0,0:0:0:0:
192,192,32847,128,0,33159:0:0:0:0:
64,192,32847,1,0,0:0:0:0:
320,192,33003,1,0,0:0:0:0:
64,192,33159,128,0,33472:0:0:0:0:
448,192,33159,1,0,0:0:0:0:
320,192,33315,1,0,0:0:0:0:
448,192,33472,128,0,34253:0:0:0:0:
192,192,33472,1,0,0:0:0:0:
64,192,33628,1,0,0:0:0:0:
192,192,33784,1,0,0:0:0:0:
320,192,33940,1,0,0:0:0:0:
192,192,34097,1,0,0:0:0:0:
320,192,34253,1,0,0:0:0:0:
64,192,34253,128,0,34409:0:0:0:0:
192,192,34409,128,0,34565:0:0:0:0:
448,192,34409,1,0,0:0:0:0:
320,192,34565,1,0,0:0:0:0:
448,192,34565,1,0,0:0:0:0:
64,192,34643,1,0,0:0:0:0:
192,192,34643,1,0,0:0:0:0:
320,192,34722,1,0,0:0:0:0:
448,192,34722,128,0,35190:0:0:0:0:
64,192,34800,1,0,0:0:0:0:
192,192,34878,1,0,0:0:0:0:
320,192,34956,1,0,0:0:0:0:
64,192,35034,1,0,0:0:0:0:
320,192,35112,1,0,0:0:0:0:
192,192,35190,128,0,35659:0:0:0:0:
64,192,35190,1,0,0:0:0:0:
320,192,35268,1,0,0:0:0:0:
448,192,35347,1,0,0:0:0:0:
320,192,35425,1,0,0:0:0:0:
448,192,35503,1,0,0:0:0:0:
64,192,35581,1,0,0:0:0:0:
320,192,35659,128,0,35972:0:0:0:0:
448,192,35659,1,0,0:0:0:0:
64,192,35737,1,0,0:0:0:0:
192,192,35815,1,0,0:0:0:0:
448,192,35893,1,0,0:0:0:0:
64,192,35972,128,0,36440:0:0:0:0:
192,192,35972,1,0,0:0:0:0:
320,192,36050,1,0,0:0:0:0:
448,192,36128,1,0,0:0:0:0:
192,192,36206,1,0,0:0:0:0:
320,192,36284,1,0,0:0:0:0:
448,192,36362,1,0,0:0:0:0:
192,192,36440,1,0,0:0:0:0:
320,192,36440,128,0,36909:0:0:0:0:
448,192,36518,1,0,0:0:0:0:
64,192,36597,1,0,0:0:0:0:
192,192,36675,1,0,0:0:0:0:
448,192,36753,1,0,0:0:0:0:
64,192,36831,1,0,0:0:0:0:
192,192,36909,128,0,37222:0:0:0:0:
448,192,36909,1,0,0:0:0:0:
320,192,36987,1,0,0:0:0:0:
64,192,37065,1,0,0:0:0:0:
320,192,37143,1,0,0:0:0:0:
448,192,37222,1,0,0:0:0:0:
64,192,37222,128,0,37690:0:0:0:0:
320,192,37300,1,0,0:0:0:0:
192,192,37378,1,0,0:0:0:0:
320,192,37456,1,0,0:0:0:0:
448,192,37534,1,0,0:0:0:0:
320,192,37612,1,0,0:0:0:0:
448,192,37690,128,0,38159:0:0:0:0:
192,192,37690,1,0,0:0:0:0:
320,192,37768,1,0,0:0:0:0:
192,192,37847,1,0,0:0:0:0:
64,192,37925,1,0,0:0:0:0:
192,192,38003,1,0,0:0:0:0:
320,192,38081,1,0,0:0:0:0:
192,192,38159,128,0,38472:0:0:0:0:
64,192,38159,1,0,0:0:0:0:
320,192,38237,1,0,0:0:0:0:
448,192,38315,1,0,0:0:0:0:
320,192,38393,1,0,0:0:0:0:
64,192,38472,128,0,38784:0:0:0:0:
448,192,38472,1,0,0:0:0:0:
192,192,38550,1,0,0:0:0:0:
320,192,38628,1,0,0:0:0:0:
192,192,38706,1,0,0:0:0:0:
320,192,38784,1,0,0:0:0:0:
448,192,38784,128,0,39097:0:0:0:0:
192,192,38862,1,0,0:0:0:0:
320,192,38940,1,0,0:0:0:0:
192,192,39018,1,0,0:0:0:0:
320,192,39097,1,0,0:0:0:0:
64,192,39097,128,0,39409:0:0:0:0:
192,192,39175,1,0,0:0:0:0:
320,192,39253,1,0,0:0:0:0:
192,192,39331,1,0,0:0:0:0:
320,192,39409,128,0,39722:0:0:0:0:
448,192,39409,1,0,0:0:0:0:
192,192,39487,1,0,0:0:0:0:
64,192,39565,1,0,0:0:0:0:
192,192,39643,1,0,0:0:0:0:
64,192,39722,1,0,0:0:0:0:
448,192,39722,128,0,40190:0:0:0:0:
192,192,39800,1,0,0:0:0:0:
64,192,39878,1,0,0:0:0:0:
320,192,39956,1,0,0:0:0:0:
192,192,40034,1,0,0:0:0:0:
64,192,40034,1,0,0:0:0:0:
320,192,40112,1,0,0:0:0:0:
192,192,40190,128,0,40659:0:0:0:0:
64,192,40190,1,0,0:0:0:0:
448,192,40268,1,0,0:0:0:0:
64,192,40347,1,0,0:0:0:0:
320,192,40347,1,0,0:0:0:0:
448,192,40425,1,0,0:0:0:0:
64,192,40503,1,0,0:0:0:0:
448,192,40581,1,0,0:0:0:0:
320,192,40659,128,0,40972:0:0:0:0:
64,192,40659,1,0,0:0:0:0:
192,192,40737,1,0,0:0:0:0:
448,192,40815,1,0,0:0:0:0:
192,192,40893,1,0,0:0:0:0:
448,192,40972,1,0,0:0:0:0:
64,192,40972,128,0,41440:0:0:0:0:
320,192,41050,1,0,0:0:0:0:
448,192,41128,1,0,0:0:0:0:
192,192,41206,1,0,0:0:0:0:
448,192,41284,1,0,0:0:0:0:
320,192,41284,1,0,0:0:0:0:
192,192,41362,1,0,0:0:0:0:
320,192,41440,128,0,41909:0:0:0:0:
448,192,41440,1,0,0:0:0:0:
64,192,41518,1,0,0:0:0:0:
192,192,41597,1,0,0:0:0:0:
448,192,41597,1,0,0:0:0:0:
64,192,41675,1,0,0:0:0:0:
448,192,41753,1,0,0:0:0:0:
64,192,41831,1,0,0:0:0:0:
448,192,41909,1,0,0:0:0:0:
192,192,41909,128,0,42222:0:0:0:0:
320,192,41987,1,0,0:0:0:0:
448,192,42065,1,0,0:0:0:0:
64,192,42143,1,0,0:0:0:0:
448,192,42222,128,0,42847:0:0:0:0:
320,192,42222,1,0,0:0:0:0:
192,192,42300,1,0,0:0:0:0:
64,192,42378,1,0,0:0:0:0:
192,192,42456,1,0,0:0:0:0:
64,192,42534,1,0,0:0:0:0:
320,192,42534,1,0,0:0:0:0:
192,192,42612,1,0,0:0:0:0:
320,192,42690,1,0,0:0:0:0:
192,192,42768,1,0,0:0:0:0:
320,192,42847,1,0,0:0:0:0:
64,192,42847,128,0,43159:0:0:0:0:
192,192,42925,1,0,0:0:0:0:
320,192,43003,1,0,0:0:0:0:
448,192,43081,1,0,0:0:0:0:
192,192,43159,1,0,0:0:0:0:
320,192,43159,128,0,43472:0:0:0:0:
448,192,43237,1,0,0:0:0:0:
192,192,43315,1,0,0:0:0:0:
64,192,43393,1,0,0:0:0:0:
448,192,43472,128,0,44722:0:0:0:0:
192,192,43472,1,0,0:0:0:0:
64,192,43550,1,0,0:0:0:0:
192,192,43628,1,0,0:0:0:0:
320,192,43706,1,0,0:0:0:0:
192,192,43784,1,0,0:0:0:0:
64,192,43784,1,0,0:0:0:0:
320,192,43862,1,0,0:0:0:0:
192,192,43940,1,0,0:0:0:0:
64,192,44018,1,0,0:0:0:0:
320,192,44097,1,0,0:0:0:0:
192,192,44097,1,0,0:0:0:0:
192,192,44253,1,0,0:0:0:0:
64,192,44253,1,0,0:0:0:0:
192,192,44409,1,0,0:0:0:0:
320,192,44409,1,0,0:0:0:0:
64,192,44565,1,0,0:0:0:0:
320,192,44565,1,0,0:0:0:0:
192,192,44643,1,0,0:0:0:0:
64,192,44722,1,0,0:0:0:0:
320,192,44722,1,0,0:0:0:0:
320,192,44878,1,0,0:0:0:0:
448,192,44878,1,0,0:0:0:0:
192,192,45034,1,0,0:0:0:0:
64,192,45034,1,0,0:0:0:0:
64,192,45190,1,0,0:0:0:0:
192,192,45190,1,0,0:0:0:0:
192,192,45347,1,0,0:0:0:0:
320,192,45347,1,0,0:0:0:0:
192,192,45503,1,0,0:0:0:0:
320,192,45503,1,0,0:0:0:0:
320,192,45659,1,0,0:0:0:0:
448,192,45659,1,0,0:0:0:0:
320,192,45815,1,0,0:0:0:0:
448,192,45815,1,0,0:0:0:0:
320,192,45972,1,0,0:0:0:0:
448,192,45972,1,0,0:0:0:0:
320,192,46128,1,0,0:0:0:0:
192,192,46128,1,0,0:0:0:0:
192,192,46284,1,0,0:0:0:0:
64,192,46284,1,0,0:0:0:0:
320,192,46440,1,0,0:0:0:0:
192,192,46440,1,0,0:0:0:0:
320,192,46597,128,0,46909:0:0:0:0:
448,192,46597,128,0,46909:0:0:0:0:
64,192,46909,128,0,47222:0:0:0:0:
192,192,46909,128,0,47222:0:0:0:0:
320,192,47222,1,0,0:0:0:0:
448,192,47222,1,0,0:0:0:0:
192,192,47378,1,0,0:0:0:0:
64,192,47378,1,0,0:0:0:0:
320,192,47534,1,0,0:0:0:0:
448,192,47534,1,0,0:0:0:0:
320,192,47690,1,0,0:0:0:0:
448,192,47690,1,0,0:0:0:0:
320,192,47847,1,0,0:0:0:0:
192,192,47847,1,0,0:0:0:0:
192,192,48003,1,0,0:0:0:0:
320,192,48003,1,0,0:0:0:0:
192,192,48159,1,0,0:0:0:0:
64,192,48159,1,0,0:0:0:0:
64,192,48315,1,0,0:0:0:0:
192,192,48315,1,0,0:0:0:0:
64,192,48472,1,0,0:0:0:0:
192,192,48472,1,0,0:0:0:0:
192,192,48628,1,0,0:0:0:0:
320,192,48628,1,0,0:0:0:0:
448,192,48784,1,0,0:0:0:0:
320,192,48784,1,0,0:0:0:0:
320,192,48940,1,0,0:0:0:0:
192,192,48940,1,0,0:0:0:0:
64,192,49097,128,0,49409:0:0:0:0:
192,192,49097,128,0,49409:0:0:0:0:
320,192,49409,128,0,49722:0:0:0:0:
448,192,49409,128,0,49722:0:0:0:0:
192,192,49722,1,0,0:0:0:0:
64,192,49722,1,0,0:0:0:0:
448,192,49878,1,0,0:0:0:0:
64,192,49878,1,0,0:0:0:0:
192,192,49956,1,0,0:0:0:0:
64,192,50034,1,0,0:0:0:0:
448,192,50034,1,0,0:0:0:0:
192,192,50190,1,0,0:0:0:0:
320,192,50190,1,0,0:0:0:0:
448,192,50347,1,0,0:0:0:0:
64,192,50347,1,0,0:0:0:0:
320,192,50425,1,0,0:0:0:0:
64,192,50503,1,0,0:0:0:0:
448,192,50503,1,0,0:0:0:0:
192,192,50659,1,0,0:0:0:0:
320,192,50659,1,0,0:0:0:0:
64,192,50815,1,0,0:0:0:0:
448,192,50815,1,0,0:0:0:0:
192,192,50893,1,0,0:0:0:0:
320,192,50893,1,0,0:0:0:0:
448,192,50972,1,0,0:0:0:0:
64,192,50972,1,0,0:0:0:0:
192,192,51128,1,0,0:0:0:0:
320,192,51128,1,0,0:0:0:0:
64,192,51284,1,0,0:0:0:0:
320,192,51284,1,0,0:0:0:0:
448,192,51284,1,0,0:0:0:0:
320,192,51440,1,0,0:0:0:0:
448,192,51440,1,0,0:0:0:0:
192,192,51597,1,0,0:0:0:0:
64,192,51597,1,0,0:0:0:0:
448,192,51597,1,0,0:0:0:0:
192,192,51753,1,0,0:0:0:0:
64,192,51753,1,0,0:0:0:0:
64,192,51909,1,0,0:0:0:0:
320,192,51909,128,0,52222:0:0:0:0:
448,192,51909,128,0,52222:0:0:0:0:
64,192,52222,1,0,0:0:0:0:
192,192,52222,1,0,0:0:0:0:
64,192,52534,1,0,0:0:0:0:
320,192,52534,1,0,0:0:0:0:
448,192,52534,1,0,0:0:0:0:
192,192,52847,1,0,0:0:0:0:
320,192,52847,1,0,0:0:0:0:
64,192,52847,1,0,0:0:0:0:
448,192,53159,1,0,0:0:0:0:
320,192,53159,1,0,0:0:0:0:
192,192,53159,1,0,0:0:0:0:
320,192,53472,1,0,0:0:0:0:
192,192,53472,1,0,0:0:0:0:
64,192,53472,1,0,0:0:0:0:
320,192,53784,1,0,0:0:0:0:
64,192,53784,1,0,0:0:0:0:
448,192,53784,1,0,0:0:0:0:
192,192,54097,1,0,0:0:0:0:
64,192,54097,1,0,0:0:0:0:
448,192,54097,1,0,0:0:0:0:
64,192,54409,1,0,0:0:0:0:
448,192,54409,1,0,0:0:0:0:
320,192,54409,1,0,0:0:0:0:
192,192,54526,1,0,0:0:0:0:
320,192,54565,1,0,0:0:0:0:
448,192,54604,1,0,0:0:0:0:
64,192,54643,1,0,0:0:0:0:
192,192,54682,1,0,0:0:0:0:
320,192,54722,1,0,0:0:0:0:
448,192,54722,1,0,0:0:0:0:
64,192,54878,1,0,0:0:0:0:
192,192,54878,1,0,0:0:0:0:
320,192,55034,1,0,0:0:0:0:
448,192,55034,1,0,0:0:0:0:
448,192,55190,1,0,0:0:0:0:
320,192,55190,1,0,0:0:0:0:
192,192,55347,1,0,0:0:0:0:
320,192,55347,1,0,0:0:0:0:
192,192,55503,1,0,0:0:0:0:
320,192,55503,1,0,0:0:0:0:
64,192,55659,1,0,0:0:0:0:
192,192,55659,1,0,0:0:0:0:
192,192,55815,1,0,0:0:0:0:
64,192,55815,1,0,0:0:0:0:
64,192,55972,1,0,0:0:0:0:
192,192,55972,1,0,0:0:0:0:
448,192,56050,1,0,0:0:0:0:
192,192,56128,1,0,0:0:0:0:
320,192,56128,1,0,0:0:0:0:
64,192,56206,1,0,0:0:0:0:
320,192,56284,1,0,0:0:0:0:
448,192,56284,1,0,0:0:0:0:
64,192,56362,1,0,0:0:0:0:
320,192,56440,1,0,0:0:0:0:
192,192,56440,1,0,0:0:0:0:
448,192,56518,1,0,0:0:0:0:
64,192,56597,128,0,56909:0:0:0:0:
192,192,56597,128,0,56909:0:0:0:0:
320,192,56909,128,0,57222:0:0:0:0:
448,192,56909,128,0,57222:0:0:0:0:
192,192,57222,1,0,0:0:0:0:
64,192,57222,1,0,0:0:0:0:
320,192,57378,1,0,0:0:0:0:
448,192,57378,1,0,0:0:0:0:
64,192,57534,1,0,0:0:0:0:
192,192,57534,1,0,0:0:0:0:
192,192,57690,1,0,0:0:0:0:
64,192,57690,1,0,0:0:0:0:
192,192,57847,1,0,0:0:0:0:
320,192,57847,1,0,0:0:0:0:
320,192,58003,1,0,0:0:0:0:
192,192,58003,1,0,0:0:0:0:
320,192,58159,1,0,0:0:0:0:
448,192,58159,1,0,0:0:0:0:
448,192,58315,1,0,0:0:0:0:
320,192,58315,1,0,0:0:0:0:
320,192,58472,1,0,0:0:0:0:
448,192,58472,1,0,0:0:0:0:
64,192,58550,1,0,0:0:0:0:
320,192,58628,1,0,0:0:0:0:
192,192,58628,1,0,0:0:0:0:
448,192,58706,1,0,0:0:0:0:
192,192,58784,1,0,0:0:0:0:
64,192,58784,1,0,0:0:0:0:
448,192,58862,1,0,0:0:0:0:
192,192,58940,1,0,0:0:0:0:
320,192,58940,1,0,0:0:0:0:
64,192,59018,1,0,0:0:0:0:
320,192,59097,128,0,59409:0:0:0:0:
448,192,59097,128,0,59409:0:0:0:0:
192,192,59409,128,0,59722:0:0:0:0:
64,192,59409,128,0,59722:0:0:0:0:
320,192,59722,1,0,0:0:0:0:
448,192,59722,1,0,0:0:0:0:
192,192,59878,1,0,0:0:0:0:
64,192,59878,1,0,0:0:0:0:
64,192,60034,1,0,0:0:0:0:
448,192,60034,1,0,0:0:0:0:
320,192,60112,1,0,0:0:0:0:
64,192,60190,1,0,0:0:0:0:
448,192,60190,1,0,0:0:0:0:
192,192,60268,1,0,0:0:0:0:
64,192,60347,1,0,0:0:0:0:
448,192,60347,1,0,0:0:0:0:
320,192,60425,1,0,0:0:0:0:
64,192,60503,1,0,0:0:0:0:
448,192,60503,1,0,0:0:0:0:
192,192,60581,1,0,0:0:0:0:
64,192,60659,1,0,0:0:0:0:
448,192,60659,1,0,0:0:0:0:
320,192,60737,1,0,0:0:0:0:
192,192,60815,1,0,0:0:0:0:
64,192,60815,1,0,0:0:0:0:
448,192,60893,1,0,0:0:0:0:
192,192,60972,1,0,0:0:0:0:
320,192,60972,1,0,0:0:0:0:
64,192,61050,1,0,0:0:0:0:
320,192,61128,1,0,0:0:0:0:
448,192,61128,1,0,0:0:0:0:
64,192,61206,1,0,0:0:0:0:
192,192,61284,1,0,0:0:0:0:
320,192,61284,1,0,0:0:0:0:
448,192,61362,1,0,0:0:0:0:
192,192,61440,1,0,0:0:0:0:
64,192,61440,1,0,0:0:0:0:
448,192,61518,1,0,0:0:0:0:
192,192,61597,128,0,61909:0:0:0:0:
320,192,61597,128,0,61909:0:0:0:0:
64,192,61909,128,0,62222:0:0:0:0:
448,192,61909,128,0,62222:0:0:0:0:
192,192,62222,1,0,0:0:0:0:
320,192,62222,1,0,0:0:0:0:
64,192,62534,1,0,0:0:0:0:
320,192,62534,1,0,0:0:0:0:
448,192,62534,1,0,0:0:0:0:
192,192,62847,1,0,0:0:0:0:
64,192,62847,1,0,0:0:0:0:
448,192,62847,1,0,0:0:0:0:
192,192,63159,1,0,0:0:0:0:
320,192,63159,1,0,0:0:0:0:
64,192,63159,1,0,0:0:0:0:
192,192,63472,1,0,0:0:0:0:
320,192,63472,1,0,0:0:0:0:
448,192,63472,1,0,0:0:0:0:
320,192,63784,1,0,0:0:0:0:
192,192,63784,1,0,0:0:0:0:
64,192,63784,1,0,0:0:0:0:
320,192,64097,1,0,0:0:0:0:
448,192,64097,1,0,0:0:0:0:
64,192,64097,1,0,0:0:0:0:
192,192,64409,1,0,0:0:0:0:
64,192,64409,1,0,0:0:0:0:
448,192,64409,1,0,0:0:0:0:
320,192,64565,1,0,0:0:0:0:
448,192,64565,1,0,0:0:0:0:
192,192,64643,1,0,0:0:0:0:
64,192,64643,1,0,0:0:0:0:
64,192,64722,1,0,0:0:0:0:
320,192,64722,1,0,0:0:0:0:
448,192,64722,1,0,0:0:0:0:
320,192,64878,1,0,0:0:0:0:
448,192,64956,1,0,0:0:0:0:
192,192,65034,1,0,0:0:0:0:
64,192,65034,1,0,0:0:0:0:
320,192,65190,1,0,0:0:0:0:
448,192,65268,1,0,0:0:0:0:
192,192,65347,1,0,0:0:0:0:
64,192,65347,1,0,0:0:0:0:
320,192,65503,1,0,0:0:0:0:
448,192,65581,1,0,0:0:0:0:
192,192,65659,1,0,0:0:0:0:
64,192,65659,1,0,0:0:0:0:
320,192,65815,1,0,0:0:0:0:
448,192,65893,1,0,0:0:0:0:
192,192,65972,1,0,0:0:0:0:
64,192,65972,1,0,0:0:0:0:
192,192,66128,1,0,0:0:0:0:
64,192,66206,1,0,0:0:0:0:
320,192,66284,1,0,0:0:0:0:
448,192,66284,1,0,0:0:0:0:
192,192,66440,1,0,0:0:0:0:
64,192,66518,1,0,0:0:0:0:
320,192,66597,1,0,0:0:0:0:
448,192,66597,1,0,0:0:0:0:
192,192,66753,1,0,0:0:0:0:
64,192,66831,1,0,0:0:0:0:
320,192,66909,1,0,0:0:0:0:
448,192,66909,1,0,0:0:0:0:
192,192,67065,1,0,0:0:0:0:
64,192,67143,1,0,0:0:0:0:
320,192,67222,1,0,0:0:0:0:
448,192,67222,1,0,0:0:0:0:
192,192,67378,1,0,0:0:0:0:
320,192,67456,1,0,0:0:0:0:
64,192,67534,1,0,0:0:0:0:
448,192,67534,1,0,0:0:0:0:
192,192,67690,1,0,0:0:0:0:
320,192,67768,1,0,0:0:0:0:
448,192,67847,1,0,0:0:0:0:
64,192,67847,1,0,0:0:0:0:
192,192,68003,1,0,0:0:0:0:
320,192,68081,1,0,0:0:0:0:
64,192,68159,1,0,0:0:0:0:
448,192,68159,1,0,0:0:0:0:
192,192,68315,1,0,0:0:0:0:
320,192,68393,1,0,0:0:0:0:
64,192,68472,1,0,0:0:0:0:
448,192,68472,1,0,0:0:0:0:
320,192,68628,1,0,0:0:0:0:
192,192,68706,1,0,0:0:0:0:
64,192,68784,1,0,0:0:0:0:
448,192,68784,1,0,0:0:0:0:
320,192,68940,1,0,0:0:0:0:
192,192,69018,1,0,0:0:0:0:
64,192,69097,1,0,0:0:0:0:
448,192,69097,1,0,0:0:0:0:
320,192,69253,1,0,0:0:0:0:
192,192,69331,1,0,0:0:0:0:
64,192,69409,1,0,0:0:0:0:
448,192,69409,1,0,0:0:0:0:
320,192,69565,1,0,0:0:0:0:
192,192,69643,1,0,0:0:0:0:
64,192,69722,1,0,0:0:0:0:
448,192,69722,1,0,0:0:0:0:
320,192,69722,1,0,0:0:0:0:
192,192,69800,1,0,0:0:0:0:
320,192,69878,1,0,0:0:0:0:
192,192,69956,1,0,0:0:0:0:
64,192,70034,1,0,0:0:0:0:
320,192,70034,1,0,0:0:0:0:
448,192,70034,1,0,0:0:0:0:
192,192,70112,1,0,0:0:0:0:
320,192,70190,1,0,0:0:0:0:
192,192,70268,1,0,0:0:0:0:
64,192,70347,1,0,0:0:0:0:
320,192,70347,1,0,0:0:0:0:
448,192,70347,1,0,0:0:0:0:
192,192,70425,1,0,0:0:0:0:
64,192,70503,1,0,0:0:0:0:
192,192,70581,1,0,0:0:0:0:
64,192,70659,1,0,0:0:0:0:
320,192,70659,1,0,0:0:0:0:
448,192,70659,1,0,0:0:0:0:
192,192,70737,1,0,0:0:0:0:
64,192,70815,1,0,0:0:0:0:
320,192,70893,1,0,0:0:0:0:
64,192,70972,1,0,0:0:0:0:
448,192,70972,1,0,0:0:0:0:
192,192,70972,1,0,0:0:0:0:
320,192,71050,1,0,0:0:0:0:
448,192,71128,1,0,0:0:0:0:
320,192,71206,1,0,0:0:0:0:
64,192,71284,1,0,0:0:0:0:
192,192,71284,1,0,0:0:0:0:
448,192,71284,1,0,0:0:0:0:
320,192,71362,1,0,0:0:0:0:
448,192,71440,1,0,0:0:0:0:
320,192,71518,1,0,0:0:0:0:
192,192,71597,1,0,0:0:0:0:
64,192,71597,1,0,0:0:0:0:
448,192,71597,1,0,0:0:0:0:
320,192,71675,1,0,0:0:0:0:
192,192,71753,1,0,0:0:0:0:
320,192,71831,1,0,0:0:0:0:
192,192,71909,1,0,0:0:0:0:
64,192,71909,1,0,0:0:0:0:
448,192,71909,1,0,0:0:0:0:
320,192,71987,1,0,0:0:0:0:
192,192,72065,1,0,0:0:0:0:
320,192,72143,1,0,0:0:0:0:
192,192,72222,1,0,0:0:0:0:
64,192,72222,1,0,0:0:0:0:
448,192,72222,1,0,0:0:0:0:
320,192,72300,1,0,0:0:0:0:
64,192,72378,1,0,0:0:0:0:
192,192,72456,1,0,0:0:0:0:
64,192,72534,1,0,0:0:0:0:
320,192,72534,1,0,0:0:0:0:
448,192,72534,1,0,0:0:0:0:
192,192,72612,1,0,0:0:0:0:
64,192,72690,1,0,0:0:0:0:
320,192,72768,1,0,0:0:0:0:
192,192,72847,1,0,0:0:0:0:
64,192,72847,1,0,0:0:0:0:
448,192,72847,1,0,0:0:0:0:
320,192,72925,1,0,0:0:0:0:
64,192,73003,1,0,0:0:0:0:
192,192,73081,1,0,0:0:0:0:
64,192,73159,1,0,0:0:0:0:
320,192,73159,1,0,0:0:0:0:
448,192,73159,1,0,0:0:0:0:
192,192,73237,1,0,0:0:0:0:
64,192,73315,1,0,0:0:0:0:
320,192,73393,1,0,0:0:0:0:
192,192,73472,1,0,0:0:0:0:
64,192,73472,1,0,0:0:0:0:
448,192,73472,1,0,0:0:0:0:
320,192,73550,1,0,0:0:0:0:
192,192,73628,1,0,0:0:0:0:
448,192,73706,1,0,0:0:0:0:
320,192,73784,1,0,0:0:0:0:
192,192,73784,1,0,0:0:0:0:
64,192,73784,1,0,0:0:0:0:
448,192,73862,1,0,0:0:0:0:
192,192,73940,1,0,0:0:0:0:
320,192,74018,1,0,0:0:0:0:
192,192,74097,1,0,0:0:0:0:
64,192,74097,1,0,0:0:0:0:
448,192,74097,1,0,0:0:0:0:
320,192,74175,1,0,0:0:0:0:
192,192,74253,1,0,0:0:0:0:
448,192,74331,1,0,0:0:0:0:
320,192,74409,1,0,0:0:0:0:
192,192,74409,1,0,0:0:0:0:
64,192,74409,1,0,0:0:0:0:
448,192,74487,1,0,0:0:0:0:
192,192,74565,1,0,0:0:0:0:
320,192,74643,1,0,0:0:0:0:
192,192,74722,1,0,0:0:0:0:
64,192,74722,1,0,0:0:0:0:
448,192,74722,1,0,0:0:0:0:
64,192,74800,1,0,0:0:0:0:
192,192,74878,1,0,0:0:0:0:
320,192,74956,1,0,0:0:0:0:
64,192,75034,1,0,0:0:0:0:
448,192,75034,1,0,0:0:0:0:
192,192,75034,1,0,0:0:0:0:
448,192,75112,1,0,0:0:0:0:
320,192,75190,1,0,0:0:0:0:
192,192,75268,1,0,0:0:0:0:
64,192,75347,1,0,0:0:0:0:
320,192,75347,1,0,0:0:0:0:
448,192,75347,1,0,0:0:0:0:
64,192,75425,1,0,0:0:0:0:
192,192,75503,1,0,0:0:0:0:
320,192,75581,1,0,0:0:0:0:
192,192,75659,1,0,0:0:0:0:
64,192,75659,1,0,0:0:0:0:
448,192,75659,1,0,0:0:0:0:
448,192,75737,1,0,0:0:0:0:
320,192,75815,1,0,0:0:0:0:
192,192,75893,1,0,0:0:0:0:
64,192,75972,1,0,0:0:0:0:
320,192,75972,1,0,0:0:0:0:
448,192,75972,1,0,0:0:0:0:
64,192,76050,1,0,0:0:0:0:
320,192,76128,1,0,0:0:0:0:
192,192,76206,1,0,0:0:0:0:
448,192,76284,1,0,0:0:0:0:
320,192,76284,1,0,0:0:0:0:
64,192,76284,1,0,0:0:0:0:
64,192,76362,1,0,0:0:0:0:
320,192,76440,1,0,0:0:0:0:
192,192,76518,1,0,0:0:0:0:
448,192,76597,1,0,0:0:0:0:
64,192,76597,1,0,0:0:0:0:
320,192,76597,1,0,0:0:0:0:
448,192,76675,1,0,0:0:0:0:
192,192,76753,1,0,0:0:0:0:
320,192,76831,1,0,0:0:0:0:
192,192,76909,1,0,0:0:0:0:
64,192,76909,1,0,0:0:0:0:
448,192,76909,1,0,0:0:0:0:
448,192,76987,1,0,0:0:0:0:
320,192,77065,1,0,0:0:0:0:
192,192,77143,1,0,0:0:0:0:
448,192,77222,1,0,0:0:0:0:
320,192,77222,1,0,0:0:0:0:
64,192,77222,1,0,0:0:0:0:
64,192,77300,1,0,0:0:0:0:
192,192,77378,1,0,0:0:0:0:
320,192,77456,1,0,0:0:0:0:
64,192,77534,1,0,0:0:0:0:
448,192,77534,1,0,0:0:0:0:
192,192,77534,1,0,0:0:0:0:
448,192,77612,1,0,0:0:0:0:
320,192,77690,1,0,0:0:0:0:
192,192,77768,1,0,0:0:0:0:
448,192,77847,1,0,0:0:0:0:
320,192,77847,1,0,0:0:0:0:
64,192,77847,1,0,0:0:0:0:
64,192,77925,1,0,0:0:0:0:
192,192,78003,1,0,0:0:0:0:
320,192,78081,1,0,0:0:0:0:
448,192,78159,1,0,0:0:0:0:
192,192,78159,1,0,0:0:0:0:
64,192,78159,1,0,0:0:0:0:
448,192,78237,1,0,0:0:0:0:
320,192,78315,1,0,0:0:0:0:
192,192,78393,1,0,0:0:0:0:
64,192,78472,1,0,0:0:0:0:
320,192,78472,1,0,0:0:0:0:
448,192,78472,1,0,0:0:0:0:
64,192,78550,1,0,0:0:0:0:
320,192,78628,1,0,0:0:0:0:
192,192,78706,1,0,0:0:0:0:
64,192,78784,1,0,0:0:0:0:
320,192,78784,1,0,0:0:0:0:
448,192,78784,1,0,0:0:0:0:
64,192,78862,1,0,0:0:0:0:
320,192,78940,1,0,0:0:0:0:
192,192,79018,1,0,0:0:0:0:
64,192,79097,1,0,0:0:0:0:
448,192,79097,1,0,0:0:0:0:
320,192,79097,1,0,0:0:0:0:
448,192,79175,1,0,0:0:0:0:
192,192,79253,1,0,0:0:0:0:
320,192,79331,1,0,0:0:0:0:
64,192,79409,1,0,0:0:0:0:
192,192,79409,1,0,0:0:0:0:
448,192,79409,1,0,0:0:0:0:
448,192,79487,1,0,0:0:0:0:
192,192,79565,1,0,0:0:0:0:
320,192,79643,1,0,0:0:0:0:
64,192,79722,1,0,0:0:0:0:
448,192,79722,1,0,0:0:0:0:
192,192,79722,128,0,80972:0:0:0:0:
64,192,80972,1,0,0:0:0:0:
448,192,80972,1,0,0:0:0:0:
320,192,80972,128,0,81597:0:0:0:0:
64,192,81597,1,0,0:0:0:0:
192,192,81597,1,0,0:0:0:0:
448,192,81597,1,0,0:0:0:0:
320,192,81753,1,0,0:0:0:0:
448,192,81753,1,0,0:0:0:0:
192,192,81831,1,0,0:0:0:0:
64,192,81831,1,0,0:0:0:0:
320,192,81909,1,0,0:0:0:0:
448,192,81909,1,0,0:0:0:0:
320,192,82222,1,0,0:0:0:0:
64,192,82222,128,0,82534:0:0:0:0:
448,192,82222,128,0,82534:0:0:0:0:
192,192,82534,1,0,0:0:0:0:
320,192,82534,1,0,0:0:0:0:
64,192,82690,1,0,0:0:0:0:
448,192,82690,1,0,0:0:0:0:
320,192,82768,1,0,0:0:0:0:
192,192,82768,1,0,0:0:0:0:
64,192,82847,1,0,0:0:0:0:
448,192,82847,1,0,0:0:0:0:
64,192,83003,1,0,0:0:0:0:
448,192,83003,1,0,0:0:0:0:
448,192,83159,1,0,0:0:0:0:
64,192,83159,1,0,0:0:0:0:
320,192,83159,1,0,0:0:0:0:
64,192,83315,1,0,0:0:0:0:
448,192,83315,1,0,0:0:0:0:
64,192,83472,1,0,0:0:0:0:
320,192,83472,1,0,0:0:0:0:
448,192,83472,1,0,0:0:0:0:
320,192,83628,1,0,0:0:0:0:
192,192,83706,1,0,0:0:0:0:
448,192,83784,1,0,0:0:0:0:
64,192,83784,1,0,0:0:0:0:
192,192,83940,1,0,0:0:0:0:
64,192,83940,1,0,0:0:0:0:
320,192,84097,1,0,0:0:0:0:
448,192,84097,1,0,0:0:0:0:
192,192,84136,1,0,0:0:0:0:
64,192,84175,1,0,0:0:0:0:
448,192,84214,1,0,0:0:0:0:
320,192,84253,1,0,0:0:0:0:
192,192,84292,1,0,0:0:0:0:
64,192,84331,1,0,0:0:0:0:
448,192,84370,1,0,0:0:0:0:
320,192,84409,1,0,0:0:0:0:
192,192,84448,1,0,0:0:0:0:
64,192,84487,1,0,0:0:0:0:
448,192,84526,1,0,0:0:0:0:
320,192,84565,1,0,0:0:0:0:
192,192,84604,1,0,0:0:0:0:
64,192,84643,1,0,0:0:0:0:
448,192,84682,1,0,0:0:0:0:
320,192,84722,1,0,0:0:0:0:
192,192,84722,1,0,0:0:0:0:
192,192,85034,1,0,0:0:0:0:
64,192,85034,1,0,0:0:0:0:
448,192,85034,1,0,0:0:0:0:
192,192,85347,1,0,0:0:0:0:
448,192,85347,1,0,0:0:0:0:
64,192,85503,1,0,0:0:0:0:
320,192,85503,1,0,0:0:0:0:
192,192,85659,1,0,0:0:0:0:
320,192,85659,1,0,0:0:0:0:
448,192,85659,1,0,0:0:0:0:
192,192,85972,1,0,0:0:0:0:
64,192,85972,1,0,0:0:0:0:
192,192,86284,1,0,0:0:0:0:
64,192,86284,1,0,0:0:0:0:
448,192,86284,1,0,0:0:0:0:
192,192,86597,1,0,0:0:0:0:
64,192,86597,1,0,0:0:0:0:
448,192,86753,1,0,0:0:0:0:
320,192,86753,1,0,0:0:0:0:
320,192,86909,1,0,0:0:0:0:
192,192,86909,1,0,0:0:0:0:
64,192,86909,1,0,0:0:0:0:
192,192,87222,1,0,0:0:0:0:
320,192,87222,1,0,0:0:0:0:
192,192,87534,1,0,0:0:0:0:
64,192,87534,1,0,0:0:0:0:
448,192,87534,1,0,0:0:0:0:
64,192,87847,1,0,0:0:0:0:
448,192,87847,1,0,0:0:0:0:
320,192,88003,1,0,0:0:0:0:
192,192,88003,1,0,0:0:0:0:
192,192,88159,1,0,0:0:0:0:
64,192,88159,1,0,0:0:0:0:
448,192,88159,1,0,0:0:0:0:
192,192,88472,1,0,0:0:0:0:
320,192,88472,1,0,0:0:0:0:
320,192,88784,1,0,0:0:0:0:
448,192,88784,1,0,0:0:0:0:
64,192,88784,1,0,0:0:0:0:
64,192,89097,1,0,0:0:0:0:
448,192,89097,1,0,0:0:0:0:
320,192,89253,1,0,0:0:0:0:
192,192,89253,1,0,0:0:0:0:
192,192,89409,1,0,0:0:0:0:
64,192,89409,1,0,0:0:0:0:
448,192,89409,1,0,0:0:0:0:
192,192,89565,1,0,0:0:0:0:
320,192,89565,1,0,0:0:0:0:
64,192,89722,1,0,0:0:0:0:
320,192,89722,1,0,0:0:0:0:
448,192,89722,1,0,0:0:0:0:
192,192,89722,1,0,0:0:0:0:
448,192,89878,1,0,0:0:0:0:
192,192,90034,1,0,0:0:0:0:
320,192,90034,1,0,0:0:0:0:
64,192,90034,1,0,0:0:0:0:
320,192,90190,1,0,0:0:0:0:
64,192,90347,1,0,0:0:0:0:
448,192,90347,1,0,0:0:0:0:
320,192,90503,1,0,0:0:0:0:
192,192,90503,1,0,0:0:0:0:
64,192,90659,1,0,0:0:0:0:
320,192,90659,1,0,0:0:0:0:
448,192,90659,1,0,0:0:0:0:
64,192,90815,1,0,0:0:0:0:
192,192,90972,1,0,0:0:0:0:
320,192,90972,1,0,0:0:0:0:
192,192,91128,1,0,0:0:0:0:
64,192,91284,1,0,0:0:0:0:
448,192,91284,1,0,0:0:0:0:
320,192,91284,1,0,0:0:0:0:
320,192,91440,1,0,0:0:0:0:
64,192,91597,1,0,0:0:0:0:
448,192,91597,1,0,0:0:0:0:
320,192,91753,1,0,0:0:0:0:
192,192,91753,1,0,0:0:0:0:
64,192,91909,1,0,0:0:0:0:
448,192,91909,1,0,0:0:0:0:
192,192,91909,1,0,0:0:0:0:
64,192,92065,1,0,0:0:0:0:
192,192,92222,1,0,0:0:0:0:
320,192,92222,1,0,0:0:0:0:
192,192,92378,1,0,0:0:0:0:
64,192,92534,1,0,0:0:0:0:
320,192,92534,1,0,0:0:0:0:
448,192,92534,1,0,0:0:0:0:
320,192,92690,1,0,0:0:0:0:
64,192,92847,1,0,0:0:0:0:
448,192,92847,1,0,0:0:0:0:
192,192,93003,1,0,0:0:0:0:
320,192,93003,1,0,0:0:0:0:
64,192,93159,1,0,0:0:0:0:
448,192,93159,1,0,0:0:0:0:
320,192,93159,1,0,0:0:0:0:
64,192,93315,1,0,0:0:0:0:
320,192,93472,1,0,0:0:0:0:
448,192,93472,1,0,0:0:0:0:
320,192,93628,1,0,0:0:0:0:
192,192,93628,1,0,0:0:0:0:
64,192,93628,1,0,0:0:0:0:
192,192,93784,1,0,0:0:0:0:
64,192,93784,1,0,0:0:0:0:
192,192,93940,1,0,0:0:0:0:
320,192,93940,1,0,0:0:0:0:
320,192,94097,1,0,0:0:0:0:
448,192,94097,1,0,0:0:0:0:
192,192,94175,1,0,0:0:0:0:
64,192,94175,1,0,0:0:0:0:
320,192,94253,1,0,0:0:0:0:
448,192,94253,1,0,0:0:0:0:
64,192,94409,1,0,0:0:0:0:
320,192,94409,1,0,0:0:0:0:
192,192,94409,1,0,0:0:0:0:
448,192,94409,1,0,0:0:0:0:
64,192,94722,1,0,0:0:0:0:
192,192,94722,1,0,0:0:0:0:
448,192,94722,1,0,0:0:0:0:
320,192,94800,1,0,0:0:0:0:
192,192,94878,1,0,0:0:0:0:
448,192,94956,1,0,0:0:0:0:
192,192,95034,1,0,0:0:0:0:
320,192,95034,1,0,0:0:0:0:
64,192,95034,1,0,0:0:0:0:
448,192,95112,1,0,0:0:0:0:
320,192,95190,1,0,0:0:0:0:
192,192,95268,1,0,0:0:0:0:
64,192,95347,1,0,0:0:0:0:
448,192,95347,1,0,0:0:0:0:
192,192,95425,1,0,0:0:0:0:
320,192,95503,1,0,0:0:0:0:
64,192,95503,1,0,0:0:0:0:
448,192,95581,1,0,0:0:0:0:
64,192,95659,1,0,0:0:0:0:
192,192,95659,1,0,0:0:0:0:
320,192,95659,1,0,0:0:0:0:
448,192,95737,1,0,0:0:0:0:
320,192,95815,1,0,0:0:0:0:
192,192,95893,1,0,0:0:0:0:
64,192,95972,1,0,0:0:0:0:
448,192,95972,1,0,0:0:0:0:
192,192,96050,1,0,0:0:0:0:
320,192,96128,1,0,0:0:0:0:
192,192,96206,1,0,0:0:0:0:
64,192,96284,1,0,0:0:0:0:
320,192,96284,1,0,0:0:0:0:
448,192,96284,1,0,0:0:0:0:
192,192,96362,1,0,0:0:0:0:
64,192,96440,1,0,0:0:0:0:
320,192,96518,1,0,0:0:0:0:
64,192,96597,1,0,0:0:0:0:
448,192,96597,1,0,0:0:0:0:
320,192,96675,1,0,0:0:0:0:
448,192,96753,1,0,0:0:0:0:
192,192,96753,1,0,0:0:0:0:
64,192,96831,1,0,0:0:0:0:
448,192,96909,1,0,0:0:0:0:
192,192,96909,1,0,0:0:0:0:
320,192,96909,1,0,0:0:0:0:
64,192,96987,1,0,0:0:0:0:
192,192,97065,1,0,0:0:0:0:
320,192,97143,1,0,0:0:0:0:
192,192,97222,1,0,0:0:0:0:
64,192,97222,1,0,0:0:0:0:
320,192,97300,1,0,0:0:0:0:
448,192,97378,1,0,0:0:0:0:
320,192,97456,1,0,0:0:0:0:
192,192,97534,1,0,0:0:0:0:
64,192,97534,1,0,0:0:0:0:
448,192,97534,1,0,0:0:0:0:
320,192,97612,1,0,0:0:0:0:
192,192,97690,1,0,0:0:0:0:
64,192,97768,1,0,0:0:0:0:
192,192,97847,1,0,0:0:0:0:
320,192,97847,1,0,0:0:0:0:
448,192,97925,1,0,0:0:0:0:
320,192,98003,1,0,0:0:0:0:
192,192,98003,1,0,0:0:0:0:
64,192,98081,1,0,0:0:0:0:
448,192,98159,1,0,0:0:0:0:
320,192,98159,1,0,0:0:0:0:
192,192,98159,1,0,0:0:0:0:
64,192,98237,1,0,0:0:0:0:
192,192,98315,1,0,0:0:0:0:
320,192,98393,1,0,0:0:0:0:
192,192,98472,1,0,0:0:0:0:
448,192,98472,1,0,0:0:0:0:
64,192,98550,1,0,0:0:0:0:
192,192,98628,1,0,0:0:0:0:
320,192,98706,1,0,0:0:0:0:
192,192,98784,1,0,0:0:0:0:
64,192,98784,1,0,0:0:0:0:
448,192,98784,1,0,0:0:0:0:
320,192,98862,1,0,0:0:0:0:
192,192,98940,1,0,0:0:0:0:
320,192,99018,1,0,0:0:0:0:
64,192,99097,1,0,0:0:0:0:
448,192,99097,1,0,0:0:0:0:
192,192,99175,1,0,0:0:0:0:
320,192,99253,1,0,0:0:0:0:
448,192,99253,1,0,0:0:0:0:
192,192,99331,1,0,0:0:0:0:
64,192,99409,1,0,0:0:0:0:
320,192,99409,1,0,0:0:0:0:
448,192,99409,1,0,0:0:0:0:
192,192,99487,1,0,0:0:0:0:
64,192,99565,1,0,0:0:0:0:
320,192,99565,1,0,0:0:0:0:
192,192,99643,1,0,0:0:0:0:
64,192,99722,1,0,0:0:0:0:
448,192,99722,1,0,0:0:0:0:
320,192,99722,1,0,0:0:0:0:
192,192,99800,1,0,0:0:0:0:
448,192,99878,1,0,0:0:0:0:
320,192,99956,1,0,0:0:0:0:
64,192,100034,1,0,0:0:0:0:
192,192,100034,1,0,0:0:0:0:
448,192,100034,1,0,0:0:0:0:
320,192,100112,1,0,0:0:0:0:
192,192,100190,1,0,0:0:0:0:
320,192,100268,1,0,0:0:0:0:
64,192,100347,1,0,0:0:0:0:
448,192,100347,1,0,0:0:0:0:
192,192,100425,1,0,0:0:0:0:
64,192,100503,1,0,0:0:0:0:
448,192,100503,1,0,0:0:0:0:
320,192,100581,1,0,0:0:0:0:
192,192,100659,1,0,0:0:0:0:
64,192,100659,1,0,0:0:0:0:
448,192,100659,1,0,0:0:0:0:
320,192,100737,1,0,0:0:0:0:
192,192,100815,1,0,0:0:0:0:
320,192,100893,1,0,0:0:0:0:
64,192,100972,1,0,0:0:0:0:
448,192,100972,1,0,0:0:0:0:
192,192,101050,1,0,0:0:0:0:
320,192,101128,1,0,0:0:0:0:
192,192,101206,1,0,0:0:0:0:
64,192,101284,1,0,0:0:0:0:
320,192,101284,1,0,0:0:0:0:
448,192,101284,1,0,0:0:0:0:
192,192,101362,1,0,0:0:0:0:
320,192,101440,1,0,0:0:0:0:
192,192,101518,1,0,0:0:0:0:
64,192,101597,1,0,0:0:0:0:
448,192,101597,1,0,0:0:0:0:
320,192,101675,1,0,0:0:0:0:
64,192,101753,1,0,0:0:0:0:
448,192,101753,1,0,0:0:0:0:
192,192,101831,1,0,0:0:0:0:
448,192,101909,1,0,0:0:0:0:
320,192,101909,1,0,0:0:0:0:
64,192,101909,1,0,0:0:0:0:
192,192,101987,1,0,0:0:0:0:
320,192,102065,1,0,0:0:0:0:
192,192,102143,1,0,0:0:0:0:
64,192,102222,1,0,0:0:0:0:
320,192,102222,1,0,0:0:0:0:
448,192,102222,1,0,0:0:0:0:
320,192,102534,1,0,0:0:0:0:
192,192,102847,1,0,0:0:0:0:
64,192,103159,1,0,0:0:0:0:
64,192,103628,1,0,0:0:0:0:
192,192,103628,1,0,0:0:0:0:
448,192,103628,1,0,0:0:0:0:
320,192,103784,1,0,0:0:0:0:
448,192,103784,1,0,0:0:0:0:
64,192,103784,1,0,0:0:0:0:
192,192,103940,1,0,0:0:0:0:
64,192,103940,1,0,0:0:0:0:
448,192,103940,1,0,0:0:0:0:
320,192,104097,1,0,0:0:0:0:
448,192,104097,1,0,0:0:0:0:
64,192,104097,1,0,0:0:0:0:
192,192,104409,1,0,0:0:0:0:
320,192,104409,1,0,0:0:0:0:
64,192,104722,1,0,0:0:0:0:
320,192,104722,128,0,105190:0:0:0:0:
448,192,104722,1,0,0:0:0:0:
192,192,104878,1,0,0:0:0:0:
64,192,105034,1,0,0:0:0:0:
448,192,105190,128,0,105659:0:0:0:0:
192,192,105190,1,0,0:0:0:0:
320,192,105347,1,0,0:0:0:0:
64,192,105503,1,0,0:0:0:0:
192,192,105659,128,0,105972:0:0:0:0:
320,192,105659,1,0,0:0:0:0:
448,192,105815,1,0,0:0:0:0:
64,192,105972,128,0,106440:0:0:0:0:
320,192,105972,1,0,0:0:0:0:
448,192,106128,1,0,0:0:0:0:
192,192,106284,1,0,0:0:0:0:
448,192,106440,128,0,106909:0:0:0:0:
320,192,106440,1,0,0:0:0:0:
192,192,106597,1,0,0:0:0:0:
64,192,106753,1,0,0:0:0:0:
320,192,106909,128,0,107222:0:0:0:0:
192,192,106909,1,0,0:0:0:0:
448,192,107065,1,0,0:0:0:0:
64,192,107222,128,0,107690:0:0:0:0:
192,192,107222,1,0,0:0:0:0:
448,192,107378,1,0,0:0:0:0:
192,192,107534,1,0,0:0:0:0:
448,192,107690,128,0,108159:0:0:0:0:
320,192,107690,1,0,0:0:0:0:
64,192,107847,1,0,0:0:0:0:
320,192,108003,1,0,0:0:0:0:
192,192,108159,1,0,0:0:0:0:
64,192,108159,1,0,0:0:0:0:
320,192,108315,1,0,0:0:0:0:
192,192,108393,1,0,0:0:0:0:
64,192,108472,128,0,108628:0:0:0:0:
448,192,108472,1,0,0:0:0:0:
192,192,108628,1,0,0:0:0:0:
320,192,108706,1,0,0:0:0:0:
448,192,108784,128,0,108940:0:0:0:0:
64,192,108784,1,0,0:0:0:0:
320,192,108940,1,0,0:0:0:0:
192,192,109018,1,0,0:0:0:0:
64,192,109097,128,0,109253:0:0:0:0:
448,192,109097,1,0,0:0:0:0:
192,192,109253,1,0,0:0:0:0:
320,192,109331,1,0,0:0:0:0:
448,192,109409,128,0,109565:0:0:0:0:
64,192,109409,1,0,0:0:0:0:
192,192,109565,1,0,0:0:0:0:
320,192,109643,1,0,0:0:0:0:
64,192,109722,1,0,0:0:0:0:
192,192,109722,1,0,0:0:0:0:
448,192,109722,128,0,110190:0:0:0:0:
320,192,109800,1,0,0:0:0:0:
192,192,109878,1,0,0:0:0:0:
64,192,109956,1,0,0:0:0:0:
192,192,110034,1,0,0:0:0:0:
320,192,110112,1,0,0:0:0:0:
192,192,110190,128,0,110659:0:0:0:0:
64,192,110190,1,0,0:0:0:0:
320,192,110268,1,0,0:0:0:0:
448,192,110347,1,0,0:0:0:0:
320,192,110425,1,0,0:0:0:0:
448,192,110503,1,0,0:0:0:0:
64,192,110581,1,0,0:0:0:0:
320,192,110659,128,0,110972:0:0:0:0:
448,192,110659,1,0,0:0:0:0:
192,192,110737,1,0,0:0:0:0:
64,192,110815,1,0,0:0:0:0:
192,192,110893,1,0,0:0:0:0:
448,192,110972,128,0,111440:0:0:0:0:
64,192,110972,1,0,0:0:0:0:
192,192,111050,1,0,0:0:0:0:
320,192,111128,1,0,0:0:0:0:
64,192,111206,1,0,0:0:0:0:
192,192,111284,1,0,0:0:0:0:
320,192,111362,1,0,0:0:0:0:
64,192,111440,128,0,111909:0:0:0:0:
192,192,111440,1,0,0:0:0:0:
320,192,111518,1,0,0:0:0:0:
448,192,111597,1,0,0:0:0:0:
192,192,111675,1,0,0:0:0:0:
320,192,111753,1,0,0:0:0:0:
448,192,111831,1,0,0:0:0:0:
192,192,111909,128,0,112222:0:0:0:0:
320,192,111909,1,0,0:0:0:0:
448,192,111987,1,0,0:0:0:0:
320,192,112065,1,0,0:0:0:0:
64,192,112143,1,0,0:0:0:0:
320,192,112222,128,0,112847:0:0:0:0:
448,192,112222,1,0,0:0:0:0:
192,192,112300,1,0,0:0:0:0:
64,192,112378,1,0,0:0:0:0:
192,192,112456,1,0,0:0:0:0:
448,192,112534,1,0,0:0:0:0:
192,192,112612,1,0,0:0:0:0:
64,192,112690,1,0,0:0:0:0:
448,192,112690,1,0,0:0:0:0:
192,192,112768,1,0,0:0:0:0:
64,192,112847,1,0,0:0:0:0:
448,192,112847,128,0,113003:0:0:0:0:
320,192,112925,1,0,0:0:0:0:
64,192,113003,1,0,0:0:0:0:
192,192,113003,1,0,0:0:0:0:
320,192,113081,1,0,0:0:0:0:
448,192,113081,1,0,0:0:0:0:
192,192,113159,1,0,0:0:0:0:
64,192,113159,128,0,113315:0:0:0:0:
448,192,113237,1,0,0:0:0:0:
320,192,113315,1,0,0:0:0:0:
192,192,113315,1,0,0:0:0:0:
64,192,113393,1,0,0:0:0:0:
448,192,113393,1,0,0:0:0:0:
192,192,113472,1,0,0:0:0:0:
320,192,113472,1,0,0:0:0:0:
192,192,113628,1,0,0:0:0:0:
320,192,113628,1,0,0:0:0:0:
192,192,113784,1,0,0:0:0:0:
64,192,113784,1,0,0:0:0:0:
448,192,113784,1,0,0:0:0:0:
192,192,113940,1,0,0:0:0:0:
320,192,113940,1,0,0:0:0:0:
320,192,114097,1,0,0:0:0:0:
192,192,114097,1,0,0:0:0:0:
64,192,114253,1,0,0:0:0:0:
320,192,114253,1,0,0:0:0:0:
448,192,114253,1,0,0:0:0:0:
192,192,114409,1,0,0:0:0:0:
320,192,114409,1,0,0:0:0:0:
64,192,114565,1,0,0:0:0:0:
448,192,114565,1,0,0:0:0:0:
320,192,114643,1,0,0:0:0:0:
192,192,114643,1,0,0:0:0:0:
64,192,114722,1,0,0:0:0:0:
448,192,114722,1,0,0:0:0:0:
320,192,114722,1,0,0:0:0:0:
192,192,114722,1,0,0:0:0:0:
192,192,114878,1,0,0:0:0:0:
320,192,114878,1,0,0:0:0:0:
448,192,115190,1,0,0:0:0:0:
320,192,115268,1,0,0:0:0:0:
192,192,115347,1,0,0:0:0:0:
64,192,115347,1,0,0:0:0:0:
192,192,115503,1,0,0:0:0:0:
320,192,115581,1,0,0:0:0:0:
192,192,115659,1,0,0:0:0:0:
64,192,115659,1,0,0:0:0:0:
448,192,115659,1,0,0:0:0:0:
320,192,115815,1,0,0:0:0:0:
448,192,115815,1,0,0:0:0:0:
64,192,115815,1,0,0:0:0:0:
64,192,116128,1,0,0:0:0:0:
192,192,116206,1,0,0:0:0:0:
320,192,116284,1,0,0:0:0:0:
448,192,116284,1,0,0:0:0:0:
448,192,116440,1,0,0:0:0:0:
320,192,116518,1,0,0:0:0:0:
192,192,116597,1,0,0:0:0:0:
64,192,116597,1,0,0:0:0:0:
448,192,116597,1,0,0:0:0:0:
64,192,116753,1,0,0:0:0:0:
320,192,116753,1,0,0:0:0:0:
448,192,116753,1,0,0:0:0:0:
192,192,116909,1,0,0:0:0:0:
64,192,116909,1,0,0:0:0:0:
448,192,116909,1,0,0:0:0:0:
320,192,117065,1,0,0:0:0:0:
448,192,117065,1,0,0:0:0:0:
64,192,117065,1,0,0:0:0:0:
64,192,117222,1,0,0:0:0:0:
192,192,117222,1,0,0:0:0:0:
320,192,117222,1,0,0:0:0:0:
320,192,117378,1,0,0:0:0:0:
192,192,117378,1,0,0:0:0:0:
64,192,117378,1,0,0:0:0:0:
320,192,117690,1,0,0:0:0:0:
448,192,117768,1,0,0:0:0:0:
192,192,117847,1,0,0:0:0:0:
64,192,117847,1,0,0:0:0:0:
192,192,118003,1,0,0:0:0:0:
64,192,118081,1,0,0:0:0:0:
192,192,118159,1,0,0:0:0:0:
320,192,118159,1,0,0:0:0:0:
448,192,118159,1,0,0:0:0:0:
320,192,118315,1,0,0:0:0:0:
192,192,118315,1,0,0:0:0:0:
64,192,118315,1,0,0:0:0:0:
320,192,118628,1,0,0:0:0:0:
64,192,118706,1,0,0:0:0:0:
192,192,118784,1,0,0:0:0:0:
448,192,118784,1,0,0:0:0:0:
192,192,118940,1,0,0:0:0:0:
448,192,119018,1,0,0:0:0:0:
320,192,119097,1,0,0:0:0:0:
192,192,119097,1,0,0:0:0:0:
64,192,119097,1,0,0:0:0:0:
192,192,119253,1,0,0:0:0:0:
320,192,119253,1,0,0:0:0:0:
448,192,119253,1,0,0:0:0:0:
320,192,119409,1,0,0:0:0:0:
192,192,119409,1,0,0:0:0:0:
64,192,119409,1,0,0:0:0:0:
192,192,119565,1,0,0:0:0:0:
320,192,119565,1,0,0:0:0:0:
448,192,119565,1,0,0:0:0:0:
64,192,119722,1,0,0:0:0:0:
192,192,119722,1,0,0:0:0:0:
320,192,119722,1,0,0:0:0:0:
448,192,119722,1,0,0:0:0:0:
448,192,119878,1,0,0:0:0:0:
64,192,119878,1,0,0:0:0:0:
192,192,119878,1,0,0:0:0:0:
192,192,120190,1,0,0:0:0:0:
320,192,120268,1,0,0:0:0:0:
64,192,120347,1,0,0:0:0:0:
448,192,120347,1,0,0:0:0:0:
320,192,120503,1,0,0:0:0:0:
192,192,120581,1,0,0:0:0:0:
64,192,120659,1,0,0:0:0:0:
320,192,120659,1,0,0:0:0:0:
448,192,120659,1,0,0:0:0:0:
64,192,120815,1,0,0:0:0:0:
192,192,120815,1,0,0:0:0:0:
448,192,120815,1,0,0:0:0:0:
64,192,121128,1,0,0:0:0:0:
448,192,121206,1,0,0:0:0:0:
192,192,121284,1,0,0:0:0:0:
64,192,121284,1,0,0:0:0:0:
448,192,121440,1,0,0:0:0:0:
64,192,121518,1,0,0:0:0:0:
192,192,121597,1,0,0:0:0:0:
320,192,121597,1,0,0:0:0:0:
448,192,121597,1,0,0:0:0:0:
320,192,121753,1,0,0:0:0:0:
448,192,121753,1,0,0:0:0:0:
192,192,121753,1,0,0:0:0:0:
192,192,121909,1,0,0:0:0:0:
64,192,121909,1,0,0:0:0:0:
320,192,121909,1,0,0:0:0:0:
320,192,122065,1,0,0:0:0:0:
192,192,122065,1,0,0:0:0:0:
64,192,122065,1,0,0:0:0:0:
64,192,122222,1,0,0:0:0:0:
320,192,122222,1,0,0:0:0:0:
448,192,122222,1,0,0:0:0:0:
448,192,122378,1,0,0:0:0:0:
320,192,122378,1,0,0:0:0:0:
64,192,122378,1,0,0:0:0:0:
448,192,122690,1,0,0:0:0:0:
192,192,122768,1,0,0:0:0:0:
320,192,122847,1,0,0:0:0:0:
448,192,122847,1,0,0:0:0:0:
64,192,123003,1,0,0:0:0:0:
320,192,123081,1,0,0:0:0:0:
192,192,123159,1,0,0:0:0:0:
64,192,123159,1,0,0:0:0:0:
448,192,123159,1,0,0:0:0:0:
64,192,123315,1,0,0:0:0:0:
192,192,123315,1,0,0:0:0:0:
448,192,123315,1,0,0:0:0:0:
448,192,123628,1,0,0:0:0:0:
320,192,123706,1,0,0:0:0:0:
448,192,123784,1,0,0:0:0:0:
192,192,123784,1,0,0:0:0:0:
64,192,123940,1,0,0:0:0:0:
192,192,124018,1,0,0:0:0:0:
64,192,124097,1,0,0:0:0:0:
448,192,124097,1,0,0:0:0:0:
192,192,124175,1,0,0:0:0:0:
320,192,124175,1,0,0:0:0:0:
64,192,124253,1,0,0:0:0:0:
448,192,124253,1,0,0:0:0:0:
192,192,124331,1,0,0:0:0:0:
320,192,124331,1,0,0:0:0:0:
64,192,124409,1,0,0:0:0:0:
448,192,124409,1,0,0:0:0:0:
64,192,124565,1,0,0:0:0:0:
320,192,124565,1,0,0:0:0:0:
448,192,124565,1,0,0:0:0:0:
192,192,124878,1,0,0:0:0:0:
320,192,124956,1,0,0:0:0:0:
64,192,125034,1,0,0:0:0:0:
448,192,125034,1,0,0:0:0:0:
192,192,125112,1,0,0:0:0:0:
320,192,125190,1,0,0:0:0:0:
448,192,125190,1,0,0:0:0:0:
64,192,125268,1,0,0:0:0:0:
192,192,125347,1,0,0:0:0:0:
320,192,125347,1,0,0:0:0:0:
448,192,125425,1,0,0:0:0:0:
192,192,125503,1,0,0:0:0:0:
64,192,125503,1,0,0:0:0:0:
448,192,125581,1,0,0:0:0:0:
320,192,125659,1,0,0:0:0:0:
192,192,125659,1,0,0:0:0:0:
64,192,125737,1,0,0:0:0:0:
320,192,125815,1,0,0:0:0:0:
448,192,125815,1,0,0:0:0:0:
64,192,125893,1,0,0:0:0:0:
192,192,125972,1,0,0:0:0:0:
320,192,125972,1,0,0:0:0:0:
448,192,126050,1,0,0:0:0:0:
192,192,126128,1,0,0:0:0:0:
64,192,126128,1,0,0:0:0:0:
448,192,126206,1,0,0:0:0:0:
192,192,126284,1,0,0:0:0:0:
320,192,126284,1,0,0:0:0:0:
64,192,126362,1,0,0:0:0:0:
320,192,126440,1,0,0:0:0:0:
448,192,126440,1,0,0:0:0:0:
64,192,126518,1,0,0:0:0:0:
192,192,126597,128,0,126909:0:0:0:0:
320,192,126597,128,0,126909:0:0:0:0:
64,192,126909,128,0,127222:0:0:0:0:
448,192,126909,128,0,127222:0:0:0:0:
192,192,127222,1,0,0:0:0:0:
320,192,127222,1,0,0:0:0:0:
192,192,127378,1,0,0:0:0:0:
320,192,127378,1,0,0:0:0:0:
64,192,127534,1,0,0:0:0:0:
448,192,127534,1,0,0:0:0:0:
192,192,127690,1,0,0:0:0:0:
320,192,127690,1,0,0:0:0:0:
448,192,127847,1,0,0:0:0:0:
64,192,127847,1,0,0:0:0:0:
320,192,127925,1,0,0:0:0:0:
64,192,128003,1,0,0:0:0:0:
448,192,128003,1,0,0:0:0:0:
192,192,128081,1,0,0:0:0:0:
448,192,128159,1,0,0:0:0:0:
64,192,128159,1,0,0:0:0:0:
192,192,128315,1,0,0:0:0:0:
320,192,128315,1,0,0:0:0:0:
64,192,128472,1,0,0:0:0:0:
448,192,128472,1,0,0:0:0:0:
192,192,128550,1,0,0:0:0:0:
64,192,128628,1,0,0:0:0:0:
448,192,128628,1,0,0:0:0:0:
320,192,128706,1,0,0:0:0:0:
64,192,128784,1,0,0:0:0:0:
448,192,128784,1,0,0:0:0:0:
320,192,128940,1,0,0:0:0:0:
192,192,128940,1,0,0:0:0:0:
64,192,129097,128,0,129409:0:0:0:0:
448,192,129097,128,0,129409:0:0:0:0:
192,192,129409,128,0,129722:0:0:0:0:
320,192,129409,128,0,129722:0:0:0:0:
64,192,129722,1,0,0:0:0:0:
448,192,129722,1,0,0:0:0:0:
64,192,129878,1,0,0:0:0:0:
448,192,129878,1,0,0:0:0:0:
192,192,130034,1,0,0:0:0:0:
320,192,130034,1,0,0:0:0:0:
320,192,130190,1,0,0:0:0:0:
192,192,130190,1,0,0:0:0:0:
64,192,130347,1,0,0:0:0:0:
192,192,130347,1,0,0:0:0:0:
448,192,130425,1,0,0:0:0:0:
320,192,130503,1,0,0:0:0:0:
192,192,130503,1,0,0:0:0:0:
64,192,130581,1,0,0:0:0:0:
320,192,130659,1,0,0:0:0:0:
448,192,130659,1,0,0:0:0:0:
64,192,130737,1,0,0:0:0:0:
192,192,130815,1,0,0:0:0:0:
320,192,130815,1,0,0:0:0:0:
448,192,130893,1,0,0:0:0:0:
192,192,130972,1,0,0:0:0:0:
64,192,130972,1,0,0:0:0:0:
320,192,131050,1,0,0:0:0:0:
64,192,131128,1,0,0:0:0:0:
448,192,131128,1,0,0:0:0:0:
192,192,131206,1,0,0:0:0:0:
64,192,131284,1,0,0:0:0:0:
448,192,131284,1,0,0:0:0:0:
320,192,131362,1,0,0:0:0:0:
64,192,131440,1,0,0:0:0:0:
448,192,131440,1,0,0:0:0:0:
192,192,131518,1,0,0:0:0:0:
64,192,131597,128,0,131753:0:0:0:0:
448,192,131597,128,0,131753:0:0:0:0:
192,192,131753,1,0,0:0:0:0:
320,192,131831,1,0,0:0:0:0:
64,192,131909,128,0,132222:0:0:0:0:
448,192,131909,128,0,132222:0:0:0:0:
192,192,132222,1,0,0:0:0:0:
320,192,132222,1,0,0:0:0:0:
192,192,132534,1,0,0:0:0:0:
448,192,132534,1,0,0:0:0:0:
64,192,132534,1,0,0:0:0:0:
192,192,132847,1,0,0:0:0:0:
320,192,132847,1,0,0:0:0:0:
64,192,132847,1,0,0:0:0:0:
64,192,133159,1,0,0:0:0:0:
320,192,133159,1,0,0:0:0:0:
448,192,133159,1,0,0:0:0:0:
448,192,133472,1,0,0:0:0:0:
64,192,133472,1,0,0:0:0:0:
192,192,133472,1,0,0:0:0:0:
64,192,133784,1,0,0:0:0:0:
448,192,133784,1,0,0:0:0:0:
320,192,133784,1,0,0:0:0:0:
192,192,134097,1,0,0:0:0:0:
320,192,134097,1,0,0:0:0:0:
448,192,134097,1,0,0:0:0:0:
64,192,134409,1,0,0:0:0:0:
320,192,134409,1,0,0:0:0:0:
448,192,134409,1,0,0:0:0:0:
64,192,134565,1,0,0:0:0:0:
192,192,134565,1,0,0:0:0:0:
320,192,134643,1,0,0:0:0:0:
448,192,134643,1,0,0:0:0:0:
192,192,134722,1,0,0:0:0:0:
64,192,134722,1,0,0:0:0:0:
448,192,134722,1,0,0:0:0:0:
320,192,134800,1,0,0:0:0:0:
192,192,134878,1,0,0:0:0:0:
320,192,134956,1,0,0:0:0:0:
448,192,135034,1,0,0:0:0:0:
64,192,135034,1,0,0:0:0:0:
192,192,135112,1,0,0:0:0:0:
320,192,135190,1,0,0:0:0:0:
192,192,135268,1,0,0:0:0:0:
448,192,135347,1,0,0:0:0:0:
64,192,135347,1,0,0:0:0:0:
320,192,135425,1,0,0:0:0:0:
192,192,135503,1,0,0:0:0:0:
320,192,135581,1,0,0:0:0:0:
64,192,135659,1,0,0:0:0:0:
448,192,135659,1,0,0:0:0:0:
192,192,135737,1,0,0:0:0:0:
320,192,135815,1,0,0:0:0:0:
192,192,135893,1,0,0:0:0:0:
64,192,135972,1,0,0:0:0:0:
448,192,135972,1,0,0:0:0:0:
192,192,136050,1,0,0:0:0:0:
320,192,136128,1,0,0:0:0:0:
448,192,136206,1,0,0:0:0:0:
64,192,136284,1,0,0:0:0:0:
320,192,136284,1,0,0:0:0:0:
192,192,136362,1,0,0:0:0:0:
320,192,136440,1,0,0:0:0:0:
448,192,136518,1,0,0:0:0:0:
64,192,136597,1,0,0:0:0:0:
192,192,136597,1,0,0:0:0:0:
320,192,136675,1,0,0:0:0:0:
192,192,136753,1,0,0:0:0:0:
64,192,136831,1,0,0:0:0:0:
192,192,136909,1,0,0:0:0:0:
448,192,136909,1,0,0:0:0:0:
320,192,136987,1,0,0:0:0:0:
192,192,137065,1,0,0:0:0:0:
64,192,137143,1,0,0:0:0:0:
320,192,137222,1,0,0:0:0:0:
448,192,137222,1,0,0:0:0:0:
64,192,137300,1,0,0:0:0:0:
192,192,137378,1,0,0:0:0:0:
64,192,137456,1,0,0:0:0:0:
320,192,137534,1,0,0:0:0:0:
448,192,137534,1,0,0:0:0:0:
64,192,137612,1,0,0:0:0:0:
192,192,137690,1,0,0:0:0:0:
64,192,137768,1,0,0:0:0:0:
320,192,137847,1,0,0:0:0:0:
448,192,137847,1,0,0:0:0:0:
192,192,137925,1,0,0:0:0:0:
64,192,138003,1,0,0:0:0:0:
192,192,138081,1,0,0:0:0:0:
320,192,138159,1,0,0:0:0:0:
448,192,138159,1,0,0:0:0:0:
192,192,138237,1,0,0:0:0:0:
64,192,138315,1,0,0:0:0:0:
192,192,138393,1,0,0:0:0:0:
448,192,138472,1,0,0:0:0:0:
64,192,138472,1,0,0:0:0:0:
320,192,138550,1,0,0:0:0:0:
448,192,138628,1,0,0:0:0:0:
320,192,138706,1,0,0:0:0:0:
192,192,138784,1,0,0:0:0:0:
64,192,138784,1,0,0:0:0:0:
320,192,138862,1,0,0:0:0:0:
448,192,138940,1,0,0:0:0:0:
320,192,139018,1,0,0:0:0:0:
192,192,139097,1,0,0:0:0:0:
64,192,139097,1,0,0:0:0:0:
448,192,139175,1,0,0:0:0:0:
320,192,139253,1,0,0:0:0:0:
448,192,139331,1,0,0:0:0:0:
192,192,139409,1,0,0:0:0:0:
64,192,139409,1,0,0:0:0:0:
448,192,139487,1,0,0:0:0:0:
320,192,139565,1,0,0:0:0:0:
448,192,139643,1,0,0:0:0:0:
192,192,139722,1,0,0:0:0:0:
64,192,139722,1,0,0:0:0:0:
320,192,139722,1,0,0:0:0:0:
192,192,139878,1,0,0:0:0:0:
320,192,139878,1,0,0:0:0:0:
320,192,140034,1,0,0:0:0:0:
448,192,140034,1,0,0:0:0:0:
64,192,140112,1,0,0:0:0:0:
320,192,140190,1,0,0:0:0:0:
448,192,140190,1,0,0:0:0:0:
192,192,140268,1,0,0:0:0:0:
320,192,140347,1,0,0:0:0:0:
448,192,140347,1,0,0:0:0:0:
64,192,140425,1,0,0:0:0:0:
320,192,140503,1,0,0:0:0:0:
448,192,140503,1,0,0:0:0:0:
192,192,140581,1,0,0:0:0:0:
320,192,140659,1,0,0:0:0:0:
448,192,140659,1,0,0:0:0:0:
64,192,140737,1,0,0:0:0:0:
320,192,140815,1,0,0:0:0:0:
448,192,140815,1,0,0:0:0:0:
192,192,140893,1,0,0:0:0:0:
320,192,140972,1,0,0:0:0:0:
448,192,140972,1,0,0:0:0:0:
320,192,141128,1,0,0:0:0:0:
192,192,141128,1,0,0:0:0:0:
192,192,141284,1,0,0:0:0:0:
64,192,141284,1,0,0:0:0:0:
448,192,141362,1,0,0:0:0:0:
192,192,141440,1,0,0:0:0:0:
64,192,141440,1,0,0:0:0:0:
320,192,141518,1,0,0:0:0:0:
192,192,141597,1,0,0:0:0:0:
64,192,141597,1,0,0:0:0:0:
448,192,141675,1,0,0:0:0:0:
192,192,141753,1,0,0:0:0:0:
64,192,141753,1,0,0:0:0:0:
320,192,141831,1,0,0:0:0:0:
192,192,141909,1,0,0:0:0:0:
64,192,141909,1,0,0:0:0:0:
448,192,141987,1,0,0:0:0:0:
192,192,142065,1,0,0:0:0:0:
64,192,142065,1,0,0:0:0:0:
320,192,142143,1,0,0:0:0:0:
192,192,142222,1,0,0:0:0:0:
64,192,142222,1,0,0:0:0:0:
192,192,142378,1,0,0:0:0:0:
320,192,142378,1,0,0:0:0:0:
320,192,142534,1,0,0:0:0:0:
448,192,142534,1,0,0:0:0:0:
192,192,142612,1,0,0:0:0:0:
320,192,142690,1,0,0:0:0:0:
448,192,142690,1,0,0:0:0:0:
64,192,142768,1,0,0:0:0:0:
448,192,142847,1,0,0:0:0:0:
320,192,142847,1,0,0:0:0:0:
192,192,142925,1,0,0:0:0:0:
320,192,143003,1,0,0:0:0:0:
448,192,143003,1,0,0:0:0:0:
192,192,143159,1,0,0:0:0:0:
320,192,143159,1,0,0:0:0:0:
64,192,143315,1,0,0:0:0:0:
192,192,143315,1,0,0:0:0:0:
320,192,143393,1,0,0:0:0:0:
192,192,143472,1,0,0:0:0:0:
64,192,143472,1,0,0:0:0:0:
448,192,143550,1,0,0:0:0:0:
64,192,143628,1,0,0:0:0:0:
192,192,143628,1,0,0:0:0:0:
320,192,143706,1,0,0:0:0:0:
192,192,143784,1,0,0:0:0:0:
64,192,143784,1,0,0:0:0:0:
192,192,143940,1,0,0:0:0:0:
320,192,143940,1,0,0:0:0:0:
320,192,144097,1,0,0:0:0:0:
448,192,144097,1,0,0:0:0:0:
64,192,144175,1,0,0:0:0:0:
192,192,144253,1,0,0:0:0:0:
320,192,144253,1,0,0:0:0:0:
448,192,144331,1,0,0:0:0:0:
192,192,144409,1,0,0:0:0:0:
64,192,144409,1,0,0:0:0:0:
448,192,144487,1,0,0:0:0:0:
192,192,144565,1,0,0:0:0:0:
320,192,144565,1,0,0:0:0:0:
64,192,144643,1,0,0:0:0:0:
320,192,144722,1,0,0:0:0:0:
448,192,144722,1,0,0:0:0:0:
192,192,144722,1,0,0:0:0:0:
320,192,144800,1,0,0:0:0:0:
64,192,144878,1,0,0:0:0:0:
192,192,144956,1,0,0:0:0:0:
64,192,145034,1,0,0:0:0:0:
320,192,145034,1,0,0:0:0:0:
448,192,145034,1,0,0:0:0:0:
320,192,145112,1,0,0:0:0:0:
64,192,145190,1,0,0:0:0:0:
320,192,145268,1,0,0:0:0:0:
192,192,145347,1,0,0:0:0:0:
64,192,145347,1,0,0:0:0:0:
448,192,145347,1,0,0:0:0:0:
192,192,145425,1,0,0:0:0:0:
448,192,145503,1,0,0:0:0:0:
320,192,145581,1,0,0:0:0:0:
64,192,145659,1,0,0:0:0:0:
448,192,145659,1,0,0:0:0:0:
192,192,145659,1,0,0:0:0:0:
192,192,145737,1,0,0:0:0:0:
448,192,145815,1,0,0:0:0:0:
192,192,145893,1,0,0:0:0:0:
64,192,145972,1,0,0:0:0:0:
320,192,145972,1,0,0:0:0:0:
448,192,145972,1,0,0:0:0:0:
448,192,146050,1,0,0:0:0:0:
64,192,146128,1,0,0:0:0:0:
448,192,146206,1,0,0:0:0:0:
320,192,146284,1,0,0:0:0:0:
192,192,146284,1,0,0:0:0:0:
64,192,146284,1,0,0:0:0:0:
64,192,146362,1,0,0:0:0:0:
448,192,146440,1,0,0:0:0:0:
64,192,146518,1,0,0:0:0:0:
192,192,146597,1,0,0:0:0:0:
320,192,146597,1,0,0:0:0:0:
448,192,146597,1,0,0:0:0:0:
448,192,146675,1,0,0:0:0:0:
64,192,146753,1,0,0:0:0:0:
448,192,146831,1,0,0:0:0:0:
64,192,146909,1,0,0:0:0:0:
192,192,146909,1,0,0:0:0:0:
320,192,146909,1,0,0:0:0:0:
64,192,146987,1,0,0:0:0:0:
448,192,147065,1,0,0:0:0:0:
64,192,147143,1,0,0:0:0:0:
192,192,147222,1,0,0:0:0:0:
320,192,147222,1,0,0:0:0:0:
448,192,147222,1,0,0:0:0:0:
448,192,147300,1,0,0:0:0:0:
320,192,147378,1,0,0:0:0:0:
192,192,147456,1,0,0:0:0:0:
64,192,147534,1,0,0:0:0:0:
192,192,147534,1,0,0:0:0:0:
448,192,147534,1,0,0:0:0:0:
448,192,147612,1,0,0:0:0:0:
320,192,147690,1,0,0:0:0:0:
192,192,147768,1,0,0:0:0:0:
64,192,147847,1,0,0:0:0:0:
192,192,147847,1,0,0:0:0:0:
448,192,147847,1,0,0:0:0:0:
64,192,147925,1,0,0:0:0:0:
192,192,148003,1,0,0:0:0:0:
320,192,148081,1,0,0:0:0:0:
64,192,148159,1,0,0:0:0:0:
320,192,148159,1,0,0:0:0:0:
448,192,148159,1,0,0:0:0:0:
64,192,148237,1,0,0:0:0:0:
192,192,148315,1,0,0:0:0:0:
320,192,148393,1,0,0:0:0:0:
64,192,148472,1,0,0:0:0:0:
320,192,148472,1,0,0:0:0:0:
192,192,148472,1,0,0:0:0:0:
192,192,148550,1,0,0:0:0:0:
320,192,148628,1,0,0:0:0:0:
192,192,148706,1,0,0:0:0:0:
320,192,148784,1,0,0:0:0:0:
448,192,148784,1,0,0:0:0:0:
64,192,148784,1,0,0:0:0:0:
320,192,148862,1,0,0:0:0:0:
192,192,148940,1,0,0:0:0:0:
320,192,149018,1,0,0:0:0:0:
64,192,149097,1,0,0:0:0:0:
192,192,149097,1,0,0:0:0:0:
448,192,149097,1,0,0:0:0:0:
448,192,149175,1,0,0:0:0:0:
320,192,149253,1,0,0:0:0:0:
192,192,149331,1,0,0:0:0:0:
64,192,149409,1,0,0:0:0:0:
192,192,149409,1,0,0:0:0:0:
448,192,149409,1,0,0:0:0:0:
64,192,149487,1,0,0:0:0:0:
192,192,149565,1,0,0:0:0:0:
320,192,149643,1,0,0:0:0:0:
64,192,149722,1,0,0:0:0:0:
320,192,149722,1,0,0:0:0:0:
448,192,149722,1,0,0:0:0:0:
192,192,150034,1,0,0:0:0:0:
64,192,150347,1,0,0:0:0:0:
192,192,150659,1,0,0:0:0:0:
320,192,150972,1,0,0:0:0:0:
448,192,151284,1,0,0:0:0:0:
64,192,151597,1,0,0:0:0:0:
448,192,151597,1,0,0:0:0:0:
320,192,151675,1,0,0:0:0:0:
192,192,151675,1,0,0:0:0:0:
64,192,151753,1,0,0:0:0:0:
448,192,151753,1,0,0:0:0:0:
192,192,151831,1,0,0:0:0:0:
320,192,151831,1,0,0:0:0:0:
64,192,151909,1,0,0:0:0:0:
448,192,151909,1,0,0:0:0:0:
64,192,152222,1,0,0:0:0:0:
320,192,152222,1,0,0:0:0:0:
448,192,152222,1,0,0:0:0:0:
320,192,152378,1,0,0:0:0:0:
64,192,152534,1,0,0:0:0:0:
192,192,152534,1,0,0:0:0:0:
448,192,152534,1,0,0:0:0:0:
192,192,152690,1,0,0:0:0:0:
64,192,152847,1,0,0:0:0:0:
320,192,152847,1,0,0:0:0:0:
192,192,153003,1,0,0:0:0:0:
448,192,153003,1,0,0:0:0:0:
64,192,153081,1,0,0:0:0:0:
320,192,153081,1,0,0:0:0:0:
192,192,153159,1,0,0:0:0:0:
448,192,153159,1,0,0:0:0:0:
320,192,153315,1,0,0:0:0:0:
64,192,153315,1,0,0:0:0:0:
64,192,153472,1,0,0:0:0:0:
192,192,153472,1,0,0:0:0:0:
448,192,153472,1,0,0:0:0:0:
192,192,153680,1,0,0:0:0:0:
320,192,153732,1,0,0:0:0:0:
64,192,153784,1,0,0:0:0:0:
448,192,153784,1,0,0:0:0:0:
320,192,153940,1,0,0:0:0:0:
192,192,153940,1,0,0:0:0:0:
64,192,154097,1,0,0:0:0:0:
192,192,154097,1,0,0:0:0:0:
448,192,154136,1,0,0:0:0:0:
320,192,154175,1,0,0:0:0:0:
192,192,154214,1,0,0:0:0:0:
64,192,154253,1,0,0:0:0:0:
448,192,154292,1,0,0:0:0:0:
320,192,154331,1,0,0:0:0:0:
192,192,154370,1,0,0:0:0:0:
64,192,154409,1,0,0:0:0:0:
448,192,154448,1,0,0:0:0:0:
320,192,154487,1,0,0:0:0:0:
192,192,154526,1,0,0:0:0:0:
64,192,154565,1,0,0:0:0:0:
448,192,154604,1,0,0:0:0:0:
320,192,154643,1,0,0:0:0:0:
192,192,154682,1,0,0:0:0:0:
64,192,154722,1,0,0:0:0:0:
448,192,154722,128,0,155347:0:0:0:0:
64,192,155034,1,0,0:0:0:0:
192,192,155034,1,0,0:0:0:0:
320,192,155034,1,0,0:0:0:0:
64,192,155347,128,0,155581:0:0:0:0:
192,192,155347,1,0,0:0:0:0:
192,192,155581,128,0,155815:0:0:0:0:
64,192,155659,1,0,0:0:0:0:
320,192,155659,1,0,0:0:0:0:
448,192,155659,1,0,0:0:0:0:
320,192,155815,128,0,155972:0:0:0:0:
448,192,155972,128,0,156597:0:0:0:0:
64,192,155972,1,0,0:0:0:0:
64,192,156284,1,0,0:0:0:0:
192,192,156284,1,0,0:0:0:0:
320,192,156284,1,0,0:0:0:0:
320,192,156597,128,0,156831:0:0:0:0:
192,192,156597,1,0,0:0:0:0:
64,192,156597,1,0,0:0:0:0:
192,192,156831,128,0,157065:0:0:0:0:
64,192,156909,1,0,0:0:0:0:
320,192,156909,1,0,0:0:0:0:
448,192,156909,1,0,0:0:0:0:
448,192,157065,128,0,157222:0:0:0:0:
64,192,157222,128,0,157847:0:0:0:0:
320,192,157222,1,0,0:0:0:0:
192,192,157534,1,0,0:0:0:0:
320,192,157534,1,0,0:0:0:0:
448,192,157534,1,0,0:0:0:0:
192,192,157847,128,0,158081:0:0:0:0:
448,192,157847,1,0,0:0:0:0:
320,192,158081,128,0,158315:0:0:0:0:
192,192,158159,1,0,0:0:0:0:
64,192,158159,1,0,0:0:0:0:
448,192,158159,1,0,0:0:0:0:
448,192,158315,128,0,158472:0:0:0:0:
192,192,158472,128,0,158940:0:0:0:0:
64,192,158472,1,0,0:0:0:0:
64,192,158784,1,0,0:0:0:0:
320,192,158784,1,0,0:0:0:0:
448,192,158784,1,0,0:0:0:0:
64,192,158940,128,0,159097:0:0:0:0:
448,192,159097,128,0,159409:0:0:0:0:
320,192,159097,1,0,0:0:0:0:
320,192,159409,1,0,0:0:0:0:
192,192,159409,1,0,0:0:0:0:
64,192,159409,1,0,0:0:0:0:
64,192,159722,1,0,0:0:0:0:
320,192,159722,1,0,0:0:0:0:
448,192,159722,1,0,0:0:0:0:
192,192,159722,128,0,160347:0:0:0:0:
320,192,159878,1,0,0:0:0:0:
64,192,160034,1,0,0:0:0:0:
320,192,160034,1,0,0:0:0:0:
448,192,160034,1,0,0:0:0:0:
64,192,160190,1,0,0:0:0:0:
320,192,160347,128,0,160581:0:0:0:0:
448,192,160347,1,0,0:0:0:0:
192,192,160503,1,0,0:0:0:0:
64,192,160581,128,0,160815:0:0:0:0:
192,192,160659,1,0,0:0:0:0:
320,192,160659,1,0,0:0:0:0:
448,192,160659,1,0,0:0:0:0:
192,192,160815,128,0,160972:0:0:0:0:
448,192,160972,128,0,161597:0:0:0:0:
64,192,160972,1,0,0:0:0:0:
192,192,161128,1,0,0:0:0:0:
320,192,161284,1,0,0:0:0:0:
192,192,161284,1,0,0:0:0:0:
64,192,161284,1,0,0:0:0:0:
192,192,161440,1,0,0:0:0:0:
320,192,161597,128,0,161831:0:0:0:0:
64,192,161597,1,0,0:0:0:0:
448,192,161753,1,0,0:0:0:0:
192,192,161831,128,0,162065:0:0:0:0:
320,192,161909,1,0,0:0:0:0:
448,192,161909,1,0,0:0:0:0:
64,192,161909,1,0,0:0:0:0:
64,192,162065,128,0,162222:0:0:0:0:
320,192,162222,128,0,162847:0:0:0:0:
448,192,162222,1,0,0:0:0:0:
192,192,162378,1,0,0:0:0:0:
192,192,162534,1,0,0:0:0:0:
64,192,162534,1,0,0:0:0:0:
448,192,162534,1,0,0:0:0:0:
448,192,162690,1,0,0:0:0:0:
192,192,162847,128,0,163081:0:0:0:0:
64,192,162847,1,0,0:0:0:0:
448,192,163003,1,0,0:0:0:0:
320,192,163081,128,0,163315:0:0:0:0:
64,192,163159,1,0,0:0:0:0:
192,192,163159,1,0,0:0:0:0:
448,192,163159,1,0,0:0:0:0:
64,192,163315,128,0,163472:0:0:0:0:
448,192,163472,128,0,164409:0:0:0:0:
192,192,163472,1,0,0:0:0:0:
192,192,163628,1,0,0:0:0:0:
64,192,163628,1,0,0:0:0:0:
320,192,163628,1,0,0:0:0:0:
192,192,163784,1,0,0:0:0:0:
192,192,163940,1,0,0:0:0:0:
64,192,164097,1,0,0:0:0:0:
320,192,164097,1,0,0:0:0:0:
192,192,164253,1,0,0:0:0:0:
64,192,164409,1,0,0:0:0:0:
192,192,164409,1,0,0:0:0:0:
320,192,164409,1,0,0:0:0:0:
64,192,164722,1,0,0:0:0:0:
448,192,164722,1,0,0:0:0:0:
192,192,164722,128,0,165347:0:0:0:0:
320,192,164800,1,0,0:0:0:0:
64,192,164878,1,0,0:0:0:0:
320,192,164956,1,0,0:0:0:0:
448,192,165034,1,0,0:0:0:0:
64,192,165034,1,0,0:0:0:0:
320,192,165112,1,0,0:0:0:0:
448,192,165190,1,0,0:0:0:0:
320,192,165268,1,0,0:0:0:0:
448,192,165347,128,0,165581:0:0:0:0:
64,192,165347,1,0,0:0:0:0:
192,192,165425,1,0,0:0:0:0:
64,192,165503,1,0,0:0:0:0:
320,192,165581,128,0,165815:0:0:0:0:
192,192,165659,1,0,0:0:0:0:
64,192,165659,1,0,0:0:0:0:
448,192,165737,1,0,0:0:0:0:
64,192,165815,128,0,165972:0:0:0:0:
192,192,165815,1,0,0:0:0:0:
320,192,165893,1,0,0:0:0:0:
448,192,165972,128,0,166597:0:0:0:0:
192,192,165972,1,0,0:0:0:0:
320,192,166050,1,0,0:0:0:0:
192,192,166128,1,0,0:0:0:0:
64,192,166206,1,0,0:0:0:0:
320,192,166284,1,0,0:0:0:0:
192,192,166284,1,0,0:0:0:0:
64,192,166362,1,0,0:0:0:0:
320,192,166440,1,0,0:0:0:0:
192,192,166518,1,0,0:0:0:0:
320,192,166597,128,0,166831:0:0:0:0:
64,192,166597,1,0,0:0:0:0:
192,192,166675,1,0,0:0:0:0:
448,192,166753,1,0,0:0:0:0:
192,192,166831,128,0,167065:0:0:0:0:
64,192,166909,1,0,0:0:0:0:
448,192,166909,1,0,0:0:0:0:
320,192,166987,1,0,0:0:0:0:
448,192,167065,128,0,167222:0:0:0:0:
64,192,167065,1,0,0:0:0:0:
320,192,167143,1,0,0:0:0:0:
64,192,167222,128,0,167847:0:0:0:0:
192,192,167222,1,0,0:0:0:0:
320,192,167300,1,0,0:0:0:0:
448,192,167378,1,0,0:0:0:0:
192,192,167456,1,0,0:0:0:0:
320,192,167534,1,0,0:0:0:0:
448,192,167534,1,0,0:0:0:0:
192,192,167612,1,0,0:0:0:0:
448,192,167690,1,0,0:0:0:0:
320,192,167768,1,0,0:0:0:0:
192,192,167847,128,0,168081:0:0:0:0:
448,192,167847,1,0,0:0:0:0:
320,192,167925,1,0,0:0:0:0:
64,192,168003,1,0,0:0:0:0:
320,192,168081,128,0,168315:0:0:0:0:
192,192,168159,1,0,0:0:0:0:
64,192,168159,1,0,0:0:0:0:
448,192,168237,1,0,0:0:0:0:
192,192,168315,128,0,168472:0:0:0:0:
64,192,168315,1,0,0:0:0:0:
320,192,168393,1,0,0:0:0:0:
448,192,168472,128,0,168940:0:0:0:0:
64,192,168472,1,0,0:0:0:0:
192,192,168550,1,0,0:0:0:0:
320,192,168628,1,0,0:0:0:0:
192,192,168706,1,0,0:0:0:0:
64,192,168784,1,0,0:0:0:0:
320,192,168784,1,0,0:0:0:0:
192,192,168862,1,0,0:0:0:0:
64,192,168940,128,0,169097:0:0:0:0:
320,192,168940,1,0,0:0:0:0:
192,192,169018,1,0,0:0:0:0:
320,192,169097,128,0,169409:0:0:0:0:
448,192,169097,1,0,0:0:0:0:
192,192,169175,1,0,0:0:0:0:
64,192,169253,1,0,0:0:0:0:
192,192,169331,1,0,0:0:0:0:
64,192,169409,1,0,0:0:0:0:
448,192,169409,1,0,0:0:0:0:
320,192,169487,1,0,0:0:0:0:
192,192,169565,1,0,0:0:0:0:
64,192,169643,1,0,0:0:0:0:
320,192,169722,1,0,0:0:0:0:
448,192,169722,1,0,0:0:0:0:
192,192,169722,128,0,170347:0:0:0:0:
64,192,169800,1,0,0:0:0:0:
320,192,169878,1,0,0:0:0:0:
448,192,169956,1,0,0:0:0:0:
320,192,170034,1,0,0:0:0:0:
64,192,170034,1,0,0:0:0:0:
448,192,170112,1,0,0:0:0:0:
320,192,170190,1,0,0:0:0:0:
64,192,170268,1,0,0:0:0:0:
320,192,170347,128,0,170581:0:0:0:0:
448,192,170347,1,0,0:0:0:0:
192,192,170425,1,0,0:0:0:0:
448,192,170503,1,0,0:0:0:0:
64,192,170581,128,0,170815:0:0:0:0:
192,192,170659,1,0,0:0:0:0:
448,192,170659,1,0,0:0:0:0:
320,192,170737,1,0,0:0:0:0:
192,192,170815,128,0,170972:0:0:0:0:
448,192,170815,1,0,0:0:0:0:
320,192,170893,1,0,0:0:0:0:
448,192,170972,128,0,171597:0:0:0:0:
64,192,170972,1,0,0:0:0:0:
192,192,171050,1,0,0:0:0:0:
320,192,171128,1,0,0:0:0:0:
192,192,171206,1,0,0:0:0:0:
64,192,171284,1,0,0:0:0:0:
320,192,171284,1,0,0:0:0:0:
192,192,171362,1,0,0:0:0:0:
64,192,171440,1,0,0:0:0:0:
192,192,171518,1,0,0:0:0:0:
320,192,171597,128,0,171831:0:0:0:0:
64,192,171597,1,0,0:0:0:0:
192,192,171675,1,0,0:0:0:0:
448,192,171753,1,0,0:0:0:0:
192,192,171831,128,0,172065:0:0:0:0:
320,192,171909,1,0,0:0:0:0:
64,192,171909,1,0,0:0:0:0:
448,192,171987,1,0,0:0:0:0:
64,192,172065,128,0,172222:0:0:0:0:
320,192,172065,1,0,0:0:0:0:
448,192,172143,1,0,0:0:0:0:
448,192,172222,1,0,0:0:0:0:
320,192,172222,1,0,0:0:0:0:
192,192,172222,1,0,0:0:0:0:
320,192,172534,1,0,0:0:0:0:
192,192,172847,1,0,0:0:0:0:
64,192,173159,1,0,0:0:0:0:
192,192,173628,1,0,0:0:0:0:
320,192,173628,1,0,0:0:0:0:
448,192,173628,1,0,0:0:0:0:
448,192,173784,1,0,0:0:0:0:
320,192,173784,1,0,0:0:0:0:
64,192,173784,1,0,0:0:0:0:
320,192,173940,1,0,0:0:0:0:
192,192,173940,1,0,0:0:0:0:
64,192,173940,1,0,0:0:0:0:
64,192,174097,1,0,0:0:0:0:
192,192,174097,1,0,0:0:0:0:
448,192,174097,1,0,0:0:0:0:
192,192,174409,1,0,0:0:0:0:
320,192,174409,1,0,0:0:0:0:
64,192,174722,1,0,0:0:0:0:
192,192,174722,1,0,0:0:0:0:
320,192,174722,1,0,0:0:0:0:
448,192,174722,1,0,0:0:0:0:
320,192,174956,1,0,0:0:0:0:
192,192,175034,1,0,0:0:0:0:
64,192,175034,1,0,0:0:0:0:
192,192,175190,1,0,0:0:0:0:
320,192,175190,1,0,0:0:0:0:
64,192,175347,1,0,0:0:0:0:
320,192,175347,1,0,0:0:0:0:
448,192,175425,1,0,0:0:0:0:
192,192,175503,1,0,0:0:0:0:
320,192,175581,1,0,0:0:0:0:
64,192,175659,1,0,0:0:0:0:
448,192,175737,1,0,0:0:0:0:
192,192,175815,1,0,0:0:0:0:
64,192,175893,1,0,0:0:0:0:
320,192,175972,1,0,0:0:0:0:
192,192,176050,1,0,0:0:0:0:
448,192,176128,1,0,0:0:0:0:
320,192,176206,1,0,0:0:0:0:
448,192,176284,1,0,0:0:0:0:
64,192,176362,1,0,0:0:0:0:
320,192,176440,1,0,0:0:0:0:
448,192,176518,1,0,0:0:0:0:
192,192,176597,1,0,0:0:0:0:
64,192,176597,1,0,0:0:0:0:
192,192,176805,1,0,0:0:0:0:
320,192,176805,1,0,0:0:0:0:
320,192,177013,1,0,0:0:0:0:
448,192,177013,1,0,0:0:0:0:
320,192,177222,1,0,0:0:0:0:
192,192,177222,1,0,0:0:0:0:
64,192,177222,1,0,0:0:0:0:
448,192,177222,1,0,0:0:0:0:
192,192,177456,1,0,0:0:0:0:
320,192,177534,1,0,0:0:0:0:
448,192,177534,1,0,0:0:0:0:
192,192,177690,1,0,0:0:0:0:
320,192,177690,1,0,0:0:0:0:
192,192,177847,1,0,0:0:0:0:
448,192,177847,1,0,0:0:0:0:
64,192,177925,1,0,0:0:0:0:
320,192,178003,1,0,0:0:0:0:
192,192,178081,1,0,0:0:0:0:
448,192,178159,1,0,0:0:0:0:
64,192,178237,1,0,0:0:0:0:
320,192,178315,1,0,0:0:0:0:
448,192,178393,1,0,0:0:0:0:
192,192,178472,1,0,0:0:0:0:
320,192,178550,1,0,0:0:0:0:
64,192,178628,1,0,0:0:0:0:
448,192,178706,1,0,0:0:0:0:
192,192,178784,1,0,0:0:0:0:
64,192,178862,1,0,0:0:0:0:
320,192,178940,1,0,0:0:0:0:
192,192,179018,1,0,0:0:0:0:
448,192,179097,1,0,0:0:0:0:
320,192,179097,1,0,0:0:0:0:
320,192,179305,1,0,0:0:0:0:
192,192,179305,1,0,0:0:0:0:
64,192,179513,1,0,0:0:0:0:
192,192,179513,1,0,0:0:0:0:
192,192,179722,1,0,0:0:0:0:
320,192,179722,1,0,0:0:0:0:
448,192,179722,1,0,0:0:0:0:
64,192,179722,1,0,0:0:0:0:
320,192,179956,1,0,0:0:0:0:
192,192,180034,1,0,0:0:0:0:
64,192,180034,1,0,0:0:0:0:
192,192,180190,1,0,0:0:0:0:
320,192,180190,1,0,0:0:0:0:
320,192,180347,1,0,0:0:0:0:
448,192,180347,1,0,0:0:0:0:
64,192,180425,1,0,0:0:0:0:
320,192,180503,1,0,0:0:0:0:
192,192,180581,1,0,0:0:0:0:
448,192,180659,1,0,0:0:0:0:
64,192,180737,1,0,0:0:0:0:
320,192,180815,1,0,0:0:0:0:
192,192,180893,1,0,0:0:0:0:
448,192,180972,1,0,0:0:0:0:
64,192,181050,1,0,0:0:0:0:
320,192,181128,1,0,0:0:0:0:
192,192,181206,1,0,0:0:0:0:
448,192,181284,1,0,0:0:0:0:
64,192,181362,1,0,0:0:0:0:
320,192,181440,1,0,0:0:0:0:
192,192,181518,1,0,0:0:0:0:
448,192,181597,1,0,0:0:0:0:
64,192,181597,1,0,0:0:0:0:
192,192,181805,1,0,0:0:0:0:
320,192,181805,1,0,0:0:0:0:
64,192,182013,1,0,0:0:0:0:
448,192,182013,1,0,0:0:0:0:
320,192,182222,1,0,0:0:0:0:
192,192,182222,1,0,0:0:0:0:
64,192,182222,1,0,0:0:0:0:
448,192,182222,1,0,0:0:0:0:
320,192,182456,1,0,0:0:0:0:
64,192,182534,1,0,0:0:0:0:
448,192,182534,1,0,0:0:0:0:
320,192,182690,1,0,0:0:0:0:
192,192,182690,1,0,0:0:0:0:
64,192,182847,1,0,0:0:0:0:
448,192,182847,1,0,0:0:0:0:
320,192,182925,1,0,0:0:0:0:
64,192,183003,1,0,0:0:0:0:
192,192,183081,1,0,0:0:0:0:
448,192,183159,1,0,0:0:0:0:
320,192,183237,1,0,0:0:0:0:
64,192,183315,1,0,0:0:0:0:
192,192,183393,1,0,0:0:0:0:
320,192,183472,1,0,0:0:0:0:
448,192,183550,1,0,0:0:0:0:
192,192,183628,1,0,0:0:0:0:
64,192,183706,1,0,0:0:0:0:
320,192,183784,1,0,0:0:0:0:
448,192,183862,1,0,0:0:0:0:
192,192,183940,1,0,0:0:0:0:
64,192,184018,1,0,0:0:0:0:
320,192,184097,1,0,0:0:0:0:
448,192,184097,1,0,0:0:0:0:
192,192,184305,1,0,0:0:0:0:
320,192,184305,1,0,0:0:0:0:
320,192,184513,1,0,0:0:0:0:
448,192,184513,1,0,0:0:0:0:
64,192,184722,1,0,0:0:0:0:
448,192,184722,1,0,0:0:0:0:
192,192,184722,128,0,185034:0:0:0:0:
320,192,184878,1,0,0:0:0:0:
64,192,185034,128,0,185190:0:0:0:0:
448,192,185034,1,0,0:0:0:0:
192,192,185190,1,0,0:0:0:0:
320,192,185268,1,0,0:0:0:0:
448,192,185347,128,0,185503:0:0:0:0:
64,192,185347,1,0,0:0:0:0:
320,192,185503,1,0,0:0:0:0:
192,192,185581,1,0,0:0:0:0:
64,192,185659,128,0,185815:0:0:0:0:
448,192,185659,1,0,0:0:0:0:
192,192,185815,128,0,185972:0:0:0:0:
448,192,185972,128,0,186284:0:0:0:0:
64,192,185972,1,0,0:0:0:0:
192,192,186128,1,0,0:0:0:0:
64,192,186284,128,0,186440:0:0:0:0:
320,192,186284,1,0,0:0:0:0:
192,192,186440,1,0,0:0:0:0:
320,192,186518,1,0,0:0:0:0:
448,192,186597,128,0,186753:0:0:0:0:
64,192,186597,1,0,0:0:0:0:
320,192,186753,1,0,0:0:0:0:
192,192,186831,1,0,0:0:0:0:
64,192,186909,128,0,187065:0:0:0:0:
320,192,186909,1,0,0:0:0:0:
448,192,187065,128,0,187222:0:0:0:0:
64,192,187222,128,0,187534:0:0:0:0:
192,192,187222,1,0,0:0:0:0:
320,192,187378,1,0,0:0:0:0:
448,192,187534,128,0,187690:0:0:0:0:
192,192,187534,1,0,0:0:0:0:
320,192,187690,1,0,0:0:0:0:
192,192,187768,1,0,0:0:0:0:
64,192,187847,128,0,188003:0:0:0:0:
448,192,187847,1,0,0:0:0:0:
192,192,188003,1,0,0:0:0:0:
320,192,188081,1,0,0:0:0:0:
448,192,188159,128,0,188315:0:0:0:0:
192,192,188159,1,0,0:0:0:0:
64,192,188315,128,0,188472:0:0:0:0:
320,192,188472,128,0,188628:0:0:0:0:
448,192,188472,1,0,0:0:0:0:
192,192,188628,1,0,0:0:0:0:
448,192,188706,1,0,0:0:0:0:
64,192,188784,128,0,188940:0:0:0:0:
320,192,188784,1,0,0:0:0:0:
192,192,188940,128,0,189097:0:0:0:0:
320,192,189097,128,0,189409:0:0:0:0:
64,192,189097,1,0,0:0:0:0:
192,192,189253,1,0,0:0:0:0:
448,192,189409,128,0,189722:0:0:0:0:
64,192,189409,1,0,0:0:0:0:
192,192,189565,1,0,0:0:0:0:
64,192,189722,1,0,0:0:0:0:
192,192,189722,1,0,0:0:0:0:
320,192,189722,1,0,0:0:0:0:
192,192,189878,1,0,0:0:0:0:
64,192,189878,1,0,0:0:0:0:
192,192,190034,1,0,0:0:0:0:
320,192,190034,1,0,0:0:0:0:
448,192,190034,1,0,0:0:0:0:
320,192,190190,1,0,0:0:0:0:
192,192,190190,1,0,0:0:0:0:
64,192,190268,1,0,0:0:0:0:
320,192,190347,1,0,0:0:0:0:
448,192,190347,1,0,0:0:0:0:
320,192,190503,1,0,0:0:0:0:
448,192,190503,1,0,0:0:0:0:
64,192,190659,1,0,0:0:0:0:
192,192,190659,1,0,0:0:0:0:
320,192,190659,1,0,0:0:0:0:
320,192,190815,1,0,0:0:0:0:
192,192,190815,1,0,0:0:0:0:
192,192,190972,1,0,0:0:0:0:
64,192,190972,1,0,0:0:0:0:
64,192,191128,1,0,0:0:0:0:
192,192,191128,1,0,0:0:0:0:
192,192,191284,1,0,0:0:0:0:
320,192,191284,1,0,0:0:0:0:
448,192,191284,1,0,0:0:0:0:
320,192,191440,1,0,0:0:0:0:
192,192,191440,1,0,0:0:0:0:
64,192,191518,1,0,0:0:0:0:
320,192,191597,1,0,0:0:0:0:
448,192,191597,1,0,0:0:0:0:
448,192,191753,1,0,0:0:0:0:
320,192,191753,1,0,0:0:0:0:
192,192,191909,1,0,0:0:0:0:
64,192,191909,1,0,0:0:0:0:
448,192,191909,1,0,0:0:0:0:
192,192,192065,1,0,0:0:0:0:
448,192,192065,1,0,0:0:0:0:
64,192,192222,1,0,0:0:0:0:
320,192,192222,1,0,0:0:0:0:
320,192,192378,1,0,0:0:0:0:
64,192,192378,1,0,0:0:0:0:
192,192,192534,1,0,0:0:0:0:
448,192,192534,1,0,0:0:0:0:
64,192,192534,1,0,0:0:0:0:
192,192,192690,1,0,0:0:0:0:
448,192,192690,1,0,0:0:0:0:
320,192,192768,1,0,0:0:0:0:
64,192,192847,1,0,0:0:0:0:
448,192,192847,1,0,0:0:0:0:
448,192,193003,1,0,0:0:0:0:
64,192,193003,1,0,0:0:0:0:
192,192,193159,1,0,0:0:0:0:
320,192,193159,1,0,0:0:0:0:
448,192,193159,1,0,0:0:0:0:
192,192,193315,1,0,0:0:0:0:
320,192,193315,1,0,0:0:0:0:
64,192,193472,1,0,0:0:0:0:
448,192,193472,1,0,0:0:0:0:
448,192,193628,1,0,0:0:0:0:
64,192,193628,1,0,0:0:0:0:
320,192,193706,1,0,0:0:0:0:
64,192,193784,1,0,0:0:0:0:
448,192,193784,1,0,0:0:0:0:
192,192,193940,1,0,0:0:0:0:
320,192,193940,1,0,0:0:0:0:
64,192,194097,1,0,0:0:0:0:
448,192,194097,1,0,0:0:0:0:
192,192,194253,1,0,0:0:0:0:
320,192,194253,1,0,0:0:0:0:
64,192,194409,1,0,0:0:0:0:
448,192,194409,1,0,0:0:0:0:
192,192,194487,1,0,0:0:0:0:
320,192,194487,1,0,0:0:0:0:
64,192,194565,1,0,0:0:0:0:
448,192,194565,1,0,0:0:0:0:
320,192,194643,1,0,0:0:0:0:
192,192,194643,1,0,0:0:0:0:
64,192,194722,128,0,195034:0:0:0:0:
448,192,194722,128,0,195034:0:0:0:0:
320,192,195034,128,0,195190:0:0:0:0:
192,192,195190,1,0,0:0:0:0:
320,192,195268,1,0,0:0:0:0:
192,192,195347,1,0,0:0:0:0:
64,192,195347,128,0,195659:0:0:0:0:
448,192,195347,128,0,195503:0:0:0:0:
320,192,195503,128,0,195659:0:0:0:0:
192,192,195659,128,0,195815:0:0:0:0:
64,192,195815,128,0,195972:0:0:0:0:
192,192,195972,1,0,0:0:0:0:
320,192,195972,128,0,196284:0:0:0:0:
448,192,195972,128,0,196284:0:0:0:0:
64,192,196284,128,0,196440:0:0:0:0:
192,192,196440,1,0,0:0:0:0:
64,192,196518,1,0,0:0:0:0:
192,192,196597,1,0,0:0:0:0:
320,192,196597,128,0,196753:0:0:0:0:
448,192,196597,128,0,196909:0:0:0:0:
192,192,196753,128,0,196909:0:0:0:0:
64,192,196909,128,0,197065:0:0:0:0:
192,192,197065,128,0,197222:0:0:0:0:
320,192,197222,128,0,197534:0:0:0:0:
64,192,197222,128,0,197534:0:0:0:0:
448,192,197222,1,0,0:0:0:0:
192,192,197534,128,0,197690:0:0:0:0:
320,192,197690,1,0,0:0:0:0:
192,192,197768,1,0,0:0:0:0:
320,192,197847,1,0,0:0:0:0:
448,192,197847,128,0,198159:0:0:0:0:
64,192,197847,128,0,198003:0:0:0:0:
192,192,198003,128,0,198159:0:0:0:0:
64,192,198159,128,0,198315:0:0:0:0:
320,192,198315,128,0,198472:0:0:0:0:
64,192,198472,128,0,198784:0:0:0:0:
192,192,198472,1,0,0:0:0:0:
448,192,198472,128,0,198628:0:0:0:0:
320,192,198628,1,0,0:0:0:0:
448,192,198706,1,0,0:0:0:0:
192,192,198784,128,0,198940:0:0:0:0:
320,192,198940,128,0,199097:0:0:0:0:
448,192,199097,128,0,199409:0:0:0:0:
64,192,199097,128,0,199409:0:0:0:0:
192,192,199097,1,0,0:0:0:0:
320,192,199409,128,0,199722:0:0:0:0:
192,192,199722,128,0,200034:0:0:0:0:
448,192,199722,128,0,199878:0:0:0:0:
64,192,199722,1,0,0:0:0:0:
64,192,200034,128,0,200190:0:0:0:0:
448,192,200034,128,0,200190:0:0:0:0:
320,192,200034,1,0,0:0:0:0:
192,192,200190,1,0,0:0:0:0:
320,192,200268,1,0,0:0:0:0:
448,192,200347,128,0,200503:0:0:0:0:
64,192,200347,128,0,200503:0:0:0:0:
192,192,200347,1,0,0:0:0:0:
320,192,200503,128,0,200659:0:0:0:0:
192,192,200659,128,0,200815:0:0:0:0:
448,192,200659,128,0,200815:0:0:0:0:
64,192,200659,1,0,0:0:0:0:
320,192,200815,128,0,200972:0:0:0:0:
448,192,200972,128,0,201128:0:0:0:0:
64,192,200972,128,0,201284:0:0:0:0:
192,192,200972,1,0,0:0:0:0:
192,192,201284,128,0,201440:0:0:0:0:
448,192,201284,1,0,0:0:0:0:
320,192,201284,128,0,201440:0:0:0:0:
64,192,201440,1,0,0:0:0:0:
192,192,201518,1,0,0:0:0:0:
448,192,201597,128,0,201753:0:0:0:0:
320,192,201597,128,0,201753:0:0:0:0:
64,192,201597,1,0,0:0:0:0:
192,192,201753,128,0,201909:0:0:0:0:
64,192,201909,128,0,202065:0:0:0:0:
320,192,201909,1,0,0:0:0:0:
448,192,201909,128,0,202065:0:0:0:0:
320,192,202065,128,0,202222:0:0:0:0:
64,192,202222,1,0,0:0:0:0:
192,192,202222,128,0,202378:0:0:0:0:
448,192,202222,128,0,202534:0:0:0:0:
320,192,202534,1,0,0:0:0:0:
192,192,202534,128,0,202690:0:0:0:0:
64,192,202534,128,0,202690:0:0:0:0:
448,192,202690,1,0,0:0:0:0:
320,192,202768,1,0,0:0:0:0:
64,192,202847,128,0,203003:0:0:0:0:
192,192,202847,128,0,203003:0:0:0:0:
448,192,202847,1,0,0:0:0:0:
320,192,203003,128,0,203159:0:0:0:0:
448,192,203159,128,0,203315:0:0:0:0:
192,192,203159,1,0,0:0:0:0:
64,192,203159,128,0,203315:0:0:0:0:
320,192,203315,128,0,203472:0:0:0:0:
64,192,203472,128,0,203628:0:0:0:0:
192,192,203472,1,0,0:0:0:0:
448,192,203472,1,0,0:0:0:0:
320,192,203550,1,0,0:0:0:0:
192,192,203628,1,0,0:0:0:0:
320,192,203706,1,0,0:0:0:0:
192,192,203784,1,0,0:0:0:0:
64,192,203784,1,0,0:0:0:0:
448,192,203784,128,0,203940:0:0:0:0:
320,192,203862,1,0,0:0:0:0:
192,192,203940,1,0,0:0:0:0:
64,192,204018,1,0,0:0:0:0:
320,192,204097,1,0,0:0:0:0:
192,192,204097,1,0,0:0:0:0:
448,192,204097,128,0,204565:0:0:0:0:
64,192,204253,1,0,0:0:0:0:
192,192,204253,1,0,0:0:0:0:
192,192,204409,1,0,0:0:0:0:
320,192,204409,1,0,0:0:0:0:
192,192,204565,1,0,0:0:0:0:
320,192,204565,1,0,0:0:0:0:
64,192,204565,128,0,205034:0:0:0:0:
192,192,205034,128,0,205347:0:0:0:0:
320,192,205347,128,0,205503:0:0:0:0:
64,192,205503,128,0,205659:0:0:0:0:
192,192,205659,128,0,205815:0:0:0:0:
448,192,205815,128,0,206284:0:0:0:0:
320,192,206284,128,0,206597:0:0:0:0:
64,192,206597,128,0,206753:0:0:0:0:
320,192,206753,1,0,0:0:0:0:
192,192,206831,1,0,0:0:0:0:
448,192,206909,128,0,207065:0:0:0:0:
320,192,207065,128,0,207534:0:0:0:0:
192,192,207534,128,0,207847:0:0:0:0:
320,192,207847,128,0,208003:0:0:0:0:
448,192,208003,128,0,208159:0:0:0:0:
320,192,208159,128,0,208315:0:0:0:0:
192,192,208315,128,0,208628:0:0:0:0:
64,192,208628,1,0,0:0:0:0:
320,192,208706,1,0,0:0:0:0:
448,192,208784,128,0,209097:0:0:0:0:
320,192,209097,128,0,209409:0:0:0:0:
192,192,209409,128,0,209565:0:0:0:0:
64,192,209565,1,0,0:0:0:0:
448,192,209565,1,0,0:0:0:0:
320,192,209565,128,0,210034:0:0:0:0:
192,192,209878,1,0,0:0:0:0:
64,192,210034,128,0,210347:0:0:0:0:
448,192,210034,1,0,0:0:0:0:
192,192,210347,128,0,210503:0:0:0:0:
448,192,210347,1,0,0:0:0:0:
320,192,210503,128,0,210659:0:0:0:0:
64,192,210503,1,0,0:0:0:0:
448,192,210659,1,0,0:0:0:0:
64,192,210659,128,0,210815:0:0:0:0:
192,192,210815,1,0,0:0:0:0:
448,192,210815,128,0,211284:0:0:0:0:
320,192,210972,1,0,0:0:0:0:
192,192,211128,1,0,0:0:0:0:
320,192,211284,1,0,0:0:0:0:
64,192,211284,128,0,211597:0:0:0:0:
192,192,211597,1,0,0:0:0:0:
320,192,211597,128,0,211753:0:0:0:0:
192,192,211753,1,0,0:0:0:0:
448,192,211831,1,0,0:0:0:0:
64,192,211909,1,0,0:0:0:0:
192,192,211909,128,0,212065:0:0:0:0:
320,192,212065,128,0,212378:0:0:0:0:
448,192,212065,1,0,0:0:0:0:
192,192,212222,1,0,0:0:0:0:
64,192,212378,128,0,212534:0:0:0:0:
448,192,212378,1,0,0:0:0:0:
448,192,212534,128,0,212690:0:0:0:0:
192,192,212534,1,0,0:0:0:0:
64,192,212690,1,0,0:0:0:0:
320,192,212690,128,0,213003:0:0:0:0:
448,192,212847,1,0,0:0:0:0:
192,192,213003,128,0,213159:0:0:0:0:
448,192,213003,1,0,0:0:0:0:
64,192,213159,128,0,213315:0:0:0:0:
448,192,213159,1,0,0:0:0:0:
320,192,213315,128,0,213628:0:0:0:0:
192,192,213315,1,0,0:0:0:0:
64,192,213472,1,0,0:0:0:0:
448,192,213628,128,0,213784:0:0:0:0:
64,192,213628,1,0,0:0:0:0:
192,192,213784,128,0,214565:0:0:0:0:
64,192,213784,1,0,0:0:0:0:
320,192,214097,1,0,0:0:0:0:
448,192,214253,1,0,0:0:0:0:
64,192,214253,1,0,0:0:0:0:
320,192,214331,1,0,0:0:0:0:
448,192,214409,1,0,0:0:0:0:
64,192,214409,1,0,0:0:0:0:
320,192,214487,1,0,0:0:0:0:
448,192,214565,1,0,0:0:0:0:
64,192,214565,1,0,0:0:0:0:
320,192,214565,128,0,215034:0:0:0:0:
192,192,214878,1,0,0:0:0:0:
448,192,214878,1,0,0:0:0:0:
64,192,215034,128,0,215347:0:0:0:0:
192,192,215034,1,0,0:0:0:0:
448,192,215034,1,0,0:0:0:0:
320,192,215190,1,0,0:0:0:0:
192,192,215347,128,0,215503:0:0:0:0:
448,192,215347,1,0,0:0:0:0:
320,192,215503,128,0,215659:0:0:0:0:
448,192,215503,1,0,0:0:0:0:
64,192,215659,128,0,215815:0:0:0:0:
192,192,215659,1,0,0:0:0:0:
448,192,215659,1,0,0:0:0:0:
448,192,215815,128,0,216284:0:0:0:0:
320,192,215815,1,0,0:0:0:0:
192,192,215972,1,0,0:0:0:0:
64,192,215972,1,0,0:0:0:0:
192,192,216128,1,0,0:0:0:0:
64,192,216128,1,0,0:0:0:0:
320,192,216284,128,0,216597:0:0:0:0:
64,192,216284,1,0,0:0:0:0:
192,192,216284,1,0,0:0:0:0:
64,192,216440,1,0,0:0:0:0:
448,192,216440,1,0,0:0:0:0:
192,192,216597,128,0,216753:0:0:0:0:
448,192,216597,1,0,0:0:0:0:
320,192,216753,1,0,0:0:0:0:
64,192,216831,1,0,0:0:0:0:
448,192,216909,128,0,217065:0:0:0:0:
192,192,216909,1,0,0:0:0:0:
320,192,216909,1,0,0:0:0:0:
320,192,217065,128,0,217534:0:0:0:0:
64,192,217065,1,0,0:0:0:0:
192,192,217222,1,0,0:0:0:0:
448,192,217222,1,0,0:0:0:0:
448,192,217378,1,0,0:0:0:0:
192,192,217378,1,0,0:0:0:0:
64,192,217534,128,0,217847:0:0:0:0:
192,192,217534,1,0,0:0:0:0:
448,192,217534,1,0,0:0:0:0:
320,192,217690,1,0,0:0:0:0:
448,192,217690,1,0,0:0:0:0:
192,192,217847,128,0,218003:0:0:0:0:
320,192,217847,1,0,0:0:0:0:
320,192,218003,128,0,218159:0:0:0:0:
448,192,218003,1,0,0:0:0:0:
64,192,218159,128,0,218315:0:0:0:0:
192,192,218159,1,0,0:0:0:0:
448,192,218159,1,0,0:0:0:0:
448,192,218315,128,0,218628:0:0:0:0:
320,192,218315,1,0,0:0:0:0:
192,192,218472,1,0,0:0:0:0:
64,192,218472,1,0,0:0:0:0:
320,192,218628,1,0,0:0:0:0:
64,192,218706,1,0,0:0:0:0:
448,192,218784,128,0,218940:0:0:0:0:
320,192,218784,1,0,0:0:0:0:
192,192,218784,1,0,0:0:0:0:
64,192,218940,1,0,0:0:0:0:
448,192,219018,1,0,0:0:0:0:
64,192,219097,128,0,219253:0:0:0:0:
192,192,219097,1,0,0:0:0:0:
320,192,219253,1,0,0:0:0:0:
64,192,219331,1,0,0:0:0:0:
320,192,219409,1,0,0:0:0:0:
192,192,219409,1,0,0:0:0:0:
448,192,219409,1,0,0:0:0:0:
64,192,219565,1,0,0:0:0:0:
320,192,219565,1,0,0:0:0:0:
192,192,219565,128,0,220034:0:0:0:0:
320,192,219878,1,0,0:0:0:0:
448,192,219878,1,0,0:0:0:0:
64,192,220034,128,0,220347:0:0:0:0:
320,192,220034,1,0,0:0:0:0:
448,192,220034,1,0,0:0:0:0:
320,192,220190,1,0,0:0:0:0:
192,192,220347,128,0,220503:0:0:0:0:
448,192,220347,1,0,0:0:0:0:
320,192,220503,128,0,220659:0:0:0:0:
448,192,220503,1,0,0:0:0:0:
64,192,220659,128,0,220815:0:0:0:0:
192,192,220659,1,0,0:0:0:0:
448,192,220659,1,0,0:0:0:0:
448,192,220815,128,0,221284:0:0:0:0:
320,192,220815,1,0,0:0:0:0:
192,192,220972,1,0,0:0:0:0:
320,192,220972,1,0,0:0:0:0:
64,192,221128,1,0,0:0:0:0:
192,192,221128,1,0,0:0:0:0:
64,192,221284,1,0,0:0:0:0:
320,192,221284,1,0,0:0:0:0:
192,192,221284,1,0,0:0:0:0:
448,192,221362,1,0,0:0:0:0:
64,192,221440,1,0,0:0:0:0:
448,192,221518,1,0,0:0:0:0:
64,192,221597,128,0,221753:0:0:0:0:
320,192,221597,1,0,0:0:0:0:
192,192,221753,1,0,0:0:0:0:
448,192,221831,1,0,0:0:0:0:
64,192,221909,128,0,222065:0:0:0:0:
192,192,221909,1,0,0:0:0:0:
320,192,222065,128,0,222222:0:0:0:0:
448,192,222065,1,0,0:0:0:0:
64,192,222222,1,0,0:0:0:0:
192,192,222222,1,0,0:0:0:0:
448,192,222222,128,0,222534:0:0:0:0:
192,192,222534,128,0,222847:0:0:0:0:
64,192,222534,1,0,0:0:0:0:
448,192,222690,1,0,0:0:0:0:
320,192,222690,1,0,0:0:0:0:
64,192,222768,1,0,0:0:0:0:
320,192,222847,128,0,223159:0:0:0:0:
448,192,222847,1,0,0:0:0:0:
192,192,223081,1,0,0:0:0:0:
64,192,223159,128,0,223472:0:0:0:0:
448,192,223159,1,0,0:0:0:0:
320,192,223315,1,0,0:0:0:0:
192,192,223315,1,0,0:0:0:0:
64,192,223628,1,0,0:0:0:0:
192,192,223628,1,0,0:0:0:0:
448,192,223628,1,0,0:0:0:0:
64,192,223784,1,0,0:0:0:0:
320,192,223784,1,0,0:0:0:0:
448,192,223784,1,0,0:0:0:0:
192,192,223940,1,0,0:0:0:0:
64,192,223940,1,0,0:0:0:0:
448,192,223940,1,0,0:0:0:0:
320,192,224097,1,0,0:0:0:0:
448,192,224097,1,0,0:0:0:0:
64,192,224097,1,0,0:0:0:0:
192,192,224409,1,0,0:0:0:0:
320,192,224409,1,0,0:0:0:0:
64,192,224722,1,0,0:0:0:0:
192,192,224722,1,0,0:0:0:0:
448,192,224722,1,0,0:0:0:0:
320,192,224800,1,0,0:0:0:0:
192,192,224878,1,0,0:0:0:0:
64,192,225034,1,0,0:0:0:0:
448,192,225034,1,0,0:0:0:0:
320,192,225112,1,0,0:0:0:0:
192,192,225190,1,0,0:0:0:0:
64,192,225347,1,0,0:0:0:0:
448,192,225347,1,0,0:0:0:0:
320,192,225425,1,0,0:0:0:0:
192,192,225503,1,0,0:0:0:0:
64,192,225659,1,0,0:0:0:0:
448,192,225659,1,0,0:0:0:0:
320,192,225737,1,0,0:0:0:0:
192,192,225815,1,0,0:0:0:0:
64,192,225972,1,0,0:0:0:0:
448,192,225972,1,0,0:0:0:0:
192,192,226050,1,0,0:0:0:0:
320,192,226128,1,0,0:0:0:0:
64,192,226284,1,0,0:0:0:0:
448,192,226284,1,0,0:0:0:0:
192,192,226362,1,0,0:0:0:0:
320,192,226440,1,0,0:0:0:0:
64,192,226597,1,0,0:0:0:0:
448,192,226597,1,0,0:0:0:0:
192,192,226675,1,0,0:0:0:0:
320,192,226753,1,0,0:0:0:0:
64,192,226909,1,0,0:0:0:0:
448,192,226909,1,0,0:0:0:0:
192,192,226987,1,0,0:0:0:0:
320,192,227065,1,0,0:0:0:0:
320,192,227222,1,0,0:0:0:0:
448,192,227222,1,0,0:0:0:0:
64,192,227300,1,0,0:0:0:0:
448,192,227378,1,0,0:0:0:0:
320,192,227534,1,0,0:0:0:0:
448,192,227534,1,0,0:0:0:0:
64,192,227612,1,0,0:0:0:0:
448,192,227690,1,0,0:0:0:0:
320,192,227847,1,0,0:0:0:0:
448,192,227847,1,0,0:0:0:0:
64,192,227925,1,0,0:0:0:0:
448,192,228003,1,0,0:0:0:0:
320,192,228159,1,0,0:0:0:0:
448,192,228159,1,0,0:0:0:0:
64,192,228237,1,0,0:0:0:0:
448,192,228315,1,0,0:0:0:0:
64,192,228472,1,0,0:0:0:0:
192,192,228472,1,0,0:0:0:0:
448,192,228550,1,0,0:0:0:0:
64,192,228628,1,0,0:0:0:0:
64,192,228784,1,0,0:0:0:0:
192,192,228784,1,0,0:0:0:0:
448,192,228862,1,0,0:0:0:0:
64,192,228940,1,0,0:0:0:0:
64,192,229097,1,0,0:0:0:0:
192,192,229097,1,0,0:0:0:0:
448,192,229175,1,0,0:0:0:0:
64,192,229253,1,0,0:0:0:0:
64,192,229409,1,0,0:0:0:0:
192,192,229409,1,0,0:0:0:0:
448,192,229487,1,0,0:0:0:0:
64,192,229565,1,0,0:0:0:0:
192,192,229722,1,0,0:0:0:0:
320,192,229722,1,0,0:0:0:0:
448,192,229722,1,0,0:0:0:0:
64,192,229722,1,0,0:0:0:0:
320,192,229878,1,0,0:0:0:0:
448,192,229878,1,0,0:0:0:0:
320,192,230034,1,0,0:0:0:0:
192,192,230034,1,0,0:0:0:0:
64,192,230034,1,0,0:0:0:0:
192,192,230190,1,0,0:0:0:0:
320,192,230190,1,0,0:0:0:0:
64,192,230347,1,0,0:0:0:0:
192,192,230347,1,0,0:0:0:0:
448,192,230347,1,0,0:0:0:0:
192,192,230503,1,0,0:0:0:0:
64,192,230503,1,0,0:0:0:0:
192,192,230659,1,0,0:0:0:0:
320,192,230659,1,0,0:0:0:0:
448,192,230659,1,0,0:0:0:0:
320,192,230815,1,0,0:0:0:0:
192,192,230815,1,0,0:0:0:0:
64,192,230972,1,0,0:0:0:0:
320,192,230972,1,0,0:0:0:0:
448,192,230972,1,0,0:0:0:0:
448,192,231128,1,0,0:0:0:0:
320,192,231128,1,0,0:0:0:0:
192,192,231284,1,0,0:0:0:0:
320,192,231284,1,0,0:0:0:0:
64,192,231284,1,0,0:0:0:0:
192,192,231440,1,0,0:0:0:0:
320,192,231440,1,0,0:0:0:0:
192,192,231597,1,0,0:0:0:0:
64,192,231597,1,0,0:0:0:0:
448,192,231597,1,0,0:0:0:0:
192,192,231753,1,0,0:0:0:0:
64,192,231753,1,0,0:0:0:0:
192,192,231909,1,0,0:0:0:0:
320,192,231909,1,0,0:0:0:0:
448,192,231909,1,0,0:0:0:0:
320,192,232065,1,0,0:0:0:0:
192,192,232065,1,0,0:0:0:0:
64,192,232222,1,0,0:0:0:0:
320,192,232222,1,0,0:0:0:0:
448,192,232222,1,0,0:0:0:0:
320,192,232378,1,0,0:0:0:0:
64,192,232378,1,0,0:0:0:0:
192,192,232534,1,0,0:0:0:0:
448,192,232534,1,0,0:0:0:0:
64,192,232534,1,0,0:0:0:0:
192,192,232690,1,0,0:0:0:0:
448,192,232690,1,0,0:0:0:0:
64,192,232847,1,0,0:0:0:0:
448,192,232847,1,0,0:0:0:0:
320,192,232847,1,0,0:0:0:0:
320,192,233003,1,0,0:0:0:0:
64,192,233003,1,0,0:0:0:0:
192,192,233159,1,0,0:0:0:0:
64,192,233159,1,0,0:0:0:0:
448,192,233159,1,0,0:0:0:0:
192,192,233315,1,0,0:0:0:0:
448,192,233315,1,0,0:0:0:0:
64,192,233472,1,0,0:0:0:0:
320,192,233472,1,0,0:0:0:0:
448,192,233472,1,0,0:0:0:0:
320,192,233628,1,0,0:0:0:0:
448,192,233628,1,0,0:0:0:0:
192,192,233784,1,0,0:0:0:0:
64,192,233784,1,0,0:0:0:0:
448,192,233784,1,0,0:0:0:0:
192,192,233940,1,0,0:0:0:0:
448,192,233940,1,0,0:0:0:0:
64,192,234097,1,0,0:0:0:0:
320,192,234097,1,0,0:0:0:0:
448,192,234097,1,0,0:0:0:0:
320,192,234253,1,0,0:0:0:0:
64,192,234253,1,0,0:0:0:0:
64,192,234409,1,0,0:0:0:0:
192,192,234409,1,0,0:0:0:0:
448,192,234409,1,0,0:0:0:0:
192,192,234565,1,0,0:0:0:0:
64,192,234565,1,0,0:0:0:0:
64,192,234722,1,0,0:0:0:0:
192,192,234722,1,0,0:0:0:0:
320,192,234722,1,0,0:0:0:0:
448,192,234722,1,0,0:0:0:0:
320,192,234800,1,0,0:0:0:0:
448,192,234878,1,0,0:0:0:0:
320,192,234956,1,0,0:0:0:0:
192,192,235034,1,0,0:0:0:0:
64,192,235034,1,0,0:0:0:0:
448,192,235034,1,0,0:0:0:0:
192,192,235112,1,0,0:0:0:0:
64,192,235190,1,0,0:0:0:0:
192,192,235268,1,0,0:0:0:0:
64,192,235347,1,0,0:0:0:0:
320,192,235347,1,0,0:0:0:0:
448,192,235347,1,0,0:0:0:0:
320,192,235425,1,0,0:0:0:0:
448,192,235503,1,0,0:0:0:0:
320,192,235581,1,0,0:0:0:0:
192,192,235659,1,0,0:0:0:0:
64,192,235659,1,0,0:0:0:0:
448,192,235659,1,0,0:0:0:0:
192,192,235737,1,0,0:0:0:0:
64,192,235815,1,0,0:0:0:0:
192,192,235893,1,0,0:0:0:0:
64,192,235972,1,0,0:0:0:0:
320,192,235972,1,0,0:0:0:0:
448,192,235972,1,0,0:0:0:0:
192,192,236050,1,0,0:0:0:0:
320,192,236128,1,0,0:0:0:0:
448,192,236206,1,0,0:0:0:0:
320,192,236284,1,0,0:0:0:0:
64,192,236284,1,0,0:0:0:0:
192,192,236284,1,0,0:0:0:0:
448,192,236362,1,0,0:0:0:0:
320,192,236440,1,0,0:0:0:0:
192,192,236518,1,0,0:0:0:0:
320,192,236597,1,0,0:0:0:0:
448,192,236597,1,0,0:0:0:0:
64,192,236597,1,0,0:0:0:0:
192,192,236675,1,0,0:0:0:0:
448,192,236753,1,0,0:0:0:0:
64,192,236831,1,0,0:0:0:0:
192,192,236909,1,0,0:0:0:0:
448,192,236909,1,0,0:0:0:0:
320,192,236909,1,0,0:0:0:0:
64,192,236987,1,0,0:0:0:0:
448,192,237065,1,0,0:0:0:0:
320,192,237143,1,0,0:0:0:0:
192,192,237222,1,0,0:0:0:0:
448,192,237222,1,0,0:0:0:0:
64,192,237222,1,0,0:0:0:0:
320,192,237300,1,0,0:0:0:0:
192,192,237378,1,0,0:0:0:0:
64,192,237456,1,0,0:0:0:0:
192,192,237534,1,0,0:0:0:0:
320,192,237534,1,0,0:0:0:0:
448,192,237534,1,0,0:0:0:0:
64,192,237612,1,0,0:0:0:0:
192,192,237690,1,0,0:0:0:0:
320,192,237768,1,0,0:0:0:0:
192,192,237847,1,0,0:0:0:0:
64,192,237847,1,0,0:0:0:0:
448,192,237847,1,0,0:0:0:0:
64,192,237925,1,0,0:0:0:0:
320,192,238003,1,0,0:0:0:0:
448,192,238081,1,0,0:0:0:0:
192,192,238159,1,0,0:0:0:0:
64,192,238159,1,0,0:0:0:0:
320,192,238159,1,0,0:0:0:0:
448,192,238237,1,0,0:0:0:0:
320,192,238315,1,0,0:0:0:0:
64,192,238393,1,0,0:0:0:0:
64,192,238472,1,0,0:0:0:0:
320,192,238472,1,0,0:0:0:0:
448,192,238472,1,0,0:0:0:0:
448,192,238550,1,0,0:0:0:0:
192,192,238628,1,0,0:0:0:0:
64,192,238706,1,0,0:0:0:0:
192,192,238784,1,0,0:0:0:0:
448,192,238784,1,0,0:0:0:0:
320,192,238784,1,0,0:0:0:0:
64,192,238862,1,0,0:0:0:0:
192,192,238940,1,0,0:0:0:0:
448,192,239018,1,0,0:0:0:0:
448,192,239097,1,0,0:0:0:0:
192,192,239097,1,0,0:0:0:0:
64,192,239097,1,0,0:0:0:0:
320,192,239175,1,0,0:0:0:0:
192,192,239253,1,0,0:0:0:0:
320,192,239331,1,0,0:0:0:0:
192,192,239409,1,0,0:0:0:0:
64,192,239409,1,0,0:0:0:0:
448,192,239409,1,0,0:0:0:0:
320,192,239487,1,0,0:0:0:0:
192,192,239565,1,0,0:0:0:0:
320,192,239643,1,0,0:0:0:0:
192,192,239722,1,0,0:0:0:0:
448,192,239722,1,0,0:0:0:0:
64,192,239722,128,0,240034:0:0:0:0:
192,192,240034,128,0,240347:0:0:0:0:
320,192,240347,128,0,240659:0:0:0:0:
448,192,240659,128,0,240972:0:0:0:0:
320,192,240972,1,0,0:0:0:0:
192,192,240972,1,0,0:0:0:0:
64,192,240972,128,0,241284:0:0:0:0:
192,192,241284,128,0,241597:0:0:0:0:
64,192,241597,1,0,0:0:0:0:
320,192,241597,128,0,241909:0:0:0:0:
448,192,241597,1,0,0:0:0:0:
64,192,241753,1,0,0:0:0:0:
448,192,241753,1,0,0:0:0:0:
192,192,241831,1,0,0:0:0:0:
64,192,241909,1,0,0:0:0:0:
448,192,241909,128,0,242222:0:0:0:0:
192,192,241987,1,0,0:0:0:0:
64,192,242065,1,0,0:0:0:0:
64,192,242222,1,0,0:0:0:0:
192,192,242222,1,0,0:0:0:0:
320,192,242222,1,0,0:0:0:0:
64,192,242378,1,0,0:0:0:0:
192,192,242378,1,0,0:0:0:0:
192,192,242534,1,0,0:0:0:0:
320,192,242534,1,0,0:0:0:0:
448,192,242534,1,0,0:0:0:0:
192,192,242690,1,0,0:0:0:0:
320,192,242690,1,0,0:0:0:0:
320,192,242847,1,0,0:0:0:0:
448,192,242847,1,0,0:0:0:0:
320,192,243003,1,0,0:0:0:0:
448,192,243003,1,0,0:0:0:0:
192,192,243159,1,0,0:0:0:0:
64,192,243159,1,0,0:0:0:0:
448,192,243159,1,0,0:0:0:0:
320,192,243315,1,0,0:0:0:0:
192,192,243315,1,0,0:0:0:0:
64,192,243472,1,0,0:0:0:0:
448,192,243472,1,0,0:0:0:0:
64,192,243576,1,0,0:0:0:0:
448,192,243576,1,0,0:0:0:0:
320,192,243680,1,0,0:0:0:0:
192,192,243680,1,0,0:0:0:0:
64,192,243784,1,0,0:0:0:0:
448,192,243784,1,0,0:0:0:0:
192,192,243862,1,0,0:0:0:0:
320,192,243862,1,0,0:0:0:0:
64,192,243940,1,0,0:0:0:0:
448,192,243940,1,0,0:0:0:0:
64,192,244070,1,0,0:0:0:0:
448,192,244070,1,0,0:0:0:0:
192,192,244123,1,0,0:0:0:0:
320,192,244123,1,0,0:0:0:0:
64,192,244175,1,0,0:0:0:0:
448,192,244175,1,0,0:0:0:0:
64,192,244253,1,0,0:0:0:0:
192,192,244253,1,0,0:0:0:0:
448,192,244305,1,0,0:0:0:0:
320,192,244305,1,0,0:0:0:0:
320,192,244565,1,0,0:0:0:0:
192,192,244565,1,0,0:0:0:0:
192,192,244722,1,0,0:0:0:0:
64,192,244722,1,0,0:0:0:0:
320,192,244774,1,0,0:0:0:0:
448,192,244826,1,0,0:0:0:0:
64,192,245347,1,0,0:0:0:0:
192,192,245347,1,0,0:0:0:0:
448,192,245347,1,0,0:0:0:0:
320,192,245347,1,0,0:0:0:0:
448,192,245503,1,0,0:0:0:0:
320,192,245542,1,0,0:0:0:0:
192,192,245581,1,0,0:0:0:0:
64,192,245620,1,0,0:0:0:0:
448,192,245659,1,0,0:0:0:0:
320,192,245698,1,0,0:0:0:0:
192,192,245737,1,0,0:0:0:0:
64,192,245776,1,0,0:0:0:0:
448,192,245815,1,0,0:0:0:0:
320,192,245854,1,0,0:0:0:0:
192,192,245893,1,0,0:0:0:0:
64,192,245932,1,0,0:0:0:0:
320,192,245972,1,0,0:0:0:0:
448,192,245972,1,0,0:0:0:0:
192,192,246050,1,0,0:0:0:0:
64,192,246128,1,0,0:0:0:0:
320,192,246206,1,0,0:0:0:0:
192,192,246284,1,0,0:0:0:0:
64,192,246284,1,0,0:0:0:0:
448,192,246284,1,0,0:0:0:0:
320,192,246362,1,0,0:0:0:0:
192,192,246440,1,0,0:0:0:0:
64,192,246518,1,0,0:0:0:0:
192,192,246597,1,0,0:0:0:0:
448,192,246597,1,0,0:0:0:0:
320,192,246675,1,0,0:0:0:0:
64,192,246753,1,0,0:0:0:0:
192,192,246753,1,0,0:0:0:0:
320,192,246831,1,0,0:0:0:0:
192,192,246909,1,0,0:0:0:0:
64,192,246909,1,0,0:0:0:0:
448,192,246909,1,0,0:0:0:0:
320,192,246987,1,0,0:0:0:0:
192,192,247065,1,0,0:0:0:0:
448,192,247143,1,0,0:0:0:0:
64,192,247222,1,0,0:0:0:0:
320,192,247222,1,0,0:0:0:0:
192,192,247300,1,0,0:0:0:0:
448,192,247378,1,0,0:0:0:0:
320,192,247456,1,0,0:0:0:0:
192,192,247534,1,0,0:0:0:0:
64,192,247534,1,0,0:0:0:0:
448,192,247534,1,0,0:0:0:0:
320,192,247612,1,0,0:0:0:0:
192,192,247690,1,0,0:0:0:0:
64,192,247768,1,0,0:0:0:0:
320,192,247847,1,0,0:0:0:0:
448,192,247847,1,0,0:0:0:0:
64,192,247925,1,0,0:0:0:0:
192,192,248003,1,0,0:0:0:0:
320,192,248003,1,0,0:0:0:0:
448,192,248081,1,0,0:0:0:0:
320,192,248159,1,0,0:0:0:0:
192,192,248159,1,0,0:0:0:0:
64,192,248159,1,0,0:0:0:0:
448,192,248237,1,0,0:0:0:0:
192,192,248315,1,0,0:0:0:0:
320,192,248393,1,0,0:0:0:0:
64,192,248472,1,0,0:0:0:0:
448,192,248472,1,0,0:0:0:0:
192,192,248550,1,0,0:0:0:0:
320,192,248628,1,0,0:0:0:0:
192,192,248706,1,0,0:0:0:0:
64,192,248784,1,0,0:0:0:0:
448,192,248784,1,0,0:0:0:0:
320,192,248784,1,0,0:0:0:0:
192,192,248862,1,0,0:0:0:0:
320,192,248940,1,0,0:0:0:0:
192,192,249018,1,0,0:0:0:0:
64,192,249097,1,0,0:0:0:0:
448,192,249097,1,0,0:0:0:0:
320,192,249175,1,0,0:0:0:0:
64,192,249253,1,0,0:0:0:0:
448,192,249253,1,0,0:0:0:0:
192,192,249331,1,0,0:0:0:0:
64,192,249409,1,0,0:0:0:0:
320,192,249409,1,0,0:0:0:0:
448,192,249409,1,0,0:0:0:0:
192,192,249487,1,0,0:0:0:0:
64,192,249565,1,0,0:0:0:0:
320,192,249643,1,0,0:0:0:0:
192,192,249722,1,0,0:0:0:0:
64,192,249722,1,0,0:0:0:0:
448,192,249722,1,0,0:0:0:0:
320,192,249800,1,0,0:0:0:0:
448,192,249878,1,0,0:0:0:0:
192,192,249956,1,0,0:0:0:0:
64,192,250034,1,0,0:0:0:0:
320,192,250034,1,0,0:0:0:0:
448,192,250034,1,0,0:0:0:0:
192,192,250112,1,0,0:0:0:0:
64,192,250190,1,0,0:0:0:0:
320,192,250268,1,0,0:0:0:0:
192,192,250347,1,0,0:0:0:0:
64,192,250347,1,0,0:0:0:0:
448,192,250425,1,0,0:0:0:0:
192,192,250503,1,0,0:0:0:0:
64,192,250503,1,0,0:0:0:0:
320,192,250581,1,0,0:0:0:0:
192,192,250659,1,0,0:0:0:0:
64,192,250659,1,0,0:0:0:0:
448,192,250659,1,0,0:0:0:0:
320,192,250737,1,0,0:0:0:0:
192,192,250815,1,0,0:0:0:0:
320,192,250893,1,0,0:0:0:0:
64,192,250972,1,0,0:0:0:0:
448,192,250972,1,0,0:0:0:0:
192,192,251050,1,0,0:0:0:0:
320,192,251128,1,0,0:0:0:0:
64,192,251206,1,0,0:0:0:0:
192,192,251284,1,0,0:0:0:0:
320,192,251284,1,0,0:0:0:0:
448,192,251284,1,0,0:0:0:0:
64,192,251362,1,0,0:0:0:0:
192,192,251440,1,0,0:0:0:0:
320,192,251518,1,0,0:0:0:0:
448,192,251597,1,0,0:0:0:0:
192,192,251597,1,0,0:0:0:0:
320,192,251675,1,0,0:0:0:0:
192,192,251753,1,0,0:0:0:0:
448,192,251753,1,0,0:0:0:0:
320,192,251831,1,0,0:0:0:0:
64,192,251909,1,0,0:0:0:0:
448,192,251909,1,0,0:0:0:0:
192,192,251909,1,0,0:0:0:0:
320,192,251987,1,0,0:0:0:0:
192,192,252065,1,0,0:0:0:0:
320,192,252143,1,0,0:0:0:0:
64,192,252222,1,0,0:0:0:0:
448,192,252222,1,0,0:0:0:0:
192,192,252300,1,0,0:0:0:0:
320,192,252378,1,0,0:0:0:0:
448,192,252456,1,0,0:0:0:0:
320,192,252534,1,0,0:0:0:0:
192,192,252534,1,0,0:0:0:0:
64,192,252534,1,0,0:0:0:0:
448,192,252612,1,0,0:0:0:0:
320,192,252690,1,0,0:0:0:0:
192,192,252768,1,0,0:0:0:0:
64,192,252847,1,0,0:0:0:0:
448,192,252847,1,0,0:0:0:0:
320,192,252925,1,0,0:0:0:0:
64,192,253003,1,0,0:0:0:0:
448,192,253003,1,0,0:0:0:0:
192,192,253081,1,0,0:0:0:0:
64,192,253159,1,0,0:0:0:0:
320,192,253159,1,0,0:0:0:0:
448,192,253159,1,0,0:0:0:0:
192,192,253237,1,0,0:0:0:0:
320,192,253315,1,0,0:0:0:0:
192,192,253393,1,0,0:0:0:0:
64,192,253472,1,0,0:0:0:0:
448,192,253472,1,0,0:0:0:0:
192,192,253550,1,0,0:0:0:0:
320,192,253550,1,0,0:0:0:0:
64,192,253628,1,0,0:0:0:0:
448,192,253628,1,0,0:0:0:0:
192,192,253706,1,0,0:0:0:0:
448,192,253784,1,0,0:0:0:0:
320,192,253784,1,0,0:0:0:0:
64,192,253862,1,0,0:0:0:0:
192,192,253862,1,0,0:0:0:0:
320,192,253940,1,0,0:0:0:0:
448,192,253940,1,0,0:0:0:0:
192,192,254018,1,0,0:0:0:0:
64,192,254018,1,0,0:0:0:0:
448,192,254097,1,0,0:0:0:0:
320,192,254097,1,0,0:0:0:0:
192,192,254253,1,0,0:0:0:0:
64,192,254253,1,0,0:0:0:0:
320,192,254409,1,0,0:0:0:0:
448,192,254409,1,0,0:0:0:0:
192,192,254565,1,0,0:0:0:0:
64,192,254565,1,0,0:0:0:0:
192,192,254722,1,0,0:0:0:0:
64,192,254722,1,0,0:0:0:0:
320,192,254722,1,0,0:0:0:0:
448,192,254722,1,0,0:0:0:0:
64,192,255034,1,0,0:0:0:0:
448,192,255034,1,0,0:0:0:0:
320,192,255034,1,0,0:0:0:0:
192,192,255190,1,0,0:0:0:0:
320,192,255268,1,0,0:0:0:0:
64,192,255347,1,0,0:0:0:0:
448,192,255347,128,0,255581:0:0:0:0:
192,192,255425,1,0,0:0:0:0:
64,192,255503,1,0,0:0:0:0:
320,192,255581,128,0,255815:0:0:0:0:
448,192,255659,1,0,0:0:0:0:
64,192,255659,1,0,0:0:0:0:
192,192,255737,1,0,0:0:0:0:
64,192,255815,128,0,255972:0:0:0:0:
192,192,255893,1,0,0:0:0:0:
448,192,255972,128,0,256597:0:0:0:0:
320,192,255972,1,0,0:0:0:0:
192,192,256050,1,0,0:0:0:0:
64,192,256128,1,0,0:0:0:0:
192,192,256206,1,0,0:0:0:0:
64,192,256284,1,0,0:0:0:0:
320,192,256284,1,0,0:0:0:0:
192,192,256362,1,0,0:0:0:0:
320,192,256440,1,0,0:0:0:0:
192,192,256518,1,0,0:0:0:0:
320,192,256597,128,0,256831:0:0:0:0:
64,192,256597,1,0,0:0:0:0:
192,192,256675,1,0,0:0:0:0:
448,192,256753,1,0,0:0:0:0:
192,192,256831,128,0,257065:0:0:0:0:
64,192,256909,1,0,0:0:0:0:
320,192,256909,1,0,0:0:0:0:
448,192,256987,1,0,0:0:0:0:
64,192,257065,128,0,257222:0:0:0:0:
320,192,257143,1,0,0:0:0:0:
448,192,257222,128,0,257847:0:0:0:0:
192,192,257222,1,0,0:0:0:0:
320,192,257300,1,0,0:0:0:0:
192,192,257378,1,0,0:0:0:0:
64,192,257456,1,0,0:0:0:0:
192,192,257534,1,0,0:0:0:0:
320,192,257534,1,0,0:0:0:0:
64,192,257612,1,0,0:0:0:0:
192,192,257690,1,0,0:0:0:0:
320,192,257768,1,0,0:0:0:0:
192,192,257847,128,0,258081:0:0:0:0:
64,192,257847,1,0,0:0:0:0:
320,192,257925,1,0,0:0:0:0:
448,192,258003,1,0,0:0:0:0:
64,192,258081,128,0,258315:0:0:0:0:
192,192,258159,1,0,0:0:0:0:
320,192,258159,1,0,0:0:0:0:
448,192,258237,1,0,0:0:0:0:
192,192,258315,128,0,258472:0:0:0:0:
448,192,258393,1,0,0:0:0:0:
320,192,258472,128,0,258940:0:0:0:0:
64,192,258472,1,0,0:0:0:0:
192,192,258550,1,0,0:0:0:0:
448,192,258628,1,0,0:0:0:0:
192,192,258706,1,0,0:0:0:0:
64,192,258784,1,0,0:0:0:0:
448,192,258784,1,0,0:0:0:0:
192,192,258862,1,0,0:0:0:0:
64,192,258940,128,0,259097:0:0:0:0:
320,192,259018,1,0,0:0:0:0:
448,192,259097,128,0,259409:0:0:0:0:
192,192,259097,1,0,0:0:0:0:
320,192,259175,1,0,0:0:0:0:
192,192,259253,1,0,0:0:0:0:
64,192,259331,1,0,0:0:0:0:
192,192,259409,1,0,0:0:0:0:
320,192,259409,1,0,0:0:0:0:
64,192,259487,1,0,0:0:0:0:
192,192,259565,1,0,0:0:0:0:
320,192,259643,1,0,0:0:0:0:
64,192,259722,1,0,0:0:0:0:
448,192,259722,1,0,0:0:0:0:
192,192,259722,128,0,260347:0:0:0:0:
320,192,259800,1,0,0:0:0:0:
448,192,259878,1,0,0:0:0:0:
320,192,259956,1,0,0:0:0:0:
64,192,260034,1,0,0:0:0:0:
448,192,260034,1,0,0:0:0:0:
320,192,260112,1,0,0:0:0:0:
64,192,260190,1,0,0:0:0:0:
320,192,260268,1,0,0:0:0:0:
64,192,260347,128,0,260581:0:0:0:0:
448,192,260347,1,0,0:0:0:0:
320,192,260425,1,0,0:0:0:0:
192,192,260503,1,0,0:0:0:0:
320,192,260581,128,0,260815:0:0:0:0:
192,192,260659,1,0,0:0:0:0:
64,192,260659,1,0,0:0:0:0:
448,192,260737,1,0,0:0:0:0:
192,192,260815,128,0,260972:0:0:0:0:
64,192,260893,1,0,0:0:0:0:
448,192,260972,128,0,261597:0:0:0:0:
320,192,260972,1,0,0:0:0:0:
192,192,261050,1,0,0:0:0:0:
64,192,261128,1,0,0:0:0:0:
192,192,261206,1,0,0:0:0:0:
320,192,261284,1,0,0:0:0:0:
64,192,261284,1,0,0:0:0:0:
192,192,261362,1,0,0:0:0:0:
320,192,261440,1,0,0:0:0:0:
192,192,261518,1,0,0:0:0:0:
320,192,261597,128,0,261831:0:0:0:0:
64,192,261597,1,0,0:0:0:0:
192,192,261675,1,0,0:0:0:0:
448,192,261753,1,0,0:0:0:0:
192,192,261831,128,0,262065:0:0:0:0:
320,192,261909,1,0,0:0:0:0:
64,192,261909,1,0,0:0:0:0:
448,192,261987,1,0,0:0:0:0:
64,192,262065,128,0,262222:0:0:0:0:
448,192,262143,1,0,0:0:0:0:
192,192,262222,1,0,0:0:0:0:
320,192,262222,1,0,0:0:0:0:
448,192,262222,1,0,0:0:0:0:
320,192,262534,1,0,0:0:0:0:
192,192,262847,1,0,0:0:0:0:
64,192,263159,1,0,0:0:0:0:
64,192,263628,1,0,0:0:0:0:
192,192,263628,1,0,0:0:0:0:
448,192,263628,1,0,0:0:0:0:
320,192,263784,1,0,0:0:0:0:
64,192,263784,1,0,0:0:0:0:
448,192,263784,1,0,0:0:0:0:
192,192,263940,1,0,0:0:0:0:
320,192,263940,1,0,0:0:0:0:
448,192,263940,1,0,0:0:0:0:
192,192,264097,1,0,0:0:0:0:
64,192,264097,1,0,0:0:0:0:
320,192,264097,1,0,0:0:0:0:
192,192,264253,1,0,0:0:0:0:
320,192,264331,1,0,0:0:0:0:
64,192,264409,1,0,0:0:0:0:
448,192,264409,1,0,0:0:0:0:
192,192,264409,1,0,0:0:0:0:
320,192,264565,1,0,0:0:0:0:
192,192,264722,1,0,0:0:0:0:
320,192,264722,1,0,0:0:0:0:
64,192,264722,128,0,265034:0:0:0:0:
448,192,264722,128,0,265034:0:0:0:0:
192,192,265034,1,0,0:0:0:0:
320,192,265034,1,0,0:0:0:0:
320,192,265190,1,0,0:0:0:0:
192,192,265268,1,0,0:0:0:0:
64,192,265347,1,0,0:0:0:0:
448,192,265347,1,0,0:0:0:0:
192,192,265581,1,0,0:0:0:0:
320,192,265581,1,0,0:0:0:0:
64,192,265659,1,0,0:0:0:0:
448,192,265659,1,0,0:0:0:0:
448,192,265815,1,0,0:0:0:0:
64,192,265815,1,0,0:0:0:0:
192,192,265893,1,0,0:0:0:0:
320,192,265893,1,0,0:0:0:0:
64,192,266128,1,0,0:0:0:0:
192,192,266128,1,0,0:0:0:0:
320,192,266128,1,0,0:0:0:0:
320,192,266284,1,0,0:0:0:0:
192,192,266284,1,0,0:0:0:0:
64,192,266284,1,0,0:0:0:0:
192,192,266440,1,0,0:0:0:0:
448,192,266440,1,0,0:0:0:0:
320,192,266440,1,0,0:0:0:0:
320,192,266597,1,0,0:0:0:0:
448,192,266597,1,0,0:0:0:0:
64,192,266597,1,0,0:0:0:0:
192,192,266675,1,0,0:0:0:0:
64,192,266753,1,0,0:0:0:0:
448,192,266753,1,0,0:0:0:0:
320,192,266831,1,0,0:0:0:0:
64,192,266909,1,0,0:0:0:0:
448,192,266909,1,0,0:0:0:0:
320,192,267013,1,0,0:0:0:0:
448,192,267013,1,0,0:0:0:0:
192,192,267117,1,0,0:0:0:0:
64,192,267117,1,0,0:0:0:0:
320,192,267222,1,0,0:0:0:0:
448,192,267222,1,0,0:0:0:0:
64,192,267222,1,0,0:0:0:0:
64,192,267378,1,0,0:0:0:0:
448,192,267378,1,0,0:0:0:0:
320,192,267456,1,0,0:0:0:0:
192,192,267456,1,0,0:0:0:0:
64,192,267534,1,0,0:0:0:0:
448,192,267534,1,0,0:0:0:0:
192,192,267690,1,0,0:0:0:0:
320,192,267690,1,0,0:0:0:0:
320,192,267847,1,0,0:0:0:0:
448,192,267847,1,0,0:0:0:0:
192,192,267925,1,0,0:0:0:0:
64,192,267925,1,0,0:0:0:0:
320,192,268003,1,0,0:0:0:0:
448,192,268003,1,0,0:0:0:0:
192,192,268081,1,0,0:0:0:0:
64,192,268159,1,0,0:0:0:0:
320,192,268159,1,0,0:0:0:0:
448,192,268159,1,0,0:0:0:0:
64,192,268315,1,0,0:0:0:0:
448,192,268315,1,0,0:0:0:0:
320,192,268393,1,0,0:0:0:0:
64,192,268472,1,0,0:0:0:0:
448,192,268472,1,0,0:0:0:0:
192,192,268472,128,0,268862:0:0:0:0:
320,192,269097,128,0,269487:0:0:0:0:
320,192,269722,128,0,271909:0:0:0:0:
64,192,269722,1,0,0:0:0:0:
448,192,269722,1,0,0:0:0:0:
192,192,269800,1,0,0:0:0:0:
64,192,269878,1,0,0:0:0:0:
192,192,269956,1,0,0:0:0:0:
64,192,270034,1,0,0:0:0:0:
448,192,270034,1,0,0:0:0:0:
192,192,270112,1,0,0:0:0:0:
448,192,270190,1,0,0:0:0:0:
64,192,270268,1,0,0:0:0:0:
192,192,270347,1,0,0:0:0:0:
448,192,270347,1,0,0:0:0:0:
64,192,270425,1,0,0:0:0:0:
192,192,270503,1,0,0:0:0:0:
448,192,270503,1,0,0:0:0:0:
64,192,270581,1,0,0:0:0:0:
192,192,270659,1,0,0:0:0:0:
448,192,270659,1,0,0:0:0:0:
64,192,270737,1,0,0:0:0:0:
448,192,270815,1,0,0:0:0:0:
192,192,270893,1,0,0:0:0:0:
64,192,270972,1,0,0:0:0:0:
448,192,270972,1,0,0:0:0:0:
192,192,271050,1,0,0:0:0:0:
64,192,271128,1,0,0:0:0:0:
448,192,271206,1,0,0:0:0:0:
192,192,271284,1,0,0:0:0:0:
64,192,271284,1,0,0:0:0:0:
448,192,271362,1,0,0:0:0:0:
64,192,271440,1,0,0:0:0:0:
192,192,271518,1,0,0:0:0:0:
64,192,271597,1,0,0:0:0:0:
448,192,271597,1,0,0:0:0:0:
192,192,271675,1,0,0:0:0:0:
64,192,271753,1,0,0:0:0:0:
448,192,271753,1,0,0:0:0:0:
192,192,271831,1,0,0:0:0:0:
64,192,271909,1,0,0:0:0:0:
448,192,271909,1,0,0:0:0:0:
192,192,271987,1,0,0:0:0:0:
320,192,272065,1,0,0:0:0:0:
192,192,272143,1,0,0:0:0:0:
64,192,272222,1,0,0:0:0:0:
448,192,272222,1,0,0:0:0:0:
320,192,272300,1,0,0:0:0:0:
192,192,272378,1,0,0:0:0:0:
320,192,272456,1,0,0:0:0:0:
192,192,272534,1,0,0:0:0:0:
64,192,272534,1,0,0:0:0:0:
448,192,272534,1,0,0:0:0:0:
320,192,272612,1,0,0:0:0:0:
64,192,272690,1,0,0:0:0:0:
192,192,272768,1,0,0:0:0:0:
64,192,272847,1,0,0:0:0:0:
448,192,272847,1,0,0:0:0:0:
320,192,272925,1,0,0:0:0:0:
64,192,273003,1,0,0:0:0:0:
448,192,273003,1,0,0:0:0:0:
192,192,273081,1,0,0:0:0:0:
64,192,273159,1,0,0:0:0:0:
320,192,273159,1,0,0:0:0:0:
448,192,273159,1,0,0:0:0:0:
192,192,273237,1,0,0:0:0:0:
448,192,273315,1,0,0:0:0:0:
320,192,273393,1,0,0:0:0:0:
64,192,273472,1,0,0:0:0:0:
192,192,273472,1,0,0:0:0:0:
320,192,273550,1,0,0:0:0:0:
448,192,273628,1,0,0:0:0:0:
64,192,273628,1,0,0:0:0:0:
192,192,273706,1,0,0:0:0:0:
64,192,273784,1,0,0:0:0:0:
320,192,273784,1,0,0:0:0:0:
448,192,273784,1,0,0:0:0:0:
192,192,273862,1,0,0:0:0:0:
320,192,273940,1,0,0:0:0:0:
192,192,274018,1,0,0:0:0:0:
64,192,274097,1,0,0:0:0:0:
448,192,274097,1,0,0:0:0:0:
320,192,274175,1,0,0:0:0:0:
64,192,274253,1,0,0:0:0:0:
448,192,274253,1,0,0:0:0:0:
192,192,274331,1,0,0:0:0:0:
64,192,274409,1,0,0:0:0:0:
320,192,274409,1,0,0:0:0:0:
448,192,274409,1,0,0:0:0:0:
192,192,274487,1,0,0:0:0:0:
320,192,274565,1,0,0:0:0:0:
64,192,274643,1,0,0:0:0:0:
192,192,274722,1,0,0:0:0:0:
320,192,274722,1,0,0:0:0:0:
448,192,274722,1,0,0:0:0:0:
64,192,274800,1,0,0:0:0:0:
192,192,274878,1,0,0:0:0:0:
320,192,274956,1,0,0:0:0:0:
192,192,275034,1,0,0:0:0:0:
64,192,275034,1,0,0:0:0:0:
448,192,275034,1,0,0:0:0:0:
320,192,275112,1,0,0:0:0:0:
192,192,275190,1,0,0:0:0:0:
64,192,275268,1,0,0:0:0:0:
320,192,275347,1,0,0:0:0:0:
448,192,275347,1,0,0:0:0:0:
192,192,275425,1,0,0:0:0:0:
64,192,275503,1,0,0:0:0:0:
320,192,275503,1,0,0:0:0:0:
192,192,275581,1,0,0:0:0:0:
64,192,275659,1,0,0:0:0:0:
320,192,275659,1,0,0:0:0:0:
448,192,275659,1,0,0:0:0:0:
192,192,275737,1,0,0:0:0:0:
64,192,275815,1,0,0:0:0:0:
320,192,275893,1,0,0:0:0:0:
192,192,275972,1,0,0:0:0:0:
64,192,275972,1,0,0:0:0:0:
320,192,276050,1,0,0:0:0:0:
448,192,276128,1,0,0:0:0:0:
192,192,276206,1,0,0:0:0:0:
64,192,276284,1,0,0:0:0:0:
320,192,276284,1,0,0:0:0:0:
448,192,276284,1,0,0:0:0:0:
192,192,276362,1,0,0:0:0:0:
320,192,276440,1,0,0:0:0:0:
448,192,276518,1,0,0:0:0:0:
192,192,276597,1,0,0:0:0:0:
64,192,276597,1,0,0:0:0:0:
448,192,276675,1,0,0:0:0:0:
320,192,276753,1,0,0:0:0:0:
192,192,276753,1,0,0:0:0:0:
64,192,276831,1,0,0:0:0:0:
192,192,276909,1,0,0:0:0:0:
320,192,276909,1,0,0:0:0:0:
448,192,276909,1,0,0:0:0:0:
64,192,276987,1,0,0:0:0:0:
192,192,277065,1,0,0:0:0:0:
320,192,277143,1,0,0:0:0:0:
448,192,277222,1,0,0:0:0:0:
64,192,277222,1,0,0:0:0:0:
320,192,277300,1,0,0:0:0:0:
64,192,277378,1,0,0:0:0:0:
448,192,277378,1,0,0:0:0:0:
192,192,277456,1,0,0:0:0:0:
64,192,277534,1,0,0:0:0:0:
320,192,277534,1,0,0:0:0:0:
448,192,277534,1,0,0:0:0:0:
192,192,277612,1,0,0:0:0:0:
64,192,277690,1,0,0:0:0:0:
192,192,277768,1,0,0:0:0:0:
320,192,277847,1,0,0:0:0:0:
448,192,277847,1,0,0:0:0:0:
192,192,277925,1,0,0:0:0:0:
64,192,278003,1,0,0:0:0:0:
320,192,278003,1,0,0:0:0:0:
192,192,278081,1,0,0:0:0:0:
64,192,278159,1,0,0:0:0:0:
320,192,278159,1,0,0:0:0:0:
448,192,278159,1,0,0:0:0:0:
192,192,278237,1,0,0:0:0:0:
64,192,278315,1,0,0:0:0:0:
320,192,278393,1,0,0:0:0:0:
192,192,278472,1,0,0:0:0:0:
448,192,278472,1,0,0:0:0:0:
320,192,278550,1,0,0:0:0:0:
192,192,278628,1,0,0:0:0:0:
64,192,278628,1,0,0:0:0:0:
448,192,278628,1,0,0:0:0:0:
320,192,278706,1,0,0:0:0:0:
192,192,278784,1,0,0:0:0:0:
64,192,278862,1,0,0:0:0:0:
448,192,278940,1,0,0:0:0:0:
320,192,279018,1,0,0:0:0:0:
192,192,279097,1,0,0:0:0:0:
64,192,279097,1,0,0:0:0:0:
448,192,279097,1,0,0:0:0:0:
320,192,279175,1,0,0:0:0:0:
192,192,279253,1,0,0:0:0:0:
64,192,279253,1,0,0:0:0:0:
320,192,279331,1,0,0:0:0:0:
192,192,279409,1,0,0:0:0:0:
64,192,279409,1,0,0:0:0:0:
448,192,279409,1,0,0:0:0:0:
320,192,279487,1,0,0:0:0:0:
448,192,279565,1,0,0:0:0:0:
192,192,279565,1,0,0:0:0:0:
320,192,279643,1,0,0:0:0:0:
192,192,279722,1,0,0:0:0:0:
64,192,279722,1,0,0:0:0:0:
448,192,279722,1,0,0:0:0:0:
320,192,279800,1,0,0:0:0:0:
192,192,279878,1,0,0:0:0:0:
64,192,279956,1,0,0:0:0:0:
192,192,280034,1,0,0:0:0:0:
448,192,280034,1,0,0:0:0:0:
320,192,280034,1,0,0:0:0:0:
64,192,280112,1,0,0:0:0:0:
192,192,280190,1,0,0:0:0:0:
320,192,280268,1,0,0:0:0:0:
64,192,280347,1,0,0:0:0:0:
448,192,280347,1,0,0:0:0:0:
192,192,280425,1,0,0:0:0:0:
448,192,280503,1,0,0:0:0:0:
64,192,280503,1,0,0:0:0:0:
320,192,280581,1,0,0:0:0:0:
64,192,280659,1,0,0:0:0:0:
448,192,280659,1,0,0:0:0:0:
192,192,280737,1,0,0:0:0:0:
320,192,280815,1,0,0:0:0:0:
448,192,280815,1,0,0:0:0:0:
64,192,280893,1,0,0:0:0:0:
320,192,280972,1,0,0:0:0:0:
192,192,280972,1,0,0:0:0:0:
448,192,281050,1,0,0:0:0:0:
192,192,281128,1,0,0:0:0:0:
64,192,281128,1,0,0:0:0:0:
320,192,281206,1,0,0:0:0:0:
192,192,281284,1,0,0:0:0:0:
448,192,281284,1,0,0:0:0:0:
64,192,281362,1,0,0:0:0:0:
192,192,281440,1,0,0:0:0:0:
448,192,281440,1,0,0:0:0:0:
320,192,281518,1,0,0:0:0:0:
192,192,281597,1,0,0:0:0:0:
64,192,281597,1,0,0:0:0:0:
320,192,281675,1,0,0:0:0:0:
192,192,281753,1,0,0:0:0:0:
64,192,281753,1,0,0:0:0:0:
448,192,281831,1,0,0:0:0:0:
320,192,281909,1,0,0:0:0:0:
192,192,281909,1,0,0:0:0:0:
64,192,281987,1,0,0:0:0:0:
320,192,282065,1,0,0:0:0:0:
448,192,282065,1,0,0:0:0:0:
192,192,282143,1,0,0:0:0:0:
64,192,282222,1,0,0:0:0:0:
448,192,282222,1,0,0:0:0:0:
320,192,282300,1,0,0:0:0:0:
64,192,282378,1,0,0:0:0:0:
448,192,282378,1,0,0:0:0:0:
192,192,282456,1,0,0:0:0:0:
320,192,282534,1,0,0:0:0:0:
448,192,282534,1,0,0:0:0:0:
64,192,282612,1,0,0:0:0:0:
320,192,282690,1,0,0:0:0:0:
448,192,282690,1,0,0:0:0:0:
192,192,282768,1,0,0:0:0:0:
64,192,282847,1,0,0:0:0:0:
448,192,282847,1,0,0:0:0:0:
192,192,282925,1,0,0:0:0:0:
64,192,283003,1,0,0:0:0:0:
448,192,283003,1,0,0:0:0:0:
320,192,283081,1,0,0:0:0:0:
192,192,283159,1,0,0:0:0:0:
64,192,283159,1,0,0:0:0:0:
448,192,283237,1,0,0:0:0:0:
192,192,283315,1,0,0:0:0:0:
64,192,283315,1,0,0:0:0:0:
448,192,283393,1,0,0:0:0:0:
320,192,283472,1,0,0:0:0:0:
192,192,283472,1,0,0:0:0:0:
448,192,283550,1,0,0:0:0:0:
192,192,283628,1,0,0:0:0:0:
64,192,283628,1,0,0:0:0:0:
448,192,283706,1,0,0:0:0:0:
320,192,283784,1,0,0:0:0:0:
192,192,283784,1,0,0:0:0:0:
64,192,283862,1,0,0:0:0:0:
320,192,283940,1,0,0:0:0:0:
448,192,283940,1,0,0:0:0:0:
192,192,284018,1,0,0:0:0:0:
64,192,284097,1,0,0:0:0:0:
448,192,284097,1,0,0:0:0:0:
320,192,284175,1,0,0:0:0:0:
192,192,284253,1,0,0:0:0:0:
64,192,284253,1,0,0:0:0:0:
320,192,284331,1,0,0:0:0:0:
64,192,284409,1,0,0:0:0:0:
448,192,284409,1,0,0:0:0:0:
192,192,284487,1,0,0:0:0:0:
320,192,284565,1,0,0:0:0:0:
448,192,284565,1,0,0:0:0:0:
192,192,284643,1,0,0:0:0:0:
64,192,284722,1,0,0:0:0:0:
448,192,284722,1,0,0:0:0:0:
320,192,284722,1,0,0:0:0:0:
192,192,284800,1,0,0:0:0:0:
448,192,284878,1,0,0:0:0:0:
320,192,284878,1,0,0:0:0:0:
192,192,284956,1,0,0:0:0:0:
64,192,285034,1,0,0:0:0:0:
448,192,285034,1,0,0:0:0:0:
320,192,285112,1,0,0:0:0:0:
192,192,285190,1,0,0:0:0:0:
448,192,285190,1,0,0:0:0:0:
64,192,285268,1,0,0:0:0:0:
192,192,285347,1,0,0:0:0:0:
320,192,285347,1,0,0:0:0:0:
448,192,285425,1,0,0:0:0:0:
320,192,285503,1,0,0:0:0:0:
192,192,285503,1,0,0:0:0:0:
64,192,285581,1,0,0:0:0:0:
192,192,285659,1,0,0:0:0:0:
320,192,285659,1,0,0:0:0:0:
448,192,285737,1,0,0:0:0:0:
192,192,285815,1,0,0:0:0:0:
64,192,285815,1,0,0:0:0:0:
320,192,285893,1,0,0:0:0:0:
64,192,285972,1,0,0:0:0:0:
448,192,285972,1,0,0:0:0:0:
192,192,286050,1,0,0:0:0:0:
448,192,286128,1,0,0:0:0:0:
64,192,286128,1,0,0:0:0:0:
320,192,286206,1,0,0:0:0:0:
192,192,286284,1,0,0:0:0:0:
64,192,286284,1,0,0:0:0:0:
320,192,286362,1,0,0:0:0:0:
192,192,286440,1,0,0:0:0:0:
448,192,286440,1,0,0:0:0:0:
64,192,286518,1,0,0:0:0:0:
320,192,286597,1,0,0:0:0:0:
448,192,286597,1,0,0:0:0:0:
192,192,286675,1,0,0:0:0:0:
64,192,286753,1,0,0:0:0:0:
320,192,286753,1,0,0:0:0:0:
192,192,286831,1,0,0:0:0:0:
64,192,286909,1,0,0:0:0:0:
448,192,286909,1,0,0:0:0:0:
320,192,286987,1,0,0:0:0:0:
64,192,287065,1,0,0:0:0:0:
448,192,287065,1,0,0:0:0:0:
192,192,287143,1,0,0:0:0:0:
448,192,287222,1,0,0:0:0:0:
64,192,287222,1,0,0:0:0:0:
320,192,287222,1,0,0:0:0:0:
320,192,287534,1,0,0:0:0:0:
192,192,287847,1,0,0:0:0:0:
64,192,288159,1,0,0:0:0:0:
448,192,288628,128,0,297222:0:0:0:0:
320,192,288628,128,0,297222:0:0:0:0:
64,192,288628,128,0,297222:0:0:0:0:
192,192,288628,128,0,297222:0:0:0:0:
