osu file format v14

[General]
AudioFilename: Neru - Ningen Shikkaku.mp3
AudioLeadIn: 1000
PreviewTime: 84252
Countdown: 0
SampleSet: Normal
StackLeniency: 0.7
Mode: 3
LetterboxInBreaks: 0
SpecialStyle: 0
WidescreenStoryboard: 1

[Editor]
Bookmarks: 22221,34721,44721,47221,49721,52221,64721,69642,84721,89721,94721,114721,134721,174721,175033,175346,175658,175971,176283,176596,176908,177221,177533,177846,178158,178471,178783,179096,179408,179721,180033,180346,180658,180971,181283,181596,181908,182221,182533,182846,183158,183471,183783,184096,184408,184721
DistanceSpacing: 0.7
BeatDivisor: 4
GridSize: 4
TimelineZoom: 2.799999

[Metadata]
Title:Ningen Shikkaku
TitleUnicode:人間失格
Artist:Neru
ArtistUnicode:Neru
Creator:puxtu
Version:4K HD+
Source:
Tags:pxt arcwinolivirus Blocko -Kamikaze- LordRaika [_M_o_m_o_] Tidek ExUsagi Eternalie Zenx Z3nx lZenxl PyaKura Hydria Harbyter No Longer Human Vocaloid Kagamine Rin Len 鏡音リン・レン
BeatmapID:756509
BeatmapSetID:239471

[Difficulty]
HPDrainRate:8.3
CircleSize:4
OverallDifficulty:8.3
ApproachRate:5
SliderMultiplier:1.4
SliderTickRate:1

[Events]
//Background and Video events
0,0,"SakuraTree.jpg",0,0
//Break Periods
//Storyboard Layer 0 (Background)
//Storyboard Layer 1 (Fail)
//Storyboard Layer 2 (Pass)
//Storyboard Layer 3 (Foreground)
//Storyboard Sound Samples

[TimingPoints]
1322,444.444444444444,3,2,0,20,1,0
11968,451.127819548872,3,2,0,20,1,0
11968,-98.0392156862745,3,2,0,20,0,0
12644,444.444444444444,3,2,0,20,1,0
13310,447.761194029851,3,2,0,20,1,0
13310,-99.009900990099,3,2,0,20,0,0
17389,500,3,2,0,20,1,0
17389,-92.5925925925926,3,2,0,20,0,0
18129,600,3,2,0,20,1,0
18129,-83.3333333333333,3,2,0,20,0,0
18429,571.428571428571,3,2,0,20,1,0
18429,-87.719298245614,3,2,0,20,0,0
19000,705.882352941176,3,2,0,20,1,0
19000,-77.5193798449612,3,2,0,20,0,0
19665,705.882352941176,3,2,0,20,1,0
19665,-77.5193798449612,3,2,0,20,0,0
19990,1000,3,2,0,20,1,0
19990,-59.8802395209581,3,2,0,20,0,0
20490,1500,3,2,0,20,1,0
20490,-40,3,2,0,20,0,0
22222,312.5,4,1,1,60,1,0
84722,-100,4,1,1,60,0,1
102222,-100,4,1,1,60,0,0
154722,-100,4,1,1,60,0,1
174722,-100,4,1,1,60,0,0
245972,-100,4,1,1,60,0,1
264097,-100,4,1,1,60,0,0
264722,-100,4,1,1,60,0,1
266597,-100,4,1,1,60,0,0
267222,-100,4,1,1,60,0,1
269643,-100,4,1,1,60,0,0
269722,-100,4,1,1,60,0,1
288628,-142.857142857143,4,1,1,60,0,0

[HitObjects]
64,192,1322,5,0,0:0:0:0:
448,192,1322,1,0,0:0:0:0:
192,192,1544,1,0,0:0:0:0:
64,192,1766,1,0,0:0:0:0:
320,192,1988,1,0,0:0:0:0:
448,192,1988,1,0,0:0:0:0:
192,192,2210,1,0,0:0:0:0:
64,192,2433,1,0,0:0:0:0:
448,192,2655,1,0,0:0:0:0:
192,192,2655,1,0,0:0:0:0:
320,192,2877,1,0,0:0:0:0:
64,192,3099,1,0,0:0:0:0:
448,192,3321,1,0,0:0:0:0:
192,192,3321,1,0,0:0:0:0:
320,192,3544,1,0,0:0:0:0:
64,192,3766,1,0,0:0:0:0:
448,192,3988,1,0,0:0:0:0:
192,192,3988,1,0,0:0:0:0:
320,192,4210,1,0,0:0:0:0:
64,192,4433,1,0,0:0:0:0:
448,192,4655,1,0,0:0:0:0:
192,192,4655,1,0,0:0:0:0:
320,192,4877,1,0,0:0:0:0:
64,192,5099,1,0,0:0:0:0:
448,192,5321,1,0,0:0:0:0:
192,192,5321,1,0,0:0:0:0:
320,192,5544,1,0,0:0:0:0:
64,192,5766,1,0,0:0:0:0:
448,192,5766,1,0,0:0:0:0:
320,192,5988,1,0,0:0:0:0:
64,192,5988,1,0,0:0:0:0:
64,192,6655,1,0,0:0:0:0:
448,192,6655,1,0,0:0:0:0:
192,192,6877,1,0,0:0:0:0:
320,192,7099,1,0,0:0:0:0:
64,192,7321,1,0,0:0:0:0:
448,192,7321,1,0,0:0:0:0:
192,192,7544,1,0,0:0:0:0:
320,192,7766,1,0,0:0:0:0:
192,192,7988,1,0,0:0:0:0:
64,192,7988,1,0,0:0:0:0:
448,192,8210,1,0,0:0:0:0:
320,192,8433,1,0,0:0:0:0:
192,192,8655,1,0,0:0:0:0:
448,192,8655,1,0,0:0:0:0:
64,192,8877,1,0,0:0:0:0:
320,192,9099,1,0,0:0:0:0:
192,192,9321,1,0,0:0:0:0:
448,192,9321,1,0,0:0:0:0:
64,192,9544,1,0,0:0:0:0:
320,192,9766,1,0,0:0:0:0:
192,192,9988,1,0,0:0:0:0:
448,192,9988,1,0,0:0:0:0:
64,192,10210,1,0,0:0:0:0:
320,192,10433,1,0,0:0:0:0:
192,192,10655,1,0,0:0:0:0:
448,192,10655,1,0,0:0:0:0:
64,192,10877,1,0,0:0:0:0:
320,192,11099,1,0,0:0:0:0:
192,192,11321,1,0,0:0:0:0:
448,192,11968,1,0,0:0:0:0:
192,192,11968,1,0,0:0:0:0:
64,192,12193,1,0,0:0:0:0:
320,192,12419,1,0,0:0:0:0:
192,192,12644,1,0,0:0:0:0:
448,192,12644,1,0,0:0:0:0:
64,192,12866,1,0,0:0:0:0:
448,192,13088,1,0,0:0:0:0:
192,192,13310,1,0,0:0:0:0:
320,192,13310,1,0,0:0:0:0:
64,192,13533,1,0,0:0:0:0:
448,192,13757,1,0,0:0:0:0:
320,192,13981,1,0,0:0:0:0:
64,192,13981,1,0,0:0:0:0:
192,192,14205,1,0,0:0:0:0:
320,192,14429,1,0,0:0:0:0:
448,192,14653,1,0,0:0:0:0:
64,192,14653,1,0,0:0:0:0:
192,192,14877,1,0,0:0:0:0:
64,192,15101,1,0,0:0:0:0:
320,192,15324,1,0,0:0:0:0:
448,192,15324,1,0,0:0:0:0:
192,192,15548,1,0,0:0:0:0:
64,192,15772,1,0,0:0:0:0:
448,192,15996,1,0,0:0:0:0:
192,192,15996,1,0,0:0:0:0:
320,192,16220,1,0,0:0:0:0:
448,192,16444,1,0,0:0:0:0:
64,192,16444,1,0,0:0:0:0:
448,192,16668,1,0,0:0:0:0:
192,192,16668,1,0,0:0:0:0:
320,192,17389,1,0,0:0:0:0:
64,192,17389,1,0,0:0:0:0:
448,192,17639,1,0,0:0:0:0:
192,192,17889,1,0,0:0:0:0:
448,192,18129,1,0,0:0:0:0:
64,192,18129,1,0,0:0:0:0:
320,192,18429,1,0,0:0:0:0:
192,192,18714,1,0,0:0:0:0:
320,192,19000,1,0,0:0:0:0:
64,192,19000,1,0,0:0:0:0:
448,192,19352,1,0,0:0:0:0:
192,192,19665,1,0,0:0:0:0:
320,192,19990,1,0,0:0:0:0:
64,192,19990,1,0,0:0:0:0:
448,192,20490,1,0,0:0:0:0:
192,192,20490,1,0,0:0:0:0:
320,192,21240,1,0,0:0:0:0:
64,192,21240,1,0,0:0:0:0:
448,192,22222,5,4,2:0:0:0:
320,192,22222,1,0,0:0:0:0:
320,192,22534,1,4,2:0:0:0:
64,192,22534,1,0,0:0:0:0:
192,192,22847,1,4,2:0:0:0:
448,192,22847,1,0,0:0:0:0:
192,192,23159,1,4,2:0:0:0:
64,192,23159,1,0,0:0:0:0:
320,192,23628,1,8,0:0:0:0:
448,192,23628,1,0,0:0:0:0:
192,192,23784,1,8,0:0:0:0:
64,192,23784,1,0,0:0:0:0:
320,192,23940,1,8,0:0:0:0:
448,192,23940,1,0,0:0:0:0:
192,192,24097,1,8,0:0:0:0:
64,192,24097,1,0,0:0:0:0:
320,192,24409,1,4,3:0:0:0:
192,192,24722,1,4,0:0:0:0:
448,192,24722,1,0,0:0:0:0:
64,192,24722,1,0,0:0:0:0:
320,192,24878,1,0,0:0:0:0:
192,192,24956,1,0,0:0:0:0:
64,192,25034,1,8,0:0:0:0:
448,192,25034,1,0,0:0:0:0:
320,192,25190,1,0,0:0:0:0:
448,192,25268,1,0,0:0:0:0:
192,192,25347,1,0,0:0:0:0:
448,192,25503,1,0,0:0:0:0:
320,192,25581,1,0,0:0:0:0:
64,192,25659,1,8,0:0:0:0:
448,192,25659,1,0,0:0:0:0:
192,192,25815,1,0,0:0:0:0:
448,192,25893,1,0,0:0:0:0:
64,192,25972,1,0,0:0:0:0:
320,192,26128,1,0,0:0:0:0:
448,192,26206,1,0,0:0:0:0:
192,192,26284,1,0,0:0:0:0:
64,192,26284,1,8,0:0:0:0:
448,192,26440,1,0,0:0:0:0:
192,192,26518,1,0,0:0:0:0:
64,192,26597,1,0,0:0:0:0:
320,192,26753,1,0,0:0:0:0:
64,192,26831,1,0,0:0:0:0:
448,192,26909,1,8,0:0:0:0:
192,192,26909,1,0,0:0:0:0:
64,192,27065,1,0,0:0:0:0:
192,192,27143,1,0,0:0:0:0:
320,192,27222,1,0,0:0:0:0:
448,192,27378,1,0,0:0:0:0:
192,192,27456,1,0,0:0:0:0:
64,192,27534,1,8,0:0:0:0:
320,192,27534,1,0,0:0:0:0:
192,192,27690,1,0,0:0:0:0:
448,192,27768,1,0,0:0:0:0:
320,192,27847,1,0,0:0:0:0:
64,192,28003,1,0,0:0:0:0:
320,192,28081,1,0,0:0:0:0:
192,192,28159,1,8,0:0:0:0:
448,192,28159,1,0,0:0:0:0:
320,192,28315,1,0,0:0:0:0:
448,192,28393,1,0,0:0:0:0:
64,192,28472,1,0,0:0:0:0:
448,192,28628,1,0,0:0:0:0:
192,192,28706,1,0,0:0:0:0:
320,192,28784,1,8,0:0:0:0:
64,192,28784,1,0,0:0:0:0:
64,192,28940,1,0,0:0:0:0:
320,192,29018,1,0,0:0:0:0:
448,192,29097,1,0,0:0:0:0:
64,192,29253,1,0,0:0:0:0:
192,192,29331,1,0,0:0:0:0:
448,192,29409,1,8,0:0:0:0:
64,192,29409,1,0,0:0:0:0:
320,192,29565,1,0,0:0:0:0:
192,192,29643,1,0,0:0:0:0:
448,192,29722,1,4,0:0:0:0:
64,192,29722,1,0,0:0:0:0:
192,192,29878,1,0,0:0:0:0:
64,192,29956,1,0,0:0:0:0:
320,192,30034,1,8,0:0:0:0:
192,192,30034,1,0,0:0:0:0:
448,192,30190,1,0,0:0:0:0:
64,192,30268,1,0,0:0:0:0:
320,192,30347,1,0,0:0:0:0:
192,192,30503,1,0,0:0:0:0:
320,192,30581,1,0,0:0:0:0:
448,192,30659,1,8,0:0:0:0:
64,192,30659,1,0,0:0:0:0:
192,192,30815,1,0,0:0:0:0:
64,192,30893,1,0,0:0:0:0:
320,192,30972,1,0,0:0:0:0:
448,192,31128,1,0,0:0:0:0:
320,192,31206,1,0,0:0:0:0:
64,192,31284,1,8,0:0:0:0:
192,192,31284,1,0,0:0:0:0:
448,192,31440,1,0,0:0:0:0:
320,192,31518,1,0,0:0:0:0:
192,192,31597,1,0,0:0:0:0:
64,192,31753,1,0,0:0:0:0:
320,192,31831,1,0,0:0:0:0:
448,192,31909,1,8,0:0:0:0:
192,192,31909,1,0,0:0:0:0:
320,192,32065,1,0,0:0:0:0:
64,192,32143,1,0,0:0:0:0:
448,192,32222,1,0,0:0:0:0:
192,192,32378,1,0,0:0:0:0:
448,192,32456,1,0,0:0:0:0:
64,192,32534,1,8,0:0:0:0:
320,192,32534,1,0,0:0:0:0:
448,192,32690,1,0,0:0:0:0:
192,192,32768,1,0,0:0:0:0:
320,192,32847,1,0,0:0:0:0:
192,192,33003,1,0,0:0:0:0:
320,192,33081,1,0,0:0:0:0:
448,192,33159,1,8,0:0:0:0:
64,192,33159,1,0,0:0:0:0:
192,192,33315,1,0,0:0:0:0:
448,192,33393,1,0,0:0:0:0:
64,192,33472,1,0,0:0:0:0:
320,192,33628,1,0,0:0:0:0:
192,192,33706,1,0,0:0:0:0:
448,192,33784,1,8,0:0:0:0:
64,192,33784,1,0,0:0:0:0:
192,192,33940,1,0,0:0:0:0:
64,192,34018,1,0,0:0:0:0:
320,192,34097,1,0,0:0:0:0:
64,192,34253,1,0,0:0:0:0:
192,192,34331,1,0,0:0:0:0:
448,192,34409,1,0,0:0:0:0:
320,192,34487,1,0,0:0:0:0:
64,192,34565,1,0,0:0:0:0:
192,192,34643,1,0,0:0:0:0:
448,192,34722,1,4,0:0:0:0:
320,192,34722,1,0,0:0:0:0:
64,192,34878,1,0,0:0:0:0:
192,192,34956,1,0,0:0:0:0:
320,192,35034,1,8,0:0:0:0:
448,192,35034,1,0,0:0:0:0:
64,192,35190,1,0,0:0:0:0:
448,192,35268,1,0,0:0:0:0:
192,192,35347,1,0,0:0:0:0:
320,192,35503,1,0,0:0:0:0:
64,192,35581,1,0,0:0:0:0:
192,192,35659,1,8,0:0:0:0:
448,192,35659,1,0,0:0:0:0:
64,192,35815,1,0,0:0:0:0:
320,192,35893,1,0,0:0:0:0:
448,192,35972,1,0,0:0:0:0:
64,192,36128,1,0,0:0:0:0:
192,192,36206,1,0,0:0:0:0:
448,192,36284,1,8,0:0:0:0:
320,192,36284,1,0,0:0:0:0:
192,192,36440,1,0,0:0:0:0:
64,192,36518,1,0,0:0:0:0:
448,192,36597,1,0,0:0:0:0:
192,192,36753,1,0,0:0:0:0:
448,192,36831,1,0,0:0:0:0:
320,192,36909,1,8,0:0:0:0:
64,192,36909,1,0,0:0:0:0:
448,192,37065,1,0,0:0:0:0:
64,192,37143,1,0,0:0:0:0:
320,192,37222,1,0,0:0:0:0:
64,192,37378,1,0,0:0:0:0:
448,192,37456,1,0,0:0:0:0:
192,192,37534,1,8,0:0:0:0:
320,192,37534,1,0,0:0:0:0:
320,192,37690,1,0,0:0:0:0:
64,192,37768,1,0,0:0:0:0:
192,192,37847,1,0,0:0:0:0:
448,192,38003,1,0,0:0:0:0:
64,192,38081,1,0,0:0:0:0:
320,192,38159,1,8,0:0:0:0:
448,192,38159,1,0,0:0:0:0:
192,192,38315,1,0,0:0:0:0:
320,192,38393,1,0,0:0:0:0:
448,192,38472,1,0,0:0:0:0:
64,192,38628,1,0,0:0:0:0:
320,192,38706,1,0,0:0:0:0:
448,192,38784,1,8,0:0:0:0:
192,192,38784,1,0,0:0:0:0:
320,192,38940,1,0,0:0:0:0:
192,192,39018,1,0,0:0:0:0:
64,192,39097,1,0,0:0:0:0:
320,192,39253,1,0,0:0:0:0:
448,192,39331,1,0,0:0:0:0:
64,192,39409,1,8,0:0:0:0:
320,192,39409,1,0,0:0:0:0:
192,192,39565,1,0,0:0:0:0:
320,192,39643,1,0,0:0:0:0:
448,192,39722,1,4,0:0:0:0:
64,192,39722,1,4,0:0:0:0:
320,192,39878,1,0,0:0:0:0:
64,192,39956,1,0,0:0:0:0:
448,192,40034,1,8,0:0:0:0:
192,192,40034,1,0,0:0:0:0:
64,192,40190,1,0,0:0:0:0:
320,192,40268,1,0,0:0:0:0:
192,192,40347,1,0,0:0:0:0:
320,192,40503,1,0,0:0:0:0:
192,192,40581,1,0,0:0:0:0:
448,192,40659,1,8,0:0:0:0:
320,192,40659,1,0,0:0:0:0:
64,192,40815,1,0,0:0:0:0:
448,192,40893,1,0,0:0:0:0:
192,192,40972,1,0,0:0:0:0:
64,192,41128,1,0,0:0:0:0:
448,192,41206,1,0,0:0:0:0:
320,192,41284,1,8,0:0:0:0:
192,192,41284,1,0,0:0:0:0:
64,192,41440,1,0,0:0:0:0:
192,192,41518,1,0,0:0:0:0:
320,192,41597,1,0,0:0:0:0:
448,192,41753,1,0,0:0:0:0:
192,192,41831,1,0,0:0:0:0:
64,192,41909,1,8,0:0:0:0:
320,192,41909,1,0,0:0:0:0:
192,192,42065,1,0,0:0:0:0:
448,192,42143,1,0,0:0:0:0:
64,192,42222,1,0,0:0:0:0:
320,192,42378,1,0,0:0:0:0:
64,192,42456,1,0,0:0:0:0:
448,192,42534,1,8,0:0:0:0:
192,192,42534,1,0,0:0:0:0:
64,192,42690,1,0,0:0:0:0:
448,192,42768,1,0,0:0:0:0:
320,192,42847,1,0,0:0:0:0:
64,192,43003,1,0,0:0:0:0:
320,192,43081,1,0,0:0:0:0:
192,192,43159,1,8,0:0:0:0:
448,192,43159,1,0,0:0:0:0:
320,192,43315,1,0,0:0:0:0:
64,192,43393,1,0,0:0:0:0:
448,192,43472,1,0,0:0:0:0:
320,192,43628,1,0,0:0:0:0:
448,192,43706,1,0,0:0:0:0:
192,192,43784,1,8,0:0:0:0:
64,192,43784,1,0,0:0:0:0:
320,192,43940,1,0,0:0:0:0:
64,192,44018,1,0,0:0:0:0:
192,192,44097,1,0,0:0:0:0:
448,192,44253,1,0,0:0:0:0:
320,192,44331,1,0,0:0:0:0:
64,192,44409,1,0,0:0:0:0:
192,192,44487,1,0,0:0:0:0:
448,192,44565,1,0,0:0:0:0:
320,192,44643,1,0,0:0:0:0:
192,192,44722,1,4,0:0:0:0:
64,192,44722,1,0,0:0:0:0:
448,192,44722,1,0,0:0:0:0:
320,192,44800,1,0,0:0:0:0:
192,192,44878,1,0,0:0:0:0:
64,192,44956,1,0,0:0:0:0:
448,192,45034,1,8,0:0:0:0:
320,192,45112,1,0,0:0:0:0:
192,192,45190,1,0,0:0:0:0:
64,192,45268,1,0,0:0:0:0:
320,192,45347,1,0,0:0:0:0:
448,192,45425,1,0,0:0:0:0:
192,192,45503,1,0,0:0:0:0:
64,192,45581,1,0,0:0:0:0:
448,192,45659,1,8,0:0:0:0:
320,192,45737,1,0,0:0:0:0:
64,192,45815,1,0,0:0:0:0:
192,192,45893,1,0,0:0:0:0:
320,192,45972,1,0,0:0:0:0:
64,192,46050,1,0,0:0:0:0:
192,192,46128,1,0,0:0:0:0:
448,192,46206,1,0,0:0:0:0:
320,192,46284,1,8,0:0:0:0:
192,192,46362,1,0,0:0:0:0:
448,192,46440,1,0,0:0:0:0:
320,192,46518,1,0,0:0:0:0:
448,192,46597,1,8,0:0:0:0:
64,192,46597,128,4,46909:2:0:0:0:
192,192,46597,1,0,0:0:0:0:
448,192,46909,128,4,47222:2:0:0:0:
320,192,46909,1,8,0:0:0:0:
192,192,46909,1,0,0:0:0:0:
192,192,47222,1,0,0:0:0:0:
320,192,47300,1,0,0:0:0:0:
64,192,47378,1,0,0:0:0:0:
320,192,47456,1,0,0:0:0:0:
192,192,47534,1,8,0:0:0:0:
448,192,47612,1,0,0:0:0:0:
320,192,47690,1,0,0:0:0:0:
64,192,47768,1,0,0:0:0:0:
192,192,47847,1,0,0:0:0:0:
320,192,47925,1,0,0:0:0:0:
64,192,48003,1,0,0:0:0:0:
192,192,48081,1,0,0:0:0:0:
320,192,48159,1,8,0:0:0:0:
448,192,48237,1,0,0:0:0:0:
192,192,48315,1,0,0:0:0:0:
320,192,48393,1,0,0:0:0:0:
64,192,48472,1,0,0:0:0:0:
192,192,48550,1,0,0:0:0:0:
320,192,48628,1,0,0:0:0:0:
64,192,48706,1,0,0:0:0:0:
192,192,48784,1,8,0:0:0:0:
448,192,48862,1,0,0:0:0:0:
320,192,48940,1,0,0:0:0:0:
192,192,49018,1,0,0:0:0:0:
448,192,49097,1,8,0:0:0:0:
320,192,49097,1,4,2:0:0:0:
64,192,49097,128,0,49409:0:0:0:0:
192,192,49409,1,8,0:0:0:0:
320,192,49409,1,4,2:0:0:0:
448,192,49409,128,0,49722:0:0:0:0:
64,192,49722,1,0,0:0:0:0:
320,192,49800,1,0,0:0:0:0:
192,192,49878,1,0,0:0:0:0:
448,192,49956,1,0,0:0:0:0:
320,192,50034,1,8,0:0:0:0:
192,192,50112,1,0,0:0:0:0:
64,192,50190,1,0,0:0:0:0:
320,192,50268,1,0,0:0:0:0:
192,192,50347,1,0,0:0:0:0:
448,192,50425,1,0,0:0:0:0:
64,192,50503,1,0,0:0:0:0:
192,192,50581,1,0,0:0:0:0:
320,192,50659,1,8,0:0:0:0:
192,192,50737,1,0,0:0:0:0:
448,192,50815,1,0,0:0:0:0:
64,192,50893,1,0,0:0:0:0:
192,192,50972,1,0,0:0:0:0:
448,192,51050,1,0,0:0:0:0:
320,192,51128,1,0,0:0:0:0:
192,192,51206,1,0,0:0:0:0:
448,192,51284,1,8,0:0:0:0:
64,192,51284,1,0,0:0:0:0:
320,192,51362,1,0,0:0:0:0:
192,192,51440,1,0,0:0:0:0:
320,192,51518,1,0,0:0:0:0:
64,192,51597,128,4,51909:2:0:0:0:
192,192,51597,1,8,0:0:0:0:
448,192,51597,1,0,0:0:0:0:
320,192,51909,1,8,0:0:0:0:
192,192,51909,1,4,2:0:0:0:
448,192,51909,128,0,52222:0:0:0:0:
320,192,52222,1,4,0:0:0:0:
64,192,52222,128,0,52847:0:0:0:0:
192,192,52534,1,8,0:0:0:0:
448,192,52534,1,0,0:0:0:0:
320,192,52847,1,0,0:0:0:0:
192,192,53003,1,0,0:0:0:0:
448,192,53159,1,8,0:0:0:0:
64,192,53159,1,0,0:0:0:0:
448,192,53472,128,4,53784:2:0:0:0:
64,192,53472,1,0,0:0:0:0:
320,192,53472,1,0,0:0:0:0:
192,192,53784,1,8,0:0:0:0:
320,192,53784,128,4,54097:2:0:0:0:
448,192,54097,1,4,2:0:0:0:
192,192,54097,128,0,54409:0:0:0:0:
64,192,54097,1,0,0:0:0:0:
320,192,54409,1,8,0:0:0:0:
448,192,54409,128,4,54722:2:0:0:0:
64,192,54565,1,8,0:0:0:0:
192,192,54643,1,8,0:0:0:0:
320,192,54722,1,8,0:0:0:0:
192,192,54800,1,0,0:0:0:0:
64,192,54878,1,0,0:0:0:0:
320,192,54956,1,0,0:0:0:0:
192,192,55034,1,8,0:0:0:0:
448,192,55112,1,0,0:0:0:0:
320,192,55190,1,0,0:0:0:0:
64,192,55268,1,0,0:0:0:0:
192,192,55347,1,0,0:0:0:0:
448,192,55425,1,0,0:0:0:0:
320,192,55503,1,0,0:0:0:0:
192,192,55581,1,0,0:0:0:0:
64,192,55659,1,8,0:0:0:0:
448,192,55737,1,0,0:0:0:0:
192,192,55815,1,0,0:0:0:0:
320,192,55893,1,0,0:0:0:0:
64,192,55972,1,0,0:0:0:0:
192,192,56050,1,0,0:0:0:0:
320,192,56128,1,0,0:0:0:0:
64,192,56206,1,0,0:0:0:0:
192,192,56284,1,8,0:0:0:0:
448,192,56362,1,0,0:0:0:0:
320,192,56440,1,0,0:0:0:0:
192,192,56518,1,0,0:0:0:0:
64,192,56597,128,4,56909:2:0:0:0:
320,192,56597,1,8,0:0:0:0:
448,192,56597,1,0,0:0:0:0:
192,192,56909,1,8,0:0:0:0:
448,192,56909,1,4,2:0:0:0:
320,192,56909,128,0,57222:0:0:0:0:
64,192,57222,1,0,0:0:0:0:
192,192,57300,1,0,0:0:0:0:
448,192,57378,1,0,0:0:0:0:
192,192,57456,1,0,0:0:0:0:
320,192,57534,1,8,0:0:0:0:
64,192,57612,1,0,0:0:0:0:
192,192,57690,1,0,0:0:0:0:
448,192,57768,1,0,0:0:0:0:
320,192,57847,1,0,0:0:0:0:
64,192,57925,1,0,0:0:0:0:
448,192,58003,1,0,0:0:0:0:
192,192,58081,1,0,0:0:0:0:
64,192,58159,1,8,0:0:0:0:
448,192,58237,1,0,0:0:0:0:
320,192,58315,1,0,0:0:0:0:
64,192,58393,1,0,0:0:0:0:
448,192,58472,1,0,0:0:0:0:
320,192,58550,1,0,0:0:0:0:
192,192,58628,1,0,0:0:0:0:
448,192,58706,1,0,0:0:0:0:
320,192,58784,1,8,0:0:0:0:
64,192,58862,1,0,0:0:0:0:
448,192,58940,1,0,0:0:0:0:
192,192,59018,1,0,0:0:0:0:
320,192,59097,128,4,59409:2:0:0:0:
64,192,59097,1,8,0:0:0:0:
448,192,59097,1,0,0:0:0:0:
448,192,59409,1,4,2:0:0:0:
192,192,59409,128,8,59722:0:0:0:0:
64,192,59409,1,0,0:0:0:0:
448,192,59722,1,0,0:0:0:0:
64,192,59800,1,0,0:0:0:0:
320,192,59878,1,0,0:0:0:0:
192,192,59956,1,0,0:0:0:0:
448,192,60034,1,8,0:0:0:0:
320,192,60112,1,0,0:0:0:0:
192,192,60190,1,0,0:0:0:0:
448,192,60268,1,0,0:0:0:0:
320,192,60347,1,0,0:0:0:0:
64,192,60425,1,0,0:0:0:0:
192,192,60503,1,0,0:0:0:0:
320,192,60581,1,0,0:0:0:0:
448,192,60659,1,8,0:0:0:0:
64,192,60737,1,0,0:0:0:0:
320,192,60815,1,0,0:0:0:0:
448,192,60893,1,0,0:0:0:0:
192,192,60972,1,0,0:0:0:0:
64,192,61050,1,0,0:0:0:0:
320,192,61128,1,0,0:0:0:0:
192,192,61206,1,0,0:0:0:0:
448,192,61284,1,8,0:0:0:0:
64,192,61362,1,0,0:0:0:0:
320,192,61440,1,0,0:0:0:0:
192,192,61518,1,0,0:0:0:0:
448,192,61597,128,4,61909:2:0:0:0:
64,192,61597,1,8,0:0:0:0:
320,192,61597,1,0,0:0:0:0:
320,192,61909,1,8,0:0:0:0:
192,192,61909,1,4,2:0:0:0:
64,192,61909,128,0,62222:0:0:0:0:
320,188,62222,1,4,0:0:0:0:
448,192,62222,128,0,62847:0:0:0:0:
192,192,62534,1,8,0:0:0:0:
64,192,62534,1,0,0:0:0:0:
320,192,62847,1,0,0:0:0:0:
192,192,63003,1,0,0:0:0:0:
64,192,63159,1,8,0:0:0:0:
448,192,63159,1,0,0:0:0:0:
320,192,63472,1,4,2:0:0:0:
192,192,63472,128,0,63784:0:0:0:0:
448,192,63472,1,0,0:0:0:0:
320,192,63784,128,4,64097:2:0:0:0:
64,192,63784,1,8,0:0:0:0:
448,192,64097,1,4,2:0:0:0:
192,192,64097,128,0,64409:0:0:0:0:
64,192,64097,1,0,0:0:0:0:
448,192,64409,128,4,64722:2:0:0:0:
320,192,64409,1,8,0:0:0:0:
64,192,64565,1,8,0:0:0:0:
192,192,64643,1,8,0:0:0:0:
320,192,64722,1,8,0:0:0:0:
192,192,64878,1,0,0:0:0:0:
320,192,64956,1,0,0:0:0:0:
448,192,65034,1,8,0:0:0:0:
64,192,65034,1,0,0:0:0:0:
320,192,65190,1,0,0:0:0:0:
192,192,65268,1,0,0:0:0:0:
64,192,65347,1,8,0:0:0:0:
448,192,65347,1,0,0:0:0:0:
320,192,65503,1,0,0:0:0:0:
192,192,65581,1,0,0:0:0:0:
320,192,65659,1,8,0:0:0:0:
448,192,65659,1,0,0:0:0:0:
64,192,65815,1,0,0:0:0:0:
448,192,65893,1,0,0:0:0:0:
192,192,65972,1,8,0:0:0:0:
320,192,65972,1,0,0:0:0:0:
64,192,66128,1,0,0:0:0:0:
192,192,66206,1,0,0:0:0:0:
448,192,66284,1,8,0:0:0:0:
320,192,66284,1,0,0:0:0:0:
192,192,66440,1,0,0:0:0:0:
320,192,66518,1,0,0:0:0:0:
64,192,66597,1,8,0:0:0:0:
192,192,66597,1,0,0:0:0:0:
320,192,66753,1,0,0:0:0:0:
192,192,66831,1,0,0:0:0:0:
320,192,66909,1,8,0:0:0:0:
64,192,66909,1,0,0:0:0:0:
448,192,67065,1,0,0:0:0:0:
320,192,67143,1,0,0:0:0:0:
192,192,67222,1,8,0:0:0:0:
64,192,67222,1,0,0:0:0:0:
320,192,67378,1,0,0:0:0:0:
192,192,67456,1,0,0:0:0:0:
448,192,67534,1,8,0:0:0:0:
64,192,67534,1,0,0:0:0:0:
64,192,67690,1,0,0:0:0:0:
320,192,67768,1,0,0:0:0:0:
192,192,67847,1,8,0:0:0:0:
448,192,67847,1,0,0:0:0:0:
64,192,68003,1,0,0:0:0:0:
192,192,68081,1,0,0:0:0:0:
448,192,68159,1,8,0:0:0:0:
320,192,68159,1,0,0:0:0:0:
192,192,68315,1,0,0:0:0:0:
320,192,68393,1,0,0:0:0:0:
64,192,68472,1,8,0:0:0:0:
448,192,68472,1,0,0:0:0:0:
320,192,68628,1,0,0:0:0:0:
64,192,68706,1,0,0:0:0:0:
192,192,68784,1,8,0:0:0:0:
448,192,68784,1,0,0:0:0:0:
320,192,68940,1,0,0:0:0:0:
192,192,69018,1,0,0:0:0:0:
64,192,69097,1,8,0:0:0:0:
448,192,69097,1,0,0:0:0:0:
320,192,69253,1,0,0:0:0:0:
448,192,69331,1,0,0:0:0:0:
192,192,69409,1,8,0:0:0:0:
64,192,69409,1,0,0:0:0:0:
320,192,69565,1,0,0:0:0:0:
192,192,69643,1,0,0:0:0:0:
448,192,69722,1,4,0:0:0:0:
64,192,69722,1,8,0:0:0:0:
320,192,69722,1,0,0:0:0:0:
192,192,69878,1,0,0:0:0:0:
448,192,69956,1,0,0:0:0:0:
320,192,70034,1,8,0:0:0:0:
64,192,70034,1,0,0:0:0:0:
320,192,70190,1,0,0:0:0:0:
448,192,70268,1,0,0:0:0:0:
64,192,70347,1,8,0:0:0:0:
192,192,70347,1,0,0:0:0:0:
320,192,70503,1,0,0:0:0:0:
192,192,70581,1,0,0:0:0:0:
448,192,70659,1,8,0:0:0:0:
64,192,70659,1,0,0:0:0:0:
320,192,70815,1,0,0:0:0:0:
64,192,70893,1,0,0:0:0:0:
192,192,70972,1,8,0:0:0:0:
448,192,70972,1,0,0:0:0:0:
320,192,71128,1,0,0:0:0:0:
192,192,71206,1,0,0:0:0:0:
320,192,71284,1,8,0:0:0:0:
64,192,71284,1,0,0:0:0:0:
192,192,71440,1,0,0:0:0:0:
64,192,71518,1,0,0:0:0:0:
448,192,71597,1,8,0:0:0:0:
320,192,71597,1,0,0:0:0:0:
64,192,71753,1,0,0:0:0:0:
192,192,71831,1,0,0:0:0:0:
448,192,71909,1,8,0:0:0:0:
320,192,71909,1,0,0:0:0:0:
192,192,72065,1,0,0:0:0:0:
320,192,72143,1,0,0:0:0:0:
64,192,72222,1,8,0:0:0:0:
448,192,72222,1,0,0:0:0:0:
320,192,72378,1,0,0:0:0:0:
192,192,72456,1,0,0:0:0:0:
448,192,72534,1,8,0:0:0:0:
64,192,72534,1,0,0:0:0:0:
320,192,72690,1,0,0:0:0:0:
448,192,72768,1,0,0:0:0:0:
64,192,72847,1,8,0:0:0:0:
192,192,72847,1,0,0:0:0:0:
320,192,73003,1,0,0:0:0:0:
64,192,73081,1,0,0:0:0:0:
448,192,73159,1,8,0:0:0:0:
192,192,73159,1,0,0:0:0:0:
320,192,73315,1,0,0:0:0:0:
448,192,73393,1,0,0:0:0:0:
64,192,73472,1,8,0:0:0:0:
192,192,73472,1,0,0:0:0:0:
448,192,73628,1,0,0:0:0:0:
192,192,73706,1,0,0:0:0:0:
320,192,73784,1,8,0:0:0:0:
64,192,73784,1,0,0:0:0:0:
448,192,73940,1,0,0:0:0:0:
320,192,74018,1,0,0:0:0:0:
192,192,74097,1,8,0:0:0:0:
64,192,74097,1,0,0:0:0:0:
320,192,74253,1,0,0:0:0:0:
192,192,74331,1,0,0:0:0:0:
64,192,74409,1,8,0:0:0:0:
448,192,74409,1,0,0:0:0:0:
192,192,74565,1,0,0:0:0:0:
320,192,74643,1,0,0:0:0:0:
192,192,74722,1,8,0:0:0:0:
64,192,74722,1,4,0:0:0:0:
448,192,74722,1,0,0:0:0:0:
320,192,74878,1,0,0:0:0:0:
448,192,74956,1,0,0:0:0:0:
64,192,75034,1,8,0:0:0:0:
320,192,75034,1,0,0:0:0:0:
192,192,75190,1,0,0:0:0:0:
320,192,75268,1,0,0:0:0:0:
448,192,75347,1,8,0:0:0:0:
64,192,75347,1,0,0:0:0:0:
192,192,75503,1,0,0:0:0:0:
64,192,75581,1,0,0:0:0:0:
320,192,75659,1,8,0:0:0:0:
448,192,75659,1,0,0:0:0:0:
192,192,75815,1,0,0:0:0:0:
320,192,75893,1,0,0:0:0:0:
448,192,75972,1,8,0:0:0:0:
64,192,75972,1,0,0:0:0:0:
320,192,76128,1,0,0:0:0:0:
192,192,76206,1,0,0:0:0:0:
320,192,76284,1,8,0:0:0:0:
64,192,76284,1,0,0:0:0:0:
448,192,76440,1,0,0:0:0:0:
320,192,76518,1,0,0:0:0:0:
192,192,76597,1,8,0:0:0:0:
64,192,76597,1,0,0:0:0:0:
320,192,76753,1,0,0:0:0:0:
448,192,76831,1,0,0:0:0:0:
64,192,76909,1,8,0:0:0:0:
192,192,76909,1,0,0:0:0:0:
320,192,77065,1,0,0:0:0:0:
192,192,77143,1,0,0:0:0:0:
320,192,77222,1,8,0:0:0:0:
64,192,77222,1,0,0:0:0:0:
448,192,77378,1,0,0:0:0:0:
320,192,77456,1,0,0:0:0:0:
64,192,77534,1,8,0:0:0:0:
192,192,77534,1,0,0:0:0:0:
320,192,77690,1,0,0:0:0:0:
192,192,77768,1,0,0:0:0:0:
320,192,77847,1,8,0:0:0:0:
64,192,77847,1,0,0:0:0:0:
192,192,78003,1,0,0:0:0:0:
320,192,78081,1,0,0:0:0:0:
64,192,78159,1,8,0:0:0:0:
448,192,78159,1,0,0:0:0:0:
192,192,78315,1,0,0:0:0:0:
64,192,78393,1,0,0:0:0:0:
320,192,78472,1,8,0:0:0:0:
448,192,78472,1,0,0:0:0:0:
64,192,78628,1,0,0:0:0:0:
320,192,78706,1,0,0:0:0:0:
192,192,78784,1,8,0:0:0:0:
448,192,78784,1,0,0:0:0:0:
448,192,78940,1,0,0:0:0:0:
192,192,79018,1,0,0:0:0:0:
320,192,79097,1,8,0:0:0:0:
64,192,79097,1,0,0:0:0:0:
64,192,79253,1,0,0:0:0:0:
320,192,79331,1,0,0:0:0:0:
192,192,79409,1,8,0:0:0:0:
448,192,79409,1,0,0:0:0:0:
320,192,79565,1,0,0:0:0:0:
448,192,79643,1,0,0:0:0:0:
320,192,79722,1,8,0:0:0:0:
64,192,79722,128,4,80972:0:0:0:0:
192,192,79722,1,0,0:0:0:0:
320,192,80034,1,2,0:0:0:0:
192,192,80347,1,2,0:0:0:0:
448,192,80659,1,2,0:0:0:0:
320,192,80972,1,8,0:0:0:0:
448,192,80972,128,4,81597:0:0:0:0:
192,192,80972,1,0,0:0:0:0:
192,192,81284,1,2,0:0:0:0:
320,192,81597,1,8,0:0:0:0:
192,192,81597,128,4,81909:0:0:0:0:
64,192,81597,1,0,0:0:0:0:
320,192,81909,128,8,82222:0:0:0:0:
448,192,81909,1,0,0:0:0:0:
192,192,82222,1,8,0:0:0:0:
64,192,82222,128,4,82690:0:0:0:0:
448,192,82222,1,0,0:0:0:0:
448,192,82534,1,8,0:0:0:0:
320,192,82690,1,0,0:0:0:0:
192,192,82847,1,8,0:0:0:0:
64,192,82847,128,0,83472:0:0:0:0:
448,192,83159,1,8,0:0:0:0:
448,192,83472,1,4,0:0:0:0:
192,192,83472,1,0,0:0:0:0:
320,192,83628,1,0,0:0:0:0:
64,192,83706,1,8,0:0:0:0:
192,192,83706,1,0,0:0:0:0:
320,192,83940,1,0,0:0:0:0:
448,192,84097,128,0,84722:0:0:0:0:
320,192,84253,1,0,0:0:0:0:
192,192,84331,1,0,0:0:0:0:
64,192,84409,1,0,0:0:0:0:
320,192,84487,1,0,0:0:0:0:
192,192,84565,1,0,0:0:0:0:
64,192,84643,1,0,0:0:0:0:
320,192,84722,1,4,0:0:0:0:
192,192,84722,1,8,0:0:0:0:
64,192,84800,1,0,0:0:0:0:
448,192,84878,1,0,0:0:0:0:
192,192,84956,1,0,0:0:0:0:
320,192,85034,1,8,0:0:0:0:
448,192,85112,1,0,0:0:0:0:
192,192,85190,1,0,0:0:0:0:
320,192,85268,1,0,0:0:0:0:
64,192,85347,1,0,0:0:0:0:
192,192,85425,1,0,0:0:0:0:
448,192,85503,1,0,0:0:0:0:
64,192,85581,1,0,0:0:0:0:
192,192,85659,1,8,0:0:0:0:
448,192,85737,1,0,0:0:0:0:
64,192,85815,1,0,0:0:0:0:
320,192,85893,1,0,0:0:0:0:
448,192,85972,1,0,0:0:0:0:
192,192,85972,1,0,0:0:0:0:
64,192,86050,1,0,0:0:0:0:
320,192,86128,1,0,0:0:0:0:
192,192,86206,1,0,0:0:0:0:
64,192,86284,1,8,0:0:0:0:
320,192,86362,1,0,0:0:0:0:
448,192,86440,1,0,0:0:0:0:
64,192,86518,1,0,0:0:0:0:
320,192,86597,1,0,0:0:0:0:
192,192,86675,1,0,0:0:0:0:
64,192,86753,1,0,0:0:0:0:
448,192,86831,1,0,0:0:0:0:
320,192,86909,1,8,0:0:0:0:
192,192,86987,1,0,0:0:0:0:
448,192,87065,1,0,0:0:0:0:
64,192,87143,1,0,0:0:0:0:
192,192,87222,1,0,0:0:0:0:
448,192,87222,1,0,0:0:0:0:
320,192,87300,1,0,0:0:0:0:
64,192,87378,1,0,0:0:0:0:
192,192,87456,1,0,0:0:0:0:
320,192,87534,1,8,0:0:0:0:
448,192,87612,1,0,0:0:0:0:
192,192,87690,1,0,0:0:0:0:
64,192,87768,1,0,0:0:0:0:
448,192,87847,1,0,0:0:0:0:
320,192,87925,1,0,0:0:0:0:
64,192,88003,1,0,0:0:0:0:
448,192,88081,1,0,0:0:0:0:
320,192,88159,1,8,0:0:0:0:
192,192,88237,1,0,0:0:0:0:
448,192,88315,1,0,0:0:0:0:
64,192,88393,1,0,0:0:0:0:
192,192,88472,1,0,0:0:0:0:
320,192,88472,1,0,0:0:0:0:
448,192,88550,1,0,0:0:0:0:
320,192,88628,1,0,0:0:0:0:
192,192,88706,1,0,0:0:0:0:
64,192,88784,1,8,0:0:0:0:
448,192,88862,1,0,0:0:0:0:
320,192,88940,1,0,0:0:0:0:
192,192,89018,1,0,0:0:0:0:
64,192,89097,1,0,0:0:0:0:
320,192,89175,1,0,0:0:0:0:
448,192,89253,1,0,0:0:0:0:
192,192,89331,1,0,0:0:0:0:
320,192,89409,1,8,0:0:0:0:
64,192,89487,1,0,0:0:0:0:
192,192,89565,1,0,0:0:0:0:
320,192,89643,1,0,0:0:0:0:
448,192,89722,1,8,0:0:0:0:
64,192,89722,1,4,0:0:0:0:
192,192,89800,1,0,0:0:0:0:
320,192,89878,1,0,0:0:0:0:
192,192,89956,1,0,0:0:0:0:
448,192,90034,1,8,0:0:0:0:
64,192,90112,1,0,0:0:0:0:
192,192,90190,1,0,0:0:0:0:
64,192,90268,1,0,0:0:0:0:
448,192,90347,1,0,0:0:0:0:
320,192,90425,1,0,0:0:0:0:
64,192,90503,1,0,0:0:0:0:
448,192,90581,1,0,0:0:0:0:
320,192,90659,1,8,0:0:0:0:
192,192,90737,1,0,0:0:0:0:
448,192,90815,1,0,0:0:0:0:
64,192,90893,1,0,0:0:0:0:
192,192,90972,1,0,0:0:0:0:
320,192,90972,1,0,0:0:0:0:
448,192,91050,1,0,0:0:0:0:
320,192,91128,1,0,0:0:0:0:
192,192,91206,1,0,0:0:0:0:
64,192,91284,1,8,0:0:0:0:
320,192,91362,1,0,0:0:0:0:
448,192,91440,1,0,0:0:0:0:
192,192,91518,1,0,0:0:0:0:
64,192,91597,1,0,0:0:0:0:
320,192,91675,1,0,0:0:0:0:
448,192,91753,1,0,0:0:0:0:
64,192,91831,1,0,0:0:0:0:
320,192,91909,1,8,0:0:0:0:
448,192,91987,1,0,0:0:0:0:
64,192,92065,1,0,0:0:0:0:
192,192,92143,1,0,0:0:0:0:
320,192,92222,1,0,0:0:0:0:
448,192,92222,1,0,0:0:0:0:
64,192,92300,1,0,0:0:0:0:
192,192,92378,1,0,0:0:0:0:
448,192,92456,1,0,0:0:0:0:
320,192,92534,1,8,0:0:0:0:
192,192,92612,1,0,0:0:0:0:
64,192,92690,1,0,0:0:0:0:
320,192,92768,1,0,0:0:0:0:
448,192,92847,1,0,0:0:0:0:
192,192,92925,1,0,0:0:0:0:
64,192,93003,1,0,0:0:0:0:
448,192,93081,1,0,0:0:0:0:
320,192,93159,1,8,0:0:0:0:
64,192,93237,1,0,0:0:0:0:
448,192,93315,1,0,0:0:0:0:
320,192,93393,1,0,0:0:0:0:
192,192,93472,1,0,0:0:0:0:
64,192,93472,1,0,0:0:0:0:
320,192,93550,1,0,0:0:0:0:
448,192,93628,1,8,0:0:0:0:
64,192,93628,1,4,0:0:0:0:
320,192,93784,1,0,0:0:0:0:
192,192,93940,1,0,0:0:0:0:
64,192,94097,1,8,0:0:0:0:
448,192,94097,1,0,0:0:0:0:
320,192,94253,1,0,0:0:0:0:
448,192,94409,1,8,0:0:0:0:
64,192,94409,1,0,0:0:0:0:
192,192,94565,1,0,0:0:0:0:
448,192,94722,1,8,0:0:0:0:
64,192,94722,1,4,0:0:0:0:
320,192,94800,1,0,0:0:0:0:
192,192,94878,1,0,0:0:0:0:
320,192,94956,1,0,0:0:0:0:
448,192,95034,1,8,0:0:0:0:
64,192,95112,1,0,0:0:0:0:
320,192,95190,1,0,0:0:0:0:
192,192,95268,1,0,0:0:0:0:
448,192,95347,1,0,0:0:0:0:
320,192,95425,1,0,0:0:0:0:
64,192,95503,1,0,0:0:0:0:
448,192,95581,1,0,0:0:0:0:
320,192,95659,1,8,0:0:0:0:
192,192,95737,1,0,0:0:0:0:
448,192,95815,1,0,0:0:0:0:
320,192,95893,1,0,0:0:0:0:
64,192,95972,1,0,0:0:0:0:
192,192,95972,1,0,0:0:0:0:
448,192,96050,1,0,0:0:0:0:
192,192,96128,1,0,0:0:0:0:
64,192,96206,1,0,0:0:0:0:
448,192,96284,1,8,0:0:0:0:
320,192,96362,1,0,0:0:0:0:
64,192,96440,1,0,0:0:0:0:
448,192,96518,1,0,0:0:0:0:
192,192,96597,1,0,0:0:0:0:
64,192,96675,1,0,0:0:0:0:
448,192,96753,1,0,0:0:0:0:
320,192,96831,1,0,0:0:0:0:
192,192,96909,1,8,0:0:0:0:
448,192,96987,1,0,0:0:0:0:
64,192,97065,1,0,0:0:0:0:
192,192,97143,1,0,0:0:0:0:
320,192,97222,1,0,0:0:0:0:
448,192,97222,1,0,0:0:0:0:
64,192,97300,1,0,0:0:0:0:
448,192,97378,1,0,0:0:0:0:
320,192,97456,1,0,0:0:0:0:
64,192,97534,1,8,0:0:0:0:
192,192,97612,1,0,0:0:0:0:
320,192,97690,1,0,0:0:0:0:
448,192,97768,1,0,0:0:0:0:
64,192,97847,1,0,0:0:0:0:
192,192,97925,1,0,0:0:0:0:
448,192,98003,1,0,0:0:0:0:
320,192,98081,1,0,0:0:0:0:
192,192,98159,1,8,0:0:0:0:
448,192,98237,1,0,0:0:0:0:
64,192,98315,1,0,0:0:0:0:
192,192,98393,1,0,0:0:0:0:
320,192,98472,1,0,0:0:0:0:
448,192,98472,1,0,0:0:0:0:
64,192,98550,1,0,0:0:0:0:
192,192,98628,1,0,0:0:0:0:
448,192,98706,1,0,0:0:0:0:
320,192,98784,1,8,0:0:0:0:
64,192,98862,1,0,0:0:0:0:
192,192,98940,1,0,0:0:0:0:
320,192,99018,1,0,0:0:0:0:
448,192,99097,1,0,0:0:0:0:
192,192,99175,1,0,0:0:0:0:
64,192,99253,1,0,0:0:0:0:
448,192,99331,1,0,0:0:0:0:
192,192,99409,1,8,0:0:0:0:
64,192,99487,1,0,0:0:0:0:
448,192,99565,1,0,0:0:0:0:
320,192,99643,1,0,0:0:0:0:
192,192,99722,1,8,0:0:0:0:
64,192,99722,1,4,0:0:0:0:
320,192,99800,1,0,0:0:0:0:
448,192,99878,1,0,0:0:0:0:
192,192,99956,1,0,0:0:0:0:
64,192,100034,1,8,0:0:0:0:
448,192,100112,1,0,0:0:0:0:
320,192,100190,1,0,0:0:0:0:
192,192,100268,1,0,0:0:0:0:
64,192,100347,1,0,0:0:0:0:
320,192,100425,1,0,0:0:0:0:
448,192,100503,1,0,0:0:0:0:
64,192,100581,1,0,0:0:0:0:
320,192,100659,1,8,0:0:0:0:
192,192,100737,1,0,0:0:0:0:
64,192,100815,1,0,0:0:0:0:
448,192,100893,1,0,0:0:0:0:
320,192,100972,1,0,0:0:0:0:
192,192,100972,1,0,0:0:0:0:
64,192,101050,1,0,0:0:0:0:
192,192,101128,1,0,0:0:0:0:
448,192,101206,1,0,0:0:0:0:
320,192,101284,1,8,0:0:0:0:
192,192,101362,1,0,0:0:0:0:
64,192,101440,1,0,0:0:0:0:
320,192,101518,1,0,0:0:0:0:
448,192,101597,1,0,0:0:0:0:
192,192,101675,1,0,0:0:0:0:
64,192,101753,1,0,0:0:0:0:
320,192,101831,1,0,0:0:0:0:
192,192,101909,1,8,0:0:0:0:
448,192,101987,1,0,0:0:0:0:
320,192,102065,1,0,0:0:0:0:
192,192,102143,1,0,0:0:0:0:
448,192,102222,5,8,0:0:0:0:
64,192,102222,1,4,0:0:0:0:
192,192,102534,1,8,0:0:0:0:
448,192,102534,1,0,0:0:0:0:
320,192,102690,1,0,0:0:0:0:
192,192,102768,1,0,0:0:0:0:
64,192,102847,1,8,0:0:0:0:
448,192,102847,1,0,0:0:0:0:
320,192,103159,1,8,0:0:0:0:
448,192,103159,1,0,0:0:0:0:
64,192,103315,1,0,0:0:0:0:
192,192,103628,1,8,0:0:0:0:
64,192,103628,1,0,0:0:0:0:
320,192,103784,1,8,0:0:0:0:
448,192,103784,1,0,0:0:0:0:
192,192,103940,1,8,0:0:0:0:
64,192,103940,1,0,0:0:0:0:
320,192,104097,1,8,0:0:0:0:
448,192,104097,1,0,0:0:0:0:
192,192,104409,1,4,3:0:0:0:
448,192,104722,1,4,0:0:0:0:
64,192,104722,1,0,0:0:0:0:
192,192,104878,1,0,0:0:0:0:
320,192,104956,1,0,0:0:0:0:
448,192,105034,1,8,0:0:0:0:
64,192,105034,1,0,0:0:0:0:
192,192,105190,1,0,0:0:0:0:
64,192,105268,1,0,0:0:0:0:
320,192,105347,1,0,0:0:0:0:
64,192,105503,1,0,0:0:0:0:
320,192,105581,1,0,0:0:0:0:
448,192,105659,1,8,0:0:0:0:
192,192,105659,1,0,0:0:0:0:
320,192,105815,1,0,0:0:0:0:
64,192,105893,1,0,0:0:0:0:
448,192,105972,1,0,0:0:0:0:
64,192,106128,1,0,0:0:0:0:
192,192,106206,1,0,0:0:0:0:
448,192,106284,1,8,0:0:0:0:
320,192,106284,1,0,0:0:0:0:
64,192,106440,1,0,0:0:0:0:
320,192,106518,1,0,0:0:0:0:
448,192,106597,1,0,0:0:0:0:
192,192,106753,1,0,0:0:0:0:
64,192,106831,1,0,0:0:0:0:
320,192,106909,1,8,0:0:0:0:
192,192,106909,1,0,0:0:0:0:
448,192,107065,1,0,0:0:0:0:
320,192,107143,1,0,0:0:0:0:
192,192,107222,1,0,0:0:0:0:
64,192,107378,1,0,0:0:0:0:
320,192,107456,1,0,0:0:0:0:
448,192,107534,1,8,0:0:0:0:
192,192,107534,1,0,0:0:0:0:
320,192,107690,1,0,0:0:0:0:
64,192,107768,1,0,0:0:0:0:
192,192,107847,1,0,0:0:0:0:
448,192,108003,1,0,0:0:0:0:
64,192,108081,1,0,0:0:0:0:
320,192,108159,1,8,0:0:0:0:
448,192,108159,1,0,0:0:0:0:
192,192,108315,1,0,0:0:0:0:
320,192,108393,1,0,0:0:0:0:
448,192,108472,1,0,0:0:0:0:
64,192,108628,1,0,0:0:0:0:
320,192,108706,1,0,0:0:0:0:
448,192,108784,1,8,0:0:0:0:
192,192,108784,1,0,0:0:0:0:
320,192,108940,1,0,0:0:0:0:
192,192,109018,1,0,0:0:0:0:
64,192,109097,1,0,0:0:0:0:
320,192,109253,1,0,0:0:0:0:
448,192,109331,1,0,0:0:0:0:
64,192,109409,1,8,0:0:0:0:
192,192,109409,1,0,0:0:0:0:
320,192,109565,1,0,0:0:0:0:
192,192,109643,1,0,0:0:0:0:
448,192,109722,1,4,0:0:0:0:
64,192,109722,1,0,0:0:0:0:
320,192,109878,1,0,0:0:0:0:
192,192,109956,1,0,0:0:0:0:
448,192,110034,1,8,0:0:0:0:
320,192,110034,1,0,0:0:0:0:
64,192,110190,1,0,0:0:0:0:
320,192,110268,1,0,0:0:0:0:
448,192,110347,1,0,0:0:0:0:
320,192,110503,1,0,0:0:0:0:
64,192,110581,1,0,0:0:0:0:
448,192,110659,1,8,0:0:0:0:
192,192,110659,1,0,0:0:0:0:
320,192,110815,1,0,0:0:0:0:
448,192,110893,1,0,0:0:0:0:
192,192,110972,1,0,0:0:0:0:
64,192,111128,1,0,0:0:0:0:
320,192,111206,1,0,0:0:0:0:
448,192,111284,1,8,0:0:0:0:
192,192,111284,1,0,0:0:0:0:
64,192,111440,1,0,0:0:0:0:
192,192,111518,1,0,0:0:0:0:
320,192,111597,1,0,0:0:0:0:
448,192,111753,1,0,0:0:0:0:
192,192,111831,1,0,0:0:0:0:
320,192,111909,1,8,0:0:0:0:
64,192,111909,1,0,0:0:0:0:
192,192,112065,1,0,0:0:0:0:
448,192,112143,1,0,0:0:0:0:
64,192,112222,1,0,0:0:0:0:
320,192,112378,1,0,0:0:0:0:
192,192,112456,1,0,0:0:0:0:
448,192,112534,1,8,0:0:0:0:
320,192,112534,1,0,0:0:0:0:
64,192,112690,1,0,0:0:0:0:
320,192,112768,1,0,0:0:0:0:
192,192,112847,1,0,0:0:0:0:
320,192,113003,1,0,0:0:0:0:
192,192,113081,1,0,0:0:0:0:
448,192,113159,1,8,0:0:0:0:
64,192,113159,1,0,0:0:0:0:
320,192,113315,1,0,0:0:0:0:
64,192,113393,1,0,0:0:0:0:
192,192,113472,1,0,0:0:0:0:
320,192,113628,1,0,0:0:0:0:
448,192,113706,1,0,0:0:0:0:
64,192,113784,1,8,0:0:0:0:
192,192,113784,1,0,0:0:0:0:
320,192,113940,1,0,0:0:0:0:
64,192,114018,1,0,0:0:0:0:
192,192,114097,1,0,0:0:0:0:
448,192,114253,1,0,0:0:0:0:
320,192,114331,1,0,0:0:0:0:
64,192,114409,1,0,0:0:0:0:
192,192,114487,1,0,0:0:0:0:
448,192,114565,1,0,0:0:0:0:
320,192,114643,1,0,0:0:0:0:
192,192,114722,1,8,0:0:0:0:
64,192,114722,1,4,0:0:0:0:
320,192,114878,1,8,0:0:0:0:
448,192,114878,1,0,0:0:0:0:
64,192,114878,1,0,0:0:0:0:
64,192,115190,1,0,0:0:0:0:
192,192,115268,1,0,0:0:0:0:
320,192,115347,1,0,0:0:0:0:
448,192,115503,1,0,0:0:0:0:
320,192,115581,1,0,0:0:0:0:
192,192,115659,1,8,0:0:0:0:
64,192,115659,1,0,0:0:0:0:
192,192,115815,1,8,0:0:0:0:
64,192,115815,1,0,0:0:0:0:
448,192,115815,1,0,0:0:0:0:
448,192,116128,1,0,0:0:0:0:
320,192,116206,1,0,0:0:0:0:
192,192,116284,1,0,0:0:0:0:
64,192,116440,1,0,0:0:0:0:
192,192,116518,1,0,0:0:0:0:
320,192,116597,1,8,0:0:0:0:
448,192,116597,1,0,0:0:0:0:
448,192,116753,1,8,0:0:0:0:
320,192,116753,1,0,0:0:0:0:
64,192,116753,1,0,0:0:0:0:
64,192,116909,1,8,0:0:0:0:
192,192,116909,1,0,0:0:0:0:
64,192,117065,1,8,0:0:0:0:
192,192,117065,1,0,0:0:0:0:
448,192,117065,1,0,0:0:0:0:
320,192,117222,1,8,0:0:0:0:
448,192,117222,1,0,0:0:0:0:
320,192,117378,1,8,0:0:0:0:
448,192,117378,1,0,0:0:0:0:
64,192,117378,1,0,0:0:0:0:
448,192,117690,1,0,0:0:0:0:
320,192,117768,1,0,0:0:0:0:
192,192,117847,1,0,0:0:0:0:
64,192,118003,1,0,0:0:0:0:
192,192,118081,1,0,0:0:0:0:
320,192,118159,1,8,0:0:0:0:
448,192,118159,1,0,0:0:0:0:
320,192,118315,1,8,0:0:0:0:
448,192,118315,1,0,0:0:0:0:
64,192,118315,1,0,0:0:0:0:
64,192,118628,1,0,0:0:0:0:
192,192,118706,1,0,0:0:0:0:
320,192,118784,1,0,0:0:0:0:
448,192,118940,1,0,0:0:0:0:
320,192,119018,1,0,0:0:0:0:
192,192,119097,1,8,0:0:0:0:
64,192,119097,1,0,0:0:0:0:
192,192,119253,1,8,0:0:0:0:
64,192,119253,1,0,0:0:0:0:
448,192,119253,1,0,0:0:0:0:
448,192,119409,1,8,0:0:0:0:
320,192,119409,1,0,0:0:0:0:
448,192,119565,1,8,0:0:0:0:
320,192,119565,1,0,0:0:0:0:
64,192,119565,1,0,0:0:0:0:
192,192,119722,1,12,0:0:0:0:
64,192,119722,1,0,0:0:0:0:
192,192,119878,1,8,0:0:0:0:
64,192,119878,1,0,0:0:0:0:
448,192,119878,1,0,0:0:0:0:
64,192,120190,1,0,0:0:0:0:
192,192,120268,1,0,0:0:0:0:
320,192,120347,1,0,0:0:0:0:
448,192,120503,1,0,0:0:0:0:
320,192,120581,1,0,0:0:0:0:
192,192,120659,1,8,0:0:0:0:
64,192,120659,1,0,0:0:0:0:
192,192,120815,1,8,0:0:0:0:
64,192,120815,1,0,0:0:0:0:
448,192,120815,1,0,0:0:0:0:
448,192,121128,1,0,0:0:0:0:
320,192,121206,1,0,0:0:0:0:
192,192,121284,1,0,0:0:0:0:
64,192,121440,1,0,0:0:0:0:
192,192,121518,1,0,0:0:0:0:
320,192,121597,1,8,0:0:0:0:
448,192,121597,1,0,0:0:0:0:
320,192,121753,1,8,0:0:0:0:
448,192,121753,1,0,0:0:0:0:
64,192,121753,1,0,0:0:0:0:
64,192,121909,1,8,0:0:0:0:
192,192,121909,1,0,0:0:0:0:
64,192,122065,1,8,0:0:0:0:
192,192,122065,1,0,0:0:0:0:
448,192,122065,1,0,0:0:0:0:
448,192,122222,1,8,0:0:0:0:
320,192,122222,1,0,0:0:0:0:
320,192,122378,1,8,0:0:0:0:
448,192,122378,1,0,0:0:0:0:
64,192,122378,1,0,0:0:0:0:
448,192,122690,1,0,0:0:0:0:
320,192,122768,1,0,0:0:0:0:
192,192,122847,1,0,0:0:0:0:
64,192,123003,1,0,0:0:0:0:
192,192,123081,1,0,0:0:0:0:
448,192,123159,1,8,0:0:0:0:
320,192,123159,1,0,0:0:0:0:
320,192,123315,1,8,0:0:0:0:
448,192,123315,1,0,0:0:0:0:
64,192,123315,1,0,0:0:0:0:
64,192,123628,1,0,0:0:0:0:
192,192,123706,1,0,0:0:0:0:
320,192,123784,1,0,0:0:0:0:
64,192,123784,1,8,0:0:0:0:
448,192,123940,1,0,0:0:0:0:
320,192,124018,1,0,0:0:0:0:
192,192,124097,1,8,0:0:0:0:
64,192,124097,1,0,0:0:0:0:
192,192,124253,1,8,0:0:0:0:
64,192,124253,1,0,0:0:0:0:
320,192,124409,1,8,0:0:0:0:
448,192,124409,1,0,0:0:0:0:
320,192,124565,1,8,0:0:0:0:
448,192,124565,1,4,0:0:0:0:
64,192,124565,1,0,0:0:0:0:
64,192,124878,1,0,0:0:0:0:
320,192,124956,1,0,0:0:0:0:
448,192,125034,1,8,0:0:0:0:
64,192,125112,1,0,0:0:0:0:
320,192,125190,1,0,0:0:0:0:
448,192,125268,1,0,0:0:0:0:
192,192,125347,1,0,0:0:0:0:
64,192,125425,1,0,0:0:0:0:
320,192,125503,1,0,0:0:0:0:
448,192,125581,1,0,0:0:0:0:
64,192,125659,1,8,0:0:0:0:
192,192,125737,1,0,0:0:0:0:
448,192,125815,1,0,0:0:0:0:
64,192,125893,1,0,0:0:0:0:
192,192,125972,1,0,0:0:0:0:
448,192,126050,1,0,0:0:0:0:
320,192,126128,1,0,0:0:0:0:
64,192,126206,1,0,0:0:0:0:
192,192,126284,1,8,0:0:0:0:
320,192,126362,1,0,0:0:0:0:
64,192,126440,1,0,0:0:0:0:
448,192,126518,1,0,0:0:0:0:
192,192,126597,1,8,0:0:0:0:
320,192,126597,128,4,126909:2:0:0:0:
64,192,126597,1,0,0:0:0:0:
192,192,126909,128,4,127222:2:0:0:0:
64,192,126909,1,8,0:0:0:0:
448,192,126909,1,0,0:0:0:0:
320,192,127222,1,0,0:0:0:0:
64,192,127300,1,0,0:0:0:0:
448,192,127378,1,0,0:0:0:0:
192,192,127456,1,0,0:0:0:0:
320,192,127534,1,8,0:0:0:0:
64,192,127612,1,0,0:0:0:0:
192,192,127690,1,0,0:0:0:0:
448,192,127768,1,0,0:0:0:0:
320,192,127847,1,0,0:0:0:0:
192,192,127925,1,0,0:0:0:0:
448,192,128003,1,0,0:0:0:0:
320,192,128081,1,0,0:0:0:0:
192,192,128159,1,8,0:0:0:0:
64,192,128237,1,0,0:0:0:0:
320,192,128315,1,0,0:0:0:0:
192,192,128393,1,0,0:0:0:0:
448,192,128472,1,0,0:0:0:0:
64,192,128550,1,0,0:0:0:0:
192,192,128628,1,0,0:0:0:0:
448,192,128706,1,0,0:0:0:0:
320,192,128784,1,8,0:0:0:0:
192,192,128862,1,0,0:0:0:0:
448,192,128940,1,0,0:0:0:0:
192,192,129018,1,0,0:0:0:0:
64,192,129097,128,8,129409:0:0:0:0:
320,192,129097,1,4,2:0:0:0:
448,192,129097,1,0,0:0:0:0:
320,192,129409,1,8,0:0:0:0:
448,192,129409,1,4,2:0:0:0:
192,192,129409,128,0,129722:0:0:0:0:
64,192,129722,1,0,0:0:0:0:
448,192,129800,1,0,0:0:0:0:
320,192,129878,1,0,0:0:0:0:
64,192,129956,1,0,0:0:0:0:
448,192,130034,1,8,0:0:0:0:
320,192,130112,1,0,0:0:0:0:
64,192,130190,1,0,0:0:0:0:
192,192,130268,1,0,0:0:0:0:
448,192,130347,1,0,0:0:0:0:
320,192,130425,1,0,0:0:0:0:
192,192,130503,1,0,0:0:0:0:
320,192,130581,1,0,0:0:0:0:
448,192,130659,1,8,0:0:0:0:
192,192,130737,1,0,0:0:0:0:
64,192,130815,1,0,0:0:0:0:
448,192,130893,1,0,0:0:0:0:
320,192,130972,1,0,0:0:0:0:
64,192,131050,1,0,0:0:0:0:
192,192,131128,1,0,0:0:0:0:
320,192,131206,1,0,0:0:0:0:
448,192,131284,1,8,0:0:0:0:
64,192,131362,1,0,0:0:0:0:
192,192,131440,1,0,0:0:0:0:
320,192,131518,1,0,0:0:0:0:
448,192,131597,128,4,131909:2:0:0:0:
64,192,131597,1,8,0:0:0:0:
192,192,131597,1,0,0:0:0:0:
192,192,131909,1,8,0:0:0:0:
320,192,131909,1,4,2:0:0:0:
64,192,131909,128,0,132222:0:0:0:0:
192,192,132222,1,4,0:0:0:0:
448,192,132222,128,0,132847:0:0:0:0:
320,192,132534,1,8,0:0:0:0:
64,192,132534,1,0,0:0:0:0:
192,192,132847,1,0,0:0:0:0:
320,192,133003,1,0,0:0:0:0:
64,192,133159,1,8,0:0:0:0:
448,192,133159,1,0,0:0:0:0:
64,192,133472,128,4,133784:2:0:0:0:
448,192,133472,1,0,0:0:0:0:
192,192,133472,1,0,0:0:0:0:
320,192,133784,1,8,0:0:0:0:
192,192,133784,128,4,134097:2:0:0:0:
64,192,134097,1,4,2:0:0:0:
320,192,134097,128,0,134409:0:0:0:0:
448,192,134097,1,0,0:0:0:0:
64,192,134409,128,4,134722:2:0:0:0:
192,192,134409,1,8,0:0:0:0:
448,192,134565,1,8,0:0:0:0:
320,192,134643,1,8,0:0:0:0:
192,192,134722,5,8,0:0:0:0:
448,192,134722,1,0,0:0:0:0:
320,192,134878,1,0,0:0:0:0:
192,192,134956,1,0,0:0:0:0:
64,192,135034,1,8,0:0:0:0:
448,192,135034,1,0,0:0:0:0:
192,192,135190,1,0,0:0:0:0:
320,192,135268,1,0,0:0:0:0:
448,192,135347,1,8,0:0:0:0:
192,192,135347,1,0,0:0:0:0:
64,192,135503,1,0,0:0:0:0:
448,192,135581,1,0,0:0:0:0:
192,192,135659,1,8,0:0:0:0:
64,192,135659,1,0,0:0:0:0:
320,192,135815,1,0,0:0:0:0:
64,192,135893,1,0,0:0:0:0:
320,192,135972,1,8,0:0:0:0:
192,192,135972,1,0,0:0:0:0:
448,192,136128,1,0,0:0:0:0:
192,192,136206,1,0,0:0:0:0:
64,192,136284,1,8,0:0:0:0:
448,192,136284,1,0,0:0:0:0:
320,192,136440,1,0,0:0:0:0:
192,192,136518,1,0,0:0:0:0:
448,192,136597,1,8,0:0:0:0:
320,192,136597,1,0,0:0:0:0:
64,192,136753,1,0,0:0:0:0:
320,192,136831,1,0,0:0:0:0:
192,192,136909,1,8,0:0:0:0:
448,192,136909,1,0,0:0:0:0:
64,192,137065,1,0,0:0:0:0:
448,192,137143,1,0,0:0:0:0:
320,192,137222,1,8,0:0:0:0:
192,192,137222,1,0,0:0:0:0:
64,192,137378,1,0,0:0:0:0:
320,192,137456,1,0,0:0:0:0:
64,192,137534,1,8,0:0:0:0:
192,192,137534,1,0,0:0:0:0:
448,192,137690,1,0,0:0:0:0:
192,192,137768,1,0,0:0:0:0:
320,192,137847,1,8,0:0:0:0:
64,192,137847,1,0,0:0:0:0:
192,192,138003,1,0,0:0:0:0:
448,192,138081,1,0,0:0:0:0:
64,192,138159,1,8,0:0:0:0:
320,192,138159,1,0,0:0:0:0:
192,192,138315,1,0,0:0:0:0:
320,192,138393,1,0,0:0:0:0:
448,192,138472,1,8,0:0:0:0:
192,192,138472,1,0,0:0:0:0:
64,192,138628,1,0,0:0:0:0:
192,192,138706,1,0,0:0:0:0:
320,192,138784,1,8,0:0:0:0:
448,192,138784,1,0,0:0:0:0:
64,192,138940,1,0,0:0:0:0:
192,192,139018,1,0,0:0:0:0:
448,192,139097,1,8,0:0:0:0:
64,192,139097,1,0,0:0:0:0:
320,192,139253,1,0,0:0:0:0:
64,192,139331,1,0,0:0:0:0:
320,192,139409,1,8,0:0:0:0:
192,192,139409,1,0,0:0:0:0:
448,192,139565,1,0,0:0:0:0:
192,192,139643,1,0,0:0:0:0:
320,192,139722,1,8,0:0:0:0:
64,192,139722,1,4,0:0:0:0:
448,192,139878,1,0,0:0:0:0:
64,192,139956,1,0,0:0:0:0:
192,192,140034,1,8,0:0:0:0:
320,192,140034,1,0,0:0:0:0:
320,192,140190,1,0,0:0:0:0:
64,192,140268,1,0,0:0:0:0:
448,192,140347,1,8,0:0:0:0:
192,192,140347,1,0,0:0:0:0:
192,192,140503,1,0,0:0:0:0:
320,192,140581,1,0,0:0:0:0:
64,192,140659,1,8,0:0:0:0:
448,192,140659,1,0,0:0:0:0:
448,192,140815,1,0,0:0:0:0:
192,192,140893,1,0,0:0:0:0:
320,192,140972,1,8,0:0:0:0:
64,192,140972,1,0,0:0:0:0:
64,192,141128,1,0,0:0:0:0:
448,192,141206,1,0,0:0:0:0:
192,192,141284,1,8,0:0:0:0:
320,192,141284,1,0,0:0:0:0:
320,192,141440,1,0,0:0:0:0:
192,192,141518,1,0,0:0:0:0:
64,192,141597,1,8,0:0:0:0:
448,192,141597,1,0,0:0:0:0:
448,192,141753,1,0,0:0:0:0:
192,192,141831,1,0,0:0:0:0:
320,192,141909,1,8,0:0:0:0:
64,192,141909,1,0,0:0:0:0:
64,192,142065,1,0,0:0:0:0:
192,192,142143,1,0,0:0:0:0:
448,192,142222,1,8,0:0:0:0:
320,192,142222,1,0,0:0:0:0:
320,192,142378,1,0,0:0:0:0:
192,192,142456,1,0,0:0:0:0:
64,192,142534,1,8,0:0:0:0:
448,192,142534,1,0,0:0:0:0:
192,192,142690,1,0,0:0:0:0:
320,192,142768,1,0,0:0:0:0:
448,192,142847,1,8,0:0:0:0:
64,192,142847,1,0,0:0:0:0:
192,192,143003,1,0,0:0:0:0:
320,192,143081,1,0,0:0:0:0:
64,192,143159,1,8,0:0:0:0:
448,192,143159,1,0,0:0:0:0:
192,192,143315,1,0,0:0:0:0:
320,192,143393,1,0,0:0:0:0:
448,192,143472,1,8,0:0:0:0:
192,192,143472,1,0,0:0:0:0:
64,192,143628,1,0,0:0:0:0:
320,192,143706,1,0,0:0:0:0:
192,192,143784,5,8,0:0:0:0:
64,192,143784,1,0,0:0:0:0:
448,192,143940,1,0,0:0:0:0:
192,192,144018,1,0,0:0:0:0:
320,192,144097,1,8,0:0:0:0:
448,192,144097,1,0,0:0:0:0:
64,192,144253,1,0,0:0:0:0:
320,192,144331,1,0,0:0:0:0:
448,192,144409,1,8,0:0:0:0:
192,192,144409,1,0,0:0:0:0:
192,192,144565,1,0,0:0:0:0:
320,192,144643,1,0,0:0:0:0:
448,192,144722,1,4,0:0:0:0:
64,192,144722,1,8,0:0:0:0:
192,192,144878,1,0,0:0:0:0:
320,192,144956,1,0,0:0:0:0:
448,192,145034,1,8,0:0:0:0:
64,192,145034,1,0,0:0:0:0:
192,192,145190,1,0,0:0:0:0:
448,192,145268,1,0,0:0:0:0:
64,192,145347,1,8,0:0:0:0:
192,192,145347,1,0,0:0:0:0:
320,192,145503,1,0,0:0:0:0:
64,192,145581,1,0,0:0:0:0:
192,192,145659,1,8,0:0:0:0:
320,192,145659,1,0,0:0:0:0:
448,192,145815,1,0,0:0:0:0:
192,192,145893,1,0,0:0:0:0:
64,192,145972,1,8,0:0:0:0:
448,192,145972,1,0,0:0:0:0:
320,192,146128,1,0,0:0:0:0:
448,192,146206,1,0,0:0:0:0:
192,192,146284,1,8,0:0:0:0:
64,192,146284,1,0,0:0:0:0:
320,192,146440,1,0,0:0:0:0:
64,192,146518,1,0,0:0:0:0:
320,192,146597,1,8,0:0:0:0:
448,192,146597,1,0,0:0:0:0:
192,192,146753,1,0,0:0:0:0:
64,192,146831,1,0,0:0:0:0:
448,192,146909,1,8,0:0:0:0:
320,192,146909,1,0,0:0:0:0:
192,192,147065,1,0,0:0:0:0:
320,192,147143,1,0,0:0:0:0:
192,192,147222,1,8,0:0:0:0:
448,192,147222,1,0,0:0:0:0:
64,192,147378,1,0,0:0:0:0:
192,192,147456,1,0,0:0:0:0:
448,192,147534,1,8,0:0:0:0:
64,192,147534,1,0,0:0:0:0:
320,192,147690,1,0,0:0:0:0:
64,192,147768,1,0,0:0:0:0:
192,192,147847,1,8,0:0:0:0:
448,192,147847,1,0,0:0:0:0:
320,192,148003,1,0,0:0:0:0:
64,192,148081,1,0,0:0:0:0:
448,192,148159,1,8,0:0:0:0:
192,192,148159,1,0,0:0:0:0:
320,192,148315,1,0,0:0:0:0:
64,192,148393,1,0,0:0:0:0:
192,192,148472,1,8,0:0:0:0:
320,192,148472,1,0,0:0:0:0:
448,192,148628,1,0,0:0:0:0:
64,192,148706,1,0,0:0:0:0:
320,192,148784,1,8,0:0:0:0:
448,192,148784,1,0,0:0:0:0:
192,192,148940,1,0,0:0:0:0:
320,192,149018,1,0,0:0:0:0:
64,192,149097,1,8,0:0:0:0:
192,192,149097,1,0,0:0:0:0:
448,192,149253,1,0,0:0:0:0:
320,192,149331,1,0,0:0:0:0:
192,192,149409,1,8,0:0:0:0:
64,192,149409,1,0,0:0:0:0:
320,192,149565,1,0,0:0:0:0:
64,192,149643,1,0,0:0:0:0:
192,192,149722,1,4,0:0:0:0:
448,192,149722,1,8,0:0:0:0:
320,192,149722,128,0,150972:0:0:0:0:
64,192,150034,1,2,0:0:0:0:
448,192,150347,1,2,0:0:0:0:
192,192,150659,1,2,0:0:0:0:
192,192,150972,1,4,0:0:0:0:
64,192,150972,128,8,151597:0:0:0:0:
448,192,150972,1,0,0:0:0:0:
192,192,151284,1,2,0:0:0:0:
448,192,151597,1,8,0:0:0:0:
320,192,151597,128,4,151909:0:0:0:0:
192,192,151597,1,0,0:0:0:0:
192,192,151909,128,8,152222:0:0:0:0:
64,192,151909,1,0,0:0:0:0:
64,192,152222,1,4,0:0:0:0:
320,192,152222,1,8,0:0:0:0:
448,192,152222,128,0,152690:0:0:0:0:
64,192,152534,1,8,0:0:0:0:
192,192,152690,1,0,0:0:0:0:
320,192,152847,1,8,0:0:0:0:
448,192,152847,128,0,153472:0:0:0:0:
64,192,153159,1,8,0:0:0:0:
320,192,153472,1,8,0:0:0:0:
64,192,153472,1,0,0:0:0:0:
192,192,153628,1,0,0:0:0:0:
448,192,153706,1,8,0:0:0:0:
320,192,153706,1,0,0:0:0:0:
192,192,153940,1,0,0:0:0:0:
64,192,154097,128,0,154722:0:0:0:0:
448,192,154253,1,0,0:0:0:0:
320,192,154331,1,0,0:0:0:0:
192,192,154409,1,0,0:0:0:0:
448,192,154487,1,0,0:0:0:0:
320,192,154565,1,0,0:0:0:0:
192,192,154643,1,0,0:0:0:0:
320,192,154722,1,4,0:0:0:0:
448,192,154722,1,0,0:0:0:0:
192,192,154800,1,0,0:0:0:0:
64,192,154878,1,0,0:0:0:0:
320,192,154956,1,0,0:0:0:0:
448,192,155034,1,8,0:0:0:0:
64,192,155112,1,0,0:0:0:0:
320,192,155190,1,0,0:0:0:0:
448,192,155268,1,0,0:0:0:0:
192,192,155347,1,0,0:0:0:0:
320,192,155425,1,0,0:0:0:0:
64,192,155503,1,0,0:0:0:0:
192,192,155581,1,0,0:0:0:0:
320,192,155659,1,8,0:0:0:0:
64,192,155737,1,0,0:0:0:0:
448,192,155815,1,0,0:0:0:0:
320,192,155893,1,0,0:0:0:0:
64,192,155972,1,0,0:0:0:0:
192,192,155972,1,0,0:0:0:0:
448,192,156050,1,0,0:0:0:0:
192,192,156128,1,0,0:0:0:0:
64,192,156206,1,0,0:0:0:0:
448,192,156284,1,8,0:0:0:0:
320,192,156362,1,0,0:0:0:0:
64,192,156440,1,0,0:0:0:0:
448,192,156518,1,0,0:0:0:0:
192,192,156597,1,0,0:0:0:0:
64,192,156675,1,0,0:0:0:0:
448,192,156753,1,0,0:0:0:0:
320,192,156831,1,0,0:0:0:0:
192,192,156909,1,8,0:0:0:0:
448,192,156987,1,0,0:0:0:0:
64,192,157065,1,0,0:0:0:0:
192,192,157143,1,0,0:0:0:0:
320,192,157222,1,0,0:0:0:0:
448,192,157222,1,0,0:0:0:0:
64,192,157300,1,0,0:0:0:0:
448,192,157378,1,0,0:0:0:0:
320,192,157456,1,0,0:0:0:0:
192,192,157534,1,8,0:0:0:0:
64,192,157612,1,0,0:0:0:0:
320,192,157690,1,0,0:0:0:0:
448,192,157768,1,0,0:0:0:0:
64,192,157847,1,0,0:0:0:0:
192,192,157925,1,0,0:0:0:0:
448,192,158003,1,0,0:0:0:0:
320,192,158081,1,0,0:0:0:0:
192,192,158159,1,8,0:0:0:0:
448,192,158237,1,0,0:0:0:0:
64,192,158315,1,0,0:0:0:0:
192,192,158393,1,0,0:0:0:0:
320,192,158472,1,0,0:0:0:0:
64,192,158472,1,0,0:0:0:0:
448,192,158550,1,0,0:0:0:0:
192,192,158628,1,0,0:0:0:0:
64,192,158706,1,0,0:0:0:0:
448,192,158784,1,8,0:0:0:0:
320,192,158862,1,0,0:0:0:0:
192,192,158940,1,0,0:0:0:0:
320,192,159018,1,0,0:0:0:0:
448,192,159097,1,0,0:0:0:0:
192,192,159175,1,0,0:0:0:0:
64,192,159253,1,0,0:0:0:0:
448,192,159331,1,0,0:0:0:0:
320,192,159409,1,8,0:0:0:0:
192,192,159487,1,0,0:0:0:0:
448,192,159565,1,0,0:0:0:0:
320,192,159643,1,0,0:0:0:0:
192,192,159722,1,4,0:0:0:0:
64,192,159722,1,0,0:0:0:0:
320,192,159800,1,0,0:0:0:0:
448,192,159878,1,0,0:0:0:0:
192,192,159956,1,0,0:0:0:0:
64,192,160034,1,8,0:0:0:0:
448,192,160112,1,0,0:0:0:0:
320,192,160190,1,0,0:0:0:0:
192,192,160268,1,0,0:0:0:0:
64,192,160347,1,0,0:0:0:0:
320,192,160425,1,0,0:0:0:0:
448,192,160503,1,0,0:0:0:0:
64,192,160581,1,0,0:0:0:0:
320,192,160659,1,8,0:0:0:0:
448,192,160737,1,0,0:0:0:0:
64,192,160815,1,0,0:0:0:0:
192,192,160893,1,0,0:0:0:0:
320,192,160972,1,0,0:0:0:0:
448,192,160972,1,0,0:0:0:0:
64,192,161050,1,0,0:0:0:0:
192,192,161128,1,0,0:0:0:0:
320,192,161206,1,0,0:0:0:0:
448,192,161284,1,8,0:0:0:0:
192,192,161362,1,0,0:0:0:0:
64,192,161440,1,0,0:0:0:0:
320,192,161518,1,0,0:0:0:0:
448,192,161597,1,0,0:0:0:0:
192,192,161675,1,0,0:0:0:0:
64,192,161753,1,0,0:0:0:0:
448,192,161831,1,0,0:0:0:0:
192,192,161909,1,8,0:0:0:0:
64,192,161987,1,0,0:0:0:0:
448,192,162065,1,0,0:0:0:0:
320,192,162143,1,0,0:0:0:0:
192,192,162222,1,0,0:0:0:0:
64,192,162222,1,0,0:0:0:0:
448,192,162300,1,0,0:0:0:0:
320,192,162378,1,0,0:0:0:0:
64,192,162456,1,0,0:0:0:0:
192,192,162534,1,8,0:0:0:0:
320,192,162612,1,0,0:0:0:0:
448,192,162690,1,0,0:0:0:0:
192,192,162768,1,0,0:0:0:0:
64,192,162847,1,0,0:0:0:0:
320,192,162925,1,0,0:0:0:0:
448,192,163003,1,0,0:0:0:0:
64,192,163081,1,0,0:0:0:0:
320,192,163159,1,8,0:0:0:0:
192,192,163237,1,0,0:0:0:0:
64,192,163315,1,0,0:0:0:0:
448,192,163393,1,0,0:0:0:0:
192,192,163472,1,0,0:0:0:0:
64,192,163472,1,0,0:0:0:0:
320,192,163550,1,0,0:0:0:0:
64,192,163628,1,4,0:0:0:0:
448,192,163628,1,8,0:0:0:0:
320,192,163940,1,0,0:0:0:0:
448,192,163940,1,0,0:0:0:0:
64,192,164097,1,8,0:0:0:0:
192,192,164097,1,0,0:0:0:0:
192,192,164409,1,4,0:0:0:0:
448,192,164409,1,8,0:0:0:0:
448,192,164722,1,4,0:0:0:0:
320,192,164722,1,0,0:0:0:0:
192,192,164800,1,0,0:0:0:0:
64,192,164878,1,0,0:0:0:0:
320,192,164956,1,0,0:0:0:0:
448,192,165034,1,8,0:0:0:0:
64,192,165112,1,0,0:0:0:0:
192,192,165190,1,0,0:0:0:0:
320,192,165268,1,0,0:0:0:0:
64,192,165347,1,0,0:0:0:0:
192,192,165425,1,0,0:0:0:0:
448,192,165503,1,0,0:0:0:0:
320,192,165581,1,0,0:0:0:0:
192,192,165659,1,8,0:0:0:0:
448,192,165737,1,0,0:0:0:0:
64,192,165815,1,0,0:0:0:0:
192,192,165893,1,0,0:0:0:0:
448,192,165972,1,0,0:0:0:0:
320,192,165972,1,0,0:0:0:0:
64,192,166050,1,0,0:0:0:0:
320,192,166128,1,0,0:0:0:0:
192,192,166206,1,0,0:0:0:0:
64,192,166284,1,8,0:0:0:0:
320,192,166362,1,0,0:0:0:0:
448,192,166440,1,0,0:0:0:0:
64,192,166518,1,0,0:0:0:0:
320,192,166597,1,0,0:0:0:0:
192,192,166675,1,0,0:0:0:0:
64,192,166753,1,0,0:0:0:0:
448,192,166831,1,0,0:0:0:0:
320,192,166909,1,8,0:0:0:0:
64,192,166987,1,0,0:0:0:0:
448,192,167065,1,0,0:0:0:0:
320,192,167143,1,0,0:0:0:0:
192,192,167222,1,0,0:0:0:0:
64,192,167222,1,0,0:0:0:0:
448,192,167300,1,0,0:0:0:0:
64,192,167378,1,0,0:0:0:0:
192,192,167456,1,0,0:0:0:0:
448,192,167534,1,8,0:0:0:0:
320,192,167612,1,0,0:0:0:0:
192,192,167690,1,0,0:0:0:0:
64,192,167768,1,0,0:0:0:0:
448,192,167847,1,0,0:0:0:0:
320,192,167925,1,0,0:0:0:0:
64,192,168003,1,0,0:0:0:0:
192,192,168081,1,0,0:0:0:0:
320,192,168159,1,8,0:0:0:0:
64,192,168237,1,0,0:0:0:0:
448,192,168315,1,0,0:0:0:0:
320,192,168393,1,0,0:0:0:0:
192,192,168472,1,0,0:0:0:0:
448,192,168472,1,0,0:0:0:0:
64,192,168550,1,0,0:0:0:0:
320,192,168628,1,0,0:0:0:0:
448,192,168706,1,0,0:0:0:0:
192,192,168784,1,8,0:0:0:0:
64,192,168862,1,0,0:0:0:0:
320,192,168940,1,0,0:0:0:0:
192,192,169018,1,0,0:0:0:0:
64,192,169097,1,0,0:0:0:0:
320,192,169175,1,0,0:0:0:0:
448,192,169253,1,0,0:0:0:0:
192,192,169331,1,0,0:0:0:0:
320,192,169409,1,8,0:0:0:0:
448,192,169487,1,0,0:0:0:0:
64,192,169565,1,0,0:0:0:0:
320,192,169643,1,0,0:0:0:0:
448,192,169722,1,4,0:0:0:0:
192,192,169722,1,0,0:0:0:0:
64,192,169800,1,0,0:0:0:0:
192,192,169878,1,0,0:0:0:0:
448,192,169956,1,0,0:0:0:0:
320,192,170034,1,8,0:0:0:0:
64,192,170112,1,0,0:0:0:0:
192,192,170190,1,0,0:0:0:0:
320,192,170268,1,0,0:0:0:0:
448,192,170347,1,0,0:0:0:0:
192,192,170425,1,0,0:0:0:0:
64,192,170503,1,0,0:0:0:0:
448,192,170581,1,0,0:0:0:0:
192,192,170659,1,8,0:0:0:0:
64,192,170737,1,0,0:0:0:0:
448,192,170815,1,0,0:0:0:0:
320,192,170893,1,0,0:0:0:0:
192,192,170972,1,0,0:0:0:0:
64,192,170972,1,0,0:0:0:0:
448,192,171050,1,0,0:0:0:0:
320,192,171128,1,0,0:0:0:0:
64,192,171206,1,0,0:0:0:0:
192,192,171284,1,8,0:0:0:0:
320,192,171362,1,0,0:0:0:0:
448,192,171440,1,0,0:0:0:0:
192,192,171518,1,0,0:0:0:0:
64,192,171597,1,0,0:0:0:0:
320,192,171675,1,0,0:0:0:0:
448,192,171753,1,0,0:0:0:0:
192,192,171831,1,0,0:0:0:0:
320,192,171909,1,8,0:0:0:0:
64,192,171987,1,0,0:0:0:0:
192,192,172065,1,0,0:0:0:0:
448,192,172143,1,0,0:0:0:0:
320,192,172222,5,4,0:0:0:0:
64,192,172222,1,0,0:0:0:0:
320,192,172534,1,8,0:0:0:0:
192,192,172534,1,0,0:0:0:0:
192,192,172847,1,8,0:0:0:0:
448,192,172847,1,0,0:0:0:0:
192,192,173159,1,8,0:0:0:0:
64,192,173159,1,0,0:0:0:0:
448,192,173315,1,0,0:0:0:0:
320,192,173628,1,8,0:0:0:0:
448,192,173628,1,0,0:0:0:0:
192,192,173784,1,8,0:0:0:0:
64,192,173784,1,0,0:0:0:0:
320,192,173940,1,8,0:0:0:0:
448,192,173940,1,0,0:0:0:0:
64,192,174097,1,8,0:0:0:0:
192,192,174097,1,0,0:0:0:0:
320,192,174409,1,4,3:0:0:0:
192,192,174722,1,4,0:0:0:0:
448,192,174722,1,2,0:0:0:0:
64,192,174722,128,0,176597:0:0:0:0:
320,192,174930,1,2,0:0:0:0:
192,192,175138,1,2,0:0:0:0:
320,192,175347,1,2,0:0:0:0:
448,192,175555,1,2,0:0:0:0:
320,192,175763,1,2,0:0:0:0:
192,192,175972,1,2,0:0:0:0:
320,192,176180,1,2,0:0:0:0:
448,192,176388,1,2,0:0:0:0:
320,192,176597,1,8,0:0:0:0:
192,192,176597,1,0,0:0:0:0:
448,192,176805,1,8,0:0:0:0:
64,192,176805,1,0,0:0:0:0:
192,192,177013,1,8,0:0:0:0:
320,189,177013,1,0,0:0:0:0:
320,192,177222,1,4,0:0:0:0:
448,192,177222,128,2,179097:0:0:0:0:
64,192,177222,1,0,0:0:0:0:
192,192,177430,1,2,0:0:0:0:
320,192,177638,1,2,0:0:0:0:
192,192,177847,1,2,0:0:0:0:
64,192,178055,1,2,0:0:0:0:
192,192,178263,1,2,0:0:0:0:
320,192,178472,1,2,0:0:0:0:
192,192,178680,1,2,0:0:0:0:
64,192,178888,1,2,0:0:0:0:
320,192,179097,1,8,0:0:0:0:
192,192,179097,1,0,0:0:0:0:
64,192,179305,1,8,0:0:0:0:
448,192,179305,1,0,0:0:0:0:
192,189,179513,1,8,0:0:0:0:
320,192,179513,1,0,0:0:0:0:
192,192,179722,1,4,0:0:0:0:
448,192,179722,1,2,0:0:0:0:
64,192,179722,128,0,181597:0:0:0:0:
320,192,179930,1,2,0:0:0:0:
192,192,180138,1,2,0:0:0:0:
320,192,180347,1,2,0:0:0:0:
448,192,180555,1,2,0:0:0:0:
320,192,180763,1,2,0:0:0:0:
192,192,180972,1,2,0:0:0:0:
320,192,181180,1,2,0:0:0:0:
448,192,181388,1,2,0:0:0:0:
192,192,181597,1,8,0:0:0:0:
320,192,181597,1,0,0:0:0:0:
64,192,181805,1,8,0:0:0:0:
448,192,181805,1,0,0:0:0:0:
320,189,182013,1,8,0:0:0:0:
192,192,182013,1,0,0:0:0:0:
320,192,182222,1,4,0:0:0:0:
448,192,182222,128,2,184097:0:0:0:0:
64,192,182222,1,0,0:0:0:0:
192,192,182430,1,2,0:0:0:0:
320,192,182638,1,2,0:0:0:0:
192,192,182847,1,2,0:0:0:0:
64,192,183055,1,2,0:0:0:0:
192,192,183263,1,2,0:0:0:0:
320,192,183472,1,2,0:0:0:0:
192,192,183680,1,2,0:0:0:0:
64,192,183888,1,2,0:0:0:0:
192,192,184097,1,8,0:0:0:0:
320,192,184097,1,0,0:0:0:0:
448,192,184305,1,8,0:0:0:0:
64,192,184305,1,0,0:0:0:0:
320,192,184513,1,8,0:0:0:0:
192,189,184513,1,0,0:0:0:0:
320,192,184722,1,4,0:0:0:0:
448,187,184722,128,0,185034:0:0:0:0:
64,192,184722,1,0,0:0:0:0:
192,187,185034,1,8,0:0:0:0:
64,192,185034,1,0,0:0:0:0:
320,187,185190,1,2,0:0:0:0:
192,187,185268,1,0,0:0:0:0:
64,187,185347,1,0,0:0:0:0:
448,192,185347,1,0,0:0:0:0:
320,180,185503,1,2,0:0:0:0:
192,187,185659,1,8,0:0:0:0:
64,192,185659,1,0,0:0:0:0:
448,187,185815,1,2,0:0:0:0:
320,187,185972,1,0,0:0:0:0:
64,187,185972,128,0,186284:0:0:0:0:
448,187,186284,1,8,0:0:0:0:
320,192,186284,1,0,0:0:0:0:
192,187,186440,1,2,0:0:0:0:
320,187,186518,1,0,0:0:0:0:
448,187,186597,1,0,0:0:0:0:
64,192,186597,1,0,0:0:0:0:
192,187,186753,1,2,0:0:0:0:
64,187,186909,1,8,0:0:0:0:
448,192,186909,1,0,0:0:0:0:
320,187,187065,1,2,0:0:0:0:
192,187,187222,1,0,0:0:0:0:
448,192,187222,128,0,187534:0:0:0:0:
64,192,187534,1,8,0:0:0:0:
192,192,187534,1,0,0:0:0:0:
320,192,187690,1,2,0:0:0:0:
192,192,187768,1,0,0:0:0:0:
64,192,187847,1,0,0:0:0:0:
448,192,187847,1,0,0:0:0:0:
320,192,188003,1,2,0:0:0:0:
192,192,188159,1,8,0:0:0:0:
64,192,188159,1,0,0:0:0:0:
448,192,188315,1,2,0:0:0:0:
320,192,188472,1,0,0:0:0:0:
192,192,188472,1,0,0:0:0:0:
64,192,188628,1,2,0:0:0:0:
192,192,188706,1,0,0:0:0:0:
448,192,188784,1,8,0:0:0:0:
320,192,188784,1,0,0:0:0:0:
192,192,188940,1,2,0:0:0:0:
320,192,189097,128,0,189409:0:0:0:0:
64,192,189097,1,0,0:0:0:0:
192,192,189409,128,8,189722:0:0:0:0:
448,192,189409,1,0,0:0:0:0:
64,192,189409,1,0,0:0:0:0:
448,187,189722,128,4,190034:0:0:0:0:
320,192,189722,1,0,0:0:0:0:
64,192,189722,1,0,0:0:0:0:
192,187,190034,1,8,0:0:0:0:
64,192,190034,1,0,0:0:0:0:
320,187,190190,1,2,0:0:0:0:
192,187,190268,1,0,0:0:0:0:
64,187,190347,1,0,0:0:0:0:
448,192,190347,1,0,0:0:0:0:
320,187,190503,1,2,0:0:0:0:
192,187,190659,1,8,0:0:0:0:
64,192,190659,1,0,0:0:0:0:
448,187,190815,1,2,0:0:0:0:
64,187,190972,128,0,191284:0:0:0:0:
320,187,190972,1,0,0:0:0:0:
192,192,190972,1,0,0:0:0:0:
448,187,191284,1,8,0:0:0:0:
320,192,191284,1,0,0:0:0:0:
192,187,191440,1,2,0:0:0:0:
320,187,191518,1,0,0:0:0:0:
448,187,191597,1,0,0:0:0:0:
64,192,191597,1,0,0:0:0:0:
192,187,191753,1,2,0:0:0:0:
64,187,191909,1,8,0:0:0:0:
448,192,191909,1,0,0:0:0:0:
320,187,192065,1,2,0:0:0:0:
448,192,192222,128,0,192534:0:0:0:0:
192,187,192222,1,0,0:0:0:0:
64,192,192222,1,0,0:0:0:0:
64,192,192534,1,8,0:0:0:0:
192,192,192534,1,0,0:0:0:0:
320,192,192690,1,2,0:0:0:0:
192,192,192768,1,0,0:0:0:0:
64,192,192847,1,0,0:0:0:0:
448,192,192847,1,0,0:0:0:0:
320,192,193003,1,2,0:0:0:0:
192,192,193159,1,8,0:0:0:0:
64,192,193159,1,0,0:0:0:0:
448,192,193315,1,2,0:0:0:0:
320,192,193472,1,0,0:0:0:0:
64,192,193472,1,0,0:0:0:0:
192,192,193628,1,2,0:0:0:0:
448,192,193784,1,8,0:0:0:0:
320,192,193784,1,0,0:0:0:0:
64,192,193940,1,2,0:0:0:0:
448,192,194097,128,0,194409:0:0:0:0:
192,192,194097,1,0,0:0:0:0:
320,192,194097,1,0,0:0:0:0:
64,192,194409,1,8,0:0:0:0:
192,192,194487,1,8,0:0:0:0:
320,192,194565,1,8,0:0:0:0:
448,192,194643,1,8,0:0:0:0:
192,187,194722,128,8,195034:0:0:0:0:
64,192,194722,128,4,195034:0:0:0:0:
320,192,194722,1,0,0:0:0:0:
448,187,195034,1,0,0:0:0:0:
320,187,195190,1,0,0:0:0:0:
192,187,195268,1,0,0:0:0:0:
448,187,195347,128,4,195659:2:0:0:0:
64,187,195347,1,8,0:0:0:0:
320,187,195503,1,0,0:0:0:0:
192,187,195659,1,0,0:0:0:0:
64,187,195815,1,0,0:0:0:0:
448,187,195972,128,4,196284:2:0:0:0:
192,192,195972,128,8,196284:0:0:0:0:
320,187,195972,1,0,0:0:0:0:
64,187,196284,1,0,0:0:0:0:
320,187,196440,1,0,0:0:0:0:
192,187,196518,1,0,0:0:0:0:
64,187,196597,1,4,2:0:0:0:
448,192,196597,128,8,196909:0:0:0:0:
320,187,196753,1,0,0:0:0:0:
192,187,196909,1,0,0:0:0:0:
320,187,197065,1,0,0:0:0:0:
64,192,197222,128,8,197534:0:0:0:0:
448,192,197222,128,4,197534:2:0:0:0:
192,187,197222,1,0,0:0:0:0:
320,192,197534,1,0,0:0:0:0:
192,192,197690,1,0,0:0:0:0:
320,192,197768,1,0,0:0:0:0:
448,192,197847,1,4,2:0:0:0:
64,192,197847,128,8,198159:0:0:0:0:
192,192,198003,1,0,0:0:0:0:
448,192,198159,1,0,0:0:0:0:
192,192,198315,1,0,0:0:0:0:
320,192,198472,1,8,0:0:0:0:
448,192,198472,128,4,198784:2:0:0:0:
64,192,198472,1,0,0:0:0:0:
192,192,198628,1,0,0:0:0:0:
64,192,198784,1,0,0:0:0:0:
192,192,198940,1,0,0:0:0:0:
64,192,199097,128,8,199409:0:0:0:0:
448,192,199097,128,4,199409:2:0:0:0:
320,192,199097,1,0,0:0:0:0:
320,192,199409,128,0,199722:0:0:0:0:
64,187,199722,128,4,200034:2:0:0:0:
448,192,199722,1,8,0:0:0:0:
192,192,199722,1,0,0:0:0:0:
320,187,200034,1,4,2:0:0:0:
448,192,200034,1,8,0:0:0:0:
192,187,200190,1,0,0:0:0:0:
320,187,200268,1,0,0:0:0:0:
448,187,200347,1,8,0:0:0:0:
64,192,200347,1,4,2:0:0:0:
192,187,200503,1,0,0:0:0:0:
320,187,200659,1,8,0:0:0:0:
64,192,200659,1,4,2:0:0:0:
192,187,200815,1,0,0:0:0:0:
320,187,200972,1,4,2:0:0:0:
448,187,200972,128,8,201284:0:0:0:0:
64,192,200972,1,0,0:0:0:0:
64,187,201284,1,4,2:0:0:0:
192,192,201284,1,8,0:0:0:0:
320,187,201440,1,0,0:0:0:0:
192,187,201518,1,0,0:0:0:0:
64,187,201597,1,4,2:0:0:0:
448,192,201597,1,8,0:0:0:0:
320,187,201753,1,0,0:0:0:0:
448,187,201909,1,8,0:0:0:0:
64,192,201909,1,4,2:0:0:0:
192,187,202065,1,0,0:0:0:0:
320,187,202222,1,8,0:0:0:0:
64,192,202222,128,4,202534:2:0:0:0:
448,192,202222,1,0,0:0:0:0:
448,192,202534,1,8,0:0:0:0:
320,192,202534,1,4,2:0:0:0:
192,192,202690,1,0,0:0:0:0:
320,192,202768,1,0,0:0:0:0:
448,192,202847,1,8,0:0:0:0:
64,192,202847,1,4,2:0:0:0:
192,192,203003,1,0,0:0:0:0:
320,192,203159,1,4,2:0:0:0:
448,192,203159,1,8,0:0:0:0:
192,192,203315,1,0,0:0:0:0:
64,192,203472,1,4,2:0:0:0:
448,192,203472,1,8,0:0:0:0:
192,192,203550,1,0,0:0:0:0:
320,192,203628,1,0,0:0:0:0:
448,192,203706,1,0,0:0:0:0:
64,192,203784,1,0,0:0:0:0:
192,192,203862,1,0,0:0:0:0:
320,192,203940,1,0,0:0:0:0:
448,192,204018,1,0,0:0:0:0:
64,192,204097,128,4,204565:0:0:0:0:
192,192,204097,1,0,0:0:0:0:
320,192,204253,1,8,0:0:0:0:
448,192,204409,1,8,0:0:0:0:
448,192,204565,1,4,0:0:0:0:
320,192,204565,128,8,205034:0:0:0:0:
192,192,204565,1,0,0:0:0:0:
192,192,204878,1,0,0:0:0:0:
448,192,205034,128,8,205347:0:0:0:0:
64,192,205034,1,0,0:0:0:0:
320,192,205347,1,0,0:0:0:0:
64,192,205503,1,0,0:0:0:0:
192,192,205659,1,8,0:0:0:0:
448,192,205659,1,0,0:0:0:0:
320,192,205815,128,0,206284:0:0:0:0:
64,192,205815,1,0,0:0:0:0:
192,192,205972,1,0,0:0:0:0:
448,192,206128,1,0,0:0:0:0:
64,192,206284,128,8,206597:0:0:0:0:
192,192,206284,1,0,0:0:0:0:
448,192,206597,1,0,0:0:0:0:
320,192,206753,1,0,0:0:0:0:
192,192,206831,1,0,0:0:0:0:
64,192,206909,1,8,0:0:0:0:
448,192,206909,1,0,0:0:0:0:
320,192,207065,128,0,207534:0:0:0:0:
192,192,207065,1,0,0:0:0:0:
64,192,207222,1,0,0:0:0:0:
448,192,207378,1,0,0:0:0:0:
64,192,207534,128,8,207847:0:0:0:0:
192,192,207534,1,0,0:0:0:0:
320,192,207847,1,0,0:0:0:0:
192,192,208003,1,0,0:0:0:0:
320,192,208159,1,8,0:0:0:0:
64,192,208159,1,0,0:0:0:0:
448,192,208315,128,0,208628:0:0:0:0:
192,192,208315,1,0,0:0:0:0:
320,192,208472,1,0,0:0:0:0:
64,192,208628,1,0,0:0:0:0:
192,192,208706,1,0,0:0:0:0:
448,192,208784,128,8,209097:0:0:0:0:
320,192,208784,1,0,0:0:0:0:
64,192,209097,128,0,209409:0:0:0:0:
192,192,209097,1,0,0:0:0:0:
448,192,209253,1,0,0:0:0:0:
320,192,209409,1,8,0:0:0:0:
320,192,209565,128,4,210034:0:0:0:0:
192,192,209565,1,0,0:0:0:0:
448,192,209565,1,0,0:0:0:0:
192,192,209878,1,0,0:0:0:0:
64,192,210034,128,8,210347:0:0:0:0:
448,192,210034,1,0,0:0:0:0:
448,192,210347,1,0,0:0:0:0:
320,192,210503,1,0,0:0:0:0:
192,192,210659,1,8,0:0:0:0:
64,192,210659,1,0,0:0:0:0:
448,192,210815,128,0,211284:0:0:0:0:
320,192,210815,1,0,0:0:0:0:
64,192,210972,1,0,0:0:0:0:
320,192,211128,1,0,0:0:0:0:
64,192,211284,128,8,211597:0:0:0:0:
192,192,211284,1,0,0:0:0:0:
320,192,211597,1,0,0:0:0:0:
448,192,211753,1,0,0:0:0:0:
64,192,211831,1,0,0:0:0:0:
448,192,211909,1,8,0:0:0:0:
320,192,212065,128,0,212378:0:0:0:0:
192,192,212065,1,0,0:0:0:0:
448,192,212222,1,0,0:0:0:0:
64,192,212378,1,0,0:0:0:0:
192,192,212534,1,8,0:0:0:0:
448,192,212534,1,0,0:0:0:0:
320,192,212690,128,0,213003:0:0:0:0:
64,192,212690,1,0,0:0:0:0:
448,192,212847,1,0,0:0:0:0:
64,192,213003,1,0,0:0:0:0:
192,192,213159,1,8,0:0:0:0:
448,192,213159,1,0,0:0:0:0:
320,192,213315,128,0,213628:0:0:0:0:
64,192,213315,1,0,0:0:0:0:
192,192,213472,1,0,0:0:0:0:
448,192,213628,1,0,0:0:0:0:
64,192,213784,128,8,214565:0:0:0:0:
192,192,213784,1,0,0:0:0:0:
448,192,214097,1,0,0:0:0:0:
192,192,214253,1,8,0:0:0:0:
320,192,214331,1,8,0:0:0:0:
448,192,214409,1,8,0:0:0:0:
192,192,214487,1,8,0:0:0:0:
320,192,214565,1,8,0:0:0:0:
448,192,214565,128,4,215034:0:0:0:0:
64,192,214878,1,0,0:0:0:0:
192,192,215034,128,8,215347:0:0:0:0:
320,192,215034,1,0,0:0:0:0:
64,192,215347,1,0,0:0:0:0:
448,192,215503,1,0,0:0:0:0:
320,192,215659,1,8,0:0:0:0:
192,192,215659,1,0,0:0:0:0:
64,192,215815,128,0,216284:0:0:0:0:
448,192,215815,1,0,0:0:0:0:
320,192,215972,1,0,0:0:0:0:
192,192,216128,1,0,0:0:0:0:
448,192,216284,128,8,216597:0:0:0:0:
320,192,216284,1,0,0:0:0:0:
64,192,216597,1,0,0:0:0:0:
320,192,216753,1,0,0:0:0:0:
192,192,216831,1,0,0:0:0:0:
64,192,216909,1,8,0:0:0:0:
448,192,216909,1,0,0:0:0:0:
192,192,217065,128,0,217534:0:0:0:0:
320,192,217065,1,0,0:0:0:0:
64,192,217222,1,0,0:0:0:0:
448,192,217378,1,0,0:0:0:0:
320,192,217534,128,8,217847:0:0:0:0:
64,192,217534,1,0,0:0:0:0:
448,192,217847,1,0,0:0:0:0:
64,192,218003,1,0,0:0:0:0:
192,192,218159,1,8,0:0:0:0:
448,192,218159,1,0,0:0:0:0:
64,192,218315,128,0,218628:0:0:0:0:
320,192,218315,1,0,0:0:0:0:
192,192,218472,1,0,0:0:0:0:
448,192,218628,1,0,0:0:0:0:
320,192,218706,1,0,0:0:0:0:
192,192,218784,1,8,0:0:0:0:
64,192,218784,1,0,0:0:0:0:
448,192,218940,1,0,0:0:0:0:
320,192,219018,1,0,0:0:0:0:
192,192,219097,1,0,0:0:0:0:
64,192,219253,1,0,0:0:0:0:
192,192,219409,1,8,0:0:0:0:
448,192,219409,1,0,0:0:0:0:
320,192,219565,1,4,0:0:0:0:
448,192,219565,128,0,220034:0:0:0:0:
64,192,219565,1,0,0:0:0:0:
320,192,219878,1,0,0:0:0:0:
192,192,220034,128,8,220347:0:0:0:0:
64,192,220034,1,0,0:0:0:0:
320,192,220347,1,0,0:0:0:0:
64,192,220503,1,0,0:0:0:0:
320,192,220659,1,8,0:0:0:0:
448,192,220659,1,0,0:0:0:0:
192,192,220815,128,0,221128:0:0:0:0:
64,192,220815,1,0,0:0:0:0:
448,192,220972,1,0,0:0:0:0:
320,192,221128,1,0,0:0:0:0:
64,192,221284,128,8,221597:0:0:0:0:
448,192,221284,1,0,0:0:0:0:
192,192,221597,1,0,0:0:0:0:
320,192,221753,1,0,0:0:0:0:
192,192,221831,1,0,0:0:0:0:
64,192,221909,1,0,0:0:0:0:
448,192,221909,1,8,0:0:0:0:
320,192,222065,1,8,0:0:0:0:
192,192,222065,1,0,0:0:0:0:
448,192,222222,128,4,222534:0:0:0:0:
64,192,222222,1,0,0:0:0:0:
320,192,222534,1,4,2:0:0:0:
64,192,222534,128,0,222847:0:0:0:0:
192,192,222847,1,4,2:0:0:0:
448,192,222847,128,0,223159:0:0:0:0:
320,192,223159,1,4,2:0:0:0:
64,192,223159,128,0,223472:0:0:0:0:
448,192,223628,1,8,0:0:0:0:
320,192,223628,1,0,0:0:0:0:
192,192,223784,1,8,0:0:0:0:
64,192,223784,1,0,0:0:0:0:
448,192,223940,1,8,0:0:0:0:
320,192,223940,1,0,0:0:0:0:
192,192,224097,1,8,0:0:0:0:
64,192,224097,1,0,0:0:0:0:
320,192,224409,1,4,3:0:0:0:
192,192,224722,1,4,0:0:0:0:
448,192,224722,1,8,0:0:0:0:
320,192,224800,1,0,0:0:0:0:
64,192,224878,1,0,0:0:0:0:
448,192,224956,1,0,0:0:0:0:
320,192,225034,1,8,0:0:0:0:
64,192,225112,1,0,0:0:0:0:
192,192,225190,1,0,0:0:0:0:
448,192,225268,1,0,0:0:0:0:
64,192,225347,1,8,0:0:0:0:
320,192,225425,1,0,0:0:0:0:
192,192,225503,1,0,0:0:0:0:
64,192,225581,1,0,0:0:0:0:
320,192,225659,1,8,0:0:0:0:
192,192,225737,1,0,0:0:0:0:
448,192,225815,1,0,0:0:0:0:
320,192,225893,1,0,0:0:0:0:
192,192,225972,1,8,0:0:0:0:
448,192,226050,1,0,0:0:0:0:
64,192,226128,1,0,0:0:0:0:
320,192,226206,1,0,0:0:0:0:
448,192,226284,1,8,0:0:0:0:
64,192,226362,1,0,0:0:0:0:
192,192,226440,1,0,0:0:0:0:
320,192,226518,1,0,0:0:0:0:
64,192,226597,1,8,0:0:0:0:
320,192,226675,1,0,0:0:0:0:
448,192,226753,1,0,0:0:0:0:
192,192,226831,1,0,0:0:0:0:
320,192,226909,1,8,0:0:0:0:
192,192,226987,1,0,0:0:0:0:
64,192,227065,1,0,0:0:0:0:
448,192,227143,1,0,0:0:0:0:
192,192,227222,1,8,0:0:0:0:
64,192,227300,1,0,0:0:0:0:
320,192,227378,1,0,0:0:0:0:
192,192,227456,1,0,0:0:0:0:
448,192,227534,1,8,0:0:0:0:
320,192,227612,1,0,0:0:0:0:
64,192,227690,1,0,0:0:0:0:
320,192,227768,1,0,0:0:0:0:
192,192,227847,1,8,0:0:0:0:
448,192,227925,1,0,0:0:0:0:
320,192,228003,1,0,0:0:0:0:
64,192,228081,1,0,0:0:0:0:
448,192,228159,1,8,0:0:0:0:
192,192,228237,1,0,0:0:0:0:
320,192,228315,1,0,0:0:0:0:
192,192,228393,1,0,0:0:0:0:
64,192,228472,1,8,0:0:0:0:
320,192,228550,1,0,0:0:0:0:
448,192,228628,1,0,0:0:0:0:
320,192,228706,1,0,0:0:0:0:
192,192,228784,1,8,0:0:0:0:
64,192,228862,1,0,0:0:0:0:
448,192,228940,1,0,0:0:0:0:
192,192,229018,1,0,0:0:0:0:
64,192,229097,1,8,0:0:0:0:
448,192,229175,1,0,0:0:0:0:
320,192,229253,1,0,0:0:0:0:
448,192,229331,1,0,0:0:0:0:
192,192,229409,1,8,0:0:0:0:
320,192,229487,1,0,0:0:0:0:
64,192,229565,1,0,0:0:0:0:
320,192,229643,1,0,0:0:0:0:
192,192,229722,1,4,0:0:0:0:
448,192,229722,1,8,0:0:0:0:
320,192,229800,1,0,0:0:0:0:
64,192,229878,1,0,0:0:0:0:
192,192,229956,1,0,0:0:0:0:
320,192,230034,1,8,0:0:0:0:
64,192,230112,1,0,0:0:0:0:
448,192,230190,1,0,0:0:0:0:
192,192,230268,1,0,0:0:0:0:
64,192,230347,1,8,0:0:0:0:
448,192,230425,1,0,0:0:0:0:
320,192,230503,1,0,0:0:0:0:
192,192,230581,1,0,0:0:0:0:
448,192,230659,1,8,0:0:0:0:
320,192,230737,1,0,0:0:0:0:
64,192,230815,1,0,0:0:0:0:
320,192,230893,1,0,0:0:0:0:
192,192,230972,1,8,0:0:0:0:
64,192,231050,1,0,0:0:0:0:
448,192,231128,1,0,0:0:0:0:
64,192,231206,1,0,0:0:0:0:
320,192,231284,1,8,0:0:0:0:
448,192,231362,1,0,0:0:0:0:
192,192,231440,1,0,0:0:0:0:
320,192,231518,1,0,0:0:0:0:
448,192,231597,1,8,0:0:0:0:
192,192,231675,1,0,0:0:0:0:
64,192,231753,1,0,0:0:0:0:
320,192,231831,1,0,0:0:0:0:
192,192,231909,1,8,0:0:0:0:
64,192,231987,1,0,0:0:0:0:
448,192,232065,1,0,0:0:0:0:
320,192,232143,1,0,0:0:0:0:
64,192,232222,1,8,0:0:0:0:
448,192,232300,1,0,0:0:0:0:
192,192,232378,1,0,0:0:0:0:
64,192,232456,1,0,0:0:0:0:
448,192,232534,1,8,0:0:0:0:
192,192,232612,1,0,0:0:0:0:
320,192,232690,1,0,0:0:0:0:
192,192,232768,1,0,0:0:0:0:
64,192,232847,1,8,0:0:0:0:
448,192,232925,1,0,0:0:0:0:
320,192,233003,1,0,0:0:0:0:
192,192,233081,1,0,0:0:0:0:
448,192,233159,1,8,0:0:0:0:
64,192,233237,1,0,0:0:0:0:
320,192,233315,1,0,0:0:0:0:
192,192,233393,1,0,0:0:0:0:
64,192,233472,1,8,0:0:0:0:
320,192,233550,1,0,0:0:0:0:
448,192,233628,1,0,0:0:0:0:
192,192,233706,1,0,0:0:0:0:
320,192,233784,1,8,0:0:0:0:
192,192,233862,1,0,0:0:0:0:
64,192,233940,1,0,0:0:0:0:
448,192,234018,1,0,0:0:0:0:
192,192,234097,1,8,0:0:0:0:
64,192,234175,1,0,0:0:0:0:
320,192,234253,1,0,0:0:0:0:
192,192,234331,1,0,0:0:0:0:
64,192,234409,1,8,0:0:0:0:
192,192,234487,1,0,0:0:0:0:
448,192,234565,1,0,0:0:0:0:
320,192,234643,1,0,0:0:0:0:
64,192,234722,1,4,0:0:0:0:
448,192,234722,1,8,0:0:0:0:
320,192,234800,1,0,0:0:0:0:
192,192,234878,1,0,0:0:0:0:
320,192,234956,1,0,0:0:0:0:
64,192,235034,1,8,0:0:0:0:
448,192,235112,1,0,0:0:0:0:
192,192,235190,1,0,0:0:0:0:
320,192,235268,1,0,0:0:0:0:
448,192,235347,1,8,0:0:0:0:
64,192,235425,1,0,0:0:0:0:
192,192,235503,1,0,0:0:0:0:
448,192,235581,1,0,0:0:0:0:
320,192,235659,1,8,0:0:0:0:
64,192,235737,1,0,0:0:0:0:
192,192,235815,1,0,0:0:0:0:
64,192,235893,1,0,0:0:0:0:
448,192,235972,1,8,0:0:0:0:
320,192,236050,1,0,0:0:0:0:
192,192,236128,1,0,0:0:0:0:
448,192,236206,1,0,0:0:0:0:
320,192,236284,1,8,0:0:0:0:
192,192,236362,1,0,0:0:0:0:
64,192,236440,1,0,0:0:0:0:
448,192,236518,1,0,0:0:0:0:
192,192,236597,1,8,0:0:0:0:
64,192,236675,1,0,0:0:0:0:
320,192,236753,1,0,0:0:0:0:
448,192,236831,1,0,0:0:0:0:
64,192,236909,1,8,0:0:0:0:
320,192,236987,1,0,0:0:0:0:
192,192,237065,1,0,0:0:0:0:
448,192,237143,1,0,0:0:0:0:
320,192,237222,1,8,0:0:0:0:
64,192,237300,1,0,0:0:0:0:
192,192,237378,1,0,0:0:0:0:
320,192,237456,1,0,0:0:0:0:
64,192,237534,1,8,0:0:0:0:
448,192,237612,1,0,0:0:0:0:
192,192,237690,1,0,0:0:0:0:
448,192,237768,1,0,0:0:0:0:
320,192,237847,1,8,0:0:0:0:
64,192,237925,1,0,0:0:0:0:
192,192,238003,1,0,0:0:0:0:
448,192,238081,1,0,0:0:0:0:
64,192,238159,1,8,0:0:0:0:
320,192,238237,1,0,0:0:0:0:
192,192,238315,1,0,0:0:0:0:
64,192,238393,1,0,0:0:0:0:
448,192,238393,1,0,0:0:0:0:
320,192,238472,1,8,0:0:0:0:
192,192,238550,1,0,0:0:0:0:
448,192,238628,1,0,0:0:0:0:
64,192,238706,1,0,0:0:0:0:
192,192,238784,1,8,0:0:0:0:
448,192,238862,1,0,0:0:0:0:
320,192,238940,1,0,0:0:0:0:
192,192,239018,1,0,0:0:0:0:
448,192,239097,1,8,0:0:0:0:
320,192,239175,1,0,0:0:0:0:
64,192,239253,1,0,0:0:0:0:
192,192,239331,1,0,0:0:0:0:
320,192,239409,1,8,0:0:0:0:
64,192,239487,1,0,0:0:0:0:
192,192,239565,1,0,0:0:0:0:
448,192,239643,1,0,0:0:0:0:
320,192,239722,1,4,0:0:0:0:
64,192,239722,1,8,0:0:0:0:
192,192,239722,128,0,240972:0:0:0:0:
320,192,240034,1,2,0:0:0:0:
64,192,240347,1,2,0:0:0:0:
448,192,240659,1,2,0:0:0:0:
320,192,240972,1,4,0:0:0:0:
448,192,240972,128,0,241597:0:0:0:0:
64,192,240972,1,0,0:0:0:0:
192,192,241284,1,2,0:0:0:0:
320,192,241597,1,4,0:0:0:0:
64,192,241597,1,8,0:0:0:0:
192,192,241597,128,0,241909:0:0:0:0:
64,192,241909,128,8,242222:0:0:0:0:
448,192,241909,1,0,0:0:0:0:
320,192,241909,1,0,0:0:0:0:
320,192,242222,1,4,0:0:0:0:
448,192,242222,128,8,242690:0:0:0:0:
192,192,242222,1,0,0:0:0:0:
64,192,242534,1,8,0:0:0:0:
320,192,242534,1,0,0:0:0:0:
192,192,242690,1,0,0:0:0:0:
320,192,242847,1,8,0:0:0:0:
448,192,242847,128,0,243472:0:0:0:0:
64,192,243159,1,8,0:0:0:0:
192,192,243159,1,0,0:0:0:0:
64,192,243472,1,8,0:0:0:0:
192,192,243472,1,0,0:0:0:0:
448,192,243576,1,8,0:0:0:0:
320,192,243576,1,0,0:0:0:0:
64,184,243680,1,8,0:0:0:0:
192,192,243680,1,0,0:0:0:0:
448,192,243784,1,0,0:0:0:0:
64,192,243862,1,0,0:0:0:0:
320,192,243940,1,0,0:0:0:0:
64,192,244097,1,0,0:0:0:0:
192,192,244149,1,0,0:0:0:0:
320,192,244201,1,0,0:0:0:0:
448,186,244253,1,8,0:0:0:0:
64,186,244253,1,0,0:0:0:0:
320,192,244331,1,8,0:0:0:0:
192,192,244331,1,0,0:0:0:0:
192,192,244565,1,0,0:0:0:0:
64,192,244722,1,0,2:0:0:0:
448,192,244722,128,0,245347:0:0:0:0:
320,185,245347,1,4,0:0:0:0:
64,192,245347,128,0,245972:0:0:0:0:
192,192,245503,1,8,0:0:0:0:
320,192,245581,1,8,0:0:0:0:
448,192,245659,1,8,0:0:0:0:
192,192,245737,1,8,0:0:0:0:
320,192,245815,1,8,0:0:0:0:
448,192,245893,1,8,0:0:0:0:
320,192,245972,1,4,0:0:0:0:
192,192,245972,1,0,0:0:0:0:
448,192,246050,1,0,0:0:0:0:
320,192,246128,1,0,0:0:0:0:
192,192,246206,1,0,0:0:0:0:
64,192,246284,1,8,0:0:0:0:
320,192,246362,1,0,0:0:0:0:
448,192,246440,1,0,0:0:0:0:
192,192,246518,1,0,0:0:0:0:
320,192,246597,1,0,0:0:0:0:
192,192,246675,1,0,0:0:0:0:
64,192,246753,1,0,0:0:0:0:
448,192,246831,1,0,0:0:0:0:
320,192,246909,1,8,0:0:0:0:
64,192,246987,1,0,0:0:0:0:
448,192,247065,1,0,0:0:0:0:
320,192,247143,1,0,0:0:0:0:
192,192,247222,1,0,0:0:0:0:
448,192,247222,1,0,0:0:0:0:
320,192,247300,1,0,0:0:0:0:
64,192,247378,1,0,0:0:0:0:
192,192,247456,1,0,0:0:0:0:
448,192,247534,1,8,0:0:0:0:
64,192,247612,1,0,0:0:0:0:
192,192,247690,1,0,0:0:0:0:
320,192,247768,1,0,0:0:0:0:
448,192,247847,1,0,0:0:0:0:
192,192,247925,1,0,0:0:0:0:
64,192,248003,1,0,0:0:0:0:
448,192,248081,1,0,0:0:0:0:
320,192,248159,1,8,0:0:0:0:
192,192,248237,1,0,0:0:0:0:
448,192,248315,1,0,0:0:0:0:
64,192,248393,1,0,0:0:0:0:
192,192,248472,1,0,0:0:0:0:
320,192,248472,1,0,0:0:0:0:
448,192,248550,1,0,0:0:0:0:
320,192,248628,1,0,0:0:0:0:
192,192,248706,1,0,0:0:0:0:
64,192,248784,1,8,0:0:0:0:
448,192,248862,1,0,0:0:0:0:
320,192,248940,1,0,0:0:0:0:
192,192,249018,1,0,0:0:0:0:
64,192,249097,1,0,0:0:0:0:
320,192,249175,1,0,0:0:0:0:
448,192,249253,1,0,0:0:0:0:
192,192,249331,1,0,0:0:0:0:
320,192,249409,1,8,0:0:0:0:
64,192,249487,1,0,0:0:0:0:
192,192,249565,1,0,0:0:0:0:
320,192,249643,1,0,0:0:0:0:
448,192,249722,1,4,0:0:0:0:
64,192,249722,1,0,0:0:0:0:
320,192,249800,1,0,0:0:0:0:
192,192,249878,1,0,0:0:0:0:
64,192,249956,1,0,0:0:0:0:
448,192,250034,1,8,0:0:0:0:
320,192,250112,1,0,0:0:0:0:
192,192,250190,1,0,0:0:0:0:
64,192,250268,1,0,0:0:0:0:
448,192,250347,1,0,0:0:0:0:
320,192,250425,1,0,0:0:0:0:
64,192,250503,1,0,0:0:0:0:
192,192,250581,1,0,0:0:0:0:
320,192,250659,1,8,0:0:0:0:
64,192,250737,1,0,0:0:0:0:
448,192,250815,1,0,0:0:0:0:
320,192,250893,1,0,0:0:0:0:
192,192,250972,1,0,0:0:0:0:
64,192,250972,1,0,0:0:0:0:
448,192,251050,1,0,0:0:0:0:
320,192,251128,1,0,0:0:0:0:
64,192,251206,1,0,0:0:0:0:
192,192,251284,1,8,0:0:0:0:
320,192,251362,1,0,0:0:0:0:
448,192,251440,1,0,0:0:0:0:
192,192,251518,1,0,0:0:0:0:
64,192,251597,1,0,0:0:0:0:
320,192,251675,1,0,0:0:0:0:
448,192,251753,1,0,0:0:0:0:
64,192,251831,1,0,0:0:0:0:
320,192,251909,1,8,0:0:0:0:
448,192,251987,1,0,0:0:0:0:
64,192,252065,1,0,0:0:0:0:
192,192,252143,1,0,0:0:0:0:
320,192,252222,1,0,0:0:0:0:
448,192,252222,1,0,0:0:0:0:
64,192,252300,1,0,0:0:0:0:
192,192,252378,1,0,0:0:0:0:
448,192,252456,1,0,0:0:0:0:
320,192,252534,1,8,0:0:0:0:
192,192,252612,1,0,0:0:0:0:
64,192,252690,1,0,0:0:0:0:
320,192,252768,1,0,0:0:0:0:
448,192,252847,1,0,0:0:0:0:
192,192,252925,1,0,0:0:0:0:
64,192,253003,1,0,0:0:0:0:
320,192,253081,1,0,0:0:0:0:
192,192,253159,1,8,0:0:0:0:
448,192,253237,1,0,0:0:0:0:
320,192,253315,1,0,0:0:0:0:
192,192,253393,1,0,0:0:0:0:
64,192,253472,1,8,0:0:0:0:
448,192,253472,1,0,0:0:0:0:
320,192,253550,1,0,0:0:0:0:
192,192,253628,1,0,0:0:0:0:
448,192,253706,1,0,0:0:0:0:
64,192,253784,1,8,0:0:0:0:
192,192,253862,1,0,0:0:0:0:
320,192,253940,1,0,0:0:0:0:
192,192,254018,1,0,0:0:0:0:
64,192,254097,1,8,0:0:0:0:
448,192,254175,1,0,0:0:0:0:
192,192,254253,1,0,0:0:0:0:
320,192,254331,1,0,0:0:0:0:
64,192,254409,1,8,0:0:0:0:
448,192,254487,1,0,0:0:0:0:
192,192,254565,1,0,0:0:0:0:
320,192,254643,1,0,0:0:0:0:
64,192,254722,1,4,0:0:0:0:
448,192,254722,1,0,0:0:0:0:
192,192,254800,1,0,0:0:0:0:
320,192,254878,1,0,0:0:0:0:
192,192,254956,1,0,0:0:0:0:
64,192,255034,1,8,0:0:0:0:
320,192,255112,1,0,0:0:0:0:
448,192,255190,1,0,0:0:0:0:
64,192,255268,1,0,0:0:0:0:
320,192,255347,1,0,0:0:0:0:
192,192,255425,1,0,0:0:0:0:
64,192,255503,1,0,0:0:0:0:
448,192,255581,1,0,0:0:0:0:
320,192,255659,1,8,0:0:0:0:
64,192,255737,1,0,0:0:0:0:
448,192,255815,1,0,0:0:0:0:
320,192,255893,1,0,0:0:0:0:
64,192,255972,1,0,0:0:0:0:
192,192,255972,1,0,0:0:0:0:
320,192,256050,1,0,0:0:0:0:
192,192,256128,1,0,0:0:0:0:
64,192,256206,1,0,0:0:0:0:
448,192,256284,1,8,0:0:0:0:
320,192,256362,1,0,0:0:0:0:
64,192,256440,1,0,0:0:0:0:
448,192,256518,1,0,0:0:0:0:
192,192,256597,1,0,0:0:0:0:
320,192,256675,1,0,0:0:0:0:
448,192,256753,1,0,0:0:0:0:
64,192,256831,1,0,0:0:0:0:
320,192,256909,1,8,0:0:0:0:
192,192,256987,1,0,0:0:0:0:
64,192,257065,1,0,0:0:0:0:
448,192,257143,1,0,0:0:0:0:
320,192,257222,1,0,0:0:0:0:
64,192,257222,1,0,0:0:0:0:
192,192,257300,1,0,0:0:0:0:
448,192,257378,1,0,0:0:0:0:
64,192,257456,1,0,0:0:0:0:
192,192,257534,1,8,0:0:0:0:
448,192,257612,1,0,0:0:0:0:
320,192,257690,1,0,0:0:0:0:
192,192,257768,1,0,0:0:0:0:
64,192,257847,1,0,0:0:0:0:
320,192,257925,1,0,0:0:0:0:
448,192,258003,1,0,0:0:0:0:
192,192,258081,1,0,0:0:0:0:
320,192,258159,1,8,0:0:0:0:
448,192,258237,1,0,0:0:0:0:
64,192,258315,1,0,0:0:0:0:
192,192,258393,1,0,0:0:0:0:
320,192,258472,1,0,0:0:0:0:
448,192,258472,1,0,0:0:0:0:
64,192,258550,1,0,0:0:0:0:
192,192,258628,1,0,0:0:0:0:
448,192,258706,1,0,0:0:0:0:
320,192,258784,1,8,0:0:0:0:
64,192,258862,1,0,0:0:0:0:
192,192,258940,1,0,0:0:0:0:
320,192,259018,1,0,0:0:0:0:
448,192,259097,1,0,0:0:0:0:
192,192,259175,1,0,0:0:0:0:
64,192,259253,1,0,0:0:0:0:
448,192,259331,1,0,0:0:0:0:
320,192,259409,1,8,0:0:0:0:
64,192,259487,1,0,0:0:0:0:
448,192,259565,1,0,0:0:0:0:
64,192,259643,1,0,0:0:0:0:
320,192,259722,1,4,0:0:0:0:
192,192,259722,1,0,0:0:0:0:
64,192,259800,1,0,0:0:0:0:
448,192,259878,1,0,0:0:0:0:
320,192,259956,1,0,0:0:0:0:
64,192,260034,1,8,0:0:0:0:
192,192,260112,1,0,0:0:0:0:
320,192,260190,1,0,0:0:0:0:
448,192,260268,1,0,0:0:0:0:
64,192,260347,1,0,0:0:0:0:
192,192,260425,1,0,0:0:0:0:
448,192,260503,1,0,0:0:0:0:
64,192,260581,1,0,0:0:0:0:
320,192,260659,1,8,0:0:0:0:
448,192,260737,1,0,0:0:0:0:
64,192,260815,1,0,0:0:0:0:
192,192,260893,1,0,0:0:0:0:
320,192,260972,1,0,0:0:0:0:
64,192,260972,1,0,0:0:0:0:
448,192,261050,1,0,0:0:0:0:
192,192,261128,1,0,0:0:0:0:
64,192,261206,1,0,0:0:0:0:
448,192,261284,1,8,0:0:0:0:
320,192,261362,1,0,0:0:0:0:
64,192,261440,1,0,0:0:0:0:
192,192,261518,1,0,0:0:0:0:
448,192,261597,1,0,0:0:0:0:
320,192,261675,1,0,0:0:0:0:
64,192,261753,1,0,0:0:0:0:
448,192,261831,1,0,0:0:0:0:
192,192,261909,1,8,0:0:0:0:
64,192,261987,1,0,0:0:0:0:
448,192,262065,1,0,0:0:0:0:
320,192,262143,1,0,0:0:0:0:
64,192,262222,5,4,2:0:0:0:
192,192,262222,1,0,0:0:0:0:
192,192,262534,1,4,2:0:0:0:
448,192,262534,1,0,0:0:0:0:
64,192,262847,1,8,0:0:0:0:
320,192,262847,1,4,2:0:0:0:
448,192,263159,1,4,2:0:0:0:
320,192,263159,1,0,0:0:0:0:
192,192,263628,1,8,0:0:0:0:
64,192,263628,1,0,0:0:0:0:
448,192,263784,1,8,0:0:0:0:
320,192,263784,1,0,0:0:0:0:
64,192,263940,1,8,0:0:0:0:
192,192,263940,1,0,0:0:0:0:
448,192,264097,1,8,0:0:0:0:
320,192,264097,1,0,0:0:0:0:
192,192,264409,1,4,2:0:0:0:
320,192,264409,128,0,264722:0:0:0:0:
448,192,264722,1,4,0:0:0:0:
64,192,264722,128,0,265347:0:0:0:0:
192,192,264722,1,0,0:0:0:0:
320,192,265034,1,4,2:0:0:0:
192,192,265347,1,4,2:0:0:0:
448,192,265347,1,0,0:0:0:0:
320,192,265659,1,4,2:0:0:0:
64,192,265659,1,0,0:0:0:0:
192,192,266128,1,8,0:0:0:0:
320,192,266128,1,0,0:0:0:0:
448,192,266284,1,8,0:0:0:0:
64,192,266284,1,0,0:0:0:0:
192,192,266440,1,8,0:0:0:0:
320,192,266440,1,0,0:0:0:0:
64,192,266597,1,8,0:0:0:0:
448,192,266597,1,0,0:0:0:0:
192,192,266701,1,0,0:0:0:0:
320,192,266805,1,0,0:0:0:0:
64,192,266909,1,8,0:0:0:0:
448,186,266909,1,8,0:0:0:0:
192,192,267013,1,0,0:0:0:0:
320,186,267117,1,0,0:0:0:0:
64,192,267222,128,4,268159:0:0:0:0:
448,192,267222,1,0,0:0:0:0:
192,192,267222,1,0,0:0:0:0:
448,192,267378,1,8,0:0:0:0:
320,192,267456,1,8,0:0:0:0:
192,192,267534,1,8,0:0:0:0:
448,192,267690,1,0,0:0:0:0:
192,192,267847,1,8,0:0:0:0:
320,192,267925,1,8,0:0:0:0:
448,192,268003,1,8,0:0:0:0:
192,192,268159,1,0,0:0:0:0:
448,192,268315,1,8,0:0:0:0:
320,192,268393,1,8,0:0:0:0:
192,192,268472,1,8,0:0:0:0:
64,192,268472,128,4,269097:0:0:0:0:
448,192,269097,128,0,269409:0:0:0:0:
320,192,269253,1,8,0:0:0:0:
192,192,269331,1,8,0:0:0:0:
64,192,269409,1,8,0:0:0:0:
64,192,269722,1,4,0:0:0:0:
448,192,269722,1,0,0:0:0:0:
192,192,269800,1,0,0:0:0:0:
320,192,269878,1,0,0:0:0:0:
64,192,269956,1,0,0:0:0:0:
448,192,270034,1,8,0:0:0:0:
192,192,270112,1,0,0:0:0:0:
320,192,270190,1,0,0:0:0:0:
64,192,270268,1,0,0:0:0:0:
192,192,270347,1,0,0:0:0:0:
320,192,270425,1,0,0:0:0:0:
448,192,270503,1,0,0:0:0:0:
64,192,270581,1,0,0:0:0:0:
320,192,270659,1,8,0:0:0:0:
448,192,270737,1,0,0:0:0:0:
192,192,270815,1,0,0:0:0:0:
64,192,270893,1,0,0:0:0:0:
320,192,270972,1,0,0:0:0:0:
192,192,270972,1,0,0:0:0:0:
448,192,271050,1,0,0:0:0:0:
192,192,271128,1,0,0:0:0:0:
448,192,271206,1,0,0:0:0:0:
320,192,271284,1,8,0:0:0:0:
64,192,271362,1,0,0:0:0:0:
192,192,271440,1,0,0:0:0:0:
448,192,271518,1,0,0:0:0:0:
320,192,271597,1,0,0:0:0:0:
64,192,271675,1,0,0:0:0:0:
192,192,271753,1,0,0:0:0:0:
320,192,271831,1,0,0:0:0:0:
64,192,271909,1,8,0:0:0:0:
192,192,271987,1,0,0:0:0:0:
448,192,272065,1,0,0:0:0:0:
320,192,272143,1,0,0:0:0:0:
192,192,272222,1,0,0:0:0:0:
64,192,272222,1,0,0:0:0:0:
448,192,272300,1,0,0:0:0:0:
320,192,272378,1,0,0:0:0:0:
64,192,272456,1,0,0:0:0:0:
448,192,272534,1,8,0:0:0:0:
192,192,272612,1,0,0:0:0:0:
320,192,272690,1,0,0:0:0:0:
448,192,272768,1,0,0:0:0:0:
192,192,272847,1,0,0:0:0:0:
64,192,272925,1,0,0:0:0:0:
448,192,273003,1,0,0:0:0:0:
320,192,273081,1,0,0:0:0:0:
192,192,273159,1,8,0:0:0:0:
448,192,273237,1,0,0:0:0:0:
64,192,273315,1,0,0:0:0:0:
192,192,273393,1,0,0:0:0:0:
320,192,273472,1,0,0:0:0:0:
64,192,273472,1,0,0:0:0:0:
448,192,273550,1,0,0:0:0:0:
192,192,273628,1,0,0:0:0:0:
448,192,273706,1,0,0:0:0:0:
320,192,273784,1,8,0:0:0:0:
64,192,273862,1,0,0:0:0:0:
192,192,273940,1,0,0:0:0:0:
448,192,274018,1,0,0:0:0:0:
320,192,274097,1,0,0:0:0:0:
64,192,274175,1,0,0:0:0:0:
192,192,274253,1,0,0:0:0:0:
448,192,274331,1,0,0:0:0:0:
64,192,274409,1,8,0:0:0:0:
320,192,274487,1,0,0:0:0:0:
192,192,274565,1,0,0:0:0:0:
448,192,274643,1,0,0:0:0:0:
320,192,274722,1,4,0:0:0:0:
64,192,274722,1,0,0:0:0:0:
192,192,274800,1,0,0:0:0:0:
64,192,274878,1,0,0:0:0:0:
448,192,274956,1,0,0:0:0:0:
320,192,275034,1,8,0:0:0:0:
64,192,275112,1,0,0:0:0:0:
192,192,275190,1,0,0:0:0:0:
320,192,275268,1,0,0:0:0:0:
448,192,275347,1,0,0:0:0:0:
64,192,275425,1,0,0:0:0:0:
192,192,275503,1,0,0:0:0:0:
448,192,275581,1,0,0:0:0:0:
320,192,275659,1,8,0:0:0:0:
192,192,275737,1,0,0:0:0:0:
448,192,275815,1,0,0:0:0:0:
320,192,275893,1,0,0:0:0:0:
192,192,275972,1,0,0:0:0:0:
448,192,275972,1,0,0:0:0:0:
64,192,276050,1,0,0:0:0:0:
320,192,276128,1,0,0:0:0:0:
192,192,276206,1,0,0:0:0:0:
448,192,276284,1,8,0:0:0:0:
64,192,276362,1,0,0:0:0:0:
320,192,276440,1,0,0:0:0:0:
448,192,276518,1,0,0:0:0:0:
192,192,276597,1,0,0:0:0:0:
64,192,276675,1,0,0:0:0:0:
448,192,276753,1,0,0:0:0:0:
192,192,276831,1,0,0:0:0:0:
320,192,276909,1,8,0:0:0:0:
64,192,276987,1,0,0:0:0:0:
448,192,277065,1,0,0:0:0:0:
320,192,277143,1,0,0:0:0:0:
192,192,277222,1,0,0:0:0:0:
448,192,277222,1,0,0:0:0:0:
64,192,277300,1,0,0:0:0:0:
448,192,277378,1,0,0:0:0:0:
192,192,277456,1,0,0:0:0:0:
320,192,277534,1,8,0:0:0:0:
64,192,277612,1,0,0:0:0:0:
448,192,277690,1,0,0:0:0:0:
320,192,277768,1,0,0:0:0:0:
192,192,277847,1,0,0:0:0:0:
64,192,277925,1,0,0:0:0:0:
448,192,278003,1,0,0:0:0:0:
64,192,278081,1,0,0:0:0:0:
192,192,278159,1,8,0:0:0:0:
448,192,278237,1,0,0:0:0:0:
64,192,278315,1,0,0:0:0:0:
320,192,278393,1,0,0:0:0:0:
192,192,278472,1,0,0:0:0:0:
64,192,278472,1,0,0:0:0:0:
448,192,278550,1,0,0:0:0:0:
64,192,278628,1,8,0:0:0:0:
192,192,278628,1,4,0:0:0:0:
448,192,278706,1,0,0:0:0:0:
320,192,278784,1,0,0:0:0:0:
64,192,278862,1,0,0:0:0:0:
192,192,278940,1,0,0:0:0:0:
448,192,279018,1,0,0:0:0:0:
64,192,279097,1,8,0:0:0:0:
320,192,279097,1,0,0:0:0:0:
448,192,279175,1,0,0:0:0:0:
192,192,279253,1,0,0:0:0:0:
448,192,279331,1,0,0:0:0:0:
64,192,279409,1,8,0:0:0:0:
320,192,279409,1,0,0:0:0:0:
192,192,279487,1,0,0:0:0:0:
448,192,279565,1,0,0:0:0:0:
192,192,279643,1,0,0:0:0:0:
320,192,279722,1,4,0:0:0:0:
64,192,279722,1,0,0:0:0:0:
448,192,279800,1,0,0:0:0:0:
192,192,279878,1,0,0:0:0:0:
64,192,279956,1,0,0:0:0:0:
320,192,280034,1,8,0:0:0:0:
448,192,280112,1,0,0:0:0:0:
192,192,280190,1,0,0:0:0:0:
64,192,280268,1,0,0:0:0:0:
448,192,280347,1,0,0:0:0:0:
320,192,280425,1,0,0:0:0:0:
192,192,280503,1,0,0:0:0:0:
448,192,280581,1,0,0:0:0:0:
320,192,280659,1,8,0:0:0:0:
64,192,280737,1,0,0:0:0:0:
448,192,280815,1,0,0:0:0:0:
320,192,280893,1,0,0:0:0:0:
192,192,280972,1,0,0:0:0:0:
448,192,280972,1,0,0:0:0:0:
64,192,281050,1,0,0:0:0:0:
320,192,281128,1,0,0:0:0:0:
192,192,281206,1,0,0:0:0:0:
448,192,281284,1,8,0:0:0:0:
64,192,281362,1,0,0:0:0:0:
320,192,281440,1,0,0:0:0:0:
448,192,281518,1,0,0:0:0:0:
192,192,281597,1,0,0:0:0:0:
64,192,281675,1,0,0:0:0:0:
448,192,281753,1,0,0:0:0:0:
320,192,281831,1,0,0:0:0:0:
64,192,281909,1,8,0:0:0:0:
448,192,281987,1,0,0:0:0:0:
192,192,282065,1,0,0:0:0:0:
64,192,282143,1,0,0:0:0:0:
320,192,282222,1,0,0:0:0:0:
192,192,282222,1,0,0:0:0:0:
448,192,282300,1,0,0:0:0:0:
64,192,282378,1,0,0:0:0:0:
320,192,282456,1,0,0:0:0:0:
192,192,282534,1,8,0:0:0:0:
448,192,282612,1,0,0:0:0:0:
64,192,282690,1,0,0:0:0:0:
192,192,282768,1,0,0:0:0:0:
320,192,282847,1,0,0:0:0:0:
448,192,282925,1,0,0:0:0:0:
192,192,283003,1,0,0:0:0:0:
64,192,283081,1,0,0:0:0:0:
448,192,283159,1,8,0:0:0:0:
192,192,283237,1,0,0:0:0:0:
320,192,283315,1,0,0:0:0:0:
448,192,283393,1,0,0:0:0:0:
192,192,283472,1,0,0:0:0:0:
320,192,283472,1,0,0:0:0:0:
64,192,283550,1,0,0:0:0:0:
448,192,283628,1,0,0:0:0:0:
64,192,283706,1,0,0:0:0:0:
320,192,283784,1,8,0:0:0:0:
192,192,283862,1,0,0:0:0:0:
448,192,283940,1,0,0:0:0:0:
320,192,284018,1,0,0:0:0:0:
192,192,284097,1,0,0:0:0:0:
64,192,284175,1,0,0:0:0:0:
320,192,284253,1,0,0:0:0:0:
448,192,284331,1,0,0:0:0:0:
192,192,284409,1,8,0:0:0:0:
64,192,284487,1,0,0:0:0:0:
320,192,284565,1,0,0:0:0:0:
64,192,284643,1,0,0:0:0:0:
448,192,284722,1,4,0:0:0:0:
192,192,284722,1,0,0:0:0:0:
320,192,284800,1,0,0:0:0:0:
448,192,284878,1,0,0:0:0:0:
64,192,284956,1,0,0:0:0:0:
192,192,285034,1,8,0:0:0:0:
448,192,285112,1,0,0:0:0:0:
320,192,285190,1,0,0:0:0:0:
64,192,285268,1,0,0:0:0:0:
192,192,285347,1,0,0:0:0:0:
448,192,285425,1,0,0:0:0:0:
320,192,285503,1,0,0:0:0:0:
192,192,285581,1,0,0:0:0:0:
448,192,285659,1,8,0:0:0:0:
64,192,285737,1,0,0:0:0:0:
192,192,285815,1,0,0:0:0:0:
448,192,285893,1,0,0:0:0:0:
320,192,285972,1,0,0:0:0:0:
192,192,285972,1,0,0:0:0:0:
64,192,286050,1,0,0:0:0:0:
192,192,286128,1,0,0:0:0:0:
448,192,286206,1,0,0:0:0:0:
320,192,286284,1,8,0:0:0:0:
64,192,286362,1,0,0:0:0:0:
192,192,286440,1,0,0:0:0:0:
448,192,286518,1,0,0:0:0:0:
320,192,286597,1,0,0:0:0:0:
192,192,286675,1,0,0:0:0:0:
448,192,286753,1,0,0:0:0:0:
64,192,286831,1,0,0:0:0:0:
192,192,286909,1,8,0:0:0:0:
448,192,286987,1,0,0:0:0:0:
320,192,287065,1,0,0:0:0:0:
192,192,287143,1,0,0:0:0:0:
448,192,287222,1,4,0:0:0:0:
64,192,287222,1,0,0:0:0:0:
192,192,287534,1,0,0:0:0:0:
320,192,287847,1,8,0:0:0:0:
192,192,287847,1,0,0:0:0:0:
448,192,288159,1,8,0:0:0:0:
64,192,288159,1,0,0:0:0:0:
320,192,288628,128,0,295972:0:0:0:0:
64,192,288628,128,0,295972:0:0:0:0:
