osu file format v14

[General]
AudioFilename: Neru - Ningen Shikkaku.mp3
AudioLeadIn: 1000
PreviewTime: 84252
Countdown: 0
SampleSet: Soft
StackLeniency: 0.7
Mode: 3
LetterboxInBreaks: 0
SpecialStyle: 0
WidescreenStoryboard: 0

[Editor]
Bookmarks: 22221,34721,44721,47221,49721,52221,64721,69642,84721,89721,94721,114721,134721,174721,175033,175346,175658,175971,176283,176596,176908,177221,177533,177846,178158,178471,178783,179096,179408,179721,180033,180346,180658,180971,181283,181596,181908,182221,182533,182846,183158,183471,183783,184096,184408,184721
DistanceSpacing: 0.7
BeatDivisor: 4
GridSize: 4
TimelineZoom: 1

[Metadata]
Title:Ningen Shikkaku
TitleUnicode:人間失格
Artist:Neru
ArtistUnicode:Neru
Creator:puxtu
Version:4K EZ
Source:
Tags:pxt arcwinolivirus Blocko -Kamikaze- LordRaika [_M_o_m_o_] Tidek ExUsagi Eternalie Zenx Z3nx lZenxl PyaKura Hydria Harbyter No Longer Human Vocaloid Kagamine Rin Len 鏡音リン・レン
BeatmapID:553614
BeatmapSetID:239471

[Difficulty]
HPDrainRate:7
CircleSize:4
OverallDifficulty:7
ApproachRate:5
SliderMultiplier:1.4
SliderTickRate:1

[Events]
//Background and Video events
0,0,"SakuraTree.jpg",0,0
//Break Periods
//Storyboard Layer 0 (Background)
//Storyboard Layer 1 (Fail)
//Storyboard Layer 2 (Pass)
//Storyboard Layer 3 (Foreground)
//Storyboard Sound Samples

[TimingPoints]
1322,444.444444444444,3,2,0,20,1,0
11968,451.127819548872,3,2,0,20,1,0
11968,-98.0392156862745,3,2,0,20,0,0
12644,444.444444444444,3,2,0,20,1,0
13310,447.761194029851,3,2,0,20,1,0
13310,-99.009900990099,3,2,0,20,0,0
17389,500,3,2,0,20,1,0
17389,-92.5925925925926,3,2,0,20,0,0
18129,600,3,2,0,20,1,0
18129,-83.3333333333333,3,2,0,20,0,0
18429,571.428571428571,3,2,0,20,1,0
18429,-87.719298245614,3,2,0,20,0,0
19000,705.882352941176,3,2,0,20,1,0
19000,-77.5193798449612,3,2,0,20,0,0
19665,705.882352941176,3,2,0,20,1,0
19665,-77.5193798449612,3,2,0,20,0,0
19990,1000,3,2,0,20,1,0
19990,-59.8802395209581,3,2,0,20,0,0
20490,1500,3,2,0,20,1,0
20490,-40,3,2,0,20,0,0
22222,312.5,4,1,1,60,1,0
84722,-100,4,1,1,60,0,1
102222,-100,4,1,1,60,0,0
154722,-100,4,1,1,60,0,1
174722,-100,4,1,1,60,0,0
245972,-100,4,1,1,60,0,1
264097,-100,4,1,1,60,0,0
264722,-100,4,1,1,60,0,1
266597,-100,4,1,1,60,0,0
267222,-100,4,1,1,60,0,1
269643,-100,4,1,1,60,0,0
269722,-100,4,1,1,60,0,1
288628,-142.857142857143,4,1,1,60,0,0

[HitObjects]
320,192,1322,5,0,0:0:0:0:
192,192,1988,1,0,0:0:0:0:
448,192,2210,1,0,0:0:0:0:
64,192,2433,1,0,0:0:0:0:
320,192,2655,1,0,0:0:0:0:
448,192,3321,1,0,0:0:0:0:
192,192,3544,1,0,0:0:0:0:
320,192,3766,1,0,0:0:0:0:
64,192,3988,1,0,0:0:0:0:
448,192,4655,1,0,0:0:0:0:
320,192,4877,1,0,0:0:0:0:
64,192,5099,1,0,0:0:0:0:
192,192,5321,1,0,0:0:0:0:
448,192,5766,1,0,0:0:0:0:
64,192,5988,1,0,0:0:0:0:
320,192,6655,1,0,0:0:0:0:
192,192,7321,1,0,0:0:0:0:
448,192,7544,1,0,0:0:0:0:
64,192,7766,1,0,0:0:0:0:
320,192,7988,1,0,0:0:0:0:
192,192,8655,1,0,0:0:0:0:
64,192,8877,1,0,0:0:0:0:
448,192,9099,1,0,0:0:0:0:
320,192,9321,1,0,0:0:0:0:
64,192,9988,1,0,0:0:0:0:
320,192,10210,1,0,0:0:0:0:
448,192,10433,1,0,0:0:0:0:
192,192,10655,1,0,0:0:0:0:
192,192,11968,1,0,0:0:0:0:
448,192,12644,1,0,0:0:0:0:
64,192,12866,1,0,0:0:0:0:
320,192,13088,1,0,0:0:0:0:
192,192,13310,1,0,0:0:0:0:
448,192,13981,1,0,0:0:0:0:
320,192,14205,1,0,0:0:0:0:
64,192,14429,1,0,0:0:0:0:
448,192,14653,1,0,0:0:0:0:
192,192,15324,1,0,0:0:0:0:
320,192,15548,1,0,0:0:0:0:
64,192,15772,1,0,0:0:0:0:
448,192,15996,1,0,0:0:0:0:
192,192,16444,1,0,0:0:0:0:
320,192,16668,1,0,0:0:0:0:
64,192,17389,1,0,0:0:0:0:
448,192,18129,1,0,0:0:0:0:
192,192,18429,1,0,0:0:0:0:
320,192,18714,1,0,0:0:0:0:
64,192,19000,1,0,0:0:0:0:
320,192,19990,1,0,0:0:0:0:
192,192,20490,1,0,0:0:0:0:
320,192,21240,1,0,0:0:0:0:
64,192,22222,5,4,2:0:0:0:
448,192,22222,1,0,0:0:0:0:
320,192,22534,1,4,2:0:0:0:
64,192,22847,1,4,2:0:0:0:
192,192,23159,1,4,2:0:0:0:
448,192,23628,1,8,0:0:0:0:
64,192,23784,1,8,0:0:0:0:
448,192,23940,1,8,0:0:0:0:
64,192,24097,1,8,0:0:0:0:
320,192,24409,1,4,3:0:0:0:
64,192,24722,1,4,0:0:0:0:
448,192,24722,1,0,0:0:0:0:
192,192,25034,1,8,0:0:0:0:
448,192,25347,1,0,0:0:0:0:
64,192,25659,1,8,0:0:0:0:
320,192,25972,1,0,0:0:0:0:
448,192,26284,1,8,0:0:0:0:
64,192,26597,1,0,0:0:0:0:
192,192,26909,1,8,0:0:0:0:
448,192,27222,1,0,0:0:0:0:
64,192,27534,1,8,0:0:0:0:
192,192,27847,1,0,0:0:0:0:
320,192,28159,1,8,0:0:0:0:
64,192,28472,1,0,0:0:0:0:
192,192,28784,1,8,0:0:0:0:
320,192,29097,1,0,0:0:0:0:
192,192,29409,1,8,0:0:0:0:
448,192,29722,1,4,0:0:0:0:
64,192,29722,1,0,0:0:0:0:
320,192,30034,1,8,0:0:0:0:
64,192,30347,1,0,0:0:0:0:
448,192,30659,1,8,0:0:0:0:
192,192,30972,1,0,0:0:0:0:
320,192,31284,1,8,0:0:0:0:
64,192,31597,1,0,0:0:0:0:
448,192,31909,1,8,0:0:0:0:
320,192,32222,1,0,0:0:0:0:
64,192,32534,1,8,0:0:0:0:
448,192,32847,1,0,0:0:0:0:
192,192,33159,1,8,0:0:0:0:
320,192,33472,1,0,0:0:0:0:
64,192,33784,1,8,0:0:0:0:
448,192,34097,1,0,0:0:0:0:
64,192,34253,128,0,34722:0:0:0:0:
320,192,34722,1,4,0:0:0:0:
448,192,35034,1,8,0:0:0:0:
192,192,35347,1,0,0:0:0:0:
320,192,35659,1,8,0:0:0:0:
64,192,35972,1,0,0:0:0:0:
192,192,36284,1,8,0:0:0:0:
448,192,36597,1,0,0:0:0:0:
320,192,36909,1,8,0:0:0:0:
64,192,37222,1,0,0:0:0:0:
448,192,37534,1,8,0:0:0:0:
192,192,37847,1,0,0:0:0:0:
320,192,38159,1,8,0:0:0:0:
448,192,38472,1,0,0:0:0:0:
64,192,38784,1,8,0:0:0:0:
320,192,39097,1,0,0:0:0:0:
192,192,39409,1,8,0:0:0:0:
448,192,39722,1,4,0:0:0:0:
61,192,39722,1,4,0:0:0:0:
320,192,40034,1,8,0:0:0:0:
448,192,40347,1,0,0:0:0:0:
192,192,40659,1,8,0:0:0:0:
320,192,40972,1,0,0:0:0:0:
64,192,41284,1,8,0:0:0:0:
192,192,41597,1,0,0:0:0:0:
320,192,41909,1,8,0:0:0:0:
448,192,42222,1,0,0:0:0:0:
192,192,42534,1,8,0:0:0:0:
320,192,42847,1,0,0:0:0:0:
448,192,43159,1,8,0:0:0:0:
192,192,43472,1,0,0:0:0:0:
320,192,43784,1,8,0:0:0:0:
64,192,44097,1,0,0:0:0:0:
448,192,44253,128,0,44722:0:0:0:0:
192,192,44722,1,4,0:0:0:0:
64,192,45034,1,8,0:0:0:0:
448,192,45347,1,0,0:0:0:0:
192,192,45659,1,8,0:0:0:0:
320,192,45972,1,0,0:0:0:0:
448,192,46284,1,8,0:0:0:0:
64,192,46597,1,8,0:0:0:0:
192,192,46597,1,4,2:0:0:0:
448,192,46909,1,4,2:0:0:0:
320,192,46909,1,8,0:0:0:0:
192,192,47222,1,0,0:0:0:0:
64,192,47534,1,8,0:0:0:0:
448,192,47847,1,0,0:0:0:0:
64,192,48159,1,8,0:0:0:0:
320,192,48472,1,0,0:0:0:0:
192,192,48784,1,8,0:0:0:0:
320,192,49097,1,8,0:0:0:0:
448,192,49097,1,4,2:0:0:0:
192,192,49409,1,8,0:0:0:0:
64,192,49409,1,4,2:0:0:0:
448,192,49722,1,0,0:0:0:0:
192,192,50034,1,8,0:0:0:0:
320,192,50347,1,0,0:0:0:0:
64,192,50659,1,8,0:0:0:0:
320,192,50972,1,0,0:0:0:0:
448,192,51284,1,8,0:0:0:0:
192,192,51597,1,4,2:0:0:0:
64,192,51597,1,8,0:0:0:0:
320,192,51909,1,8,0:0:0:0:
448,192,51909,1,4,2:0:0:0:
192,192,52222,1,4,0:0:0:0:
64,192,52222,128,0,53472:0:0:0:0:
448,192,52534,1,8,0:0:0:0:
192,192,53159,1,8,0:0:0:0:
448,192,53472,128,4,53784:2:0:0:0:
192,192,53784,128,8,54097:0:0:0:0:
320,192,54097,128,4,54409:2:0:0:0:
64,192,54409,128,8,54722:0:0:0:0:
448,192,54722,1,8,0:0:0:0:
192,192,55034,1,8,0:0:0:0:
320,192,55347,1,0,0:0:0:0:
448,192,55659,1,8,0:0:0:0:
192,192,55972,1,0,0:0:0:0:
320,192,56284,1,8,0:0:0:0:
64,192,56597,1,4,2:0:0:0:
192,192,56597,1,8,0:0:0:0:
448,192,56909,1,8,0:0:0:0:
320,192,56909,1,4,2:0:0:0:
192,192,57222,1,0,0:0:0:0:
64,192,57534,1,8,0:0:0:0:
448,192,57847,1,0,0:0:0:0:
192,192,58159,1,8,0:0:0:0:
320,192,58472,1,0,0:0:0:0:
64,192,58784,1,8,0:0:0:0:
448,192,59097,1,4,2:0:0:0:
320,192,59097,1,8,0:0:0:0:
192,192,59409,1,4,2:0:0:0:
64,192,59409,1,8,0:0:0:0:
448,192,59722,1,0,0:0:0:0:
320,192,60034,1,8,0:0:0:0:
64,192,60347,1,0,0:0:0:0:
192,192,60659,1,8,0:0:0:0:
448,192,60972,1,0,0:0:0:0:
320,192,61284,1,8,0:0:0:0:
192,192,61597,1,4,2:0:0:0:
64,192,61597,1,8,0:0:0:0:
320,192,61909,1,8,0:0:0:0:
448,192,61909,1,4,2:0:0:0:
192,192,62222,1,4,0:0:0:0:
64,192,62222,128,0,63472:0:0:0:0:
320,192,62534,1,8,0:0:0:0:
448,192,62847,1,0,0:0:0:0:
192,192,63159,1,8,0:0:0:0:
448,192,63472,128,4,63784:2:0:0:0:
192,192,63784,128,4,64097:2:0:0:0:
320,192,64097,128,4,64409:2:0:0:0:
64,192,64409,128,4,64722:2:0:0:0:
192,192,64722,1,8,0:0:0:0:
448,192,64722,128,4,65034:0:0:0:0:
320,192,65034,128,8,65347:0:0:0:0:
64,192,65347,128,8,65659:0:0:0:0:
448,192,65659,128,8,65972:0:0:0:0:
192,192,65972,128,8,66284:0:0:0:0:
320,192,66284,128,8,66597:0:0:0:0:
64,192,66597,128,8,66909:0:0:0:0:
448,192,66909,128,8,67222:0:0:0:0:
192,192,67222,128,8,67690:0:0:0:0:
64,192,67690,1,0,0:0:0:0:
448,192,67847,128,8,68784:0:0:0:0:
64,192,69097,128,8,69409:0:0:0:0:
192,192,69409,128,8,69722:0:0:0:0:
448,192,69722,1,4,0:0:0:0:
320,192,69722,128,8,70034:0:0:0:0:
64,192,70034,128,8,70347:0:0:0:0:
448,192,70347,128,8,70659:0:0:0:0:
192,192,70659,128,8,70972:0:0:0:0:
320,192,70972,128,8,71284:0:0:0:0:
64,192,71284,128,8,71597:0:0:0:0:
448,192,71597,128,8,71909:0:0:0:0:
192,192,71909,128,8,72222:0:0:0:0:
320,192,72222,128,8,72690:0:0:0:0:
448,192,72690,1,0,0:0:0:0:
64,192,72847,128,8,73784:0:0:0:0:
448,192,74097,128,8,74409:0:0:0:0:
192,192,74409,128,8,74722:0:0:0:0:
64,192,74722,1,8,0:0:0:0:
320,192,74722,128,4,75034:0:0:0:0:
448,192,75034,128,8,75347:0:0:0:0:
64,192,75347,128,8,75659:0:0:0:0:
192,192,75659,128,8,75972:0:0:0:0:
320,192,75972,128,8,76284:0:0:0:0:
448,192,76284,128,8,76597:0:0:0:0:
192,192,76597,128,8,76909:0:0:0:0:
320,192,76909,128,8,77222:0:0:0:0:
64,192,77222,128,8,77690:0:0:0:0:
192,192,77690,1,0,0:0:0:0:
448,192,77847,128,8,78784:0:0:0:0:
192,192,79097,128,8,79409:0:0:0:0:
320,192,79409,128,8,79722:0:0:0:0:
64,192,79722,128,8,80034:0:0:0:0:
448,192,79722,1,4,0:0:0:0:
192,192,80034,128,2,80347:0:0:0:0:
448,192,80347,128,2,80659:0:0:0:0:
320,192,80659,128,2,80972:0:0:0:0:
64,192,80972,128,8,81284:0:0:0:0:
192,192,80972,1,4,0:0:0:0:
448,192,81284,128,2,81597:0:0:0:0:
320,192,81597,1,8,0:0:0:0:
192,192,81597,128,4,81909:0:0:0:0:
64,192,81909,128,8,82222:0:0:0:0:
320,192,82222,128,8,82690:0:0:0:0:
448,192,82222,1,4,0:0:0:0:
192,192,82690,1,0,0:0:0:0:
64,192,82847,128,8,83784:0:0:0:0:
448,192,84097,128,0,84722:0:0:0:0:
64,192,84722,1,4,0:0:0:0:
322,192,85034,1,8,0:0:0:0:
194,192,85347,1,0,0:0:0:0:
450,192,85659,1,8,0:0:0:0:
322,192,85972,1,0,0:0:0:0:
66,192,86284,1,8,0:0:0:0:
450,192,86597,1,0,0:0:0:0:
194,192,86909,1,8,0:0:0:0:
322,192,87222,1,0,0:0:0:0:
450,192,87534,1,8,0:0:0:0:
66,192,87847,1,0,0:0:0:0:
194,192,88159,1,8,0:0:0:0:
322,192,88472,1,0,0:0:0:0:
450,192,88784,1,8,0:0:0:0:
66,192,89097,1,0,0:0:0:0:
322,192,89409,1,8,0:0:0:0:
66,192,89722,1,8,0:0:0:0:
450,192,89722,1,4,0:0:0:0:
194,192,90034,1,8,0:0:0:0:
322,192,90347,1,0,0:0:0:0:
66,192,90659,1,8,0:0:0:0:
450,192,90972,1,0,0:0:0:0:
194,192,91284,1,8,0:0:0:0:
322,192,91597,1,0,0:0:0:0:
194,192,91909,1,8,0:0:0:0:
450,192,92222,1,0,0:0:0:0:
66,192,92534,1,8,0:0:0:0:
194,192,92847,1,0,0:0:0:0:
450,192,93159,1,8,0:0:0:0:
322,192,93472,1,0,0:0:0:0:
66,192,93628,1,8,0:0:0:0:
450,192,94097,1,8,0:0:0:0:
194,192,94409,1,8,0:0:0:0:
66,192,94722,1,8,0:0:0:0:
450,192,94722,1,4,0:0:0:0:
322,192,95034,1,8,0:0:0:0:
194,192,95347,1,0,0:0:0:0:
322,192,95659,1,8,0:0:0:0:
66,192,95972,1,0,0:0:0:0:
322,192,96284,1,8,0:0:0:0:
450,192,96597,1,0,0:0:0:0:
194,192,96909,1,8,0:0:0:0:
322,192,97222,1,0,0:0:0:0:
66,192,97534,1,8,0:0:0:0:
194,192,97847,1,0,0:0:0:0:
450,192,98159,1,8,0:0:0:0:
322,192,98472,1,0,0:0:0:0:
66,192,98784,1,8,0:0:0:0:
322,192,99097,1,0,0:0:0:0:
194,192,99409,1,8,0:0:0:0:
66,192,99722,1,8,0:0:0:0:
450,192,99722,1,4,0:0:0:0:
322,192,100034,1,8,0:0:0:0:
194,192,100347,1,0,0:0:0:0:
450,192,100659,1,8,0:0:0:0:
66,192,100972,1,0,0:0:0:0:
194,192,101284,1,8,0:0:0:0:
322,192,101597,1,0,0:0:0:0:
194,192,101909,1,8,0:0:0:0:
66,192,102222,1,8,0:0:0:0:
450,192,102222,1,4,0:0:0:0:
322,192,102534,1,8,0:0:0:0:
450,192,102847,1,8,0:0:0:0:
194,192,103159,1,8,0:0:0:0:
322,192,103628,1,8,0:0:0:0:
194,192,103784,1,8,0:0:0:0:
322,192,103940,1,8,0:0:0:0:
194,192,104097,1,8,0:0:0:0:
322,192,104409,1,4,3:0:0:0:
66,192,104722,1,4,0:0:0:0:
450,192,104722,1,0,0:0:0:0:
194,192,105034,1,8,0:0:0:0:
450,192,105347,1,0,0:0:0:0:
66,192,105659,1,8,0:0:0:0:
194,192,105972,1,0,0:0:0:0:
450,192,106284,1,8,0:0:0:0:
66,192,106597,1,0,0:0:0:0:
194,192,106909,1,8,0:0:0:0:
450,192,107222,1,0,0:0:0:0:
66,192,107534,1,8,0:0:0:0:
194,192,107847,1,0,0:0:0:0:
450,192,108159,1,8,0:0:0:0:
66,192,108472,1,0,0:0:0:0:
194,192,108784,1,8,0:0:0:0:
322,192,109097,1,0,0:0:0:0:
194,192,109409,1,8,0:0:0:0:
450,192,109722,1,4,0:0:0:0:
66,192,109722,1,0,0:0:0:0:
320,192,110034,1,8,0:0:0:0:
64,192,110347,1,0,0:0:0:0:
448,192,110659,1,8,0:0:0:0:
192,192,110972,1,0,0:0:0:0:
320,192,111284,1,8,0:0:0:0:
64,192,111597,1,0,0:0:0:0:
448,192,111909,1,8,0:0:0:0:
320,192,112222,1,0,0:0:0:0:
64,192,112534,1,8,0:0:0:0:
448,192,112847,1,0,0:0:0:0:
192,192,113159,1,8,0:0:0:0:
320,192,113472,1,0,0:0:0:0:
64,192,113784,1,8,0:0:0:0:
448,192,114097,1,0,0:0:0:0:
64,192,114253,128,0,114722:0:0:0:0:
320,192,114722,1,8,0:0:0:0:
448,192,114878,1,8,0:0:0:0:
320,192,115659,1,8,0:0:0:0:
192,192,115815,1,8,0:0:0:0:
448,192,116597,1,8,0:0:0:0:
320,192,116753,1,8,0:0:0:0:
64,192,116909,1,8,0:0:0:0:
192,192,117065,1,8,0:0:0:0:
448,192,117222,1,8,0:0:0:0:
320,192,117378,1,8,0:0:0:0:
448,192,118159,1,8,0:0:0:0:
64,192,118315,1,8,0:0:0:0:
448,192,119097,1,8,0:0:0:0:
64,192,119253,1,8,0:0:0:0:
320,192,119409,1,8,0:0:0:0:
192,192,119565,1,8,0:0:0:0:
448,192,119722,1,12,0:0:0:0:
64,192,119878,1,8,0:0:0:0:
192,192,120659,1,8,0:0:0:0:
448,192,120815,1,8,0:0:0:0:
192,192,121597,1,8,0:0:0:0:
448,192,121753,1,8,0:0:0:0:
64,192,121909,1,8,0:0:0:0:
320,192,122065,1,8,0:0:0:0:
192,192,122222,1,8,0:0:0:0:
448,192,122378,1,8,0:0:0:0:
64,192,123159,1,8,0:0:0:0:
448,192,123315,1,8,0:0:0:0:
64,192,124097,1,8,0:0:0:0:
192,192,124253,1,8,0:0:0:0:
320,192,124409,1,8,0:0:0:0:
448,192,124565,1,8,0:0:0:0:
64,192,124565,1,4,0:0:0:0:
192,192,125034,1,8,0:0:0:0:
448,192,125347,1,0,0:0:0:0:
192,192,125659,1,8,0:0:0:0:
320,192,125972,1,0,0:0:0:0:
448,192,126284,1,8,0:0:0:0:
64,192,126597,1,8,0:0:0:0:
192,192,126597,1,4,2:0:0:0:
448,192,126909,1,4,2:0:0:0:
320,192,126909,1,8,0:0:0:0:
192,192,127222,1,0,0:0:0:0:
64,192,127534,1,8,0:0:0:0:
448,192,127847,1,0,0:0:0:0:
64,192,128159,1,8,0:0:0:0:
320,192,128472,1,0,0:0:0:0:
64,192,128784,1,8,0:0:0:0:
448,192,129097,1,8,0:0:0:0:
320,192,129097,1,4,2:0:0:0:
192,192,129409,1,8,0:0:0:0:
64,192,129409,1,4,2:0:0:0:
448,192,129722,1,0,0:0:0:0:
320,192,130034,1,8,0:0:0:0:
64,192,130347,1,0,0:0:0:0:
192,192,130659,1,8,0:0:0:0:
448,192,130972,1,0,0:0:0:0:
320,192,131284,1,8,0:0:0:0:
192,192,131597,1,4,2:0:0:0:
64,192,131597,1,8,0:0:0:0:
448,192,131909,1,8,0:0:0:0:
320,192,131909,1,4,2:0:0:0:
64,192,132222,128,4,133472:0:0:0:0:
192,192,132222,1,0,0:0:0:0:
320,192,132534,1,8,0:0:0:0:
448,192,132847,1,0,0:0:0:0:
192,192,133159,1,8,0:0:0:0:
448,192,133472,128,4,133784:2:0:0:0:
192,192,133784,128,8,134097:0:0:0:0:
320,192,134097,128,4,134409:2:0:0:0:
64,192,134409,128,4,134722:2:0:0:0:
448,192,134722,128,8,135034:0:0:0:0:
192,192,134722,1,4,0:0:0:0:
320,192,135034,128,8,135347:0:0:0:0:
64,192,135347,128,8,135659:0:0:0:0:
448,192,135659,128,8,135972:0:0:0:0:
192,192,135972,128,8,136284:0:0:0:0:
320,192,136284,128,8,136597:0:0:0:0:
64,192,136597,128,8,136909:0:0:0:0:
448,192,136909,128,8,137222:0:0:0:0:
192,192,137222,128,8,137690:0:0:0:0:
64,192,137690,1,0,0:0:0:0:
448,192,137847,128,8,138784:0:0:0:0:
64,192,139097,128,8,139409:0:0:0:0:
192,192,139409,128,8,139722:0:0:0:0:
320,192,139722,128,8,140034:0:0:0:0:
448,192,139722,1,4,0:0:0:0:
64,192,140034,128,8,140347:0:0:0:0:
448,192,140347,128,8,140659:0:0:0:0:
192,192,140659,128,8,140972:0:0:0:0:
320,192,140972,128,8,141284:0:0:0:0:
64,192,141284,128,8,141597:0:0:0:0:
448,192,141597,128,8,141909:0:0:0:0:
192,192,141909,128,8,142222:0:0:0:0:
320,192,142222,128,8,142690:0:0:0:0:
448,192,142690,1,0,0:0:0:0:
64,192,142847,128,8,143784:0:0:0:0:
448,192,144097,128,8,144409:0:0:0:0:
192,192,144409,128,8,144722:0:0:0:0:
64,192,144722,1,4,0:0:0:0:
320,192,144722,128,8,145034:0:0:0:0:
448,192,145034,128,8,145347:0:0:0:0:
64,192,145347,128,8,145659:0:0:0:0:
192,192,145659,128,8,145972:0:0:0:0:
320,192,145972,128,8,146284:0:0:0:0:
448,192,146284,128,8,146597:0:0:0:0:
192,192,146597,128,8,146909:0:0:0:0:
320,192,146909,128,8,147222:0:0:0:0:
64,192,147222,128,8,147690:0:0:0:0:
192,192,147690,1,0,0:0:0:0:
448,192,147847,128,8,148784:0:0:0:0:
192,192,149097,128,8,149409:0:0:0:0:
320,192,149409,128,8,149722:0:0:0:0:
448,192,149722,1,4,0:0:0:0:
64,192,149722,128,8,150034:0:0:0:0:
192,192,150034,128,2,150347:0:0:0:0:
448,192,150347,128,2,150659:0:0:0:0:
320,192,150659,128,2,150972:0:0:0:0:
64,192,150972,128,4,151284:0:0:0:0:
192,192,150972,1,8,0:0:0:0:
448,192,151284,128,2,151597:0:0:0:0:
192,192,151597,128,8,151909:0:0:0:0:
320,192,151597,1,4,0:0:0:0:
64,192,151909,128,8,152222:0:0:0:0:
320,192,152222,128,4,152690:0:0:0:0:
448,192,152222,1,8,0:0:0:0:
192,192,152690,1,0,0:0:0:0:
64,192,152847,128,8,153784:0:0:0:0:
448,192,154097,128,0,154722:0:0:0:0:
64,192,154722,1,4,0:0:0:0:
320,192,155034,1,8,0:0:0:0:
192,192,155347,1,0,0:0:0:0:
448,192,155659,1,8,0:0:0:0:
320,192,155972,1,0,0:0:0:0:
64,192,156284,1,8,0:0:0:0:
448,192,156597,1,0,0:0:0:0:
192,192,156909,1,8,0:0:0:0:
320,192,157222,1,0,0:0:0:0:
448,192,157534,1,8,0:0:0:0:
64,192,157847,1,0,0:0:0:0:
192,192,158159,1,8,0:0:0:0:
320,192,158472,1,0,0:0:0:0:
448,192,158784,1,8,0:0:0:0:
64,192,159097,1,0,0:0:0:0:
320,192,159409,1,8,0:0:0:0:
64,192,159722,1,4,0:0:0:0:
448,192,159722,1,0,0:0:0:0:
192,192,160034,1,8,0:0:0:0:
320,192,160347,1,0,0:0:0:0:
64,192,160659,1,8,0:0:0:0:
448,192,160972,1,0,0:0:0:0:
192,192,161284,1,8,0:0:0:0:
320,192,161597,1,0,0:0:0:0:
192,192,161909,1,8,0:0:0:0:
448,192,162222,1,0,0:0:0:0:
64,192,162534,1,8,0:0:0:0:
192,192,162847,1,0,0:0:0:0:
448,192,163159,1,8,0:0:0:0:
320,192,163472,1,0,0:0:0:0:
64,192,163628,1,4,0:0:0:0:
448,192,164097,1,8,0:0:0:0:
192,192,164409,1,4,0:0:0:0:
448,192,164722,1,4,0:0:0:0:
64,192,164722,1,0,0:0:0:0:
320,192,165034,1,8,0:0:0:0:
192,192,165347,1,0,0:0:0:0:
320,192,165659,1,8,0:0:0:0:
64,192,165972,1,0,0:0:0:0:
320,192,166284,1,8,0:0:0:0:
448,192,166597,1,0,0:0:0:0:
192,192,166909,1,8,0:0:0:0:
320,192,167222,1,0,0:0:0:0:
64,192,167534,1,8,0:0:0:0:
192,192,167847,1,0,0:0:0:0:
448,192,168159,1,8,0:0:0:0:
320,192,168472,1,0,0:0:0:0:
64,192,168784,1,8,0:0:0:0:
320,192,169097,1,0,0:0:0:0:
192,192,169409,1,8,0:0:0:0:
448,192,169722,1,4,0:0:0:0:
64,192,169722,1,0,0:0:0:0:
320,192,170034,1,8,0:0:0:0:
192,192,170347,1,0,0:0:0:0:
448,192,170659,1,8,0:0:0:0:
64,192,170972,1,0,0:0:0:0:
192,192,171284,1,8,0:0:0:0:
320,192,171597,1,0,0:0:0:0:
192,192,171909,1,8,0:0:0:0:
64,192,172222,1,4,0:0:0:0:
448,192,172222,1,0,0:0:0:0:
320,192,172534,1,8,0:0:0:0:
64,192,172847,1,8,0:0:0:0:
192,192,173159,1,8,0:0:0:0:
448,192,173628,1,8,0:0:0:0:
64,192,173784,1,8,0:0:0:0:
448,192,173940,1,8,0:0:0:0:
64,192,174097,1,8,0:0:0:0:
320,192,174409,1,4,3:0:0:0:
448,192,174722,1,4,0:0:0:0:
64,192,174722,128,2,176597:0:0:0:0:
448,192,176597,1,8,0:0:0:0:
320,192,176805,1,8,0:0:0:0:
192,192,177013,1,8,0:0:0:0:
64,192,177222,1,4,0:0:0:0:
448,192,177222,128,2,179097:0:0:0:0:
64,192,179097,1,8,0:0:0:0:
192,192,179305,1,8,0:0:0:0:
320,192,179513,1,8,0:0:0:0:
448,192,179722,1,4,0:0:0:0:
64,192,179722,128,2,181597:0:0:0:0:
448,192,181597,1,8,0:0:0:0:
320,192,181805,1,8,0:0:0:0:
192,192,182013,1,8,0:0:0:0:
64,192,182222,1,4,0:0:0:0:
448,192,182222,128,2,184097:0:0:0:0:
64,192,184097,1,8,0:0:0:0:
192,192,184305,1,8,0:0:0:0:
320,192,184513,1,8,0:0:0:0:
448,192,184722,1,4,0:0:0:0:
64,192,184722,1,0,0:0:0:0:
192,192,185034,1,8,0:0:0:0:
448,192,185347,1,0,0:0:0:0:
192,192,185659,1,8,0:0:0:0:
64,192,185972,1,0,0:0:0:0:
320,192,186284,1,8,0:0:0:0:
448,192,186597,1,0,0:0:0:0:
64,192,186909,1,8,0:0:0:0:
192,192,187222,1,0,0:0:0:0:
448,192,187534,1,8,0:0:0:0:
64,192,187847,1,0,0:0:0:0:
192,192,188159,1,8,0:0:0:0:
448,192,188472,1,0,0:0:0:0:
320,192,188784,1,8,0:0:0:0:
64,192,189097,128,0,189722:0:0:0:0:
192,192,189409,128,8,189722:0:0:0:0:
448,192,189722,1,4,0:0:0:0:
320,192,190034,1,8,0:0:0:0:
192,192,190347,1,0,0:0:0:0:
64,192,190659,1,8,0:0:0:0:
448,192,190972,1,0,0:0:0:0:
192,192,191284,1,8,0:0:0:0:
320,192,191597,1,0,0:0:0:0:
448,192,191909,1,8,0:0:0:0:
64,192,192222,1,0,0:0:0:0:
320,192,192534,1,8,0:0:0:0:
448,192,192847,1,0,0:0:0:0:
192,192,193159,1,8,0:0:0:0:
64,192,193472,1,0,0:0:0:0:
320,192,193784,1,8,0:0:0:0:
64,192,194097,128,0,194722:0:0:0:0:
448,192,194409,128,8,194722:0:0:0:0:
320,192,194722,1,8,0:0:0:0:
192,192,194722,128,4,195034:0:0:0:0:
448,192,195347,128,4,195659:2:0:0:0:
192,192,195972,128,4,196284:2:0:0:0:
320,192,196597,128,4,196909:2:0:0:0:
448,192,197222,128,8,197534:0:0:0:0:
64,192,197847,128,4,198159:2:0:0:0:
320,192,198472,128,8,198784:0:0:0:0:
64,192,199097,128,8,199722:0:0:0:0:
320,192,199409,128,0,199722:0:0:0:0:
448,192,199722,1,4,2:0:0:0:
192,192,200034,1,4,2:0:0:0:
320,192,200347,1,8,0:0:0:0:
64,192,200659,1,8,0:0:0:0:
448,192,200972,1,4,2:0:0:0:
192,192,201284,1,4,2:0:0:0:
320,192,201597,1,4,2:0:0:0:
448,192,201909,1,8,0:0:0:0:
64,192,202222,1,8,0:0:0:0:
320,192,202534,1,8,0:0:0:0:
192,192,202847,1,8,0:0:0:0:
64,192,203159,1,4,2:0:0:0:
320,192,203472,1,4,2:0:0:0:
448,192,203784,1,0,0:0:0:0:
64,192,204097,1,4,0:0:0:0:
320,192,204253,1,8,0:0:0:0:
192,192,204409,1,8,0:0:0:0:
64,192,204565,128,4,205815:0:0:0:0:
448,192,204565,1,8,0:0:0:0:
192,192,205034,1,8,0:0:0:0:
448,192,205659,1,8,0:0:0:0:
192,192,205815,128,0,207065:0:0:0:0:
320,192,206284,1,8,0:0:0:0:
64,192,206909,1,8,0:0:0:0:
320,192,207065,128,0,208315:0:0:0:0:
448,192,207534,1,8,0:0:0:0:
192,192,208159,1,8,0:0:0:0:
448,192,208315,128,0,209565:0:0:0:0:
64,192,208784,1,8,0:0:0:0:
192,192,209409,1,8,0:0:0:0:
320,192,209565,128,4,210815:0:0:0:0:
64,192,210034,1,8,0:0:0:0:
448,192,210659,1,8,0:0:0:0:
192,192,210815,128,0,212065:0:0:0:0:
320,192,211284,1,8,0:0:0:0:
64,192,211909,1,8,0:0:0:0:
320,192,212065,128,0,213315:0:0:0:0:
192,192,212534,1,8,0:0:0:0:
448,192,213159,1,8,0:0:0:0:
64,192,213315,128,0,214565:0:0:0:0:
320,192,213784,1,8,0:0:0:0:
320,192,214253,128,8,214565:0:0:0:0:
192,192,214565,1,8,0:0:0:0:
448,192,214565,128,4,215034:0:0:0:0:
320,192,215034,1,8,0:0:0:0:
64,192,215347,1,0,0:0:0:0:
192,192,215659,1,8,0:0:0:0:
448,192,215972,1,0,0:0:0:0:
320,192,216284,1,8,0:0:0:0:
192,192,216597,1,0,0:0:0:0:
64,192,216909,1,8,0:0:0:0:
448,192,217222,1,0,0:0:0:0:
320,192,217534,1,8,0:0:0:0:
192,192,217847,1,0,0:0:0:0:
448,192,218159,1,8,0:0:0:0:
320,192,218472,1,0,0:0:0:0:
64,192,218784,1,8,0:0:0:0:
320,192,219097,1,0,0:0:0:0:
64,192,219409,1,8,0:0:0:0:
448,192,219565,128,4,220972:0:0:0:0:
192,192,219565,1,0,0:0:0:0:
64,192,220034,1,8,0:0:0:0:
320,192,220347,1,0,0:0:0:0:
192,192,220659,1,8,0:0:0:0:
64,192,220972,1,0,0:0:0:0:
320,192,221284,1,8,0:0:0:0:
448,192,221597,1,0,0:0:0:0:
192,192,221909,1,8,0:0:0:0:
64,192,222222,1,4,0:0:0:0:
448,192,222222,1,0,0:0:0:0:
320,192,222534,1,4,2:0:0:0:
64,192,222847,1,4,2:0:0:0:
192,192,223159,1,4,2:0:0:0:
448,192,223628,1,8,0:0:0:0:
64,192,223784,1,8,0:0:0:0:
448,192,223940,1,8,0:0:0:0:
64,192,224097,1,8,0:0:0:0:
320,192,224409,1,4,3:0:0:0:
192,192,224722,1,4,0:0:0:0:
448,192,224722,128,8,225034:0:0:0:0:
320,192,225034,128,8,225347:0:0:0:0:
64,192,225347,128,8,225659:0:0:0:0:
448,192,225659,128,8,225972:0:0:0:0:
192,192,225972,128,8,226284:0:0:0:0:
320,192,226284,128,8,226597:0:0:0:0:
64,192,226597,128,8,226909:0:0:0:0:
448,192,226909,128,8,227222:0:0:0:0:
192,192,227222,128,8,227690:0:0:0:0:
64,192,227690,1,0,0:0:0:0:
448,192,227847,128,8,228784:0:0:0:0:
64,192,229097,128,8,229409:0:0:0:0:
192,192,229409,128,8,229722:0:0:0:0:
320,192,229722,128,4,230034:0:0:0:0:
448,192,229722,1,8,0:0:0:0:
64,192,230034,128,8,230347:0:0:0:0:
448,192,230347,128,8,230659:0:0:0:0:
192,192,230659,128,8,230972:0:0:0:0:
320,192,230972,128,8,231284:0:0:0:0:
64,192,231284,128,8,231597:0:0:0:0:
448,192,231597,128,8,231909:0:0:0:0:
192,192,231909,128,8,232222:0:0:0:0:
320,192,232222,128,8,232690:0:0:0:0:
448,192,232690,1,0,0:0:0:0:
64,192,232847,128,8,233784:0:0:0:0:
448,192,234097,128,8,234409:0:0:0:0:
192,192,234409,128,8,234722:0:0:0:0:
320,192,234722,128,4,235034:0:0:0:0:
64,192,234722,1,8,0:0:0:0:
448,192,235034,128,8,235347:0:0:0:0:
64,192,235347,128,8,235659:0:0:0:0:
192,192,235659,128,8,235972:0:0:0:0:
320,192,235972,128,8,236284:0:0:0:0:
448,192,236284,128,8,236597:0:0:0:0:
192,192,236597,128,8,236909:0:0:0:0:
320,192,236909,128,8,237222:0:0:0:0:
64,192,237222,128,8,237690:0:0:0:0:
192,192,237690,1,0,0:0:0:0:
448,192,237847,128,8,238784:0:0:0:0:
192,192,239097,128,8,239409:0:0:0:0:
320,192,239409,128,8,239722:0:0:0:0:
64,192,239722,128,4,240034:0:0:0:0:
448,192,239722,1,8,0:0:0:0:
192,192,240034,128,2,240347:0:0:0:0:
448,192,240347,128,2,240659:0:0:0:0:
320,192,240659,128,2,240972:0:0:0:0:
64,192,240972,128,4,241284:0:0:0:0:
192,192,240972,1,0,0:0:0:0:
448,192,241284,128,2,241597:0:0:0:0:
320,192,241597,1,4,0:0:0:0:
192,192,241597,128,8,241909:0:0:0:0:
64,192,241909,128,8,242222:0:0:0:0:
320,192,242222,128,4,242690:0:0:0:0:
448,192,242222,1,8,0:0:0:0:
192,192,242690,1,0,0:0:0:0:
64,192,242847,128,8,243784:0:0:0:0:
448,192,244722,128,0,245972:2:0:0:0:
320,192,245347,128,4,245972:0:0:0:0:
192,192,245972,1,4,0:0:0:0:
66,192,246284,1,8,0:0:0:0:
450,192,246597,1,0,0:0:0:0:
194,192,246909,1,8,0:0:0:0:
322,192,247222,1,0,0:0:0:0:
450,192,247534,1,8,0:0:0:0:
66,192,247847,1,0,0:0:0:0:
194,192,248159,1,8,0:0:0:0:
322,192,248472,1,0,0:0:0:0:
450,192,248784,1,8,0:0:0:0:
66,192,249097,1,0,0:0:0:0:
322,192,249409,1,8,0:0:0:0:
450,192,249722,1,4,0:0:0:0:
66,192,249722,1,0,0:0:0:0:
194,192,250034,1,8,0:0:0:0:
322,192,250347,1,0,0:0:0:0:
66,192,250659,1,8,0:0:0:0:
450,192,250972,1,0,0:0:0:0:
194,192,251284,1,8,0:0:0:0:
322,192,251597,1,0,0:0:0:0:
194,192,251909,1,8,0:0:0:0:
450,192,252222,1,0,0:0:0:0:
66,192,252534,1,8,0:0:0:0:
194,192,252847,1,0,0:0:0:0:
450,192,253159,1,8,0:0:0:0:
322,192,253472,1,8,0:0:0:0:
192,192,253784,1,8,0:0:0:0:
320,192,254097,1,8,0:0:0:0:
194,192,254409,1,8,0:0:0:0:
450,192,254722,1,4,0:0:0:0:
66,192,254722,1,0,0:0:0:0:
322,192,255034,1,8,0:0:0:0:
194,192,255347,1,0,0:0:0:0:
322,192,255659,1,8,0:0:0:0:
66,192,255972,1,0,0:0:0:0:
322,192,256284,1,8,0:0:0:0:
450,192,256597,1,0,0:0:0:0:
194,192,256909,1,8,0:0:0:0:
322,192,257222,1,0,0:0:0:0:
66,192,257534,1,8,0:0:0:0:
194,192,257847,1,0,0:0:0:0:
450,192,258159,1,8,0:0:0:0:
322,192,258472,1,0,0:0:0:0:
66,192,258784,1,8,0:0:0:0:
322,192,259097,1,0,0:0:0:0:
194,192,259409,1,8,0:0:0:0:
66,192,259722,1,4,0:0:0:0:
450,192,259722,1,0,0:0:0:0:
322,192,260034,1,8,0:0:0:0:
194,192,260347,1,0,0:0:0:0:
450,192,260659,1,8,0:0:0:0:
66,192,260972,1,0,0:0:0:0:
194,192,261284,1,8,0:0:0:0:
322,192,261597,1,0,0:0:0:0:
194,192,261909,1,8,0:0:0:0:
66,192,262222,1,4,2:0:0:0:
450,192,262222,1,0,0:0:0:0:
322,192,262534,1,4,2:0:0:0:
66,192,262847,1,8,0:0:0:0:
194,192,263159,1,4,2:0:0:0:
450,192,263628,1,8,0:0:0:0:
66,192,263784,1,8,0:0:0:0:
450,192,263940,1,8,0:0:0:0:
66,192,264097,1,8,0:0:0:0:
322,192,264409,1,4,2:0:0:0:
64,192,264722,1,4,0:0:0:0:
448,192,264722,1,0,0:0:0:0:
192,192,265034,1,4,2:0:0:0:
320,192,265347,1,4,2:0:0:0:
64,192,265659,1,4,2:0:0:0:
448,192,266128,1,8,0:0:0:0:
320,192,266284,1,8,0:0:0:0:
64,192,266440,1,8,0:0:0:0:
192,192,266597,1,8,0:0:0:0:
448,192,266909,1,8,0:0:0:0:
64,192,267222,128,4,268159:0:0:0:0:
320,192,267222,1,0,0:0:0:0:
192,192,268472,1,8,0:0:0:0:
448,192,268472,128,4,269722:0:0:0:0:
64,192,269097,128,0,269409:0:0:0:0:
64,192,269722,128,4,272222:0:0:0:0:
320,192,269722,1,0,0:0:0:0:
192,192,270034,1,8,0:0:0:0:
320,192,270347,1,0,0:0:0:0:
448,192,270659,1,8,0:0:0:0:
320,192,270972,1,0,0:0:0:0:
192,192,271284,1,8,0:0:0:0:
448,192,271597,1,0,0:0:0:0:
320,192,271909,1,8,0:0:0:0:
192,192,272222,1,0,0:0:0:0:
448,192,272534,1,8,0:0:0:0:
320,192,272847,1,0,0:0:0:0:
64,192,273159,1,8,0:0:0:0:
192,192,273472,1,0,0:0:0:0:
320,192,273784,1,8,0:0:0:0:
192,192,274097,1,0,0:0:0:0:
320,192,274409,1,8,0:0:0:0:
448,192,274722,1,4,0:0:0:0:
64,192,274722,1,0,0:0:0:0:
192,192,275034,1,8,0:0:0:0:
320,192,275347,1,0,0:0:0:0:
64,192,275659,1,8,0:0:0:0:
448,192,275972,1,0,0:0:0:0:
192,192,276284,1,8,0:0:0:0:
320,192,276597,1,0,0:0:0:0:
448,192,276909,1,8,0:0:0:0:
192,192,277222,1,0,0:0:0:0:
64,192,277534,1,8,0:0:0:0:
320,192,277847,1,0,0:0:0:0:
192,192,278159,1,8,0:0:0:0:
64,192,278472,1,0,0:0:0:0:
448,192,278628,1,8,0:0:0:0:
192,192,279097,1,8,0:0:0:0:
64,192,279409,1,8,0:0:0:0:
320,192,279722,1,4,0:0:0:0:
448,192,279722,128,0,280347:0:0:0:0:
64,192,280347,1,0,0:0:0:0:
192,192,280581,1,0,0:0:0:0:
320,192,280815,1,0,0:0:0:0:
64,192,280972,128,0,281597:0:0:0:0:
448,192,281597,1,0,0:0:0:0:
320,192,281831,1,0,0:0:0:0:
192,192,282065,1,0,0:0:0:0:
448,192,282222,128,0,282847:0:0:0:0:
64,192,282847,1,0,0:0:0:0:
192,192,283081,1,0,0:0:0:0:
320,192,283315,1,0,0:0:0:0:
64,192,283472,128,0,283940:0:0:0:0:
192,192,283940,1,0,0:0:0:0:
448,192,284097,128,0,284722:0:0:0:0:
64,192,284722,1,4,0:0:0:0:
320,192,285034,1,8,0:0:0:0:
192,192,285347,1,0,0:0:0:0:
64,192,285659,1,8,0:0:0:0:
320,192,285972,1,0,0:0:0:0:
448,192,286284,1,8,0:0:0:0:
64,192,286597,1,0,0:0:0:0:
192,192,286909,1,8,0:0:0:0:
448,192,287222,1,4,0:0:0:0:
64,192,287222,1,0,0:0:0:0:
320,192,287534,1,0,0:0:0:0:
448,192,287847,1,8,0:0:0:0:
192,192,288159,1,8,0:0:0:0:
320,192,288628,128,0,295972:0:0:0:0:
