osu file format v14

[General]
AudioFilename: audio.mp3
AudioLeadIn: 0
PreviewTime: 75271
Countdown: 0
SampleSet: None
StackLeniency: 1
Mode: 1
LetterboxInBreaks: 0
WidescreenStoryboard: 0

[Editor]
DistanceSpacing: 1.3
BeatDivisor: 4
GridSize: 32
TimelineZoom: 2.599998

[Metadata]
Title:Lost One no Goukoku
TitleUnicode:ロストワンの号哭
Artist:Neru
ArtistUnicode:Neru
Creator:Axer
Version:Formula
Source:
Tags:vocaloid kagamine rin the lost one's weeping
BeatmapID:2275589
BeatmapSetID:1088289

[Difficulty]
HPDrainRate:5
CircleSize:2
OverallDifficulty:6
ApproachRate:10
SliderMultiplier:1.4
SliderTickRate:1

[Events]
//Background and Video events
0,0,"34023503.jpg",0,75
//Break Periods
2,120286,122229
//Storyboard Layer 0 (Background)
//Storyboard Layer 1 (Fail)
//Storyboard Layer 2 (Pass)
//Storyboard Layer 3 (Foreground)
//Storyboard Layer 4 (Overlay)
//Storyboard Sound Samples

[TimingPoints]
1568,370.37037037037,4,1,1,85,1,0
1568,-125,4,1,1,85,0,0
4530,-100,4,1,1,85,0,0
74160,-100,4,1,1,85,0,0
74345,-98.1688563230069,4,1,1,85,0,0
74438,-97.2782517930814,4,1,1,85,0,0
74530,-96.4035684744906,4,1,1,85,0,0
74623,-95.5445658072751,4,1,1,85,0,0
74716,-94.7006465213138,4,1,1,85,0,0
74808,-93.8715930478698,4,1,1,85,0,0
74901,-93.0569294377221,4,1,1,85,0,0
74993,-92.2561991553022,4,1,1,85,0,0
75086,-91.4692151209589,4,1,1,85,0,0
75179,-90.6954618711743,4,1,1,85,0,0
75271,-89.9347703110934,4,1,1,85,0,0
75364,-89.1866533956926,4,1,1,85,0,0
75456,-88.4509583661339,4,1,1,85,0,0
75549,-87.7273014380259,4,1,1,85,0,0
75642,-86.9565217391304,4,1,1,100,0,1
99345,-100,4,1,1,85,0,0
109716,-100,4,1,1,85,0,0
109901,-102.564102564103,4,1,1,85,0,0
109993,-103.896103896104,4,1,1,85,0,0
110086,-105.263157894737,4,1,1,85,0,0
110179,-106.666666666667,4,1,1,85,0,0
110271,-108.108108108108,4,1,1,85,0,0
110456,-111.111111111111,4,1,1,85,0,0
110549,-112.676056338028,4,1,1,85,0,0
110642,-114.285714285714,4,1,1,85,0,0
110734,-115.942028985507,4,1,1,85,0,0
110827,-117.647058823529,4,1,1,85,0,0
110919,-119.402985074627,4,1,1,85,0,0
111012,-121.212121212121,4,1,1,85,0,0
111105,-123.076923076923,4,1,1,85,0,0
111197,-125,4,1,1,85,0,0
122679,-100,4,1,1,85,0,0
133419,-100,4,1,1,85,0,0
133605,-98.1688563230069,4,1,1,85,0,0
133697,-97.2782517930814,4,1,1,85,0,0
133790,-96.4035684744906,4,1,1,85,0,0
133882,-95.5445658072751,4,1,1,85,0,0
133975,-94.7006465213138,4,1,1,85,0,0
134067,-93.8715930478698,4,1,1,85,0,0
134160,-93.0569294377221,4,1,1,85,0,0
134253,-92.2561991553022,4,1,1,85,0,0
134345,-91.4692151209589,4,1,1,85,0,0
134438,-90.6954618711743,4,1,1,85,0,0
134530,-89.9347703110934,4,1,1,85,0,0
134623,-89.1866533956926,4,1,1,85,0,0
134716,-88.4509583661339,4,1,1,85,0,0
134808,-87.7273014380259,4,1,1,85,0,0
134901,-87.0153138250801,4,1,1,100,0,1
157123,-86.9565217391304,4,1,1,100,0,0
157493,-90.9090909090909,4,1,1,100,0,0
157864,-95.2380952380952,4,1,1,100,0,0
158234,-100,4,1,1,100,0,0
158419,-86.9565217391304,4,1,1,100,0,0
158512,-85.1788756388416,4,1,1,100,0,0
158605,-83.4724540901503,4,1,1,100,0,0
163790,-83.3333333333333,4,1,1,100,0,0
164067,-88.8888888888889,4,1,1,100,0,0
164345,-95.2380952380952,4,1,1,100,0,0
164530,-100,4,1,1,85,0,0
167493,-100,4,1,1,85,0,0
167771,-98.1642307212813,4,1,1,85,0,0
168049,-96.3945544788284,4,1,1,85,0,0
168234,-95.2498880813815,4,1,1,85,0,0
168605,-93.0401328613097,4,1,1,85,0,0
168790,-91.9732210769512,4,1,1,85,0,0
168975,-90.9305835924855,4,1,1,85,0,0
169160,-89.9112396242429,4,1,1,85,0,0
169345,-88.9145753217596,4,1,1,85,0,0
169530,-87.9396874447629,4,1,1,85,0,0
169716,-86.9860213463696,4,1,1,85,0,0
169901,-86.0527434475138,4,1,1,85,0,0
170086,-85.1393518341145,4,1,1,85,0,0
170271,-84.2450756647147,4,1,1,85,0,0
170364,-83.8049456650635,4,1,1,85,0,0
170456,-83.3693905947656,4,1,1,100,0,1
182308,-90.9090909090909,4,1,1,100,0,0
183790,-100,4,1,1,85,0,0
206012,-100,4,1,1,85,0,0
206197,-102.564102564103,4,1,1,85,0,0
206290,-103.896103896104,4,1,1,85,0,0
206382,-105.263157894737,4,1,1,85,0,0
206475,-106.666666666667,4,1,1,85,0,0
206567,-108.108108108108,4,1,1,85,0,0
206660,-109.58904109589,4,1,1,85,0,0
206753,-111.111111111111,4,1,1,85,0,0
206938,-114.285714285714,4,1,1,85,0,0
207030,-115.942028985507,4,1,1,85,0,0
207123,-117.647058823529,4,1,1,85,0,0
207216,-119.402985074627,4,1,1,85,0,0
207308,-121.212121212121,4,1,1,85,0,0
207401,-123.076923076923,4,1,1,85,0,0
207493,-125,4,1,1,85,0,0
210086,-111.111111111111,4,1,1,85,0,0
210456,-107.702100298658,4,1,1,85,0,0
210642,-106.074910101514,4,1,1,85,0,0
210827,-104.496156108898,4,1,1,85,0,0
210919,-103.724218049051,4,1,1,85,0,0
211012,-102.963601337291,4,1,1,85,0,0
211105,-102.21416320331,4,1,1,85,0,0
211197,-101.475453087898,4,1,1,85,0,0
211382,-100.029708823521,4,1,1,85,0,0
211567,-98.6244843172276,4,1,1,85,0,0
211660,-97.9366702315615,4,1,1,85,0,0
211753,-97.2582888376662,4,1,1,85,0,0
211845,-96.5892407312965,4,1,1,85,0,0
211938,-95.9294266394099,4,1,1,85,0,0
212123,-94.6362985093837,4,1,1,85,0,0
212308,-93.3776565943301,4,1,1,85,0,0
212401,-92.7607644229075,4,1,1,85,0,0
212493,-92.1520545761328,4,1,1,85,0,0
212586,-91.5511977185442,4,1,1,85,0,0
212679,-90.958125607714,4,1,1,85,0,0

[HitObjects]
259,191,1568,5,0,0:0:0:0:
259,191,1753,1,0,0:0:0:0:
259,191,1938,1,8,0:0:0:0:
259,191,2030,1,8,0:0:0:0:
259,191,2123,1,8,0:0:0:0:
259,191,2216,1,8,0:0:0:0:
259,191,2308,1,0,0:0:0:0:
259,191,2493,1,0,0:0:0:0:
259,191,2679,1,8,0:0:0:0:
259,191,2771,1,8,0:0:0:0:
259,191,2864,1,8,0:0:0:0:
259,191,2956,1,8,0:0:0:0:
259,191,3049,1,0,0:0:0:0:
259,191,3234,1,0,0:0:0:0:
259,191,3419,1,8,0:0:0:0:
259,191,3512,1,8,0:0:0:0:
259,191,3605,1,8,0:0:0:0:
259,191,3697,1,8,0:0:0:0:
259,191,3790,1,0,0:0:0:0:
259,191,4160,1,0,0:0:0:0:
259,191,4530,1,4,0:0:0:0:
259,191,4716,1,8,0:0:0:0:
259,191,4901,1,0,0:0:0:0:
259,191,4993,1,8,0:0:0:0:
259,191,5086,1,0,0:0:0:0:
259,191,5271,1,8,0:0:0:0:
259,191,5456,1,0,0:0:0:0:
259,191,5642,1,8,0:0:0:0:
259,191,5734,1,8,0:0:0:0:
259,191,5827,1,0,0:0:0:0:
259,191,6012,1,8,0:0:0:0:
259,191,6197,1,8,0:0:0:0:
259,191,6382,1,0,0:0:0:0:
259,191,6475,1,8,0:0:0:0:
259,191,6567,1,0,0:0:0:0:
259,191,6753,1,8,0:0:0:0:
259,191,6938,1,0,0:0:0:0:
259,191,7123,1,8,0:0:0:0:
259,191,7216,1,8,0:0:0:0:
259,191,7308,1,0,0:0:0:0:
259,191,7493,1,0,0:0:0:0:
259,191,7679,1,8,0:0:0:0:
259,191,7864,1,0,0:0:0:0:
259,191,7956,1,8,0:0:0:0:
259,191,8049,1,0,0:0:0:0:
259,191,8234,1,8,0:0:0:0:
259,191,8419,1,0,0:0:0:0:
259,191,8605,1,8,0:0:0:0:
259,191,8697,1,8,0:0:0:0:
259,191,8790,1,0,0:0:0:0:
259,191,8975,1,8,0:0:0:0:
259,191,9160,1,8,0:0:0:0:
259,191,9345,1,0,0:0:0:0:
259,191,9438,1,8,0:0:0:0:
259,191,9530,1,0,0:0:0:0:
259,191,9716,1,8,0:0:0:0:
259,191,9901,1,0,0:0:0:0:
259,191,10086,1,8,0:0:0:0:
259,191,10179,1,8,0:0:0:0:
259,191,10271,1,8,0:0:0:0:
259,191,10364,1,8,0:0:0:0:
259,191,10456,1,4,0:0:0:0:
259,191,10642,1,8,0:0:0:0:
259,191,10827,1,0,0:0:0:0:
259,191,10919,1,8,0:0:0:0:
259,191,11012,1,0,0:0:0:0:
259,191,11197,1,8,0:0:0:0:
259,191,11382,1,0,0:0:0:0:
259,191,11567,1,8,0:0:0:0:
259,191,11660,1,8,0:0:0:0:
259,191,11753,1,0,0:0:0:0:
259,191,11938,1,8,0:0:0:0:
259,191,12123,1,8,0:0:0:0:
259,191,12308,1,0,0:0:0:0:
259,191,12401,1,8,0:0:0:0:
259,191,12493,1,0,0:0:0:0:
259,191,12679,1,8,0:0:0:0:
259,191,12864,1,0,0:0:0:0:
259,191,13049,1,8,0:0:0:0:
259,191,13142,1,8,0:0:0:0:
259,191,13234,1,0,0:0:0:0:
259,191,13419,1,0,0:0:0:0:
259,191,13605,1,8,0:0:0:0:
259,191,13790,1,0,0:0:0:0:
259,191,13882,1,8,0:0:0:0:
259,191,13975,1,0,0:0:0:0:
259,191,14160,1,8,0:0:0:0:
259,191,14345,1,0,0:0:0:0:
259,191,14530,1,8,0:0:0:0:
259,191,14623,1,8,0:0:0:0:
259,191,14716,1,0,0:0:0:0:
259,191,14901,1,8,0:0:0:0:
259,191,15086,1,0,0:0:0:0:
259,191,15271,1,0,0:0:0:0:
259,191,15364,1,8,0:0:0:0:
259,191,15456,1,0,0:0:0:0:
259,191,15642,1,8,0:0:0:0:
259,191,15827,1,0,0:0:0:0:
259,191,16012,1,8,0:0:0:0:
259,191,16197,1,8,0:0:0:0:
259,191,16382,1,4,0:0:0:0:
259,191,16567,1,8,0:0:0:0:
259,191,16753,1,0,0:0:0:0:
259,191,16845,1,8,0:0:0:0:
259,191,16938,1,0,0:0:0:0:
259,191,17030,1,0,0:0:0:0:
259,191,17123,1,8,0:0:0:0:
259,191,17308,1,0,0:0:0:0:
259,191,17493,1,8,0:0:0:0:
259,191,17586,1,8,0:0:0:0:
259,191,17679,1,0,0:0:0:0:
259,191,17771,1,0,0:0:0:0:
259,191,17864,1,8,0:0:0:0:
259,191,18049,1,8,0:0:0:0:
259,191,18234,1,0,0:0:0:0:
259,191,18327,1,8,0:0:0:0:
259,191,18419,1,0,0:0:0:0:
259,191,18512,1,0,0:0:0:0:
259,191,18605,1,8,0:0:0:0:
259,191,18790,1,0,0:0:0:0:
259,191,18975,1,8,0:0:0:0:
259,191,19067,1,0,0:0:0:0:
259,191,19160,1,8,0:0:0:0:
259,191,19253,1,8,0:0:0:0:
259,191,19345,1,0,0:0:0:0:
259,191,19530,1,8,0:0:0:0:
259,191,19716,1,0,0:0:0:0:
259,191,19808,1,8,0:0:0:0:
259,191,19901,1,0,0:0:0:0:
259,191,19993,1,0,0:0:0:0:
259,191,20086,1,8,0:0:0:0:
259,191,20271,1,0,0:0:0:0:
259,191,20456,1,8,0:0:0:0:
259,191,20549,1,8,0:0:0:0:
259,191,20642,1,0,0:0:0:0:
259,191,20734,1,0,0:0:0:0:
259,191,20827,1,8,0:0:0:0:
259,191,21012,1,8,0:0:0:0:
259,191,21197,1,0,0:0:0:0:
259,191,21290,1,8,0:0:0:0:
259,191,21382,1,0,0:0:0:0:
259,191,21475,1,0,0:0:0:0:
259,191,21567,1,8,0:0:0:0:
259,191,21753,1,0,0:0:0:0:
259,191,21938,1,8,0:0:0:0:
259,191,22030,1,0,0:0:0:0:
259,191,22123,1,8,0:0:0:0:
259,191,22216,1,8,0:0:0:0:
259,191,22308,1,4,0:0:0:0:
259,191,22493,1,8,0:0:0:0:
259,191,22679,1,0,0:0:0:0:
259,191,22771,1,8,0:0:0:0:
259,191,22864,1,0,0:0:0:0:
259,191,22956,1,0,0:0:0:0:
259,191,23049,1,8,0:0:0:0:
259,191,23234,1,0,0:0:0:0:
259,191,23419,1,8,0:0:0:0:
259,191,23512,1,8,0:0:0:0:
259,191,23605,1,0,0:0:0:0:
259,191,23697,1,0,0:0:0:0:
259,191,23790,1,8,0:0:0:0:
259,191,23975,1,8,0:0:0:0:
259,191,24160,1,0,0:0:0:0:
259,191,24253,1,8,0:0:0:0:
259,191,24345,1,0,0:0:0:0:
259,191,24438,1,0,0:0:0:0:
259,191,24530,1,8,0:0:0:0:
259,191,24716,1,0,0:0:0:0:
259,191,24901,1,8,0:0:0:0:
259,191,24993,1,0,0:0:0:0:
259,191,25086,1,8,0:0:0:0:
259,191,25179,1,8,0:0:0:0:
259,191,25271,1,0,0:0:0:0:
259,191,25456,1,8,0:0:0:0:
259,191,25642,1,0,0:0:0:0:
259,191,25734,1,8,0:0:0:0:
259,191,25827,1,0,0:0:0:0:
259,191,25919,1,0,0:0:0:0:
259,191,26012,1,8,0:0:0:0:
259,191,26197,1,0,0:0:0:0:
259,191,26382,1,8,0:0:0:0:
259,191,26475,1,8,0:0:0:0:
259,191,26567,1,0,0:0:0:0:
259,191,26660,1,0,0:0:0:0:
259,191,26753,1,8,0:0:0:0:
259,191,26938,1,0,0:0:0:0:
259,191,27030,1,0,0:0:0:0:
259,191,27123,1,8,0:0:0:0:
259,191,27216,1,8,0:0:0:0:
259,191,27308,1,0,0:0:0:0:
259,191,27401,1,0,0:0:0:0:
259,191,27493,1,8,0:0:0:0:
259,191,27679,1,0,0:0:0:0:
259,191,27771,1,0,0:0:0:0:
259,191,27864,1,8,0:0:0:0:
259,191,27956,1,0,0:0:0:0:
259,191,28049,1,8,0:0:0:0:
259,191,28142,1,8,0:0:0:0:
259,191,28234,1,4,0:0:0:0:
259,191,28605,1,8,0:0:0:0:
259,191,28790,1,8,0:0:0:0:
259,191,28882,1,8,0:0:0:0:
259,191,28975,1,0,0:0:0:0:
259,191,29160,1,0,0:0:0:0:
259,191,29345,1,8,0:0:0:0:
259,191,29716,1,0,0:0:0:0:
259,191,29901,1,0,0:0:0:0:
259,191,29993,1,0,0:0:0:0:
259,191,30086,1,8,0:0:0:0:
259,191,30456,1,0,0:0:0:0:
259,191,30642,1,8,0:0:0:0:
259,191,30734,1,0,0:0:0:0:
259,191,30827,1,8,0:0:0:0:
259,191,30919,1,8,0:0:0:0:
259,191,31012,1,0,0:0:0:0:
259,191,31197,1,0,0:0:0:0:
259,191,31567,1,8,0:0:0:0:
259,191,31753,1,8,0:0:0:0:
259,191,31845,1,8,0:0:0:0:
259,191,31938,1,0,0:0:0:0:
259,191,32123,1,0,0:0:0:0:
259,191,32308,1,8,0:0:0:0:
259,191,32679,1,0,0:0:0:0:
259,191,32864,1,0,0:0:0:0:
259,191,32956,1,0,0:0:0:0:
259,191,33049,1,8,0:0:0:0:
259,191,33234,1,0,0:0:0:0:
259,191,33419,1,0,0:0:0:0:
259,191,33790,1,8,0:0:0:0:
259,191,33882,1,0,0:0:0:0:
259,191,33975,1,8,0:0:0:0:
259,191,34067,1,8,0:0:0:0:
259,191,34160,1,4,0:0:0:0:
259,191,34530,1,8,0:0:0:0:
259,191,34716,1,8,0:0:0:0:
259,191,34808,1,8,0:0:0:0:
259,191,34901,1,0,0:0:0:0:
259,191,35086,1,0,0:0:0:0:
259,191,35271,1,8,0:0:0:0:
259,191,35642,1,0,0:0:0:0:
259,191,35827,1,0,0:0:0:0:
259,191,35919,1,0,0:0:0:0:
259,191,36012,1,8,0:0:0:0:
259,191,36382,1,0,0:0:0:0:
259,191,36567,1,0,0:0:0:0:
259,191,36660,1,0,0:0:0:0:
259,191,36753,1,8,0:0:0:0:
259,191,36845,1,8,0:0:0:0:
259,191,36938,1,0,0:0:0:0:
259,191,37123,1,0,0:0:0:0:
259,191,37493,1,8,0:0:0:0:
259,191,37679,1,8,0:0:0:0:
259,191,37771,1,8,0:0:0:0:
259,191,37864,1,0,0:0:0:0:
259,191,38049,1,0,0:0:0:0:
259,191,38234,1,8,0:0:0:0:
259,191,38605,1,0,0:0:0:0:
259,191,38790,1,8,0:0:0:0:
259,191,38882,1,8,0:0:0:0:
259,191,38975,1,0,0:0:0:0:
259,191,39067,1,0,0:0:0:0:
259,191,39160,1,8,0:0:0:0:
259,191,39345,1,0,0:0:0:0:
259,191,39530,1,8,0:0:0:0:
259,191,39716,1,0,0:0:0:0:
259,191,39808,1,0,0:0:0:0:
259,191,39901,1,8,0:0:0:0:
259,191,39993,1,8,0:0:0:0:
259,191,40086,1,4,0:0:0:0:
259,191,40271,1,8,0:0:0:0:
259,191,40456,1,0,0:0:0:0:
259,191,40549,1,8,0:0:0:0:
259,191,40642,1,0,0:0:0:0:
259,191,40734,1,0,0:0:0:0:
259,191,40827,1,8,0:0:0:0:
259,191,41012,1,0,0:0:0:0:
259,191,41197,1,8,0:0:0:0:
259,191,41290,1,8,0:0:0:0:
259,191,41382,1,0,0:0:0:0:
259,191,41475,1,0,0:0:0:0:
259,191,41567,1,8,0:0:0:0:
259,191,41753,1,8,0:0:0:0:
259,191,41938,1,0,0:0:0:0:
259,191,42030,1,8,0:0:0:0:
259,191,42123,1,0,0:0:0:0:
259,191,42216,1,0,0:0:0:0:
259,191,42308,1,8,0:0:0:0:
259,191,42493,1,0,0:0:0:0:
259,191,42679,1,8,0:0:0:0:
259,191,42771,1,0,0:0:0:0:
259,191,42864,1,8,0:0:0:0:
259,191,42956,1,8,0:0:0:0:
259,191,43049,1,0,0:0:0:0:
259,191,43234,1,8,0:0:0:0:
259,191,43419,1,0,0:0:0:0:
259,191,43512,1,8,0:0:0:0:
259,191,43605,1,0,0:0:0:0:
259,191,43697,1,0,0:0:0:0:
259,191,43790,1,8,0:0:0:0:
259,191,43975,1,0,0:0:0:0:
259,191,44160,1,8,0:0:0:0:
259,191,44253,1,8,0:0:0:0:
259,191,44345,1,0,0:0:0:0:
259,191,44438,1,0,0:0:0:0:
259,191,44530,1,8,0:0:0:0:
259,191,44716,1,8,0:0:0:0:
259,191,44901,1,0,0:0:0:0:
259,191,44993,1,8,0:0:0:0:
259,191,45086,1,0,0:0:0:0:
259,191,45179,1,0,0:0:0:0:
259,191,45271,1,8,0:0:0:0:
259,191,45456,1,0,0:0:0:0:
259,191,45642,1,8,0:0:0:0:
259,191,45734,1,0,0:0:0:0:
259,191,45827,1,8,0:0:0:0:
259,191,45919,1,8,0:0:0:0:
259,191,46012,1,4,0:0:0:0:
259,191,46197,1,8,0:0:0:0:
259,191,46382,1,0,0:0:0:0:
259,191,46475,1,8,0:0:0:0:
259,191,46567,1,0,0:0:0:0:
259,191,46660,1,0,0:0:0:0:
259,191,46753,1,8,0:0:0:0:
259,191,46938,1,0,0:0:0:0:
259,191,47123,1,8,0:0:0:0:
259,191,47216,1,8,0:0:0:0:
259,191,47308,1,0,0:0:0:0:
259,191,47401,1,0,0:0:0:0:
259,191,47493,1,8,0:0:0:0:
259,191,47679,1,8,0:0:0:0:
259,191,47864,1,0,0:0:0:0:
259,191,47956,1,8,0:0:0:0:
259,191,48049,1,0,0:0:0:0:
259,191,48142,1,0,0:0:0:0:
259,191,48234,1,8,0:0:0:0:
259,191,48419,1,0,0:0:0:0:
259,191,48605,1,8,0:0:0:0:
259,191,48697,1,0,0:0:0:0:
259,191,48790,1,8,0:0:0:0:
259,191,48882,1,8,0:0:0:0:
259,191,48975,1,0,0:0:0:0:
259,191,49160,1,8,0:0:0:0:
259,191,49345,1,0,0:0:0:0:
259,191,49438,1,8,0:0:0:0:
259,191,49530,1,0,0:0:0:0:
259,191,49623,1,0,0:0:0:0:
259,191,49716,1,8,0:0:0:0:
259,191,49901,1,0,0:0:0:0:
259,191,50086,1,8,0:0:0:0:
259,191,50179,1,8,0:0:0:0:
259,191,50271,1,0,0:0:0:0:
259,191,50364,1,0,0:0:0:0:
259,191,50456,1,8,0:0:0:0:
259,191,50642,1,8,0:0:0:0:
259,191,50827,1,0,0:0:0:0:
259,191,50919,1,8,0:0:0:0:
259,191,51012,1,0,0:0:0:0:
259,191,51105,1,0,0:0:0:0:
259,191,51197,1,8,0:0:0:0:
259,191,51382,1,0,0:0:0:0:
259,191,51567,1,8,0:0:0:0:
259,191,51753,1,8,0:0:0:0:
259,191,51938,1,4,0:0:0:0:
259,191,52308,1,8,0:0:0:0:
259,191,52493,1,8,0:0:0:0:
259,191,52586,1,8,0:0:0:0:
259,191,52679,1,0,0:0:0:0:
259,191,52864,1,0,0:0:0:0:
259,191,53049,1,8,0:0:0:0:
259,191,53419,1,0,0:0:0:0:
259,191,53605,1,0,0:0:0:0:
259,191,53697,1,0,0:0:0:0:
259,191,53790,1,8,0:0:0:0:
259,191,54160,1,0,0:0:0:0:
259,191,54345,1,8,0:0:0:0:
259,191,54438,1,0,0:0:0:0:
259,191,54530,1,8,0:0:0:0:
259,191,54623,1,8,0:0:0:0:
259,191,54716,1,0,0:0:0:0:
259,191,54901,1,0,0:0:0:0:
259,191,55271,1,8,0:0:0:0:
259,191,55456,1,8,0:0:0:0:
259,191,55549,1,8,0:0:0:0:
259,191,55642,1,0,0:0:0:0:
259,191,55827,1,0,0:0:0:0:
259,191,56012,1,8,0:0:0:0:
259,191,56382,1,0,0:0:0:0:
259,191,56567,1,0,0:0:0:0:
259,191,56660,1,0,0:0:0:0:
259,191,56753,1,8,0:0:0:0:
259,191,56938,1,0,0:0:0:0:
259,191,57123,1,0,0:0:0:0:
259,191,57493,1,8,0:0:0:0:
259,191,57586,1,0,0:0:0:0:
259,191,57679,1,8,0:0:0:0:
259,191,57771,1,8,0:0:0:0:
259,191,57864,1,4,0:0:0:0:
259,191,58234,1,8,0:0:0:0:
259,191,58419,1,8,0:0:0:0:
259,191,58512,1,8,0:0:0:0:
259,191,58605,1,0,0:0:0:0:
259,191,58790,1,0,0:0:0:0:
259,191,58975,1,8,0:0:0:0:
259,191,59345,1,0,0:0:0:0:
259,191,59530,1,0,0:0:0:0:
259,191,59623,1,0,0:0:0:0:
259,191,59716,1,8,0:0:0:0:
259,191,60086,1,0,0:0:0:0:
259,191,60271,1,0,0:0:0:0:
259,191,60364,1,0,0:0:0:0:
259,191,60456,1,8,0:0:0:0:
259,191,60549,1,8,0:0:0:0:
259,191,60642,1,0,0:0:0:0:
259,191,60827,1,0,0:0:0:0:
259,191,61197,1,8,0:0:0:0:
259,191,61382,1,8,0:0:0:0:
259,191,61475,1,8,0:0:0:0:
259,191,61567,1,0,0:0:0:0:
259,191,61753,1,0,0:0:0:0:
259,191,61938,1,8,0:0:0:0:
259,191,62308,1,0,0:0:0:0:
259,191,62493,1,8,0:0:0:0:
259,191,62586,1,8,0:0:0:0:
259,191,62679,1,0,0:0:0:0:
259,191,62771,1,0,0:0:0:0:
259,191,62864,1,8,0:0:0:0:
259,191,63049,1,0,0:0:0:0:
259,191,63234,1,8,0:0:0:0:
259,191,63419,1,8,0:0:0:0:
259,191,63512,1,8,0:0:0:0:
259,191,63605,1,0,0:0:0:0:
259,191,63697,1,0,0:0:0:0:
259,191,63790,1,12,0:0:0:0:
259,191,63975,1,0,0:0:0:0:
259,191,64067,1,8,0:0:0:0:
259,191,64345,1,0,0:0:0:0:
259,191,64438,1,0,0:0:0:0:
259,191,64530,1,8,0:0:0:0:
259,191,64716,1,0,0:0:0:0:
259,191,64808,1,8,0:0:0:0:
259,191,65086,1,8,0:0:0:0:
259,191,65179,1,0,0:0:0:0:
259,191,65271,1,8,0:0:0:0:
259,191,65456,1,0,0:0:0:0:
259,191,65549,1,8,0:0:0:0:
259,191,65827,1,0,0:0:0:0:
259,191,66012,1,8,0:0:0:0:
259,191,66197,1,0,0:0:0:0:
259,191,66290,1,8,0:0:0:0:
259,191,66475,1,0,0:0:0:0:
259,191,66567,1,0,0:0:0:0:
259,191,66753,1,8,0:0:0:0:
259,191,66938,1,0,0:0:0:0:
259,191,67030,1,8,0:0:0:0:
259,191,67308,1,0,0:0:0:0:
259,191,67493,1,8,0:0:0:0:
259,191,67679,1,0,0:0:0:0:
259,191,67771,1,8,0:0:0:0:
259,191,68049,1,0,0:0:0:0:
259,191,68234,1,8,0:0:0:0:
259,191,68419,1,0,0:0:0:0:
259,191,68512,1,8,0:0:0:0:
259,191,68790,1,8,0:0:0:0:
259,191,68882,1,0,0:0:0:0:
259,191,68975,1,8,0:0:0:0:
259,191,69160,1,0,0:0:0:0:
259,191,69253,1,8,0:0:0:0:
259,191,69530,1,0,0:0:0:0:
259,191,69623,1,0,0:0:0:0:
259,191,69716,1,12,0:0:0:0:
259,191,69901,1,0,0:0:0:0:
259,191,69993,1,8,0:0:0:0:
259,191,70271,1,0,0:0:0:0:
259,191,70456,1,8,0:0:0:0:
259,191,70642,1,0,0:0:0:0:
259,191,70734,1,8,0:0:0:0:
259,191,71012,1,8,0:0:0:0:
259,191,71105,1,0,0:0:0:0:
259,191,71197,1,8,0:0:0:0:
259,191,71382,1,0,0:0:0:0:
259,191,71475,1,8,0:0:0:0:
259,191,71753,1,8,0:0:0:0:
259,191,71845,1,0,0:0:0:0:
259,191,71938,1,8,0:0:0:0:
259,191,72123,1,0,0:0:0:0:
259,191,72216,1,8,0:0:0:0:
259,191,72493,1,8,0:0:0:0:
259,191,72586,1,8,0:0:0:0:
259,191,72679,1,0,0:0:0:0:
259,191,72864,1,8,0:0:0:0:
259,191,73049,1,8,0:0:0:0:
259,191,73419,1,0,0:0:0:0:
259,191,73512,1,8,0:0:0:0:
259,191,73605,1,0,0:0:0:0:
259,191,73790,1,8,0:0:0:0:
259,191,74160,1,12,0:0:0:0:
259,191,74345,1,0,0:0:0:0:
259,191,74438,1,0,0:0:0:0:
259,191,74530,1,8,0:0:0:0:
259,191,74623,1,8,0:0:0:0:
259,191,74716,1,0,0:0:0:0:
259,191,74808,1,0,0:0:0:0:
259,191,74901,1,8,0:0:0:0:
259,191,74993,1,0,0:0:0:0:
259,191,75086,1,8,0:0:0:0:
259,191,75179,1,0,0:0:0:0:
259,191,75271,1,8,0:0:0:0:
259,191,75364,1,8,0:0:0:0:
259,191,75456,1,0,0:0:0:0:
259,191,75549,1,0,0:0:0:0:
259,191,75642,1,12,0:0:0:0:
259,191,75827,1,0,0:0:0:0:
259,191,75919,1,8,0:0:0:0:
259,191,76105,1,0,0:0:0:0:
259,191,76197,1,8,0:0:0:0:
259,191,76382,1,0,0:0:0:0:
259,191,76567,1,8,0:0:0:0:
259,191,76660,1,0,0:0:0:0:
259,191,76753,1,8,0:0:0:0:
259,191,76938,1,0,0:0:0:0:
259,191,77123,1,8,0:0:0:0:
259,191,77308,1,0,0:0:0:0:
259,191,77401,1,8,0:0:0:0:
259,191,77586,1,0,0:0:0:0:
259,191,77679,1,8,0:0:0:0:
259,191,77864,1,0,0:0:0:0:
259,191,77956,1,8,0:0:0:0:
259,191,78049,1,0,0:0:0:0:
259,191,78142,1,0,0:0:0:0:
259,191,78234,1,8,0:0:0:0:
259,191,78419,1,0,0:0:0:0:
259,191,78512,1,0,0:0:0:0:
259,191,78605,1,8,0:0:0:0:
259,191,78790,1,0,0:0:0:0:
259,191,78882,1,8,0:0:0:0:
259,191,79067,1,0,0:0:0:0:
259,191,79160,1,8,0:0:0:0:
259,191,79345,1,0,0:0:0:0:
259,191,79530,1,8,0:0:0:0:
259,191,79623,1,0,0:0:0:0:
259,191,79716,1,8,0:0:0:0:
259,191,79901,1,0,0:0:0:0:
259,191,80086,1,8,0:0:0:0:
259,191,80179,1,0,0:0:0:0:
259,191,80271,1,0,0:0:0:0:
259,191,80364,1,8,0:0:0:0:
259,191,80549,1,0,0:0:0:0:
259,191,80642,1,8,0:0:0:0:
259,191,80827,1,0,0:0:0:0:
259,191,81012,1,8,0:0:0:0:
259,191,81105,1,0,0:0:0:0:
259,191,81197,1,8,0:0:0:0:
259,191,81382,1,0,0:0:0:0:
259,191,81475,1,0,0:0:0:0:
259,191,81567,1,12,0:0:0:0:
259,191,81753,1,0,0:0:0:0:
259,191,81845,1,8,0:0:0:0:
259,191,82030,1,0,0:0:0:0:
259,191,82123,1,8,0:0:0:0:
259,191,82308,1,0,0:0:0:0:
259,191,82493,1,8,0:0:0:0:
259,191,82586,1,0,0:0:0:0:
259,191,82679,1,8,0:0:0:0:
259,191,82864,1,0,0:0:0:0:
259,191,83049,1,8,0:0:0:0:
259,191,83234,1,0,0:0:0:0:
259,191,83327,1,8,0:0:0:0:
259,191,83512,1,0,0:0:0:0:
259,191,83605,1,0,0:0:0:0:
259,191,83790,1,8,0:0:0:0:
259,191,83975,1,0,0:0:0:0:
259,191,84067,1,0,0:0:0:0:
259,191,84160,1,8,0:0:0:0:
259,191,84253,1,8,0:0:0:0:
259,191,84345,1,0,0:0:0:0:
259,191,84530,1,8,0:0:0:0:
259,191,84716,1,0,0:0:0:0:
259,191,84808,1,8,0:0:0:0:
259,191,84993,1,0,0:0:0:0:
259,191,85086,1,0,0:0:0:0:
259,191,85271,1,8,0:0:0:0:
259,191,85456,1,0,0:0:0:0:
259,191,85549,1,0,0:0:0:0:
259,191,85642,1,8,0:0:0:0:
259,191,85827,1,0,0:0:0:0:
259,191,86012,1,8,0:0:0:0:
259,191,86197,1,0,0:0:0:0:
259,191,86290,1,8,0:0:0:0:
259,191,86475,1,8,0:0:0:0:
259,191,86567,1,0,0:0:0:0:
259,191,86753,1,8,0:0:0:0:
259,191,86938,1,0,0:0:0:0:
259,191,87123,1,8,0:0:0:0:
259,191,87216,1,8,0:0:0:0:
259,191,87308,1,0,0:0:0:0:
259,191,87401,1,0,0:0:0:0:
259,191,87493,1,12,0:0:0:0:
259,191,87679,1,0,0:0:0:0:
259,191,87771,1,8,0:0:0:0:
259,191,87864,1,0,0:0:0:0:
259,191,87956,1,0,0:0:0:0:
259,191,88049,1,8,0:0:0:0:
259,191,88234,1,0,0:0:0:0:
259,191,88419,1,8,0:0:0:0:
259,191,88512,1,0,0:0:0:0:
259,191,88605,1,8,0:0:0:0:
259,191,88790,1,0,0:0:0:0:
259,191,88975,1,8,0:0:0:0:
259,191,89067,1,0,0:0:0:0:
259,191,89160,1,0,0:0:0:0:
259,191,89253,1,8,0:0:0:0:
259,191,89345,1,0,0:0:0:0:
259,191,89438,1,0,0:0:0:0:
259,191,89530,1,8,0:0:0:0:
259,191,89716,1,8,0:0:0:0:
259,191,89808,1,8,0:0:0:0:
259,191,89901,1,0,0:0:0:0:
259,191,89993,1,0,0:0:0:0:
259,191,90086,1,8,0:0:0:0:
259,191,90271,1,0,0:0:0:0:
259,191,90364,1,0,0:0:0:0:
259,191,90456,1,8,0:0:0:0:
259,191,90642,1,0,0:0:0:0:
259,191,90734,1,8,0:0:0:0:
259,191,90827,1,0,0:0:0:0:
259,191,90919,1,0,0:0:0:0:
259,191,91012,1,8,0:0:0:0:
259,191,91197,1,0,0:0:0:0:
259,191,91382,1,8,0:0:0:0:
259,191,91475,1,0,0:0:0:0:
259,191,91567,1,8,0:0:0:0:
259,191,91753,1,0,0:0:0:0:
259,191,91938,1,8,0:0:0:0:
259,191,92030,1,0,0:0:0:0:
259,191,92123,1,0,0:0:0:0:
259,191,92216,1,8,0:0:0:0:
259,191,92308,1,0,0:0:0:0:
259,191,92401,1,0,0:0:0:0:
259,191,92493,1,8,0:0:0:0:
259,191,92679,1,0,0:0:0:0:
259,191,92864,1,8,0:0:0:0:
259,191,92956,1,0,0:0:0:0:
259,191,93049,1,8,0:0:0:0:
259,191,93234,1,0,0:0:0:0:
259,191,93327,1,0,0:0:0:0:
259,191,93419,1,12,0:0:0:0:
259,191,93605,1,0,0:0:0:0:
259,191,93697,1,8,0:0:0:0:
259,191,93790,1,0,0:0:0:0:
259,191,93882,1,0,0:0:0:0:
259,191,93975,1,8,0:0:0:0:
259,191,94160,1,0,0:0:0:0:
259,191,94345,1,8,0:0:0:0:
259,191,94438,1,0,0:0:0:0:
259,191,94530,1,8,0:0:0:0:
259,191,94716,1,0,0:0:0:0:
259,191,94901,1,8,0:0:0:0:
259,191,94993,1,0,0:0:0:0:
259,191,95086,1,0,0:0:0:0:
259,191,95179,1,8,0:0:0:0:
259,191,95271,1,0,0:0:0:0:
259,191,95364,1,0,0:0:0:0:
259,191,95456,1,8,0:0:0:0:
259,191,95642,1,0,0:0:0:0:
259,191,95827,1,8,0:0:0:0:
259,191,95919,1,0,0:0:0:0:
259,191,96012,1,8,0:0:0:0:
259,191,96105,1,8,0:0:0:0:
259,191,96197,1,0,0:0:0:0:
259,191,96382,1,8,0:0:0:0:
259,191,96567,1,0,0:0:0:0:
259,191,96660,1,8,0:0:0:0:
259,191,96845,1,0,0:0:0:0:
259,191,96938,1,0,0:0:0:0:
259,191,97123,1,8,0:0:0:0:
259,191,97308,1,0,0:0:0:0:
259,191,97401,1,0,0:0:0:0:
259,191,97493,1,8,0:0:0:0:
259,191,97679,1,0,0:0:0:0:
259,191,97864,1,8,0:0:0:0:
259,191,97956,1,0,0:0:0:0:
259,191,98049,1,0,0:0:0:0:
259,191,98142,1,8,0:0:0:0:
259,191,98234,1,0,0:0:0:0:
259,191,98327,1,0,0:0:0:0:
259,191,98419,1,8,0:0:0:0:
259,191,98512,1,0,0:0:0:0:
259,191,98605,1,8,0:0:0:0:
259,191,98697,1,8,0:0:0:0:
259,191,98790,1,0,0:0:0:0:
259,191,98975,1,12,0:0:0:0:
259,191,99345,1,0,0:0:0:0:
259,191,99438,1,0,0:0:0:0:
259,191,99530,1,0,0:0:0:0:
259,191,99716,1,12,0:0:0:0:
259,191,99901,1,0,0:0:0:0:
259,191,100086,1,8,0:0:0:0:
259,191,100271,1,0,0:0:0:0:
259,191,100456,1,8,0:0:0:0:
259,191,100549,1,8,0:0:0:0:
259,191,100642,1,0,0:0:0:0:
259,191,100827,1,8,0:0:0:0:
259,191,101012,1,8,0:0:0:0:
259,191,101197,1,0,0:0:0:0:
259,191,101290,1,8,0:0:0:0:
259,191,101382,1,0,0:0:0:0:
259,191,101567,1,8,0:0:0:0:
259,191,101753,1,0,0:0:0:0:
259,191,101938,1,8,0:0:0:0:
259,191,102030,1,8,0:0:0:0:
259,191,102123,1,0,0:0:0:0:
259,191,102308,1,0,0:0:0:0:
259,191,102493,1,8,0:0:0:0:
259,191,102679,1,0,0:0:0:0:
259,191,102771,1,8,0:0:0:0:
259,191,102864,1,0,0:0:0:0:
259,191,103049,1,8,0:0:0:0:
259,191,103234,1,0,0:0:0:0:
259,191,103419,1,8,0:0:0:0:
259,191,103512,1,8,0:0:0:0:
259,191,103605,1,0,0:0:0:0:
259,191,103790,1,8,0:0:0:0:
259,191,103975,1,8,0:0:0:0:
259,191,104160,1,0,0:0:0:0:
259,191,104253,1,8,0:0:0:0:
259,191,104345,1,0,0:0:0:0:
259,191,104530,1,8,0:0:0:0:
259,191,104716,1,0,0:0:0:0:
259,191,104901,1,8,0:0:0:0:
259,191,104993,1,8,0:0:0:0:
259,191,105086,1,8,0:0:0:0:
259,191,105179,1,8,0:0:0:0:
259,191,105271,1,4,0:0:0:0:
259,191,105456,1,8,0:0:0:0:
259,191,105642,1,0,0:0:0:0:
259,191,105734,1,8,0:0:0:0:
259,191,105827,1,0,0:0:0:0:
259,191,106012,1,8,0:0:0:0:
259,191,106197,1,0,0:0:0:0:
259,191,106382,1,8,0:0:0:0:
259,191,106475,1,8,0:0:0:0:
259,191,106567,1,0,0:0:0:0:
259,191,106753,1,8,0:0:0:0:
259,191,106938,1,8,0:0:0:0:
259,191,107123,1,0,0:0:0:0:
259,191,107216,1,8,0:0:0:0:
259,191,107308,1,0,0:0:0:0:
259,191,107493,1,8,0:0:0:0:
259,191,107679,1,0,0:0:0:0:
259,191,107864,1,8,0:0:0:0:
259,191,107956,1,8,0:0:0:0:
259,191,108049,1,0,0:0:0:0:
259,191,108234,1,0,0:0:0:0:
259,191,108419,1,8,0:0:0:0:
259,191,108605,1,0,0:0:0:0:
259,191,108697,1,8,0:0:0:0:
259,191,108790,1,0,0:0:0:0:
259,191,108975,1,8,0:0:0:0:
259,191,109160,1,0,0:0:0:0:
259,191,109345,1,8,0:0:0:0:
259,191,109438,1,8,0:0:0:0:
259,191,109530,1,0,0:0:0:0:
259,191,109716,1,12,0:0:0:0:
259,191,109901,1,0,0:0:0:0:
259,191,109993,1,0,0:0:0:0:
259,191,110086,1,8,0:0:0:0:
259,191,110179,1,8,0:0:0:0:
259,191,110271,1,0,0:0:0:0:
259,191,110456,1,8,0:0:0:0:
259,191,110549,1,0,0:0:0:0:
259,191,110642,1,8,0:0:0:0:
259,191,110734,1,0,0:0:0:0:
259,191,110827,1,8,0:0:0:0:
259,191,110919,1,8,0:0:0:0:
259,191,111012,1,0,0:0:0:0:
259,191,111105,1,0,0:0:0:0:
259,191,111197,1,12,0:0:0:0:
259,191,111475,1,0,0:0:0:0:
259,191,111753,1,0,0:0:0:0:
259,191,111938,1,0,0:0:0:0:
259,191,112123,1,0,0:0:0:0:
259,191,112308,1,8,0:0:0:0:
259,191,112679,1,0,0:0:0:0:
259,191,112956,1,0,0:0:0:0:
259,191,113234,1,0,0:0:0:0:
259,191,113419,1,0,0:0:0:0:
259,191,113605,1,0,0:0:0:0:
259,191,113790,1,8,0:0:0:0:
259,191,114160,1,0,0:0:0:0:
259,191,114438,1,0,0:0:0:0:
259,191,114716,1,0,0:0:0:0:
259,191,114901,1,0,0:0:0:0:
259,191,115086,1,0,0:0:0:0:
259,191,115271,1,8,0:0:0:0:
259,191,115642,1,0,0:0:0:0:
259,191,115919,1,0,0:0:0:0:
259,191,116197,1,0,0:0:0:0:
259,191,116382,1,0,0:0:0:0:
259,191,116567,1,0,0:0:0:0:
259,191,116753,1,8,0:0:0:0:
259,191,117123,1,12,0:0:0:0:
259,191,117401,1,0,0:0:0:0:
259,191,117679,1,0,0:0:0:0:
259,191,117864,1,8,0:0:0:0:
259,191,118049,1,0,0:0:0:0:
259,191,118234,1,8,0:0:0:0:
259,191,118605,1,8,0:0:0:0:
259,191,118882,1,0,0:0:0:0:
259,191,119160,1,0,0:0:0:0:
259,191,119345,1,8,0:0:0:0:
259,191,119530,1,0,0:0:0:0:
259,191,119716,1,8,0:0:0:0:
259,191,120086,1,8,0:0:0:0:
259,191,122679,5,8,0:0:0:0:
259,191,122771,1,8,0:0:0:0:
259,191,122864,1,0,0:0:0:0:
259,191,122956,1,0,0:0:0:0:
259,191,123049,1,12,0:0:0:0:
259,191,123234,1,0,0:0:0:0:
259,191,123327,1,8,0:0:0:0:
259,191,123605,1,0,0:0:0:0:
259,191,123790,1,8,0:0:0:0:
259,191,123975,1,0,0:0:0:0:
259,191,124067,1,8,0:0:0:0:
259,191,124345,1,8,0:0:0:0:
259,191,124438,1,0,0:0:0:0:
259,191,124530,1,8,0:0:0:0:
259,191,124716,1,0,0:0:0:0:
259,191,124808,1,8,0:0:0:0:
259,191,125086,1,0,0:0:0:0:
259,191,125179,1,0,0:0:0:0:
259,191,125271,1,8,0:0:0:0:
259,191,125456,1,0,0:0:0:0:
259,191,125549,1,8,0:0:0:0:
259,191,125734,1,0,0:0:0:0:
259,191,125827,1,0,0:0:0:0:
259,191,126012,1,8,0:0:0:0:
259,191,126197,1,0,0:0:0:0:
259,191,126290,1,8,0:0:0:0:
259,191,126567,1,0,0:0:0:0:
259,191,126753,1,8,0:0:0:0:
259,191,126938,1,0,0:0:0:0:
259,191,127030,1,8,0:0:0:0:
259,191,127308,1,0,0:0:0:0:
259,191,127493,1,8,0:0:0:0:
259,191,127679,1,0,0:0:0:0:
259,191,127771,1,8,0:0:0:0:
259,191,128049,1,8,0:0:0:0:
259,191,128142,1,0,0:0:0:0:
259,191,128234,1,8,0:0:0:0:
259,191,128419,1,0,0:0:0:0:
259,191,128512,1,8,0:0:0:0:
259,191,128790,1,0,0:0:0:0:
259,191,128882,1,0,0:0:0:0:
259,191,128975,1,12,0:0:0:0:
259,191,129160,1,0,0:0:0:0:
259,191,129253,1,8,0:0:0:0:
259,191,129530,1,0,0:0:0:0:
259,191,129716,1,8,0:0:0:0:
259,191,129901,1,0,0:0:0:0:
259,191,129993,1,8,0:0:0:0:
259,191,130271,1,8,0:0:0:0:
259,191,130364,1,0,0:0:0:0:
259,191,130456,1,8,0:0:0:0:
259,191,130642,1,0,0:0:0:0:
259,191,130734,1,8,0:0:0:0:
259,191,131012,1,8,0:0:0:0:
259,191,131105,1,0,0:0:0:0:
259,191,131197,1,8,0:0:0:0:
259,191,131382,1,0,0:0:0:0:
259,191,131475,1,8,0:0:0:0:
259,191,131753,1,8,0:0:0:0:
259,191,131845,1,8,0:0:0:0:
259,191,131938,1,0,0:0:0:0:
259,191,132123,1,8,0:0:0:0:
259,191,132308,1,8,0:0:0:0:
259,191,132679,1,0,0:0:0:0:
259,191,132771,1,8,0:0:0:0:
259,191,132864,1,0,0:0:0:0:
259,191,133049,1,8,0:0:0:0:
259,191,133419,1,12,0:0:0:0:
259,191,133605,1,0,0:0:0:0:
259,191,133697,1,0,0:0:0:0:
259,191,133790,1,8,0:0:0:0:
259,191,133882,1,8,0:0:0:0:
259,191,133975,1,0,0:0:0:0:
259,191,134067,1,0,0:0:0:0:
259,191,134160,1,8,0:0:0:0:
259,191,134253,1,0,0:0:0:0:
259,191,134345,1,8,0:0:0:0:
259,191,134438,1,0,0:0:0:0:
259,191,134530,1,8,0:0:0:0:
259,191,134623,1,8,0:0:0:0:
259,191,134716,1,0,0:0:0:0:
259,191,134808,1,0,0:0:0:0:
259,191,134901,1,12,0:0:0:0:
259,191,135086,1,0,0:0:0:0:
259,191,135179,1,8,0:0:0:0:
259,191,135364,1,0,0:0:0:0:
259,191,135456,1,8,0:0:0:0:
259,191,135642,1,0,0:0:0:0:
259,191,135827,1,8,0:0:0:0:
259,191,135919,1,0,0:0:0:0:
259,191,136012,1,8,0:0:0:0:
259,191,136197,1,0,0:0:0:0:
259,191,136382,1,8,0:0:0:0:
259,191,136567,1,0,0:0:0:0:
259,191,136660,1,8,0:0:0:0:
259,191,136845,1,0,0:0:0:0:
259,191,136938,1,8,0:0:0:0:
259,191,137123,1,0,0:0:0:0:
259,191,137216,1,8,0:0:0:0:
259,191,137308,1,0,0:0:0:0:
259,191,137401,1,0,0:0:0:0:
259,191,137493,1,8,0:0:0:0:
259,191,137679,1,0,0:0:0:0:
259,191,137771,1,0,0:0:0:0:
259,191,137864,1,8,0:0:0:0:
259,191,138049,1,0,0:0:0:0:
259,191,138142,1,8,0:0:0:0:
259,191,138327,1,0,0:0:0:0:
259,191,138419,1,8,0:0:0:0:
259,191,138605,1,0,0:0:0:0:
259,191,138790,1,8,0:0:0:0:
259,191,138882,1,0,0:0:0:0:
259,191,138975,1,8,0:0:0:0:
259,191,139160,1,0,0:0:0:0:
259,191,139345,1,8,0:0:0:0:
259,191,139438,1,0,0:0:0:0:
259,191,139530,1,0,0:0:0:0:
259,191,139623,1,8,0:0:0:0:
259,191,139808,1,0,0:0:0:0:
259,191,139901,1,8,0:0:0:0:
259,191,140086,1,0,0:0:0:0:
259,191,140271,1,8,0:0:0:0:
259,191,140364,1,0,0:0:0:0:
259,191,140456,1,8,0:0:0:0:
259,191,140642,1,0,0:0:0:0:
259,191,140734,1,0,0:0:0:0:
259,191,140827,1,12,0:0:0:0:
259,191,141012,1,0,0:0:0:0:
259,191,141105,1,8,0:0:0:0:
259,191,141290,1,0,0:0:0:0:
259,191,141382,1,8,0:0:0:0:
259,191,141567,1,0,0:0:0:0:
259,191,141753,1,8,0:0:0:0:
259,191,141845,1,0,0:0:0:0:
259,191,141938,1,8,0:0:0:0:
259,191,142123,1,0,0:0:0:0:
259,191,142308,1,8,0:0:0:0:
259,191,142493,1,0,0:0:0:0:
259,191,142586,1,8,0:0:0:0:
259,191,142771,1,0,0:0:0:0:
259,191,142864,1,0,0:0:0:0:
259,191,143049,1,8,0:0:0:0:
259,191,143234,1,0,0:0:0:0:
259,191,143327,1,0,0:0:0:0:
259,191,143419,1,8,0:0:0:0:
259,191,143512,1,8,0:0:0:0:
259,191,143605,1,0,0:0:0:0:
259,191,143790,1,8,0:0:0:0:
259,191,143975,1,0,0:0:0:0:
259,191,144067,1,8,0:0:0:0:
259,191,144253,1,0,0:0:0:0:
259,191,144345,1,0,0:0:0:0:
259,191,144530,1,8,0:0:0:0:
259,191,144716,1,0,0:0:0:0:
259,191,144808,1,0,0:0:0:0:
259,191,144901,1,8,0:0:0:0:
259,191,145086,1,0,0:0:0:0:
259,191,145271,1,8,0:0:0:0:
259,191,145456,1,0,0:0:0:0:
259,191,145549,1,8,0:0:0:0:
259,191,145734,1,8,0:0:0:0:
259,191,145827,1,0,0:0:0:0:
259,191,146012,1,8,0:0:0:0:
259,191,146197,1,0,0:0:0:0:
259,191,146382,1,8,0:0:0:0:
259,191,146475,1,8,0:0:0:0:
259,191,146567,1,0,0:0:0:0:
259,191,146660,1,0,0:0:0:0:
259,191,146753,1,12,0:0:0:0:
259,191,146938,1,0,0:0:0:0:
259,191,147030,1,8,0:0:0:0:
259,191,147123,1,0,0:0:0:0:
259,191,147216,1,0,0:0:0:0:
259,191,147308,1,8,0:0:0:0:
259,191,147493,1,0,0:0:0:0:
259,191,147679,1,8,0:0:0:0:
259,191,147771,1,0,0:0:0:0:
259,191,147864,1,8,0:0:0:0:
259,191,148049,1,0,0:0:0:0:
259,191,148234,1,8,0:0:0:0:
259,191,148327,1,0,0:0:0:0:
259,191,148419,1,0,0:0:0:0:
259,191,148512,1,8,0:0:0:0:
259,191,148605,1,0,0:0:0:0:
259,191,148697,1,0,0:0:0:0:
259,191,148790,1,8,0:0:0:0:
259,191,148975,1,8,0:0:0:0:
259,191,149067,1,8,0:0:0:0:
259,191,149160,1,0,0:0:0:0:
259,191,149253,1,0,0:0:0:0:
259,191,149345,1,8,0:0:0:0:
259,191,149530,1,0,0:0:0:0:
259,191,149623,1,0,0:0:0:0:
259,191,149716,1,8,0:0:0:0:
259,191,149901,1,0,0:0:0:0:
259,191,149993,1,8,0:0:0:0:
259,191,150086,1,0,0:0:0:0:
259,191,150179,1,0,0:0:0:0:
259,191,150271,1,8,0:0:0:0:
259,191,150456,1,0,0:0:0:0:
259,191,150642,1,8,0:0:0:0:
259,191,150734,1,0,0:0:0:0:
259,191,150827,1,8,0:0:0:0:
259,191,151012,1,0,0:0:0:0:
259,191,151197,1,8,0:0:0:0:
259,191,151290,1,0,0:0:0:0:
259,191,151382,1,0,0:0:0:0:
259,191,151475,1,8,0:0:0:0:
259,191,151567,1,0,0:0:0:0:
259,191,151660,1,0,0:0:0:0:
259,191,151753,1,8,0:0:0:0:
259,191,151938,1,0,0:0:0:0:
259,191,152123,1,8,0:0:0:0:
259,191,152216,1,0,0:0:0:0:
259,191,152308,1,8,0:0:0:0:
259,191,152493,1,0,0:0:0:0:
259,191,152586,1,0,0:0:0:0:
259,191,152679,1,12,0:0:0:0:
259,191,152864,1,0,0:0:0:0:
259,191,152956,1,8,0:0:0:0:
259,191,153049,1,0,0:0:0:0:
259,191,153142,1,0,0:0:0:0:
259,191,153234,1,8,0:0:0:0:
259,191,153419,1,0,0:0:0:0:
259,191,153605,1,8,0:0:0:0:
259,191,153697,1,0,0:0:0:0:
259,191,153790,1,8,0:0:0:0:
259,191,153975,1,0,0:0:0:0:
259,191,154160,1,8,0:0:0:0:
259,191,154253,1,0,0:0:0:0:
259,191,154345,1,0,0:0:0:0:
259,191,154438,1,8,0:0:0:0:
259,191,154530,1,0,0:0:0:0:
259,191,154623,1,0,0:0:0:0:
259,191,154716,1,8,0:0:0:0:
259,191,154901,1,0,0:0:0:0:
259,191,155086,1,8,0:0:0:0:
259,191,155179,1,0,0:0:0:0:
259,191,155271,1,8,0:0:0:0:
259,191,155364,1,8,0:0:0:0:
259,191,155456,1,0,0:0:0:0:
259,191,155549,1,0,0:0:0:0:
259,191,155642,1,8,0:0:0:0:
259,191,155827,1,0,0:0:0:0:
259,191,156012,1,8,0:0:0:0:
259,191,156197,1,0,0:0:0:0:
259,191,156290,1,0,0:0:0:0:
259,191,156382,1,8,0:0:0:0:
259,191,156475,1,8,0:0:0:0:
259,191,156567,1,0,0:0:0:0:
259,191,156753,1,0,0:0:0:0:
259,191,156938,1,0,0:0:0:0:
259,191,157123,1,12,0:0:0:0:
259,191,157493,1,12,0:0:0:0:
259,191,157864,1,4,0:0:0:0:
259,191,158234,1,4,0:0:0:0:
259,191,158419,1,0,0:0:0:0:
259,191,158512,1,0,0:0:0:0:
259,191,158605,1,12,0:0:0:0:
259,191,158790,1,12,0:0:0:0:
259,191,159530,1,0,0:0:0:0:
259,191,159623,1,0,0:0:0:0:
259,191,159716,1,12,0:0:0:0:
259,191,159901,1,12,0:0:0:0:
259,191,160642,1,0,0:0:0:0:
259,191,160734,1,0,0:0:0:0:
259,191,160827,1,12,0:0:0:0:
259,191,161012,1,12,0:0:0:0:
259,191,161197,1,0,0:0:0:0:
259,191,161382,1,0,0:0:0:0:
259,191,161475,1,0,0:0:0:0:
259,191,161567,1,12,0:0:0:0:
259,191,161753,1,12,0:0:0:0:
259,191,162493,1,0,0:0:0:0:
259,191,162586,1,0,0:0:0:0:
259,191,162679,1,12,0:0:0:0:
259,191,162864,1,12,0:0:0:0:
259,191,163605,1,0,0:0:0:0:
259,191,163697,1,0,0:0:0:0:
259,191,163790,1,12,0:0:0:0:
259,191,164067,1,12,0:0:0:0:
259,191,164345,1,12,0:0:0:0:
259,191,164530,1,4,0:0:0:0:
259,191,164901,1,0,0:0:0:0:
259,191,165271,1,0,0:0:0:0:
259,191,165642,1,0,0:0:0:0:
259,191,166012,1,0,0:0:0:0:
259,191,166382,1,0,0:0:0:0:
259,191,166753,1,0,0:0:0:0:
259,191,167123,1,0,0:0:0:0:
259,191,167493,1,8,0:0:0:0:
259,191,167771,1,0,0:0:0:0:
259,191,168049,1,0,0:0:0:0:
259,191,168234,1,8,0:0:0:0:
259,191,168605,1,0,0:0:0:0:
259,191,168790,1,0,0:0:0:0:
259,191,168975,1,12,0:0:0:0:
259,191,169160,1,8,0:0:0:0:
259,191,169345,1,0,0:0:0:0:
259,191,169530,1,0,0:0:0:0:
259,191,169716,1,8,0:0:0:0:
259,191,169901,1,8,0:0:0:0:
259,191,170086,1,0,0:0:0:0:
259,191,170271,1,0,0:0:0:0:
259,191,170364,1,0,0:0:0:0:
259,191,170456,1,12,0:0:0:0:
259,191,170642,1,0,0:0:0:0:
259,191,170734,1,8,0:0:0:0:
259,191,170827,1,0,0:0:0:0:
259,191,170919,1,0,0:0:0:0:
259,191,171012,1,8,0:0:0:0:
259,191,171197,1,0,0:0:0:0:
259,191,171382,1,8,0:0:0:0:
259,191,171475,1,0,0:0:0:0:
259,191,171567,1,8,0:0:0:0:
259,191,171753,1,0,0:0:0:0:
259,191,171938,1,8,0:0:0:0:
259,191,172030,1,0,0:0:0:0:
259,191,172123,1,0,0:0:0:0:
259,191,172216,1,8,0:0:0:0:
259,191,172308,1,0,0:0:0:0:
259,191,172401,1,0,0:0:0:0:
259,191,172493,1,8,0:0:0:0:
259,191,172679,1,8,0:0:0:0:
259,191,172771,1,8,0:0:0:0:
259,191,172864,1,0,0:0:0:0:
259,191,172956,1,0,0:0:0:0:
259,191,173049,1,8,0:0:0:0:
259,191,173234,1,0,0:0:0:0:
259,191,173327,1,0,0:0:0:0:
259,191,173419,1,8,0:0:0:0:
259,191,173605,1,0,0:0:0:0:
259,191,173697,1,8,0:0:0:0:
259,191,173790,1,0,0:0:0:0:
259,191,173882,1,0,0:0:0:0:
259,191,173975,1,8,0:0:0:0:
259,191,174160,1,0,0:0:0:0:
259,191,174345,1,8,0:0:0:0:
259,191,174438,1,0,0:0:0:0:
259,191,174530,1,8,0:0:0:0:
259,191,174716,1,0,0:0:0:0:
259,191,174901,1,8,0:0:0:0:
259,191,174993,1,0,0:0:0:0:
259,191,175086,1,0,0:0:0:0:
259,191,175179,1,8,0:0:0:0:
259,191,175271,1,0,0:0:0:0:
259,191,175364,1,0,0:0:0:0:
259,191,175456,1,8,0:0:0:0:
259,191,175642,1,0,0:0:0:0:
259,191,175827,1,8,0:0:0:0:
259,191,175919,1,0,0:0:0:0:
259,191,176012,1,8,0:0:0:0:
259,191,176197,1,0,0:0:0:0:
259,191,176290,1,0,0:0:0:0:
259,191,176382,1,12,0:0:0:0:
259,191,176567,1,0,0:0:0:0:
259,191,176660,1,8,0:0:0:0:
259,191,176753,1,0,0:0:0:0:
259,191,176845,1,0,0:0:0:0:
259,191,176938,1,8,0:0:0:0:
259,191,177123,1,0,0:0:0:0:
259,191,177308,1,8,0:0:0:0:
259,191,177401,1,0,0:0:0:0:
259,191,177493,1,8,0:0:0:0:
259,191,177679,1,0,0:0:0:0:
259,191,177864,1,8,0:0:0:0:
259,191,177956,1,0,0:0:0:0:
259,191,178049,1,0,0:0:0:0:
259,191,178142,1,8,0:0:0:0:
259,191,178234,1,0,0:0:0:0:
259,191,178327,1,0,0:0:0:0:
259,191,178419,1,8,0:0:0:0:
259,191,178605,1,0,0:0:0:0:
259,191,178790,1,8,0:0:0:0:
259,191,178882,1,0,0:0:0:0:
259,191,178975,1,8,0:0:0:0:
259,191,179067,1,8,0:0:0:0:
259,191,179160,1,0,0:0:0:0:
259,191,179345,1,8,0:0:0:0:
259,191,179530,1,0,0:0:0:0:
259,191,179623,1,8,0:0:0:0:
259,191,179808,1,0,0:0:0:0:
259,191,179901,1,0,0:0:0:0:
259,191,180086,1,8,0:0:0:0:
259,191,180271,1,0,0:0:0:0:
259,191,180364,1,0,0:0:0:0:
259,191,180456,1,8,0:0:0:0:
259,191,180642,1,0,0:0:0:0:
259,191,180827,1,8,0:0:0:0:
259,191,180919,1,0,0:0:0:0:
259,191,181012,1,0,0:0:0:0:
259,191,181105,1,8,0:0:0:0:
259,191,181197,1,0,0:0:0:0:
259,191,181290,1,0,0:0:0:0:
259,191,181382,1,8,0:0:0:0:
259,191,181475,1,0,0:0:0:0:
259,191,181567,1,8,0:0:0:0:
259,191,181660,1,8,0:0:0:0:
259,191,181753,1,0,0:0:0:0:
259,191,181938,1,12,0:0:0:0:
259,191,182308,1,0,0:0:0:0:
259,191,182401,1,0,0:0:0:0:
259,191,182493,1,0,0:0:0:0:
259,191,182586,1,8,0:0:0:0:
259,191,182864,1,0,0:0:0:0:
259,191,182956,1,0,0:0:0:0:
259,191,183049,1,0,0:0:0:0:
259,191,183142,1,8,0:0:0:0:
259,191,183419,1,0,0:0:0:0:
259,191,183790,1,4,0:0:0:0:
259,191,183975,1,8,0:0:0:0:
259,191,184160,1,0,0:0:0:0:
259,191,184253,1,8,0:0:0:0:
259,191,184345,1,0,0:0:0:0:
259,191,184530,1,8,0:0:0:0:
259,191,184716,1,0,0:0:0:0:
259,191,184901,1,8,0:0:0:0:
259,191,184993,1,8,0:0:0:0:
259,191,185086,1,0,0:0:0:0:
259,191,185271,1,8,0:0:0:0:
259,191,185456,1,8,0:0:0:0:
259,191,185642,1,0,0:0:0:0:
259,191,185734,1,8,0:0:0:0:
259,191,185827,1,0,0:0:0:0:
259,191,186012,1,8,0:0:0:0:
259,191,186197,1,0,0:0:0:0:
259,191,186382,1,8,0:0:0:0:
259,191,186475,1,8,0:0:0:0:
259,191,186567,1,0,0:0:0:0:
259,191,186753,1,0,0:0:0:0:
259,191,186938,1,8,0:0:0:0:
259,191,187123,1,0,0:0:0:0:
259,191,187216,1,8,0:0:0:0:
259,191,187308,1,0,0:0:0:0:
259,191,187493,1,8,0:0:0:0:
259,191,187679,1,0,0:0:0:0:
259,191,187864,1,8,0:0:0:0:
259,191,187956,1,8,0:0:0:0:
259,191,188049,1,0,0:0:0:0:
259,191,188234,1,8,0:0:0:0:
259,191,188419,1,8,0:0:0:0:
259,191,188605,1,0,0:0:0:0:
259,191,188697,1,8,0:0:0:0:
259,191,188790,1,0,0:0:0:0:
259,191,188975,1,8,0:0:0:0:
259,191,189160,1,0,0:0:0:0:
259,191,189345,1,8,0:0:0:0:
259,191,189438,1,8,0:0:0:0:
259,191,189530,1,8,0:0:0:0:
259,191,189623,1,8,0:0:0:0:
259,191,189716,1,4,0:0:0:0:
259,191,189901,1,8,0:0:0:0:
259,191,190086,1,0,0:0:0:0:
259,191,190179,1,8,0:0:0:0:
259,191,190271,1,0,0:0:0:0:
259,191,190456,1,8,0:0:0:0:
259,191,190642,1,0,0:0:0:0:
259,191,190827,1,8,0:0:0:0:
259,191,190919,1,8,0:0:0:0:
259,191,191012,1,0,0:0:0:0:
259,191,191197,1,8,0:0:0:0:
259,191,191382,1,8,0:0:0:0:
259,191,191567,1,0,0:0:0:0:
259,191,191660,1,8,0:0:0:0:
259,191,191753,1,0,0:0:0:0:
259,191,191938,1,8,0:0:0:0:
259,191,192123,1,0,0:0:0:0:
259,191,192308,1,8,0:0:0:0:
259,191,192401,1,8,0:0:0:0:
259,191,192493,1,0,0:0:0:0:
259,191,192679,1,0,0:0:0:0:
259,191,192864,1,8,0:0:0:0:
259,191,193049,1,0,0:0:0:0:
259,191,193142,1,8,0:0:0:0:
259,191,193234,1,0,0:0:0:0:
259,191,193419,1,8,0:0:0:0:
259,191,193605,1,0,0:0:0:0:
259,191,193790,1,8,0:0:0:0:
259,191,193882,1,8,0:0:0:0:
259,191,193975,1,0,0:0:0:0:
259,191,194160,1,8,0:0:0:0:
259,191,194345,1,0,0:0:0:0:
259,191,194530,1,0,0:0:0:0:
259,191,194623,1,8,0:0:0:0:
259,191,194716,1,0,0:0:0:0:
259,191,194901,1,8,0:0:0:0:
259,191,195086,1,0,0:0:0:0:
259,191,195271,1,8,0:0:0:0:
259,191,195456,1,8,0:0:0:0:
259,191,195642,1,4,0:0:0:0:
259,191,195827,1,8,0:0:0:0:
259,191,196012,1,0,0:0:0:0:
259,191,196105,1,8,0:0:0:0:
259,191,196197,1,0,0:0:0:0:
259,191,196290,1,0,0:0:0:0:
259,191,196382,1,8,0:0:0:0:
259,191,196567,1,0,0:0:0:0:
259,191,196753,1,8,0:0:0:0:
259,191,196845,1,8,0:0:0:0:
259,191,196938,1,0,0:0:0:0:
259,191,197030,1,0,0:0:0:0:
259,191,197123,1,8,0:0:0:0:
259,191,197308,1,8,0:0:0:0:
259,191,197493,1,0,0:0:0:0:
259,191,197586,1,8,0:0:0:0:
259,191,197679,1,0,0:0:0:0:
259,191,197771,1,0,0:0:0:0:
259,191,197864,1,8,0:0:0:0:
259,191,198049,1,0,0:0:0:0:
259,191,198234,1,8,0:0:0:0:
259,191,198327,1,0,0:0:0:0:
259,191,198419,1,8,0:0:0:0:
259,191,198512,1,8,0:0:0:0:
259,191,198605,1,0,0:0:0:0:
259,191,198790,1,8,0:0:0:0:
259,191,198975,1,0,0:0:0:0:
259,191,199067,1,8,0:0:0:0:
259,191,199160,1,0,0:0:0:0:
259,191,199253,1,0,0:0:0:0:
259,191,199345,1,8,0:0:0:0:
259,191,199530,1,0,0:0:0:0:
259,191,199716,1,8,0:0:0:0:
259,191,199808,1,8,0:0:0:0:
259,191,199901,1,0,0:0:0:0:
259,191,199993,1,0,0:0:0:0:
259,191,200086,1,8,0:0:0:0:
259,191,200271,1,8,0:0:0:0:
259,191,200456,1,0,0:0:0:0:
259,191,200549,1,8,0:0:0:0:
259,191,200642,1,0,0:0:0:0:
259,191,200734,1,0,0:0:0:0:
259,191,200827,1,8,0:0:0:0:
259,191,201012,1,0,0:0:0:0:
259,191,201197,1,8,0:0:0:0:
259,191,201290,1,0,0:0:0:0:
259,191,201382,1,8,0:0:0:0:
259,191,201475,1,8,0:0:0:0:
259,191,201567,1,4,0:0:0:0:
259,191,201753,1,8,0:0:0:0:
259,191,201938,1,0,0:0:0:0:
259,191,202030,1,8,0:0:0:0:
259,191,202123,1,0,0:0:0:0:
259,191,202216,1,0,0:0:0:0:
259,191,202308,1,8,0:0:0:0:
259,191,202493,1,0,0:0:0:0:
259,191,202679,1,8,0:0:0:0:
259,191,202771,1,8,0:0:0:0:
259,191,202864,1,0,0:0:0:0:
259,191,202956,1,0,0:0:0:0:
259,191,203049,1,8,0:0:0:0:
259,191,203234,1,8,0:0:0:0:
259,191,203419,1,0,0:0:0:0:
259,191,203512,1,8,0:0:0:0:
259,191,203605,1,0,0:0:0:0:
259,191,203697,1,0,0:0:0:0:
259,191,203790,1,8,0:0:0:0:
259,191,203975,1,0,0:0:0:0:
259,191,204160,1,8,0:0:0:0:
259,191,204253,1,0,0:0:0:0:
259,191,204345,1,8,0:0:0:0:
259,191,204438,1,8,0:0:0:0:
259,191,204530,1,0,0:0:0:0:
259,191,204716,1,8,0:0:0:0:
259,191,204901,1,0,0:0:0:0:
259,191,204993,1,8,0:0:0:0:
259,191,205086,1,0,0:0:0:0:
259,191,205179,1,0,0:0:0:0:
259,191,205271,1,8,0:0:0:0:
259,191,205456,1,0,0:0:0:0:
259,191,205642,1,8,0:0:0:0:
259,191,205734,1,8,0:0:0:0:
259,191,205827,1,0,0:0:0:0:
259,191,205919,1,0,0:0:0:0:
259,191,206012,1,8,0:0:0:0:
259,191,206197,1,0,0:0:0:0:
259,191,206290,1,0,0:0:0:0:
259,191,206382,1,8,0:0:0:0:
259,191,206475,1,8,0:0:0:0:
259,191,206567,1,0,0:0:0:0:
259,191,206660,1,0,0:0:0:0:
259,191,206753,1,8,0:0:0:0:
259,191,206938,1,0,0:0:0:0:
259,191,207030,1,0,0:0:0:0:
259,191,207123,1,8,0:0:0:0:
259,191,207216,1,0,0:0:0:0:
259,191,207308,1,8,0:0:0:0:
259,191,207401,1,8,0:0:0:0:
259,191,207493,1,0,0:0:0:0:
259,191,207679,1,0,0:0:0:0:
259,191,207864,1,8,0:0:0:0:
259,191,207956,1,8,0:0:0:0:
259,191,208049,1,8,0:0:0:0:
259,191,208142,1,8,0:0:0:0:
259,191,208234,1,0,0:0:0:0:
259,191,208419,1,0,0:0:0:0:
259,191,208605,1,8,0:0:0:0:
259,191,208697,1,8,0:0:0:0:
259,191,208790,1,8,0:0:0:0:
259,191,208882,1,8,0:0:0:0:
259,191,208975,1,0,0:0:0:0:
259,191,209160,1,0,0:0:0:0:
259,191,209345,1,8,0:0:0:0:
259,191,209438,1,8,0:0:0:0:
259,191,209530,1,8,0:0:0:0:
259,191,209623,1,8,0:0:0:0:
259,191,209716,1,0,0:0:0:0:
259,191,210086,1,4,0:0:0:0:
259,191,210456,1,0,0:0:0:0:
259,191,210642,1,0,0:0:0:0:
259,191,210827,1,8,0:0:0:0:
259,191,210919,1,8,0:0:0:0:
259,191,211012,1,8,0:0:0:0:
259,191,211105,1,8,0:0:0:0:
259,191,211197,1,0,0:0:0:0:
259,191,211382,1,0,0:0:0:0:
259,191,211567,1,8,0:0:0:0:
259,191,211660,1,8,0:0:0:0:
259,191,211753,1,8,0:0:0:0:
259,191,211845,1,8,0:0:0:0:
259,191,211938,1,0,0:0:0:0:
259,191,212123,1,0,0:0:0:0:
259,191,212308,1,8,0:0:0:0:
259,191,212401,1,8,0:0:0:0:
259,191,212493,1,8,0:0:0:0:
259,191,212586,1,8,0:0:0:0:
259,191,212679,1,0,0:0:0:0:
