osu file format v14

[General]
AudioFilename: audio.mp3
AudioLeadIn: 0
PreviewTime:66818
Countdown: 0
SampleSet: Soft
StackLeniency: 0.7
Mode: 0
LetterboxInBreaks: 0
WidescreenStoryboard: 1

[Editor]
Bookmarks: 13324,26039,51469,61006,67363,92794,105509,118224,134118,146834,156370,162728,194516,212099
DistanceSpacing: 1
BeatDivisor: 4
GridSize: 32
TimelineZoom: 1.1

[Metadata]
Title:How-to World Domination
TitleUnicode:ハウトゥー世界征服
Artist:Neru
ArtistUnicode:Neru
Creator:Ryuusei Aika
Version:Kirishima-'s Normal
Source:
Tags:Kirishima- Pseudonymous zhuxiaoyan frostwich synderes LimeTwist Japanese Rock J-Rock JRock Pop JPop J-Pop z'5 押入れP Oshiire-P 友達募集P Tomodachi BoshuuP tomoboP Daikyoukin しづ Sidu Shidu Vocaloid ボーカロイド Sekai Seifuku Kagamine Rin Len
BeatmapID:3564601
BeatmapSetID:1733366

[Difficulty]
HPDrainRate:4
CircleSize:3.5
OverallDifficulty:4
ApproachRate:5.5
SliderMultiplier:1.1
SliderTickRate:1

[Events]
//Background and Video events
0,0,"bg.jpg",0,0
//Break Periods
//Storyboard Layer 0 (Background)
//Storyboard Layer 1 (Fail)
//Storyboard Layer 2 (Pass)
//Storyboard Layer 3 (Foreground)
//Storyboard Layer 4 (Overlay)
//Storyboard Sound Samples

[TimingPoints]
609,397.350993377483,4,2,1,75,1,0
13324,-100,4,2,1,75,0,0
26039,-100,4,2,1,75,0,0
26238,-100,4,2,1,50,0,0
51469,-100,4,2,1,50,0,0
51867,-100,4,2,2,50,0,0
56238,-100,4,2,1,50,0,0
58224,-100,4,2,2,50,0,0
60012,-100,4,2,1,50,0,0
61006,-100,4,2,1,50,0,0
67363,-100,4,2,1,75,0,1
91801,-100,4,2,1,75,0,0
92794,-100,4,2,1,75,0,0
105509,-100,4,2,1,75,0,0
105708,-100,4,2,1,50,0,0
118224,-100,4,2,1,50,0,0
134118,-100,4,2,1,50,0,0
146834,-100,4,2,1,50,0,0
147231,-100,4,2,2,50,0,0
151602,-100,4,2,1,50,0,0
153589,-100,4,2,2,50,0,0
155178,-100,4,2,1,50,0,0
156370,-100,4,2,1,50,0,0
162728,-100,4,2,1,75,0,1
192926,-100,4,2,1,75,0,0
194516,-100,4,2,1,75,0,0
212099,-100,4,2,1,75,0,0

[Colours]
Combo1 : 213,106,0
Combo2 : 170,85,85
Combo3 : 205,156,156
Combo4 : 255,170,85

[HitObjects]
26,149,13324,6,0,P|72:121|125:131,1,110,4|8,3:2|0:0,0:0:0:0:
175,152,13920,1,8,0:3:0:0:
262,226,14317,1,8,0:3:0:0:
262,226,14516,2,0,L|272:280,1,55,8|8,0:0|0:3,0:0:0:0:
283,333,14913,2,0,P|328:360|381:351,1,110,0|8,3:0|0:0,0:0:0:0:
475,293,15708,1,0,3:0:0:0:
410,203,16105,2,0,L|400:149,1,55,8|8,0:0|0:3,0:0:0:0:
392,93,16503,6,0,L|283:74,1,110,0|8,3:0|0:0,0:0:0:0:
201,0,17297,2,0,L|92:19,1,110,0|8,3:0|0:0,0:0:0:0:
42,32,17893,1,8,0:3:0:0:
42,32,18092,2,0,L|32:86,1,55,0|8,3:0|0:3,0:0:0:0:
22,140,18489,1,8,0:0:0:0:
131,154,18887,2,0,L|141:208,1,55,0|8,3:0|0:3,0:0:0:0:
193,224,19284,2,0,L|183:278,1,55,8|8,0:0|0:3,0:0:0:0:
171,331,19681,6,0,P|125:358|72:349,1,110,4|8,3:2|0:0,0:0:0:0:
26,317,20277,2,0,L|7:208,1,110,4|0,3:2|3:0,0:0:0:0:
1,159,20873,1,8,0:0:0:0:
1,159,21072,1,4,3:2:0:0:
107,131,21469,2,0,L|117:77,1,55,0|8,3:0|0:0,0:0:0:0:
127,22,21867,2,0,P|173:-6|226:4,1,110,4|0,3:2|3:0,0:0:0:0:
277,21,22463,2,0,L|287:75,1,55,8|0,0:0|3:0,0:0:0:0:
337,96,22860,6,0,L|318:204,1,110,4|8,3:2|0:0,0:0:0:0:
369,301,23655,1,8,0:0:0:0:
292,379,24052,1,8,0:0:0:0:
203,313,24450,2,0,L|149:323,1,55,8|8,0:0|0:0,0:0:0:0:
129,374,24847,2,0,L|75:364,1,55,8|8,0:0|0:0,0:0:0:0:
22,347,25244,1,0,3:0:0:0:
43,238,25642,2,0,L|53:184,1,55,10|10,0:0|0:0,0:0:0:0:
64,141,26039,6,0,P|110:113|163:123,1,110,6|10,3:2|0:0,0:0:0:0:
240,164,26834,1,0,0:0:0:0:
214,248,27231,1,10,0:0:0:0:
282,302,27628,2,0,L|268:382,2,82.5,2|2|2,3:0|0:0|3:0,0:0:0:0:
363,263,28622,1,0,3:0:0:0:
363,263,28820,2,0,L|417:254,1,55,10|2,0:0|0:0,0:0:0:0:
461,249,29218,6,0,L|480:140,1,110,6|10,3:2|0:0,0:0:0:0:
485,96,29814,1,2,3:0:0:0:
429,28,30211,2,0,L|375:37,1,55,2|10,3:0|0:0,0:0:0:0:
356,77,30608,2,0,L|247:58,1,110,2|2,3:0|3:0,0:0:0:0:
208,51,31205,1,10,0:0:0:0:
208,51,31403,1,0,3:0:0:0:
164,129,31801,1,0,3:0:0:0:
164,129,31999,2,0,L|110:139,1,55,8|2,0:0|3:0,0:0:0:0:
66,147,32397,6,0,P|38:193|48:246,1,110,6|8,3:2|0:0,0:0:0:0:
64,286,32993,2,0,L|173:305,1,110,2|0,3:0|3:0,0:0:0:0:
215,311,33589,1,8,0:0:0:0:
268,240,33986,2,0,L|349:225,2,82.5,2|2|2,3:0|0:0|3:0,0:0:0:0:
210,181,34979,1,0,3:0:0:0:
210,181,35177,2,0,L|219:127,1,55,8|2,0:0|0:0,0:0:0:0:
232,84,35575,6,0,P|277:56|330:65,1,110,2|10,3:0|0:0,0:0:0:0:
371,82,36171,1,2,3:0:0:0:
438,147,36569,1,2,3:0:0:0:
438,147,36767,2,0,L|428:201,1,55,10|2,0:0|3:0,0:0:0:0:
420,244,37165,2,0,P|374:271|321:262,1,110,2|8,3:0|0:0,0:0:0:0:
285,247,37761,1,2,3:0:0:0:
285,247,37959,1,2,0:0:0:0:
231,316,38357,2,0,L|177:326,1,55,10|2,0:0|0:0,0:0:0:0:
158,366,38754,6,0,L|49:347,1,110,6|10,3:2|0:0,0:0:0:0:
0,273,39549,1,0,0:0:0:0:
52,202,39946,1,10,0:0:0:0:
2,129,40343,2,0,L|16:49,2,82.5,2|2|2,3:0|0:0|3:0,0:0:0:0:
56,206,41337,1,0,3:0:0:0:
56,206,41535,2,0,L|110:197,1,55,10|2,0:0|0:0,0:0:0:0:
154,194,41933,6,0,P|182:148|172:95,1,110,6|10,3:2|0:0,0:0:0:0:
154,54,42529,1,2,3:0:0:0:
229,9,42926,2,0,L|283:18,1,55,2|10,3:0|0:0,0:0:0:0:
327,24,43324,2,0,P|355:70|345:123,1,110,2|2,3:0|3:0,0:0:0:0:
332,167,43920,1,10,0:0:0:0:
332,167,44118,1,2,3:0:0:0:
291,247,44516,1,0,3:0:0:0:
291,247,44714,2,0,L|237:237,1,55,8|2,0:0|3:0,0:0:0:0:
193,227,45112,6,0,L|174:118,1,110,6|8,3:2|0:0,0:0:0:0:
168,74,45708,2,0,P|122:46|69:55,1,110,2|0,3:0|3:0,0:0:0:0:
33,82,46304,1,8,0:0:0:0:
18,168,46701,2,0,L|4:248,2,82.5,2|2|2,3:0|0:0|3:0,0:0:0:0:
104,142,47694,1,0,3:0:0:0:
104,142,47892,2,0,L|158:133,1,55,8|2,0:0|3:0,0:0:0:0:
179,94,48290,6,0,L|288:113,1,110,6|10,3:2|0:0,0:0:0:0:
330,120,48886,1,6,3:2:0:0:
417,133,49284,2,0,L|427:187,1,55,2|10,3:0|0:0,0:0:0:0:
465,207,49681,2,0,L|446:315,1,110,6|2,3:2|3:0,0:0:0:0:
435,358,50277,2,0,L|381:368,1,55,10|0,0:0|3:0,0:0:0:0:
337,374,50675,1,2,3:0:0:0:
267,319,51072,1,2,3:0:0:0:
317,246,51469,6,0,P|326:193|298:147,1,110,6|0,3:2|0:0,0:0:0:0:
233,87,52264,2,0,L|243:33,2,55,2|2|10,3:0|0:0|0:0,0:0:0:0:
203,120,52860,2,0,P|157:147|104:138,1,110,2|2,3:0|0:0,0:0:0:0:
64,118,53456,1,2,0:0:0:0:
2,181,53854,1,2,3:0:0:0:
17,267,54251,1,10,0:0:0:0:
96,303,54648,6,0,L|204:284,1,110,2|2,3:0|0:0,0:0:0:0:
262,350,55443,2,0,P|308:378|361:368,1,110,2|10,3:0|0:0,0:0:0:0:
404,353,56039,1,2,3:0:0:0:
404,353,56238,2,0,L|423:245,1,110,0|0,3:0|0:0,0:0:0:0:
494,192,57033,1,6,3:2:0:0:
496,104,57430,1,6,3:2:0:0:
428,47,57827,6,0,P|375:37|329:65,1,110,6|0,3:2|0:0,0:0:0:0:
271,132,58622,2,0,L|217:122,2,55,2|2|10,3:0|0:0|0:0,0:0:0:0:
304,161,59218,2,0,P|331:206|322:259,1,110,2|2,3:0|0:0,0:0:0:0:
310,305,59814,1,2,0:0:0:0:
310,305,60012,1,10,0:0:0:0:
241,358,60410,1,8,0:0:0:0:
241,358,60608,2,0,L|187:348,1,55,10|2,0:0|1:0,0:0:0:0:
144,336,61006,6,0,L|125:227,1,110,6|8,3:2|0:0,0:0:0:0:
113,140,61801,2,0,L|31:125,2,82.5,2|2|2,0:0|0:0|3:0,0:0:0:0:
148,114,62595,1,2,3:0:0:0:
192,37,62993,1,8,0:0:0:0:
272,84,63390,1,2,0:0:0:0:
272,84,63589,2,0,L|327:94,1,55,2|10,3:0|0:0,0:0:0:0:
373,104,63986,1,0,3:0:0:0:
373,104,64185,6,0,P|401:150|391:203,1,110,6|8,3:2|0:0,0:0:0:0:
372,242,64781,1,0,3:0:0:0:
311,305,65178,2,0,L|256:295,1,55,0|0,1:0|1:0,0:0:0:0:
213,285,65575,2,0,P|185:239|195:186,1,110,4|8,3:2|0:0,0:0:0:0:
215,146,66171,2,0,L|270:136,1,55,12|8,0:0|0:0,0:0:0:0:
312,130,66569,1,0,3:0:0:0:
329,43,66966,2,0,L|384:53,1,55,10|10,0:0|0:0,0:0:0:0:
437,62,67363,6,0,L|456:171,1,110,4|14,3:2|0:1,0:0:0:0:
512,191,67959,1,2,0:0:0:0:
512,191,68158,2,0,L|502:245,1,55,4|2,2:1|3:0,0:0:0:0:
489,299,68556,2,0,L|435:309,1,55,14|2,0:1|0:0,0:0:0:0:
416,361,68953,2,0,L|307:342,1,110,4|14,3:1|0:1,0:0:0:0:
258,331,69549,1,2,3:0:0:0:
258,331,69748,1,4,2:1:0:0:
237,222,70145,2,0,L|227:168,1,55,14|2,0:1|0:0,0:0:0:0:
220,113,70542,6,0,P|174:85|121:95,1,110,4|14,3:1|2:1,0:0:0:0:
71,118,71138,2,0,L|61:172,1,55,2|4,3:0|2:1,0:0:0:0:
22,200,71536,1,2,3:0:0:0:
22,200,71735,2,0,L|32:254,1,55,14|2,2:1|0:0,0:0:0:0:
38,307,72132,2,0,P|84:335|137:325,1,110,4|14,3:1|2:1,0:0:0:0:
189,304,72728,1,2,3:0:0:0:
189,304,72926,2,0,L|199:250,1,55,4|0,2:1|3:0,0:0:0:0:
209,195,73324,1,12,2:1:0:0:
317,177,73721,6,0,L|371:167,1,55,6|2,3:2|0:0,0:0:0:0:
392,116,74118,2,0,L|474:130,2,82.5,14|2|2,2:1|0:0|3:0,0:0:0:0:
327,33,75112,1,2,0:0:0:0:
327,33,75311,2,0,L|273:43,1,55,6|2,3:2|0:0,0:0:0:0:
219,56,75708,2,0,L|204:137,2,82.5,14|2|2,2:1|0:0|3:0,0:0:0:0:
115,36,76701,1,2,0:0:0:0:
115,36,76900,6,0,L|105:90,1,55,6|2,3:2|0:0,0:0:0:0:
54,111,77297,2,0,L|73:220,1,110,10|10,0:0|0:0,0:0:0:0:
86,272,77893,2,0,L|140:281,1,55,2|0,1:0|1:0,0:0:0:0:
166,329,78291,2,0,L|275:310,1,110,6|2,3:2|3:0,0:0:0:0:
328,298,78887,2,0,L|337:244,1,55,2|6,0:0|3:2,0:0:0:0:
347,189,79284,1,0,0:0:0:0:
448,148,79681,2,0,L|439:94,1,55,10|2,0:0|3:0,0:0:0:0:
432,38,80079,6,0,P|386:10|333:19,1,110,4|14,3:2|0:1,0:0:0:0:
288,48,80675,1,2,3:0:0:0:
288,48,80874,2,0,L|278:102,1,55,4|2,0:1|3:0,0:0:0:0:
228,127,81272,2,0,L|238:181,1,55,14|2,0:1|0:0,0:0:0:0:
249,234,81668,2,0,P|295:262|348:252,1,110,4|14,3:1|0:1,0:0:0:0:
402,232,82265,1,2,3:0:0:0:
402,232,82464,1,4,0:1:0:0:
499,181,82861,2,0,L|489:127,1,55,14|2,0:1|0:0,0:0:0:0:
480,72,83258,6,0,L|371:53,1,110,4|14,3:1|0:1,0:0:0:0:
352,1,83854,2,0,L|298:11,1,55,2|4,3:0|0:1,0:0:0:0:
248,28,84252,1,2,3:0:0:0:
248,28,84451,2,0,L|238:82,1,55,14|2,0:1|0:0,0:0:0:0:
227,136,84848,2,0,L|118:155,1,110,4|14,3:1|0:1,0:0:0:0:
68,167,85444,1,2,3:0:0:0:
68,167,85642,2,0,L|58:221,1,55,4|0,0:1|3:0,0:0:0:0:
49,275,86040,1,12,0:1:0:0:
126,352,86436,6,0,P|172:380|225:370,1,110,6|10,3:2|0:0,0:0:0:0:
272,342,87032,1,6,3:2:0:0:
372,296,87430,2,0,L|362:242,1,55,2|8,3:0|0:0,0:0:0:0:
353,187,87827,2,0,L|245:168,1,110,6|2,3:2|3:0,0:0:0:0:
194,160,88423,1,8,0:0:0:0:
194,160,88622,2,0,P|166:114|176:61,1,110,6|2,3:2|3:0,0:0:0:0:
206,15,89218,1,8,0:0:0:0:
314,0,89615,6,0,L|422:19,1,110,6|10,3:2|0:0,0:0:0:0:
476,28,90211,1,6,3:2:0:0:
419,122,90609,2,0,L|429:176,1,55,2|8,3:0|0:0,0:0:0:0:
480,194,91006,2,0,L|461:302,1,110,6|2,3:2|3:0,0:0:0:0:
450,359,91602,1,10,0:0:0:0:
450,359,91801,1,6,3:2:0:0:
450,359,92794,6,0,P|397:368|351:340,1,110,4|8,3:2|0:0,0:0:0:0:
315,298,93390,1,8,0:3:0:0:
373,206,93787,1,8,0:3:0:0:
373,206,93986,2,0,L|363:152,1,55,8|8,0:0|0:3,0:0:0:0:
354,97,94383,2,0,P|308:69|255:79,1,110,0|8,3:0|0:0,0:0:0:0:
160,134,95178,1,0,3:0:0:0:
216,228,95575,2,0,L|206:282,1,55,8|8,0:0|0:3,0:0:0:0:
193,336,95973,6,0,L|84:355,1,110,0|8,3:0|0:0,0:0:0:0:
3,280,96767,2,0,L|22:171,1,110,0|8,3:0|0:0,0:0:0:0:
75,152,97363,1,8,0:3:0:0:
75,152,97562,2,0,L|65:98,1,55,0|8,3:0|0:3,0:0:0:0:
55,43,97959,1,8,0:0:0:0:
161,69,98357,2,0,L|215:59,1,55,0|8,3:0|0:3,0:0:0:0:
239,12,98754,2,0,L|293:22,1,55,8|8,0:0|0:3,0:0:0:0:
348,28,99152,6,0,P|376:74|366:127,1,110,4|8,3:2|0:0,0:0:0:0:
339,174,99747,2,0,L|230:193,1,110,4|0,3:2|3:0,0:0:0:0:
180,204,100343,1,8,0:0:0:0:
180,204,100542,1,4,3:2:0:0:
134,303,100939,2,0,L|80:293,1,55,0|8,3:0|0:0,0:0:0:0:
25,283,101337,2,0,P|-3:237|7:184,1,110,4|0,3:2|3:0,0:0:0:0:
29,133,101933,2,0,L|83:123,1,55,8|0,0:0|3:0,0:0:0:0:
106,73,102330,6,0,L|214:92,1,110,4|8,3:2|0:0,0:0:0:0:
291,13,103125,1,8,0:0:0:0:
398,38,103522,1,8,0:0:0:0:
417,146,103920,2,0,L|427:200,1,55,8|8,0:0|0:0,0:0:0:0:
476,224,104317,2,0,L|466:278,1,55,8|8,0:0|0:0,0:0:0:0:
453,331,104714,1,0,3:0:0:0:
354,380,105112,2,0,L|300:370,1,55,10|10,0:0|0:0,0:0:0:0:
257,359,105509,6,0,P|229:313|239:260,1,110,6|10,3:2|0:0,0:0:0:0:
305,202,106304,1,0,0:0:0:0:
299,114,106701,1,10,0:0:0:0:
217,80,107098,2,0,L|203:0,2,82.5,2|2|2,3:0|0:0|3:0,0:0:0:0:
143,126,108092,1,0,3:0:0:0:
143,126,108290,2,0,L|134:180,1,55,10|2,0:0|0:0,0:0:0:0:
95,203,108688,6,0,L|114:312,1,110,6|10,3:2|0:0,0:0:0:0:
122,354,109284,1,2,3:0:0:0:
205,381,109681,2,0,L|259:372,1,55,2|10,3:0|0:0,0:0:0:0:
302,364,110079,2,0,P|330:318|320:265,1,110,2|2,3:0|3:0,0:0:0:0:
302,224,110675,2,0,L|248:215,1,55,10|2,0:0|3:0,0:0:0:0:
228,175,111072,2,0,L|119:194,1,110,0|8,0:0|0:0,0:0:0:0:
62,127,111867,6,0,P|52:74|80:28,1,110,6|8,3:2|0:0,0:0:0:0:
118,6,112463,2,0,L|227:25,1,110,2|0,3:0|3:0,0:0:0:0:
269,34,113059,1,8,0:0:0:0:
316,107,113456,2,0,L|396:93,2,82.5,2|2|2,3:0|0:0|3:0,0:0:0:0:
259,174,114449,1,0,3:0:0:0:
259,174,114647,2,0,L|250:228,1,55,8|2,0:0|3:0,0:0:0:0:
244,272,115046,6,0,P|198:300|145:290,1,110,6|10,3:2|0:0,0:0:0:0:
104,272,115641,1,6,3:2:0:0:
51,200,116039,2,0,L|61:146,1,55,2|10,3:0|0:0,0:0:0:0:
74,103,116436,2,0,P|120:75|173:85,1,110,6|2,3:2|3:0,0:0:0:0:
213,102,117032,2,0,L|223:156,1,55,10|2,0:0|1:0,0:0:0:0:
232,199,117430,1,0,3:0:0:0:
247,285,117827,2,0,L|301:295,1,55,10|10,0:0|0:0,0:0:0:0:
321,333,118224,6,0,L|430:314,1,110,4|12,3:2|0:1,0:0:0:0:
421,226,119019,2,0,P|393:180|402:127,1,110,0|12,3:0|0:1,0:0:0:0:
426,91,119615,1,2,0:0:0:0:
426,91,119814,2,0,L|508:76,2,82.5,2|2|6,3:0|0:0|0:1,0:0:0:0:
360,32,120807,2,0,L|304:42,1,55,6|12,0:1|0:1,0:0:0:0:
266,54,121205,1,2,0:0:0:0:
266,54,121403,6,0,L|251:136,2,82.5,2|2|6,3:0|0:0|0:1,0:0:0:0:
182,44,122397,1,4,0:1:0:0:
182,44,122595,2,0,L|172:98,1,55,14|6,0:1|0:1,0:0:0:0:
165,141,122993,2,0,P|119:169|66:159,1,110,2|8,3:0|0:0,0:0:0:0:
33,139,123589,1,6,0:1:0:0:
33,139,123787,1,2,3:0:0:0:
1,221,124185,2,0,L|11:275,1,55,10|2,0:0|0:0,0:0:0:0:
20,318,124582,6,0,L|129:337,1,110,4|12,3:2|0:1,0:0:0:0:
202,289,125377,2,0,P|211:236|183:190,1,110,0|12,3:0|0:1,0:0:0:0:
154,165,125973,1,2,0:0:0:0:
154,165,126172,2,0,L|72:180,2,82.5,2|2|2,3:0|0:0|0:0,0:0:0:0:
207,95,127165,2,0,L|261:105,1,55,6|8,0:1|0:0,0:0:0:0:
308,116,127563,1,2,3:0:0:0:
308,116,127761,6,0,P|336:162|326:215,1,110,6|8,3:2|0:0,0:0:0:0:
295,297,128556,2,0,L|213:312,2,82.5,2|2|10,3:0|0:0|0:3,0:0:0:0:
333,318,129350,1,2,3:0:0:0:
417,285,129748,1,8,0:0:0:0:
417,285,129946,2,0,P|444:239|435:186,1,110,10|10,0:3|0:3,0:0:0:0:
413,147,130542,2,0,L|359:137,1,55,10|10,0:0|0:3,0:0:0:0:
342,95,130940,6,0,L|233:114,1,110,0|8,3:0|0:0,0:0:0:0:
181,185,131734,1,0,3:0:0:0:
181,185,131933,2,0,L|171:240,1,55,8|0,0:0|1:0,0:0:0:0:
165,283,132330,2,0,L|56:302,1,110,4|8,3:2|0:0,0:0:0:0:
40,219,133125,1,2,1:0:0:0:
40,219,133324,2,0,L|30:164,1,55,2|2,3:0|1:0,0:0:0:0:
63,136,133721,2,0,L|73:81,1,55,10|10,0:0|0:0,0:0:0:0:
80,38,134118,6,0,P|126:10|179:20,1,110,4|8,3:2|0:0,0:0:0:0:
218,39,134714,1,0,3:0:0:0:
291,96,135112,1,0,3:0:0:0:
291,96,135310,2,0,L|282:150,1,55,8|0,0:0|3:0,0:0:0:0:
274,193,135708,2,0,L|166:212,1,110,0|8,3:0|0:0,0:0:0:0:
122,220,136304,2,0,P|94:265|103:318,1,110,0|0,3:0|3:0,0:0:0:0:
123,358,136900,1,8,0:0:0:0:
206,329,137297,6,0,L|315:348,1,110,4|8,3:2|0:0,0:0:0:0:
357,354,137893,1,0,3:0:0:0:
388,271,138291,2,0,L|442:262,1,55,0|8,3:0|0:0,0:0:0:0:
485,256,138688,2,0,P|512:210|503:157,1,110,0|0,3:0|3:0,0:0:0:0:
485,122,139284,1,8,0:0:0:0:
485,122,139483,2,0,L|377:103,1,110,0|0,3:0|3:0,0:0:0:0:
334,90,140079,1,8,0:0:0:0:
295,11,140476,6,0,P|242:1|196:29,1,110,4|8,3:2|0:0,0:0:0:0:
171,65,141072,1,0,3:0:0:0:
91,97,141470,1,0,3:0:0:0:
91,97,141668,2,0,L|100:151,1,55,8|0,0:0|3:0,0:0:0:0:
108,194,142066,2,0,L|216:213,1,110,0|8,3:0|0:0,0:0:0:0:
259,220,142661,2,0,P|287:266|277:319,1,110,0|0,3:0|3:0,0:0:0:0:
212,378,143456,1,0,3:0:0:0:
212,378,143655,6,0,L|103:359,1,110,4|8,3:2|0:0,0:0:0:0:
60,348,144251,1,4,3:2:0:0:
88,264,144649,2,0,L|79:210,1,55,0|8,3:0|0:0,0:0:0:0:
40,187,145046,2,0,L|59:78,1,110,4|0,3:2|3:0,0:0:0:0:
70,36,145642,2,0,L|124:27,1,55,8|0,0:0|3:0,0:0:0:0:
167,21,146039,1,2,3:0:0:0:
225,87,146437,1,2,3:0:0:0:
300,41,146834,6,0,P|352:31|398:59,1,110,6|0,3:2|0:0,0:0:0:0:
449,130,147628,2,0,L|503:120,2,55,2|2|10,3:0|0:0|0:0,0:0:0:0:
424,166,148224,2,0,P|396:212|406:265,1,110,2|2,3:0|0:0,0:0:0:0:
432,300,148820,1,2,0:0:0:0:
388,376,149218,1,2,3:0:0:0:
300,367,149615,1,10,0:0:0:0:
266,285,150012,6,0,L|158:266,1,110,2|2,3:0|0:0,0:0:0:0:
71,247,150807,2,0,P|43:201|53:148,1,110,2|10,3:0|0:0,0:0:0:0:
75,112,151403,1,2,3:0:0:0:
75,112,151602,2,0,L|183:93,1,110,0|0,3:0|0:0,0:0:0:0:
247,32,152397,1,6,3:2:0:0:
329,62,152794,1,6,3:2:0:0:
340,149,153191,6,0,P|349:201|321:247,1,110,6|0,3:2|0:0,0:0:0:0:
250,299,153986,2,0,L|260:353,2,55,2|2|10,3:0|0:0|0:0,0:0:0:0:
216,270,154582,2,0,P|170:242|117:251,1,110,2|2,3:0|0:0,0:0:0:0:
83,278,155178,1,2,0:0:0:0:
83,278,155376,1,10,0:0:0:0:
28,215,155774,1,8,0:0:0:0:
28,215,155972,2,0,L|38:161,1,55,10|2,0:0|1:0,0:0:0:0:
78,142,156370,6,0,L|63:60,2,82.5,6|2|2,3:2|0:0|3:0,0:0:0:0:
158,177,157363,2,0,L|148:232,1,55,2|8,3:0|0:0,0:0:0:0:
140,277,157760,1,2,3:0:0:0:
140,277,157959,2,0,L|58:292,2,82.5,2|2|2,3:0|0:0|3:0,0:0:0:0:
208,331,158953,2,0,L|263:341,1,55,2|10,3:0|0:0,0:0:0:0:
292,380,159350,1,2,3:0:0:0:
292,380,159549,6,0,L|401:361,1,110,4|8,3:2|0:0,0:0:0:0:
443,353,160145,1,0,3:0:0:0:
403,274,160542,2,0,L|413:219,1,55,0|0,1:0|1:0,0:0:0:0:
453,201,160939,2,0,L|434:92,1,110,4|8,3:2|0:0,0:0:0:0:
425,49,161535,2,0,L|370:39,1,55,12|8,0:0|0:0,0:0:0:0:
327,30,161933,1,0,3:0:0:0:
275,101,162330,2,0,L|220:111,1,55,10|10,0:0|0:0,0:0:0:0:
166,121,162728,6,0,P|138:167|148:220,1,110,6|14,3:2|0:1,0:0:0:0:
178,271,163323,1,2,0:0:0:0:
178,271,163523,2,0,L|232:281,1,55,4|2,0:1|3:0,0:0:0:0:
256,330,163921,2,0,L|310:320,1,55,14|2,0:1|0:0,0:0:0:0:
364,310,164317,2,0,P|392:264|382:211,1,110,4|14,3:1|0:1,0:0:0:0:
366,163,164913,1,2,0:0:0:0:
366,163,165112,1,4,0:1:0:0:
275,101,165510,2,0,L|221:111,1,55,14|2,0:1|0:0,0:0:0:0:
167,122,165907,6,0,L|148:231,1,110,4|10,0:1|0:0,0:0:0:0:
99,256,166502,2,0,L|109:310,1,55,2|4,3:0|0:1,0:0:0:0:
130,366,166900,1,2,3:0:0:0:
130,366,167099,2,0,L|184:376,1,55,14|2,0:1|0:0,0:0:0:0:
221,335,167496,2,0,L|330:316,1,110,4|14,3:1|0:1,0:0:0:0:
387,307,168092,1,2,3:0:0:0:
387,307,168290,2,0,L|397:253,1,55,4|0,0:1|3:0,0:0:0:0:
407,198,168688,1,12,0:1:0:0:
312,142,169085,6,0,L|302:88,1,55,6|2,3:2|0:0,0:0:0:0:
293,33,169482,2,0,L|211:19,2,82.5,14|2|2,0:1|0:0|3:0,0:0:0:0:
406,49,170476,1,2,0:0:0:0:
406,49,170675,2,0,L|416:103,1,55,6|2,3:2|0:0,0:0:0:0:
429,156,171072,2,0,L|510:171,2,82.5,14|2|2,0:1|0:0|3:0,0:0:0:0:
355,237,172065,1,2,0:0:0:0:
355,237,172264,6,0,L|345:291,1,55,6|2,3:2|0:0,0:0:0:0:
333,345,172661,2,0,P|287:372|234:363,1,110,10|8,0:0|0:0,0:0:0:0:
183,341,173257,2,0,L|174:287,1,55,2|0,1:0|1:0,0:0:0:0:
169,231,173655,2,0,P|123:203|70:212,1,110,6|2,3:2|3:0,0:0:0:0:
20,236,174251,2,0,L|11:290,1,55,2|6,0:0|3:2,0:0:0:0:
3,344,174648,1,0,0:0:0:0:
107,379,175045,2,0,L|161:370,1,55,10|2,0:0|3:0,0:0:0:0:
215,360,175443,6,0,L|234:251,1,110,4|14,3:2|0:1,0:0:0:0:
289,236,176039,1,2,3:0:0:0:
289,236,176238,2,0,L|279:182,1,55,4|2,0:1|3:0,0:0:0:0:
270,127,176636,2,0,L|216:117,1,55,14|2,0:1|0:0,0:0:0:0:
201,63,177033,2,0,L|92:82,1,110,4|14,3:1|0:1,0:0:0:0:
42,97,177629,1,2,3:0:0:0:
42,97,177828,1,4,0:1:0:0:
1,199,178225,2,0,L|11:253,1,55,14|2,0:1|0:0,0:0:0:0:
24,306,178622,6,0,P|70:334|123:324,1,110,4|14,3:1|0:1,0:0:0:0:
173,303,179218,2,0,L|183:249,1,55,2|4,3:0|0:1,0:0:0:0:
235,225,179616,1,2,3:0:0:0:
235,225,179815,2,0,L|225:171,1,55,14|2,0:1|0:0,0:0:0:0:
214,117,180211,2,0,P|260:89|313:99,1,110,4|14,3:1|0:1,0:0:0:0:
366,126,180808,1,2,3:0:0:0:
366,126,181006,2,0,L|376:180,1,55,4|0,0:1|3:0,0:0:0:0:
388,234,181404,1,12,0:1:0:0:
324,323,181800,6,0,L|216:304,1,110,6|10,3:2|0:0,0:0:0:0:
161,295,182396,1,6,3:2:0:0:
95,206,182794,2,0,L|105:152,1,55,2|8,3:0|0:0,0:0:0:0:
119,98,183191,2,0,P|165:70|218:80,1,110,6|2,3:2|3:0,0:0:0:0:
273,103,183787,1,8,0:0:0:0:
273,103,183986,2,0,L|292:212,1,110,6|2,3:2|3:0,0:0:0:0:
302,265,184582,1,8,0:0:0:0:
364,355,184979,6,0,P|416:364|462:336,1,110,6|10,3:2|0:0,0:0:0:0:
491,289,185575,1,6,3:2:0:0:
470,180,185973,2,0,L|460:126,1,55,2|8,3:0|0:0,0:0:0:0:
451,71,186370,2,0,P|405:43|352:52,1,110,6|2,3:2|3:0,0:0:0:0:
311,88,186966,1,8,0:0:0:0:
311,88,187165,1,6,3:2:0:0:
239,12,187562,1,2,3:0:0:0:
239,12,187761,2,0,L|185:22,1,55,8|2,0:0|3:0,0:0:0:0:
131,33,188158,6,0,L|112:141,1,110,6|10,3:2|0:0,0:0:0:0:
101,195,188754,1,6,3:2:0:0:
4,248,189152,2,0,L|14:302,1,55,2|8,3:0|0:0,0:0:0:0:
26,355,189549,2,0,P|72:383|125:373,1,110,6|2,3:2|3:0,0:0:0:0:
178,352,190145,1,8,0:0:0:0:
178,352,190344,2,0,L|197:243,1,110,6|2,3:2|3:0,0:0:0:0:
208,189,190940,1,8,0:0:0:0:
285,111,191337,6,0,L|339:101,1,55,6|8,3:2|0:0,0:0:0:0:
359,49,191734,2,0,L|413:58,1,55,8|2,0:0|1:0,0:0:0:0:
468,66,192132,2,0,P|496:112|486:165,1,110,2|8,0:0|0:0,0:0:0:0:
470,220,192728,1,8,0:0:0:0:
470,220,192926,1,6,3:2:0:0:
470,220,194516,6,0,L|362:239,1,110,6|8,3:2|0:0,0:0:0:0:
310,250,195112,1,10,0:3:0:0:
310,250,195310,1,2,3:0:0:0:
251,343,195708,2,0,L|197:333,1,55,8|8,0:0|0:3,0:0:0:0:
142,322,196105,2,0,L|123:213,1,110,0|8,3:0|0:0,0:0:0:0:
40,140,196900,1,0,3:0:0:0:
96,45,197297,2,0,L|150:55,1,55,8|8,0:0|0:3,0:0:0:0:
204,66,197695,6,0,P|232:112|222:165,1,110,0|8,3:0|0:0,0:0:0:0:
123,213,198489,2,0,P|113:265|141:311,1,110,0|8,3:0|0:0,0:0:0:0:
191,345,199085,1,8,0:3:0:0:
191,345,199284,2,0,L|245:335,1,55,0|8,3:0|0:3,0:0:0:0:
299,324,199681,1,8,0:0:0:0:
406,349,200079,2,0,L|416:295,1,55,0|8,3:0|0:3,0:0:0:0:
468,277,200476,2,0,L|458:223,1,55,8|8,0:0|0:3,0:0:0:0:
447,168,200873,6,0,L|338:149,1,110,4|8,3:2|0:0,0:0:0:0:
284,139,201469,2,0,P|256:93|266:40,1,110,4|0,3:2|3:0,0:0:0:0:
304,1,202065,1,8,0:0:0:0:
304,1,202264,1,4,3:2:0:0:
412,17,202661,2,0,L|422:71,1,55,0|8,3:0|0:0,0:0:0:0:
473,90,203059,2,0,L|454:198,1,110,4|0,3:2|3:0,0:0:0:0:
442,252,203655,1,8,0:0:0:0:
334,273,204052,6,0,L|280:283,1,55,4|8,3:2|0:0,0:0:0:0:
229,296,204450,1,0,1:0:0:0:
229,296,204648,1,4,3:2:0:0:
148,220,205046,1,0,1:0:0:0:
74,138,205443,2,0,B|174:19|408:74|271:267|495:229,1,495,4|0,3:2|0:0,0:0:0:0:
256,192,207430,12,0,212099,0:0:0:0:
