osu file format v14

[General]
AudioFilename: audio.mp3
AudioLeadIn: 0
PreviewTime: 54250
Countdown: 0
SampleSet: Soft
StackLeniency: 0.3
Mode: 0
LetterboxInBreaks: 0
WidescreenStoryboard: 0

[Editor]
DistanceSpacing: 0.5
BeatDivisor: 4
GridSize: 16
TimelineZoom: 2.9

[Metadata]
Title:Byoumei wa Ai datta
TitleUnicode:病名は愛だった
Artist:Neru
ArtistUnicode:Neru
Creator:Cocytus
Version:Insane
Source:
Tags:
BeatmapID:1449930
BeatmapSetID:685183

[Difficulty]
HPDrainRate:5
CircleSize:4.4
OverallDifficulty:5
ApproachRate:9
SliderMultiplier:1.64
SliderTickRate:2

[Events]
//Background and Video events
0,0,"65174817_p0.jpg",0,0
//Break Periods
//Storyboard Layer 0 (Background)
//Storyboard Layer 1 (Fail)
//Storyboard Layer 2 (Pass)
//Storyboard Layer 3 (Foreground)
//Storyboard Sound Samples

[TimingPoints]
1837,344.827586206897,4,2,1,50,1,0
22873,-200,4,2,1,50,0,0
45974,-133.333333333333,4,2,1,50,0,0
50112,-100,4,2,1,50,0,0
50285,-100,4,2,1,5,0,0
50457,-100,4,2,1,50,0,0
50630,-100,4,2,1,5,0,0
50802,-100,4,2,1,50,0,0
50974,-100,4,2,1,5,0,0
51147,-100,4,2,1,50,0,0
51319,-100,4,2,1,5,0,0
51405,-100,4,2,1,50,0,0
51664,-100,4,2,1,5,0,0
51837,-100,4,2,1,50,0,0
52009,-100,4,2,1,5,0,0
52181,-100,4,2,1,50,0,0
52354,-100,4,2,1,5,0,0
52526,-100,4,2,1,50,0,0
52699,-100,4,2,1,5,0,0
52871,-100,4,2,1,50,0,0
53043,-100,4,2,1,5,0,0
53216,-100,4,2,1,50,0,0
53388,-100,4,2,1,5,0,0
53561,-100,4,2,1,50,0,0
53647,-100,4,2,1,5,0,0
53905,-100,4,2,1,50,0,0
53992,-100,4,2,1,50,0,0
54595,-66.6666666666667,4,2,1,50,0,0
55630,-200,4,2,1,50,0,1
56319,-100,4,2,1,50,0,1
56837,-200,4,2,1,50,0,1
57354,-100,4,2,1,50,0,1
58043,-66.6666666666667,4,2,1,50,0,1
58216,-66.6666666666667,4,2,1,5,0,1
58388,-66.6666666666667,4,2,1,50,0,1
58733,-200,4,2,1,50,0,1
60112,-100,4,2,1,50,0,1
61319,-200,4,2,1,50,0,1
61837,-100,4,2,1,50,0,1
62354,-200,4,2,1,50,0,1
63216,-66.6666666666667,4,2,1,50,0,1
64078,-100,4,2,1,50,0,1
64250,-200,4,2,1,50,0,1
65285,-100,4,2,1,50,0,1
66319,-66.6666666666667,4,2,1,50,0,1
66837,-200,4,2,1,50,0,1
67699,-66.6666666666667,4,2,1,50,0,1
67871,-200,4,2,1,50,0,1
68733,-66.6666666666667,4,2,1,50,0,1
69078,-66.6666666666667,4,2,1,50,0,1
69595,-100,4,2,1,50,0,1
69768,-200,4,2,1,50,0,1
71061,-66.6666666666667,4,2,1,50,0,1
72354,-200,4,2,1,50,0,1
72871,-66.6666666666667,4,2,1,50,0,1
73216,-200,4,2,1,50,0,1
73733,-100,4,2,1,50,0,1
74250,-66.6666666666667,4,2,1,50,0,1
74940,-200,4,2,1,50,0,1
75112,-100,4,2,1,50,0,1
75285,-200,4,2,1,50,0,1
76664,-100,4,2,1,50,0,1
77009,-200,4,2,1,50,0,0
77699,-133.333333333333,4,2,1,50,0,0
99595,-200,4,2,1,50,0,0
100802,-100,4,2,1,50,0,0
110457,-200,4,2,1,50,0,0
110802,-100,4,2,1,50,0,0
120802,-200,4,2,1,50,0,0
121837,-50,4,2,1,50,0,0
122181,-200,4,2,1,50,0,0
123216,-50,4,2,1,50,0,0
123905,-66.6666666666667,4,2,1,50,0,0
124940,-200,4,2,1,50,0,0
126319,-100,4,2,1,50,0,0
126664,-50,4,2,1,50,0,0
127354,-200,4,2,1,50,0,0
127699,-66.6666666666667,4,2,1,50,0,0

[Colours]
Combo1 : 179,166,177
Combo2 : 255,19,137
Combo3 : 21,23,21

[HitObjects]
253,196,10804,5,0,0:0:0:0:
253,196,10977,1,0,0:0:0:0:
236,276,11149,2,0,P|274:276|319:233,1,82
265,116,11494,2,0,L|237:286,1,164
221,358,12011,1,0,0:0:0:0:
221,358,12356,1,0,0:0:0:0:
297,329,12528,1,0,0:0:0:0:
336,256,12701,1,0,0:0:0:0:
321,175,12873,5,0,0:0:0:0:
265,116,13046,2,0,L|168:105,2,82
421,121,13735,2,0,B|378:142|378:142|260:114,1,164
183,106,14252,6,0,P|130:114|96:141,1,82
56,193,14597,1,0,0:0:0:0:
89,268,14770,2,0,P|124:241|137:190,1,82
107,129,15115,1,0,0:0:0:0:
27,109,15287,1,0,0:0:0:0:
166,75,15459,2,0,P|191:144|136:208,1,164
56,193,15977,1,0,0:0:0:0:
208,151,16149,2,0,B|251:163|286:151|286:151|285:159|285:159|321:148|361:157,1,164
440,302,16666,2,0,P|403:307|350:280,1,82
404,88,17011,6,0,P|446:154|412:231,1,164
362,291,17528,2,0,P|315:283|272:299,1,82
222,348,17873,2,0,P|118:330|41:327,1,164
332,367,18390,2,0,P|378:377|423:348,1,82
473,312,18735,2,0,L|462:221,1,82
451,149,19080,1,0,0:0:0:0:
362,291,19252,2,0,P|321:279|280:248,1,82
180,70,19597,6,0,P|191:121|202:149,1,82
183,228,19942,1,0,0:0:0:0:
183,228,20115,1,0,0:0:0:0:
183,228,20287,1,0,0:0:0:0:
256,84,20459,2,0,B|380:67|380:67|329:92,1,164
201,148,20977,2,0,L|98:134,2,82
282,156,21494,1,0,0:0:0:0:
350,228,21666,2,0,P|368:182|362:139,1,82
431,121,21925,1,0,0:0:0:0:
431,121,22011,2,0,P|437:207|403:283,1,164
190,320,22528,5,0,0:0:0:0:
193,328,22701,1,0,0:0:0:0:
196,335,22873,6,0,P|243:328|281:325,1,82
355,348,23388,1,0,0:0:0:0:
355,348,23561,1,0,0:0:0:0:
435,217,23733,1,0,0:0:0:0:
477,147,23905,1,0,0:0:0:0:
410,98,24078,2,0,L|402:42,2,41
435,217,24595,1,0,0:0:0:0:
435,217,24768,2,0,L|442:270,2,41
404,57,25285,6,0,P|364:52|322:75,2,82
383,136,26147,5,0,0:0:0:0:
372,217,26319,1,0,0:0:0:0:
289,351,26492,5,0,0:0:0:0:
265,272,26664,1,0,0:0:0:0:
368,129,26837,5,0,0:0:0:0:
365,142,27009,1,0,0:0:0:0:
362,154,27181,2,0,B|319:137|319:137|281:138,1,82
283,137,27871,1,0,0:0:0:0:
192,250,28043,6,0,L|242:264,1,41
108,244,28388,2,0,L|158:258,1,41
300,302,28733,2,0,P|310:262|298:218,1,82
246,63,29250,1,0,0:0:0:0:
201,181,29423,1,0,0:0:0:0:
281,138,29595,1,0,0:0:0:0:
159,102,29768,2,0,P|121:97|87:89,1,61.5
98,92,30112,1,0,0:0:0:0:
281,138,30285,2,0,P|311:127|371:130,1,82
429,142,30716,1,0,0:0:0:0:
427,140,30802,6,0,L|424:197,1,41
421,263,31147,1,0,0:0:0:0:
410,344,31319,2,0,P|360:331|316:335,1,82
330,332,32009,1,0,0:0:0:0:
252,356,32181,1,0,0:0:0:0:
266,233,32354,2,0,P|272:271|272:288,1,41
189,273,32699,2,0,P|142:286|93:283,1,82
47,231,33216,2,0,L|36:175,1,41
153,113,33561,6,0,P|175:195|190:284,1,164
319,109,34595,2,0,L|331:160,1,41
353,227,34940,1,0,0:0:0:0:
289,279,35112,1,0,0:0:0:0:
473,239,35285,2,0,L|420:252,1,41
319,109,35630,1,0,0:0:0:0:
259,165,35802,1,0,0:0:0:0:
472,117,35975,6,0,L|386:142,1,82
393,139,36492,1,0,0:0:0:0:
451,197,36664,1,0,0:0:0:0:
408,64,36837,2,0,L|396:24,2,41
320,164,37354,1,0,0:0:0:0:
320,164,37526,2,0,B|283:173|283:173|255:164|230:160|230:160|193:165,1,123
256,318,38388,2,0,L|256:349,4,20.5
221,200,38905,1,0,0:0:0:0:
210,182,38992,1,0,0:0:0:0:
199,164,39078,6,0,P|125:136|40:180,1,164
327,239,40112,1,0,0:0:0:0:
327,239,40457,1,0,0:0:0:0:
327,239,40630,2,0,L|327:286,1,41
407,191,40974,2,0,L|396:141,1,41
398,150,41319,1,0,0:0:0:0:
311,248,41492,2,0,L|311:295,1,41
424,184,41836,6,0,L|413:134,1,41
390,65,42181,1,0,0:0:0:0:
425,181,42354,1,0,0:0:0:0:
412,201,42526,2,0,L|412:296,1,82
100,183,43216,2,0,B|101:157|101:157|96:131|96:131|98:97,1,82
118,64,43647,1,0,0:0:0:0:
118,64,43733,2,0,L|118:111,1,41
309,171,44250,2,0,P|266:171|220:197,1,82
103,290,44940,6,0,L|152:281,1,41
184,275,45199,1,0,0:0:0:0:
184,275,45285,1,0,0:0:0:0:
383,189,45630,2,0,L|337:188,2,41
475,192,46147,1,0,0:0:0:0:
451,102,46319,2,0,L|457:173,1,61.5000023460389
475,192,46578,1,0,0:0:0:0:
475,192,46664,2,0,L|481:263,1,61.5000023460389
364,48,47009,2,0,L|370:119,1,61.5000023460389
267,112,47354,6,0,L|273:183,1,61.5000023460389
151,52,47699,2,0,L|157:123,1,61.5000023460389
138,139,47957,1,0,0:0:0:0:
138,139,48043,2,0,L|144:210,1,61.5000023460389
28,120,48388,2,0,L|34:191,1,61.5000023460389
12,211,48647,1,0,0:0:0:0:
12,211,48733,2,0,L|17:280,1,61.5000023460389
143,200,49078,1,0,0:0:0:0:
143,200,49250,1,0,0:0:0:0:
275,176,49595,2,0,L|279:201,4,15.3750005865097
480,311,50112,6,0,L|467:218,1,82
349,260,50457,2,0,L|336:167,1,82
248,332,50802,2,0,L|237:251,1,82
118,285,51147,2,0,L|105:192,1,82
32,174,51405,1,0,0:0:0:0:
32,174,51492,2,0,L|43:255,1,82
152,80,51837,2,0,L|163:161,1,82
307,127,52181,2,0,L|318:208,1,82
435,39,52526,2,0,L|446:120,1,82
422,295,52871,6,0,L|410:213,1,82
246,267,53216,2,0,L|234:185,1,82
109,328,53561,2,0,L|101:283,1,41
174,65,53905,2,0,L|184:117,1,41
218,308,54250,1,0,0:0:0:0:
218,308,54595,6,0,L|174:63,2,246.000009384156
48,37,55630,1,0,0:0:0:0:
16,197,55802,2,0,B|2:170|2:170|84:187,1,102.5
149,186,56319,2,0,L|184:179,1,27.3333333333333
165,253,56434,2,0,L|200:246,1,27.3333333333333
295,263,56549,2,0,L|260:270,1,27.3333333333333
286,192,56664,2,0,L|219:205,1,41
40,322,56837,6,0,P|79:315|122:340,1,82
204,371,57354,6,0,B|218:357|218:357|218:330,1,27.3333333333333
316,254,57469,6,0,B|296:248|296:248|273:262,1,27.3333333333333
180,206,57584,6,0,B|185:225|185:225|208:238,1,27.3333333333333
218,349,57699,6,0,B|260:358|260:358|306:338,1,82
22,324,58043,6,0,B|80:317|80:317|80:321|80:321|160:309,1,123.000004692078
426,276,58388,1,0,0:0:0:0:
140,314,58561,6,0,L|144:354,2,41.0000015640259
140,314,58733,6,0,P|142:285|126:248,1,61.5
112,190,59078,2,0,P|101:160|102:118,1,61.5
115,66,59423,2,0,P|112:40|105:16,1,41
0,64,59768,1,0,0:0:0:0:
14,99,59882,1,0,0:0:0:0:
31,130,59997,1,0,0:0:0:0:
63,152,60112,6,0,P|143:161|214:112,1,164
330,235,60630,5,0,0:0:0:0:
423,38,60802,6,0,P|343:29|282:68,1,123
268,74,61147,1,0,0:0:0:0:
330,235,61319,2,0,B|329:318|329:318|304:294,1,102.5
284,174,61837,6,0,P|305:161|322:160,1,27.3333333333333
327,156,61951,6,0,P|347:157|363:162,1,27.3333333333333
369,167,62066,6,0,P|385:177|395:192,1,27.3333333333333
399,199,62181,6,0,L|443:192,1,41
477,353,62354,6,0,P|462:328|439:310,1,41
279,375,62699,2,0,P|304:384|327:383,1,41
382,357,62986,1,0,0:0:0:0:
434,312,63101,1,0,0:0:0:0:
319,157,63216,6,0,L|314:292,1,123.000004692078
480,352,63561,2,0,L|471:228,1,123.000004692078
407,42,63905,1,0,0:0:0:0:
407,42,64078,6,0,L|373:36,2,27.3333333333333
407,42,64250,2,0,P|369:58|333:53,1,61.5
407,42,64595,2,0,P|401:82|379:111,1,61.5,0|0,0:3|0:0,0:0:0:0:
407,42,64940,2,0,P|439:66|446:80,1,41,0|0,0:3|0:0,3:0:0:0:
409,301,65285,6,0,L|423:262,1,41
310,150,65457,2,0,L|342:175,1,41
458,193,65630,5,0,0:0:0:0:
286,249,65802,1,0,0:0:0:0:
394,340,65974,1,0,0:0:0:0:
342,175,66147,1,0,0:0:0:0:
154,216,66319,6,0,B|214:184|272:208|285:250|285:250|257:235|234:233,1,184.500007038117
140,226,66664,1,0,0:0:0:0:
57,65,66837,6,0,B|68:39|68:39|64:119,1,102.5
64,127,67354,5,0,0:0:0:0:
57,152,67469,1,0,0:0:0:0:
64,182,67584,1,0,0:0:0:0:
48,233,67699,2,0,B|38:250|38:250|33:308,1,61.5000023460389
25,376,67871,6,0,L|122:368,1,82
315,333,68388,1,0,0:0:0:0:
272,316,68503,1,0,0:0:0:0:
226,321,68618,1,0,0:0:0:0:
195,347,68733,6,0,L|192:204,1,123.000004692078
117,83,69078,2,0,L|116:210,1,123.000004692078
106,369,69423,1,0,0:0:0:0:
154,216,69595,2,0,L|159:249,3,20.5
159,249,69768,6,0,P|151:217|121:184,1,61.5
134,261,70112,6,0,P|126:229|96:196,1,61.5
98,272,70457,6,0,P|93:253|83:234,1,41
151,79,70802,2,0,P|156:98|166:117,1,41
230,73,71061,1,0,0:0:0:0:
230,73,71147,1,0,0:0:0:0:
26,284,71319,1,0,0:0:0:0:
172,353,71492,1,0,0:0:0:0:
47,162,71664,1,0,0:0:0:0:
213,268,71837,6,0,B|235:207|301:194|301:194|347:237,1,184.500007038117
405,291,72181,1,0,0:0:0:0:
492,35,72354,6,0,B|486:13|486:13|479:85,1,82
422,348,72871,2,0,P|408:320|406:277,1,61.5000023460389
500,294,73043,1,0,0:0:0:0:
500,294,73130,1,0,0:0:0:0:
500,294,73216,2,0,L|478:303,1,20.5
338,335,73388,2,0,B|289:338|271:372|272:372,1,61.5
422,348,73733,2,0,L|409:302,1,41
381,230,73905,5,0,0:0:0:0:
385,181,74020,1,0,0:0:0:0:
368,126,74135,1,0,0:0:0:0:
374,51,74250,2,0,B|336:146|411:133|376:244,1,184.500007038117
310,304,74595,2,0,B|273:259|293:183,1,123.000004692078
467,94,74940,6,0,L|429:99,1,20.5
292,188,75112,6,0,L|316:186,3,20.5
292,188,75285,6,0,P|276:152|273:115,1,61.5
467,94,75630,6,0,P|483:130|486:167,1,61.5
292,188,75974,6,0,P|276:152|273:134,1,41
467,94,76319,5,0,0:0:0:0:
476,111,76405,1,0,0:0:0:0:
483,131,76491,1,0,0:0:0:0:
486,151,76578,1,0,0:0:0:0:
482,170,76664,2,0,L|488:218,1,41
416,257,76837,2,0,L|420:301,1,41
422,323,77009,1,0,0:0:0:0:
254,118,77354,1,0,0:0:0:0:
150,200,77699,6,0,P|102:164|33:178,2,123.000004692078
215,265,78561,1,0,0:0:0:0:
340,192,78733,2,0,L|280:200,1,61.5000023460389
320,272,79078,1,0,0:0:0:0:
280,200,79250,1,0,0:0:0:0:
166,344,79423,2,0,L|289:349,1,123.000004692078
378,373,79940,2,0,L|255:368,1,123.000004692078
215,265,80457,6,0,P|244:201|223:145,2,123.000004692078
153,121,81319,2,0,P|180:87|204:76,1,61.5000023460389
284,120,81664,2,0,B|286:175|265:187|265:187|229:153,1,123.000004692078
81,94,82181,6,0,P|121:38|176:12,1,123.000004692078
111,124,82699,2,0,P|144:73|198:43,1,123.000004692078
351,159,83216,2,0,L|225:152,1,123.000004692078
279,74,83733,1,0,0:0:0:0:
393,239,83905,1,0,0:0:0:0:
393,239,84078,2,0,P|442:211|513:221,1,123.000004692078
511,307,84595,6,0,L|505:377,1,61.5000023460389
393,239,84940,2,0,L|366:104,1,123.000004692078
434,53,85457,2,0,L|459:174,1,123.000004692078
323,18,85974,2,0,P|279:60|208:63,1,123.000004692078
129,41,86492,1,0,0:0:0:0:
91,156,86664,2,0,P|85:195|86:223,1,61.5000023460389
180,259,87009,2,0,P|186:220|185:192,1,61.5000023460389
105,305,87354,6,0,P|126:330|152:345,1,61.5000023460389
282,214,87699,2,0,P|215:219|177:263,1,123.000004692078
280,335,88216,2,0,B|311:347|328:338|328:338|342:338|342:338|347:328|347:328|403:311|391:227,1,184.500007038117
341,161,88905,5,0,0:0:0:0:
512,93,89078,2,0,L|389:81,1,123.000004692078
297,75,89595,1,0,0:0:0:0:
232,141,89768,2,0,L|160:136,1,61.5000023460389
117,212,90112,2,0,L|45:207,1,61.5000023460389
227,232,90457,2,0,P|251:285|213:348,1,123.000004692078
136,368,90974,1,0,0:0:0:0:
226,350,91147,1,0,0:0:0:0:
313,378,91319,1,0,0:0:0:0:
292,185,91492,6,0,P|286:158|298:118,2,61.5000023460389
361,246,92009,1,0,0:0:0:0:
489,149,92181,2,0,B|463:176|463:176|376:160,1,123.000004692078
293,125,92699,2,0,P|239:100|175:116,1,123.000004692078
57,225,93216,1,0,0:0:0:0:
130,281,93388,2,0,B|138:313|138:313|130:348,1,61.5000023460389
43,212,93733,1,0,0:0:0:0:
7,126,93905,1,0,0:0:0:0:
36,38,94078,1,0,0:0:0:0:
51,219,94250,6,0,P|108:231|157:194,1,123.000004692078
191,107,94768,1,0,0:0:0:0:
255,235,94940,1,0,0:0:0:0:
318,108,95112,2,0,P|259:89|195:92,1,123.000004692078
108,115,95630,1,0,0:0:0:0:
53,189,95802,1,0,0:0:0:0:
176,284,95974,1,0,0:0:0:0:
176,284,96147,1,0,0:0:0:0:
254,236,96319,1,0,0:0:0:0:
385,330,96492,2,0,B|356:318|333:328|333:328|311:318|311:318|289:327|289:327|263:321,1,123.000004692078
454,372,97009,6,0,P|462:328|459:308,1,61.5000023460389
400,240,97354,1,0,0:0:0:0:
326,184,97526,2,0,L|331:106,1,61.5000023460389
355,33,97871,1,0,0:0:0:0:
421,97,98043,1,0,0:0:0:0:
319,112,98216,2,0,B|315:165|315:165|320:185|320:185|314:243,1,123.000004692078
401,343,98733,2,0,P|391:314|364:291,1,61.5000023460389
238,355,99078,2,0,L|302:349,2,61.5000023460389
223,348,99595,6,0,B|304:340|304:340|357:370|357:370|426:363,1,205
419,363,100802,1,0,0:0:0:0:
419,363,100974,1,0,0:0:0:0:
385,159,101147,2,0,P|355:182|335:234,1,82
367,297,101492,1,0,0:0:0:0:
367,297,101664,1,0,0:0:0:0:
418,232,101837,2,0,P|462:231|514:232,2,82
336,221,102354,1,0,0:0:0:0:
336,221,102699,6,0,B|219:260|209:186|94:226,1,246
53,297,103388,2,0,P|97:308|140:292,1,82
267,158,103733,2,0,P|253:110|270:68,1,82
261,80,104250,1,0,0:0:0:0:
267,87,104595,1,0,0:0:0:0:
273,94,104940,1,0,0:0:0:0:
280,102,105285,6,0,L|275:187,1,82
360,274,105630,2,0,L|356:193,1,82
288,115,105974,2,0,L|279:288,2,164
291,32,106837,1,0,0:0:0:0:
291,32,107009,1,0,0:0:0:0:
291,32,107181,1,0,0:0:0:0:
251,187,107354,2,0,P|209:192|168:177,1,82
367,71,107699,2,0,P|409:66|450:81,1,82
489,183,108043,6,0,L|481:274,1,82
421,320,108388,1,0,0:0:0:0:
208,291,108561,2,0,P|279:252|359:265,2,164
135,330,109423,2,0,L|38:313,1,82
219,307,109768,1,0,0:0:0:0:
225,325,109854,1,0,0:0:0:0:
226,346,109940,1,0,0:0:0:0:
222,366,110026,1,0,0:0:0:0:
209,382,110112,1,0,0:0:0:0:
255,38,110457,6,0,P|239:55|231:103,1,61.5
231,102,110802,6,0,L|411:82,1,164
288,199,111319,2,0,L|291:179,3,20.5
286,218,111492,2,0,L|106:198,1,164
65,258,112009,1,0,0:0:0:0:
308,328,112181,2,0,P|377:285|388:193,1,164
192,76,112699,2,0,L|184:57,3,20.5
202,89,112871,2,0,P|251:144|339:128,1,164
393,75,113388,1,0,0:0:0:0:
473,217,113561,6,0,L|364:205,1,82
310,221,113905,1,0,0:0:0:0:
178,299,114078,2,0,L|175:319,3,20.5
196,282,114250,2,0,P|241:277|279:306,1,82
406,355,114595,2,0,L|490:343,1,82
198,261,114940,2,0,L|112:253,1,82
366,152,115285,2,0,L|424:141,1,41
210,132,115457,2,0,L|152:121,1,41
385,70,115630,2,0,L|443:59,1,41
225,60,115802,2,0,L|189:53,3,20.5
225,60,115974,2,0,L|336:43,1,82
138,217,116319,6,0,P|79:178|69:89,2,164
178,225,117095,1,0,0:0:0:0:
199,259,117181,1,0,0:0:0:0:
199,300,117268,1,0,0:0:0:0:
177,334,117354,2,0,L|265:335,1,82
328,300,117612,1,0,0:0:0:0:
328,300,117699,2,0,B|349:341|322:378,1,82
261,254,118043,1,0,0:0:0:0:
261,254,118216,1,0,0:0:0:0:
318,133,118388,2,0,B|342:146|342:146|401:137,2,82
224,51,118905,2,0,L|243:60,3,20.5
243,60,119078,6,0,B|212:52|212:52|142:62,1,82
20,75,119423,1,0,0:0:0:0:
93,245,119595,1,0,0:0:0:0:
133,134,119768,1,0,0:0:0:0:
5,266,119940,1,0,0:0:0:0:
142,323,120112,1,0,0:0:0:0:
133,146,120285,1,0,0:0:0:0:
58,331,120457,1,0,0:0:0:0:
244,318,120630,1,0,0:0:0:0:
133,158,120802,6,0,L|222:148,1,82
452,187,121492,2,0,P|421:198|402:222,1,61.5
402,234,121837,6,0,L|386:46,1,164
496,114,122181,6,0,L|494:167,1,41
429,321,122526,1,0,0:0:0:0:
423,299,122612,1,0,0:0:0:0:
416,277,122699,1,0,0:0:0:0:
410,255,122785,1,0,0:0:0:0:
404,233,122871,1,0,0:0:0:0:
434,345,123043,5,0,0:0:0:0:
321,221,123216,6,0,B|289:229|289:229|304:196|333:176|371:182|403:215,1,164
256,321,123561,5,0,0:0:0:0:
220,279,123676,1,0,0:0:0:0:
208,225,123791,1,0,0:0:0:0:
218,171,123905,2,0,P|260:124|326:105,1,123.000004692078
493,274,124250,2,0,P|436:254|396:209,1,123.000004692078
441,24,124595,1,0,0:0:0:0:
464,190,124768,1,0,0:0:0:0:
461,199,124825,1,0,0:0:0:0:
458,209,124882,1,0,0:0:0:0:
453,220,124940,2,0,P|430:221|382:196,1,61.5
325,278,125285,2,0,P|373:286|393:303,1,61.5
449,230,125630,2,0,P|426:231|378:206,1,61.5
302,299,125974,1,0,0:0:0:0:
336,293,126089,1,0,0:0:0:0:
367,302,126204,1,0,0:0:0:0:
390,318,126319,2,0,P|330:292|265:322,1,123
197,366,126664,2,0,L|15:344,1,164
255,199,127009,2,0,P|328:176|413:203,1,164
467,308,127354,1,0,0:0:0:0:
330,83,127526,1,0,0:0:0:0:
246,263,127699,2,0,B|225:226|239:173|239:173|249:178|258:212,1,123.000004692078
