osu file format v14

[General]
AudioFilename: audio.mp3
AudioLeadIn: 0
PreviewTime: 77185
Countdown: 1
SampleSet: Soft
StackLeniency: 0.2
Mode: 0
LetterboxInBreaks: 0
WidescreenStoryboard: 1

[Editor]
Bookmarks: 22357,33564,43564,109426,143909,177012
DistanceSpacing: 0.6
BeatDivisor: 4
GridSize: 16
TimelineZoom: 1.8

[Metadata]
Title:Byoumei wa Ai Datta
TitleUnicode:病名は愛だった
Artist:Neru
ArtistUnicode:Neru
Creator:X Light
Version:Insane
Source:
Tags:Future Bass
BeatmapID:1448489
BeatmapSetID:677905

[Difficulty]
HPDrainRate:5
CircleSize:4
OverallDifficulty:6
ApproachRate:8
SliderMultiplier:1.6
SliderTickRate:1

[Events]
//Background and Video events
0,0,"64495434_p0.jpg",0,0
//Break Periods
2,19626,54883
2,99971,110055
//Storyboard Layer 0 (Background)
//Storyboard Layer 1 (Fail)
//Storyboard Layer 2 (Pass)
//Storyboard Layer 3 (Foreground)
//Storyboard Sound Samples

[TimingPoints]
461,344.827586206897,4,2,1,50,1,0
10978,-133.333333333333,4,2,1,20,0,0
11495,-166.666666666667,4,2,1,20,0,0
55633,-100,4,2,1,20,0,0
77702,-133.333333333333,4,2,1,20,0,0
110805,-200,4,2,1,20,0,0
117698,-166.666666666667,4,2,1,20,0,0
119081,-133.333333333333,4,2,1,20,0,0
120461,-100,4,2,1,20,0,0
121840,-100,4,2,1,20,0,0
208047,-100,4,2,1,10,0,0

[Colours]
Combo1 : 128,128,128
Combo2 : 160,203,137
Combo3 : 255,147,201
Combo4 : 77,179,155
Combo5 : 255,68,68
Combo6 : 128,0,128

[HitObjects]
86,138,10978,6,0,P|80:175|64:194,1,60.0000022888185
47,105,11495,6,0,L|154:96,1,95.9999970703126
222,98,12012,2,0,L|326:90,1,95.9999970703126
446,113,12529,1,0,0:0:0:0:
350,22,12702,1,0,0:0:0:0:
309,173,12874,6,0,P|340:197|364:205,1,47.9999985351563
447,210,13219,1,0,0:0:0:0:
165,362,16840,5,0,0:0:0:0:
167,352,17012,2,0,P|160:303|123:272,1,95.9999970703126
112,267,17529,2,0,P|117:220|170:190,1,95.9999970703126
252,228,18047,2,0,L|300:224,1,47.9999985351563
411,302,18392,6,0,P|426:254|468:230,1,95.9999970703126
479,227,18909,2,0,P|482:179|435:141,1,95.9999970703126
357,183,19426,1,0,0:0:0:0:
301,226,55633,6,0,P|265:210|256:162,1,80
248,166,55978,2,0,P|255:224|224:265,1,106.666666666667
62,219,56323,5,0,0:0:0:0:
97,213,56438,1,0,0:0:0:0:
132,208,56552,1,0,0:0:0:0:
167,203,56667,1,0,0:0:0:0:
196,88,56840,6,0,L|90:100,1,80
316,272,57185,1,0,0:0:0:0:
302,137,57357,5,0,0:0:0:0:
324,104,57471,1,0,0:0:0:0:
360,89,57586,1,0,0:0:0:0:
400,95,57702,2,0,P|407:151|404:210,1,106.666666666667
399,210,58047,2,0,L|484:203,1,80
274,111,58392,5,0,0:0:0:0:
328,270,58564,2,0,L|324:301,3,26.6666666666667
411,134,58909,1,0,0:0:0:0:
248,209,59081,6,0,L|163:218,1,80
405,118,59426,2,0,L|490:127,1,80
366,361,59771,5,0,0:0:0:0:
344,330,59886,1,0,0:0:0:0:
342,292,60001,1,0,0:0:0:0:
351,255,60116,2,0,L|405:240,2,40
247,258,60461,5,0,0:0:0:0:
366,361,60633,1,0,0:0:0:0:
448,176,60805,2,0,P|403:166|357:156,1,80
217,84,61150,6,0,L|309:73,1,80
304,69,61495,2,0,L|297:214,1,120
291,284,61840,5,0,0:0:0:0:
263,265,61955,1,0,0:0:0:0:
231,258,62070,1,0,0:0:0:0:
199,260,62185,1,0,0:0:0:0:
330,384,62357,5,0,0:0:0:0:
422,313,62529,2,0,L|508:301,1,80
450,171,62874,5,0,0:0:0:0:
425,150,62989,1,0,0:0:0:0:
420,118,63104,1,0,0:0:0:0:
428,87,63219,2,0,P|442:50|395:10,1,106.666666666667
383,26,63564,2,0,L|299:31,1,80
141,132,63909,5,0,0:0:0:0:
211,40,64081,2,0,L|206:8,3,26.6666666666667
273,208,64426,1,0,0:0:0:0:
150,126,64598,6,0,L|61:126,1,80
4,47,64943,2,0,L|83:40,1,80
222,82,65288,5,0,0:0:0:0:
218,124,65403,1,0,0:0:0:0:
214,166,65518,1,0,0:0:0:0:
210,208,65633,2,0,L|216:266,2,53.3333333333333
303,190,65978,6,0,P|339:206|391:194,1,80
213,114,66323,2,0,P|153:130|118:180,1,120
124,189,66667,5,0,0:0:0:0:
6,165,66840,1,0,0:0:0:0:
24,307,67012,2,0,P|80:295|149:289,1,120
220,243,67357,5,0,0:0:0:0:
252,257,67472,1,0,0:0:0:0:
288,266,67587,1,0,0:0:0:0:
326,262,67702,1,0,0:0:0:0:
188,384,67874,5,0,0:0:0:0:
153,206,68047,2,0,P|157:166|153:120,1,80
249,40,68392,5,0,0:0:0:0:
281,28,68506,1,0,0:0:0:0:
314,42,68621,1,0,0:0:0:0:
331,75,68736,2,0,P|324:123|321:185,1,106.666666666667
325,190,69081,2,0,L|237:182,1,80
415,133,69426,5,0,0:0:0:0:
343,277,69598,2,0,L|349:316,3,26.6666666666667
512,221,69943,1,0,0:0:0:0:
410,142,70116,6,0,L|415:53,1,80
256,235,70461,2,0,P|262:271|267:314,1,80
289,128,70805,5,0,0:0:0:0:
250,117,70920,1,0,0:0:0:0:
212,125,71035,1,0,0:0:0:0:
181,150,71150,2,0,P|138:168|122:170,2,53.3333333333333
50,77,71495,6,0,P|92:81|136:87,1,80
196,247,71840,2,0,P|154:254|111:264,1,80
0,219,72185,5,0,0:0:0:0:
89,367,72357,1,0,0:0:0:0:
155,170,72529,2,0,P|199:138|263:134,1,106.666666666667
333,178,72874,5,0,0:0:0:0:
367,190,72988,1,0,0:0:0:0:
403,180,73103,1,0,0:0:0:0:
428,152,73218,1,0,0:0:0:0:
374,24,73392,6,0,P|366:68|363:106,1,80
233,27,73736,1,0,0:0:0:0:
181,253,73909,5,0,0:0:0:0:
183,221,74024,1,0,0:0:0:0:
175,189,74139,1,0,0:0:0:0:
155,162,74254,2,0,L|46:167,1,106.666666666667
32,170,74598,2,0,L|38:77,1,80
205,218,74943,5,0,0:0:0:0:
25,250,75116,2,0,L|0:257,3,26.6666666666667
125,122,75461,1,0,0:0:0:0:
197,305,75633,6,0,L|190:388,1,80
125,134,75978,2,0,P|120:80|117:48,1,80
248,193,76323,5,0,0:0:0:0:
287,193,76437,1,0,0:0:0:0:
323,210,76552,1,0,0:0:0:0:
346,242,76667,2,0,L|346:301,2,53.3333333333333
404,151,77012,5,0,0:0:0:0:
394,136,77702,5,0,0:0:0:0:
305,86,79426,6,0,L|170:73,1,120.000004577637
176,75,79943,2,0,P|145:107|64:96,1,120.000004577637
0,47,80461,5,0,0:0:0:0:
133,356,82185,6,0,P|137:323|68:280,1,120.000004577637
63,286,82702,2,0,L|193:274,1,120.000004577637
321,365,83219,5,0,0:0:0:0:
255,166,84943,6,0,L|260:44,1,120.000004577637
267,36,85461,2,0,L|143:45,1,120.000004577637
347,85,85978,6,0,L|415:91,1,60.0000022888184
491,120,86323,2,0,P|486:71|487:49,1,60.0000022888184
375,176,86667,5,0,0:0:0:0:
497,207,86840,1,0,0:0:0:0:
408,108,87012,1,0,0:0:0:0:
408,294,87185,1,0,0:0:0:0:
310,245,87357,6,0,L|233:250,1,60.0000022888184
186,161,87702,1,0,0:0:0:0:
241,250,87874,6,0,L|234:374,2,120.000004577637
155,251,88736,5,0,0:0:0:0:
245,119,88909,1,0,0:0:0:0:
318,218,89081,2,0,P|361:243|430:233,1,120.000004577637
487,130,89598,2,0,P|487:82|489:49,1,60.0000022888184
344,14,89943,1,0,0:0:0:0:
375,99,90116,6,0,P|378:128|380:158,1,60.0000022888184
339,237,90461,1,0,0:0:0:0:
424,278,90633,2,0,L|497:271,1,60.0000022888184
328,381,90978,5,0,0:0:0:0:
259,319,91150,2,0,P|258:280|263:250,1,60.0000022888184
339,175,91495,5,0,0:0:0:0:
355,282,91667,1,0,0:0:0:0:
269,247,91840,2,0,L|206:244,1,60.0000022888184
98,242,92185,6,0,L|110:118,1,120.000004577637
2,87,92702,2,0,P|16:116|22:143,1,60.0000022888184
185,61,93047,1,0,0:0:0:0:
91,40,93219,5,0,0:0:0:0:
156,152,93392,2,0,L|232:145,1,60.0000022888184
360,58,93736,5,0,0:0:0:0:
276,27,93909,2,0,P|264:69|268:95,1,60.0000022888184
330,174,94254,6,0,P|355:221|336:286,1,120.000004577637
329,288,94771,1,0,0:0:0:0:
226,261,94943,1,0,0:0:0:0:
255,371,95116,2,0,L|375:362,1,120.000004577637
474,370,95633,5,0,0:0:0:0:
415,290,95805,1,0,0:0:0:0:
474,212,95978,1,0,0:0:0:0:
404,147,96150,2,0,L|337:154,1,60.0000022888184
207,209,96495,5,0,0:0:0:0:
142,140,96667,2,0,P|168:113|190:103,1,60.0000022888184
286,31,97012,6,0,L|283:93,1,60.0000022888184
310,253,97357,1,0,0:0:0:0:
382,197,97529,2,0,P|438:185|499:176,1,120.000004577637
370,367,98047,5,0,0:0:0:0:
263,294,98219,2,0,P|207:277|147:262,1,120.000004577637
320,160,98736,5,0,0:0:0:0:
375,291,98909,2,0,L|371:360,1,60.0000022888184
324,167,99254,2,0,L|320:107,1,60.0000022888184
410,40,99598,1,0,0:0:0:0:
459,149,99771,5,0,0:0:0:0:
276,267,110805,6,0,L|280:185,1,80
188,203,111323,2,0,L|167:206,2,13.3333333333333
204,215,111495,6,0,L|208:133,1,80
403,87,112185,6,0,B|427:114|427:114|424:163,1,80
201,264,112702,2,0,L|222:270,2,13.3333333333333
176,262,112874,6,0,B|152:289|152:289|155:338,1,80
353,332,113564,6,0,L|442:323,1,80
199,220,114081,2,0,L|222:213,2,13.3333333333333
202,231,114254,6,0,L|113:222,1,80
78,82,114943,6,0,P|118:82|133:117,1,80
88,310,115461,1,0,0:0:0:0:
15,162,115633,5,0,0:0:0:0:
176,205,115805,2,0,L|196:200,3,13.3333333333333
8,332,116150,1,0,0:0:0:0:
33,155,116323,6,0,B|75:146,1,40
88,238,116667,2,0,B|48:246,1,40
87,54,117012,6,0,B|129:45,1,40
188,302,117356,2,0,B|148:310,1,40
143,313,117616,1,0,0:0:0:0:
137,315,117702,6,0,L|131:373,1,47.9999985351563
170,138,118047,2,0,L|159:88,1,47.9999985351563
63,204,118392,6,0,L|59:261,1,47.9999985351563
284,291,118737,2,0,L|271:242,1,47.9999985351563
270,240,118995,1,0,0:0:0:0:
268,234,119081,6,0,L|328:213,1,60.0000022888184
179,139,119426,1,0,0:0:0:0:
352,301,119598,1,0,0:0:0:0:
321,85,119771,5,0,0:0:0:0:
263,244,119943,1,0,0:0:0:0:
191,149,120116,5,0,0:0:0:0:
320,159,120288,1,0,0:0:0:0:
203,153,120461,6,0,L|151:166,2,53.3333333333333
96,225,120805,2,0,L|38:224,2,53.3333333333333
272,234,121150,5,0,0:0:0:0:
401,330,121840,5,0,0:0:0:0:
238,252,122012,1,0,0:0:0:0:
369,137,122185,2,0,L|490:128,1,120
469,219,122529,5,0,0:0:0:0:
429,203,122644,1,0,0:0:0:0:
386,210,122759,1,0,0:0:0:0:
354,238,122874,1,0,0:0:0:0:
373,384,123047,1,0,0:0:0:0:
251,343,123219,6,0,L|254:258,1,80
192,128,123564,1,0,0:0:0:0:
225,99,123679,1,0,0:0:0:0:
268,92,123794,1,0,0:0:0:0:
305,114,123909,2,0,P|359:135|417:123,1,106.666666666667
417,115,124254,2,0,L|412:22,1,80
477,231,124598,5,0,0:0:0:0:
354,180,124771,2,0,L|327:187,3,26.6666666666667
491,74,125116,1,0,0:0:0:0:
408,286,125288,6,0,P|442:317|489:318,1,80
266,343,125633,2,0,P|226:343|194:366,1,80
212,228,125978,1,0,0:0:0:0:
216,184,126092,1,0,0:0:0:0:
252,157,126207,1,0,0:0:0:0:
291,175,126323,2,0,L|294:235,2,53.3333333333333
268,50,126667,6,0,P|229:60|190:59,1,80
352,120,127012,2,0,P|415:113|457:166,1,120
448,169,127357,6,0,P|453:213|445:254,1,80
364,374,127702,2,0,P|408:334|471:338,1,120
377,302,128047,5,0,0:0:0:0:
336,289,128162,1,0,0:0:0:0:
309,271,128277,1,0,0:0:0:0:
292,245,128392,1,0,0:0:0:0:
167,287,128564,6,0,L|163:370,1,80
267,376,128909,1,0,0:0:0:0:
79,212,129081,5,0,0:0:0:0:
117,206,129196,1,0,0:0:0:0:
153,185,129311,1,0,0:0:0:0:
176,162,129426,2,0,P|239:166|289:209,1,106.666666666667
268,193,129771,2,0,P|271:147|289:114,1,80
426,183,130116,5,0,0:0:0:0:
290,104,130288,2,0,L|282:75,3,26.6666666666667
348,239,130633,1,0,0:0:0:0:
413,103,130805,2,0,L|499:91,1,80
273,200,131150,2,0,P|233:196|186:192,1,80
315,369,131495,5,0,0:0:0:0:
355,373,131609,1,0,0:0:0:0:
395,368,131724,1,0,0:0:0:0:
431,347,131840,2,0,P|435:314|425:283,2,53.3333333333333
453,205,132185,6,0,P|435:155|441:125,1,80
357,258,132529,2,0,L|232:254,1,120
242,166,132874,6,0,L|244:247,1,80
157,350,133219,2,0,P|94:336|71:278,1,120
105,177,133564,5,0,0:0:0:0:
97,138,133678,1,0,0:0:0:0:
69,111,133793,1,0,0:0:0:0:
30,105,133908,1,0,0:0:0:0:
8,252,134081,1,0,0:0:0:0:
180,213,134254,6,0,L|274:205,1,80
458,201,134598,5,0,0:0:0:0:
419,198,134713,1,0,0:0:0:0:
389,174,134828,1,0,0:0:0:0:
379,137,134943,2,0,L|382:18,1,106.666666666667
393,39,135288,2,0,L|488:32,1,80
329,287,135633,5,0,0:0:0:0:
260,124,135805,2,0,L|226:112,3,26.6666666666667
465,243,136150,1,0,0:0:0:0:
293,211,136323,6,0,P|249:211|210:193,1,80
391,101,136667,2,0,P|412:63|447:37,1,80
407,246,137012,5,0,0:0:0:0:
406,281,137126,1,0,0:0:0:0:
405,317,137241,1,0,0:0:0:0:
405,352,137357,2,0,L|339:364,2,53.3333333333333
303,298,137702,6,0,P|260:282|219:285,1,80
35,308,138047,2,0,P|77:360|152:343,1,120
139,350,138392,6,0,L|143:265,1,80
57,62,138736,2,0,L|63:194,1,120
105,151,139081,5,0,0:0:0:0:
157,147,139195,1,0,0:0:0:0:
205,168,139310,1,0,0:0:0:0:
239,209,139425,1,0,0:0:0:0:
349,82,139598,1,0,0:0:0:0:
401,255,139771,5,0,0:0:0:0:
342,88,139943,1,0,0:0:0:0:
239,209,140116,5,0,0:0:0:0:
187,213,140230,1,0,0:0:0:0:
139,192,140345,1,0,0:0:0:0:
105,151,140461,2,0,P|58:130|16:140,1,80
229,80,140805,2,0,L|321:67,1,80
47,226,141150,5,0,0:0:0:0:
67,50,141323,2,0,L|59:19,3,26.6666666666667
162,182,141667,1,0,0:0:0:0:
277,90,141840,6,0,P|283:48|271:9,1,80
162,182,142185,2,0,P|153:227|161:265,1,80
307,209,142529,5,0,0:0:0:0:
322,193,142644,1,0,0:0:0:0:
344,190,142759,1,0,0:0:0:0:
365,194,142874,1,0,0:0:0:0:
391,212,142989,1,0,0:0:0:0:
422,215,143104,1,0,0:0:0:0:
463,190,143219,5,0,0:0:0:0:
