osu file format v14

[General]
AudioFilename: audio.mp3
AudioLeadIn: 0
PreviewTime: 120756
Countdown: 0
SampleSet: Soft
StackLeniency: 0.3
Mode: 2
LetterboxInBreaks: 0
WidescreenStoryboard: 0

[Editor]
Bookmarks: 469,11503,22537,33572,44606,55641,77710,88744,99779,110813,154951,163917,165986,177020,188055
DistanceSpacing: 1
BeatDivisor: 16
GridSize: 16
TimelineZoom: 5.099997

[Metadata]
Title:Byoumei wa Ai Datta
TitleUnicode:病名は愛だった
Artist:Neru
ArtistUnicode:Neru
Creator:-Ken
Version:Overdose
Source:
Tags:押入れP OshiireP 鏡音リン・レン Vocaloid Kagamine Len Rin z'5 アルカロイドに溺れる Alkaloid ni Oboreru C92 Comiket CYNICISM The Disease Called Love Japanese Electronic rew0825 Deif Ellyu [_-Kukkai-_] f_d_flourite f d flourite fdf
BeatmapID:2623860
BeatmapSetID:1262361

[Difficulty]
HPDrainRate:6
CircleSize:4
OverallDifficulty:9.2
ApproachRate:9.2
SliderMultiplier:2.2
SliderTickRate:2

[Events]
//Background and Video events
0,0,"Rolua.jpg",0,0
//Break Periods
2,144121,153006
//Storyboard Layer 0 (Background)
//Storyboard Layer 1 (Fail)
//Storyboard Layer 2 (Pass)
//Storyboard Layer 3 (Foreground)
//Storyboard Layer 4 (Overlay)
//Storyboard Sound Samples

[TimingPoints]
473,344.827586206897,4,2,1,20,1,0
473,-100,4,2,1,20,0,0
3231,-125,4,2,1,20,0,0
6507,-100,4,2,1,20,0,0
12197,-100,4,2,4,20,0,0
12283,-100,4,2,1,20,0,0
14955,-100,4,2,4,20,0,0
15041,-100,4,2,1,20,0,0
16335,-100,4,2,4,20,0,0
16421,-100,4,2,1,20,0,0
17714,-100,4,2,4,20,0,0
17800,-100,4,2,1,20,0,0
22541,-100,4,2,1,30,0,0
27369,-100,4,2,5,30,0,0
27455,-100,4,2,1,30,0,0
32886,-100,4,2,5,30,0,0
32973,-100,4,2,1,30,0,0
38404,-71.4285714285714,4,2,1,30,0,0
38748,-100,4,2,1,30,0,0
50128,-100,4,2,1,40,0,0
52886,-83.3333333333333,4,2,1,40,0,0
53231,-83.3333333333333,4,2,1,40,0,0
53576,-71.4285714285714,4,2,1,40,0,0
53921,-66.6666666666667,4,2,1,40,0,0
54266,-62.5,4,2,1,40,0,0
54610,-58.8235294117647,4,2,1,40,0,0
55645,-71.4285714285714,4,2,1,60,0,1
55774,-71.4285714285714,4,2,3,60,0,1
55860,-71.4285714285714,4,2,1,60,0,1
56809,-71.4285714285714,4,2,3,60,0,1
56895,-71.4285714285714,4,2,1,60,0,1
57024,-76.9230769230769,4,2,1,60,0,1
57154,-76.9230769230769,4,2,3,60,0,1
57240,-76.9230769230769,4,2,1,60,0,1
57714,-76.9230769230769,4,2,1,60,0,1
58059,-41.6666666666667,4,2,1,60,0,1
58748,-71.4285714285714,4,2,1,60,0,1
59567,-71.4285714285714,4,2,3,60,0,1
59654,-71.4285714285714,4,2,1,60,0,1
60128,-76.9230769230769,4,2,1,60,0,1
60817,-76.9230769230769,4,2,1,60,0,1
61162,-71.4285714285714,4,2,1,60,0,1
61291,-71.4285714285714,4,2,3,60,0,1
61378,-71.4285714285714,4,2,1,60,0,1
61852,-71.4285714285714,4,2,1,60,0,1
62326,-71.4285714285714,4,2,3,60,0,1
62412,-71.4285714285714,4,2,1,60,0,1
62541,-71.4285714285714,4,2,1,60,0,1
62671,-71.4285714285714,4,2,3,60,0,1
62757,-71.4285714285714,4,2,1,60,0,1
63576,-41.6666666666667,4,2,1,60,0,1
63921,-71.4285714285714,4,2,1,60,0,1
64266,-71.4285714285714,4,2,1,60,0,1
65128,-71.4285714285714,4,2,3,60,0,1
65171,-71.4285714285714,4,2,1,60,0,1
65300,-76.9230769230769,4,2,1,60,0,1
65990,-76.9230769230769,4,2,1,60,0,1
66335,-76.9230769230769,4,2,1,60,0,1
67369,-76.9230769230769,4,2,1,60,0,1
67714,-71.4285714285714,4,2,1,60,0,1
67843,-71.4285714285714,4,2,3,60,0,1
67929,-71.4285714285714,4,2,1,60,0,1
68188,-71.4285714285714,4,2,3,60,0,1
68274,-71.4285714285714,4,2,1,60,0,1
69093,-41.6666666666667,4,2,1,60,0,1
69266,-76.9230769230769,4,2,1,60,0,1
69783,-62.5,4,2,1,60,0,1
70602,-62.5,4,2,3,60,0,1
70688,-62.5,4,2,1,60,0,1
70817,-71.4285714285714,4,2,1,60,0,1
71507,-76.9230769230769,4,2,1,60,0,1
71852,-76.9230769230769,4,2,1,60,0,1
72197,-71.4285714285714,4,2,1,60,0,1
72326,-71.4285714285714,4,2,3,60,0,1
72412,-71.4285714285714,4,2,1,60,0,1
73360,-71.4285714285714,4,2,3,60,0,1
73576,-76.9230769230769,4,2,1,60,0,1
73705,-76.9230769230769,4,2,3,60,0,1
73791,-76.9230769230769,4,2,1,60,0,1
74610,-41.6666666666667,4,2,1,60,0,1
74783,-76.9230769230769,4,2,1,60,0,1
75300,-71.4285714285714,4,2,1,60,0,1
76119,-71.4285714285714,4,2,3,60,0,1
76205,-71.4285714285714,4,2,1,60,0,1
76335,-71.4285714285714,4,2,1,60,0,1
76679,-71.4285714285714,4,2,1,60,0,1
77024,-100,4,2,1,40,0,0
79783,-100,4,2,4,40,0,0
79869,-100,4,2,1,40,0,0
80473,-100,4,2,1,40,0,0
82541,-100,4,2,4,40,0,0
82628,-100,4,2,1,40,0,0
83231,-100,4,2,1,40,0,0
83921,-100,4,2,4,40,0,0
84007,-100,4,2,1,40,0,0
85300,-100,4,2,4,40,0,0
85386,-100,4,2,1,40,0,0
88059,-100,4,2,4,40,0,0
88145,-100,4,2,1,40,0,0
88748,-100,4,2,1,40,0,0
90817,-100,4,2,5,40,0,0
90904,-100,4,2,1,40,0,0
93576,-100,4,2,5,40,0,0
93662,-100,4,2,1,40,0,0
97714,-100,4,2,5,40,0,0
97800,-100,4,2,1,40,0,0
99093,-100,4,2,5,40,0,0
99179,-100,4,2,1,40,0,0
99783,-100,4,2,1,20,0,0
109783,-100,4,2,1,30,0,0
110128,-100,4,2,1,30,0,0
110473,-100,4,2,1,30,0,0
110817,-100,4,2,1,40,0,0
116335,-83.3333333333333,4,2,1,40,0,0
117024,-100,4,2,1,40,0,0
119093,-83.3333333333333,4,2,1,40,0,0
119438,-71.4285714285714,4,2,1,40,0,0
119783,-45.4545454545455,4,2,1,40,0,0
120473,-41.6666666666667,4,2,1,40,0,0
120645,-40,4,2,1,40,0,0
120817,-40,4,2,1,40,0,0
121852,-66.6666666666667,4,2,1,60,0,1
121981,-66.6666666666667,4,2,3,60,0,1
122067,-66.6666666666667,4,2,1,60,0,1
122886,-71.4285714285714,4,2,1,60,0,1
123016,-71.4285714285714,4,2,3,60,0,1
123231,-76.9230769230769,4,2,1,60,0,1
123360,-76.9230769230769,4,2,3,60,0,1
123447,-76.9230769230769,4,2,1,60,0,1
123921,-76.9230769230769,4,2,1,60,0,1
124266,-41.6666666666667,4,2,1,60,0,1
124955,-66.6666666666667,4,2,1,60,0,1
125774,-66.6666666666667,4,2,3,60,0,1
125860,-66.6666666666667,4,2,1,60,0,1
125990,-66.6666666666667,4,2,1,60,0,1
126335,-76.9230769230769,4,2,1,60,0,1
127024,-76.9230769230769,4,2,1,60,0,1
127369,-71.4285714285714,4,2,1,60,0,1
127498,-71.4285714285714,4,2,3,60,0,1
127585,-71.4285714285714,4,2,1,60,0,1
128059,-76.9230769230769,4,2,1,60,0,1
128533,-76.9230769230769,4,2,3,60,0,1
128619,-76.9230769230769,4,2,1,60,0,1
128748,-76.9230769230769,4,2,1,60,0,1
128878,-76.9230769230769,4,2,3,60,0,1
128964,-76.9230769230769,4,2,1,60,0,1
129783,-41.6666666666667,4,2,1,60,0,1
130128,-76.9230769230769,4,2,1,60,0,1
130473,-66.6666666666667,4,2,1,60,0,1
131291,-66.6666666666667,4,2,3,60,0,1
131378,-66.6666666666667,4,2,1,60,0,1
131507,-66.6666666666667,4,2,1,60,0,1
132197,-76.9230769230769,4,2,1,60,0,1
132542,-76.9230769230769,4,2,1,60,0,1
133576,-76.9230769230769,4,2,1,60,0,1
133921,-71.4285714285714,4,2,1,60,0,1
134050,-71.4285714285714,4,2,3,60,0,1
134136,-71.4285714285714,4,2,1,60,0,1
134395,-71.4285714285714,4,2,3,60,0,1
134481,-71.4285714285714,4,2,1,60,0,1
135300,-41.6666666666667,4,2,1,60,0,1
135990,-66.6666666666667,4,2,1,60,0,1
136679,-71.4285714285714,4,2,1,60,0,1
136809,-71.4285714285714,4,2,3,60,0,1
136895,-71.4285714285714,4,2,1,60,0,1
137024,-66.6666666666667,4,2,1,60,0,1
137369,-76.9230769230769,4,2,1,60,0,1
138059,-76.9230769230769,4,2,1,60,0,1
138404,-71.4285714285714,4,2,1,60,0,1
138533,-71.4285714285714,4,2,3,60,0,1
138619,-71.4285714285714,4,2,1,60,0,1
139567,-71.4285714285714,4,2,3,60,0,1
139654,-71.4285714285714,4,2,1,60,0,1
139783,-76.9230769230769,4,2,1,60,0,1
139912,-76.9230769230769,4,2,3,60,0,1
139998,-76.9230769230769,4,2,1,60,0,1
140817,-41.6666666666667,4,2,1,60,0,1
141507,-66.6666666666667,4,2,1,60,0,1
141852,-76.9230769230769,4,2,1,60,0,1
142197,-100,4,2,1,60,0,1
142326,-100,4,2,3,60,0,1
142412,-100,4,2,1,60,0,1
142542,-66.6666666666667,4,2,1,60,0,1
142886,-76.9230769230769,4,2,1,60,0,1
143231,-100,4,2,1,40,0,0
145990,-100,4,2,1,40,0,0
154955,-133.333333333333,4,2,1,20,0,0
163921,-100,4,2,1,30,0,0
164610,-100,4,2,1,40,0,0
164955,-100,4,2,1,40,0,0
165300,-100,4,2,2,40,0,0
171162,-100,4,2,2,40,0,0
177024,-100,4,2,1,40,0,0
182541,-83.3333333333333,4,2,1,40,0,0
183921,-83.3333333333333,4,2,1,40,0,0
185300,-83.3333333333333,4,2,1,40,0,0
185645,-71.4285714285714,4,2,1,40,0,0
185990,-41.6666666666667,4,2,1,40,0,0
186162,-71.4285714285714,4,2,1,40,0,0
186335,-41.6666666666667,4,2,1,40,0,0
186507,-71.4285714285714,4,2,1,40,0,0
186679,-41.6666666666667,4,2,1,40,0,0
188059,-71.4285714285714,4,2,1,60,0,1
188231,-58.8235294117647,4,2,1,60,0,1
189438,-71.4285714285714,4,2,1,60,0,1
189610,-66.6666666666667,4,2,1,60,0,1
190300,-71.4285714285714,4,2,1,60,0,1
190817,-43.4782608695652,4,2,1,60,0,1
191507,-71.4285714285714,4,2,1,60,0,1
192197,-45.4545454545455,4,2,1,60,0,1
192541,-71.4285714285714,4,2,1,60,0,1
192886,-71.4285714285714,4,2,1,60,0,1
193231,-71.4285714285714,4,2,1,60,0,1
194955,-71.4285714285714,4,2,1,60,0,1
196335,-43.4782608695652,4,2,1,60,0,1
196679,-47.6190476190476,4,2,1,60,0,1
197024,-71.4285714285714,4,2,1,60,0,1
197714,-45.4545454545455,4,2,1,60,0,1
198059,-71.4285714285714,4,2,1,60,0,1
198748,-71.4285714285714,4,2,1,60,0,1
199093,-71.4285714285714,4,2,1,60,0,0
199266,-58.8235294117647,4,2,1,60,0,0
199610,-71.4285714285714,4,2,1,60,0,0
199783,-71.4285714285714,4,2,1,60,0,1
200473,-71.4285714285714,4,2,1,60,0,1
201852,-43.4782608695652,4,2,1,60,0,1
202197,-47.6190476190476,4,2,1,60,0,1
202541,-71.4285714285714,4,2,1,60,0,1
203231,-45.4545454545455,4,2,1,60,0,1
203576,-71.4285714285714,4,2,1,60,0,1
204266,-71.4285714285714,4,2,1,60,0,1
205990,-71.4285714285714,4,2,1,60,0,1
207369,-45.4545454545455,4,2,1,60,0,1
208059,-71.4285714285714,4,2,1,60,0,1
208748,-71.4285714285714,4,2,1,60,0,1
208921,-71.4285714285714,4,2,1,60,0,1
209093,-71.4285714285714,4,2,1,60,0,0
209438,-100,4,2,1,60,0,0

[Colours]
Combo1 : 106,80,184
Combo2 : 67,159,194
Combo3 : 225,86,19

[HitObjects]
169,337,473,6,0,P|144:252|262:187,1,220,0|0,0:2|0:0,0:0:0:0:
339,171,990,2,0,P|364:86|246:21,1,220,0|0,0:0|0:0,0:0:0:0:
168,37,1507,2,0,P|143:95|230:211,1,220,0|0,0:0|0:0,0:0:0:0:
327,207,2024,2,0,P|350:277|228:343,1,220,0|0,0:0|0:0,0:0:0:0:
102,339,2541,1,0,0:0:0:0:
407,237,3059,1,0,0:0:0:0:
262,239,3231,6,0,L|53:240,1,176,0|0,0:0|0:0,0:0:0:0:
86,239,3748,2,0,L|277:239,1,176,0|0,0:0|0:0,0:0:0:0:
262,239,4266,2,0,L|53:240,1,176,0|0,0:0|0:0,0:0:0:0:
86,239,4783,2,0,L|277:239,1,176,0|0,0:0|0:0,0:0:0:0:
121,179,5300,1,0,0:0:0:0:
369,149,5645,1,0,0:0:0:0:
154,251,5990,6,0,L|63:192,2,88,0|0|0,0:0|0:0|0:0,0:0:0:0:
303,249,6507,2,0,P|358:154|296:153,1,220,0|0,0:0|0:0,0:0:0:0:
188,147,7024,1,0,0:0:0:0:
314,91,7369,1,0,0:0:0:0:
199,87,7541,1,0,0:0:0:0:
303,151,7886,1,0,0:0:0:0:
149,189,8059,2,0,P|75:135|215:11,1,330
353,61,8748,5,0,0:0:0:0:
441,64,8921,1,0,0:0:0:0:
353,61,9093,1,0,0:0:0:0:
188,50,9266,1,0,0:0:0:0:
321,61,9610,1,0,0:0:0:0:
191,45,9783,5,8,0:0:0:0:
167,56,9826,1,0,0:0:0:0:
145,66,9869,1,0,0:0:0:0:
167,56,9912,1,0,0:0:0:0:
191,45,9956,1,0,0:0:0:0:
321,61,10128,1,0,0:0:0:0:
441,222,10300,5,8,0:0:0:0:
465,233,10343,1,0,0:0:0:0:
487,243,10386,1,0,0:0:0:0:
465,233,10429,1,0,0:0:0:0:
441,222,10473,1,0,0:0:0:0:
306,281,10645,1,0,0:0:0:0:
119,281,10817,1,8,0:1:0:0:
37,287,10990,6,0,L|37:171,1,110,0|0,0:0|0:0,0:0:0:0:
124,194,11335,1,0,0:0:0:0:
311,194,11507,6,0,L|300:-46,1,220,2|0,0:0|0:0,0:0:0:0:
133,95,12024,2,0,L|134:322,1,220
261,322,12541,1,0,0:0:0:0:
133,314,12714,1,0,0:0:0:0:
303,318,12886,2,0,L|314:198,1,110,0|2,0:0|0:0,0:0:0:0:
185,215,13231,2,0,L|187:84,1,110,0|2,0:0|0:0,0:0:0:0:
308,103,13576,5,8,0:1:0:0:
469,337,13748,2,0,L|375:272,2,110
280,318,14266,6,0,L|280:204,1,110,2|0,0:0|0:0,0:0:0:0:
402,218,14610,1,0,0:0:0:0:
220,229,14783,2,0,P|191:164|293:79,1,220
413,77,15300,1,0,0:0:0:0:
231,241,15473,2,0,P|202:176|304:91,1,220,2|2,0:0|0:0,0:0:0:0:
471,110,15990,1,0,0:0:0:0:
284,216,16162,2,0,P|205:144|373:92,1,330,2|0,0:0|0:0,0:0:0:0:
485,110,16852,5,0,0:0:0:0:
298,271,17024,2,0,L|296:42,1,220,2|0,0:0|0:0,0:0:0:0:
103,236,17541,2,0,L|103:6,1,220,2|0,0:0|0:0,0:0:0:0:
389,318,18231,1,0,0:0:0:0:
201,313,18404,6,0,L|101:231,2,110,0|2|0,0:0|0:0|0:0,0:0:0:0:
397,221,18921,2,0,L|397:96,1,110,2|8,0:0|0:1,0:0:0:0:
203,197,19266,2,0,P|163:180|243:78,1,220,0|0,0:0|0:0,0:0:0:0:
414,316,19783,6,0,L|298:316,1,110,2|0,0:0|0:0,0:0:0:0:
182,276,20128,2,0,L|299:276,1,110,0|0,0:0|0:0,0:0:0:0:
469,219,20473,2,0,L|230:219,1,220,8|0,0:1|0:0,0:0:0:0:
365,221,20990,1,0,0:0:0:0:
252,222,21162,6,0,L|249:97,1,110,0|2,0:0|0:0,0:0:0:0:
361,104,21507,1,0,0:0:0:0:
166,250,21679,2,0,L|166:131,1,110,2|8,0:0|0:1,0:0:0:0:
365,227,22024,1,0,0:0:0:0:
467,164,22197,1,0,0:0:0:0:
365,227,22369,1,0,0:0:0:0:
79,305,22541,5,6,0:0:0:0:
138,284,22714,1,0,0:0:0:0:
377,275,22886,2,0,P|418:244|336:130,1,220,0|8,0:0|0:0,0:0:0:0:
214,137,23404,1,0,0:0:0:0:
348,127,23576,1,0,0:0:0:0:
81,276,23748,6,0,L|76:144,1,110,2|0,0:0|0:0,0:0:0:0:
214,156,24093,1,2,0:0:0:0:
382,171,24266,2,0,L|405:297,1,110,2|0,0:0|0:0,0:0:0:0:
282,302,24610,1,8,0:0:0:0:
118,302,24783,2,0,L|219:229,2,110
398,273,25300,5,2,0:0:0:0:
155,208,25645,1,0,0:0:0:0:
411,274,25990,2,0,L|414:154,1,110,8|0,0:0|0:0,0:0:0:0:
294,171,26335,1,0,0:0:0:0:
62,333,26507,2,0,L|215:173,1,220,2|2,0:0|0:0,0:0:0:0:
99,173,27024,1,2,0:0:0:0:
362,324,27197,2,0,P|460:242|296:38,1,440,0|0,0:0|0:0,0:0:0:0:
42,255,28059,6,0,L|45:377,1,110,2|0,0:0|0:0,0:0:0:0:
221,283,28404,2,0,L|222:163,1,110,0|0,0:0|0:0,0:0:0:0:
474,114,28748,2,0,L|130:114,1,330,8|2,0:0|0:0,0:0:0:0:
449,239,29438,6,0,L|446:361,1,110,0|2,0:0|0:0,0:0:0:0:
270,267,29783,2,0,L|223:161,1,110,0|2,0:0|0:0,0:0:0:0:
380,164,30128,1,8,0:0:0:0:
134,119,30300,2,0,P|78:223|125:224,1,220,0|0,0:0|0:0,0:0:0:0:
376,215,30817,6,0,L|485:203,2,110,2|0|0,0:0|0:0|0:0,0:0:0:0:
191,339,31335,2,0,L|170:224,1,110,0|8,0:0|0:0,0:0:0:0:
311,314,31679,2,0,L|282:172,1,110
430,208,32024,1,2,0:0:0:0:
167,246,32197,6,0,L|56:231,2,110,2|2|0,0:0|0:0|0:0,0:0:0:0:
426,268,32714,2,0,P|471:224|402:104,1,220
275,97,33231,1,0,0:0:0:0:
143,83,33404,1,0,0:0:0:0:
461,104,33576,6,0,L|461:339,1,220,6|0,0:0|0:0,0:0:0:0:
151,304,34266,1,8,0:0:0:0:
217,303,34381,1,0,0:0:0:0:
284,302,34495,1,0,0:0:0:0:
351,301,34610,1,2,0:0:0:0:
351,301,34783,1,0,0:0:0:0:
86,197,34955,6,0,L|81:55,1,110,2|0,0:0|0:0,0:0:0:0:
320,166,35300,2,0,L|318:33,1,110,0|0,0:0|0:0,0:0:0:0:
65,274,35645,2,0,L|166:273,2,73.3333333333333,8|0|0,0:0|0:0|0:0,0:0:0:0:
277,274,35990,2,0,P|344:193|267:149,1,220,2|2,0:0|0:0,0:0:0:0:
125,112,36507,5,0,0:0:0:0:
101,219,36679,1,0,0:0:0:0:
204,245,36852,1,0,0:0:0:0:
437,191,37024,1,8,0:0:0:0:
463,124,37139,1,0,0:0:0:0:
438,57,37254,1,0,0:0:0:0:
373,27,37369,1,2,0:0:0:0:
82,162,37541,1,0,0:0:0:0:
222,134,37714,6,0,L|41:133,1,165
222,134,38059,2,0,P|266:202|198:264,1,165,2|0,0:0|0:0,0:0:0:0:
50,271,38404,2,0,L|399:270,1,307.999990600586,8|2,0:0|0:0,0:0:0:0:
228,213,38921,1,0,0:0:0:0:
186,214,38978,1,0,0:0:0:0:
228,213,39036,1,0,0:0:0:0:
459,280,39093,6,0,B|490:200|490:200|490:149|490:149|455:53,1,220,6|0,0:0|0:0,0:0:0:0:
151,304,39783,1,8,0:0:0:0:
217,303,39898,1,0,0:0:0:0:
284,302,40013,1,0,0:0:0:0:
351,301,40128,1,2,0:0:0:0:
51,279,40473,6,0,L|51:146,1,110,2|0,0:0|0:0,0:0:0:0:
313,230,40817,2,0,L|313:97,1,110,0|0,0:0|0:0,0:0:0:0:
76,138,41162,1,8,0:0:0:0:
24,138,41277,1,0,0:0:0:0:
76,138,41392,1,0,0:0:0:0:
270,144,41507,2,0,L|274:-6,1,110,2|0,0:0|0:0,0:0:0:0:
37,246,41852,6,0,L|169:248,2,110,2|0|0,0:0|0:0|0:0,0:0:0:0:
181,207,42369,1,0,0:0:0:0:
414,175,42541,2,0,P|406:106|268:74,1,220,8|2,0:0|0:0,0:0:0:0:
162,73,43059,1,0,0:0:0:0:
395,117,43231,6,0,B|450:118|450:118|377:119,1,110,0|0,0:0|0:0,0:0:0:0:
156,202,43576,1,2,0:0:0:0:
129,149,43662,1,0,0:0:0:0:
156,202,43748,1,0,0:0:0:0:
413,149,43921,6,0,B|468:143|468:143|414:130,1,110,8|0,0:0|0:0,0:0:0:0:
73,326,44266,2,0,P|117:266|234:236,1,165,2|0,0:0|0:0,0:0:0:0:
431,308,44610,1,6,0:0:0:0:
168,295,45128,5,0,0:0:0:0:
203,292,45185,1,0,0:0:0:0:
251,293,45243,1,0,0:0:0:0:
404,286,45300,6,0,P|458:254|403:127,1,220,8|2,0:0|0:0,0:0:0:0:
277,149,45817,1,0,0:0:0:0:
29,288,45990,6,0,L|142:285,1,110,2|0,0:0|0:0,0:0:0:0:
386,217,46335,2,0,L|396:79,1,110,0|0,0:0|0:0,0:0:0:0:
359,102,46564,1,0,0:0:0:0:
311,102,46622,1,0,0:0:0:0:
137,254,46679,6,0,L|137:134,1,110,8|0,0:0|0:0,0:0:0:0:
381,173,47024,2,0,L|381:50,1,110,2|0,0:0|0:0,0:0:0:0:
90,288,47369,1,2,0:0:0:0:
399,291,47886,5,0,0:0:0:0:
364,288,47944,1,0,0:0:0:0:
316,289,48001,1,0,0:0:0:0:
155,281,48059,2,0,P|121:220|176:69,1,220,8|2,0:0|0:0,0:0:0:0:
439,300,48748,6,0,P|457:211|402:82,1,220,2|8,0:0|0:0,0:0:0:0:
173,125,49266,1,2,0:0:0:0:
413,84,49610,5,0,0:0:0:0:
359,86,49668,1,0,0:0:0:0:
306,85,49725,1,0,0:0:0:0:
106,96,49783,2,0,L|107:229,1,110,8|0,0:0|0:0,0:0:0:0:
349,262,50128,5,6,0:0:0:0:
472,218,50300,1,0,0:0:0:0:
317,215,50473,5,2,0:0:0:0:
440,171,50645,1,0,0:0:0:0:
286,169,50817,5,8,0:0:0:0:
409,125,50990,1,0,0:0:0:0:
123,126,51162,6,0,L|175:92,1,55,2|0,0:0|0:0,0:0:0:0:
319,70,51335,2,0,L|370:38,1,55
196,263,51507,5,2,0:0:0:0:
73,219,51679,1,0,0:0:0:0:
228,214,51852,5,2,0:0:0:0:
105,170,52024,1,0,0:0:0:0:
259,164,52197,5,8,0:0:0:0:
136,120,52369,1,0,0:0:0:0:
445,166,52541,6,0,L|390:126,1,55,2|0,0:0|0:0,0:0:0:0:
251,102,52714,2,0,L|199:66,1,55
484,285,52886,6,0,L|337:285,1,131.99999597168,2|0,0:0|0:0,0:0:0:0:
491,223,53231,2,0,L|332:223,1,131.99999597168,2|0,0:0|0:0,0:0:0:0:
127,305,53576,5,10,0:0:0:0:
127,305,53598,2,0,L|274:306,1,134.749995887756,2|0,0:0|0:0,0:0:0:0:
19,224,53920,1,2,0:0:0:0:
19,224,53942,2,0,L|178:225,1,144.375005507469,0|0,0:0|0:0,0:0:0:0:
395,125,54265,5,2,0:0:0:0:
395,125,54287,2,0,L|230:125,1,154,0|0,0:0|0:0,0:0:0:0:
493,224,54611,1,2,0:0:0:0:
493,224,54632,2,0,L|310:224,1,163.625003120899,0|0,0:0|0:0,0:0:0:0:
37,221,54955,1,8,0:0:0:0:
477,284,55645,6,0,L|135:284,1,307.999990600586,6|0,0:0|0:0,0:0:0:0:
457,179,56335,1,8,0:0:0:0:
352,178,56450,1,0,0:0:0:0:
248,175,56564,1,0,0:0:0:0:
43,194,56679,6,0,L|384:194,2,307.999990600586,0|0|0,0:0|0:0|0:0,0:0:0:0:
148,193,57484,1,0,0:0:0:0:
43,194,57599,1,0,0:0:0:0:
306,193,57714,5,8,0:0:0:0:
99,280,58059,2,0,B|455:280,1,263.99999194336,2|0,0:0|0:0,0:0:0:0:
209,221,58404,1,2,0:0:0:0:
304,168,58576,5,2,0:0:0:0:
315,160,58633,1,0,0:0:0:0:
304,168,58691,1,0,0:0:0:0:
93,238,58748,6,0,P|44:205|151:71,1,288.74999118805,0|0,0:0|0:0,0:0:0:0:
147,69,59093,2,0,L|437:69,1,288.74999118805,8|0,0:0|0:0,0:0:0:0:
435,69,59438,2,0,L|141:71,1,288.74999118805,0|0,0:0|0:0,0:0:0:0:
146,70,59783,5,0,0:0:0:0:
249,70,59898,1,0,0:0:0:0:
351,69,60013,1,0,0:0:0:0:
118,298,60128,6,0,P|70:214|201:195,1,214.49999018097,2|0,0:0|0:0,0:0:0:0:
318,188,60473,2,0,L|54:107,1,214.49999018097,8|0,0:0|0:0,0:0:0:0:
282,268,60817,2,0,P|329:184|199:165,1,214.49999018097,0|0,0:0|0:0,0:0:0:0:
46,67,61162,6,0,L|421:67,1,307.999990600586,6|0,0:0|0:0,0:0:0:0:
55,179,61852,1,8,0:0:0:0:
160,178,61967,1,0,0:0:0:0:
264,175,62082,1,0,0:0:0:0:
474,75,62197,6,0,L|99:75,2,307.999990600586,0|0|0,0:0|0:0|0:0,0:0:0:0:
368,220,63001,1,0,0:0:0:0:
264,217,63116,1,0,0:0:0:0:
30,216,63231,5,8,0:0:0:0:
302,129,63576,2,0,L|12:129,1,263.99999194336,2|0,0:0|0:0,0:0:0:0:
186,76,63921,1,2,0:0:0:0:
72,76,64093,6,0,L|55:131,2,51.3333317667644,2|0|0,0:0|0:0|0:0,0:0:0:0:
420,107,64266,6,0,B|449:203|449:203|247:210,1,288.74999118805,0|0,0:0|0:0,0:0:0:0:
261,210,64610,2,0,B|232:306|232:306|434:313,1,288.74999118805,8|0,0:0|0:0,0:0:0:0:
420,312,64955,2,0,B|449:216|449:216|247:209,1,288.74999118805,0|0,0:0|0:0,0:0:0:0:
260,209,65300,5,0,0:0:0:0:
360,157,65415,1,0,0:0:0:0:
461,110,65530,1,0,0:0:0:0:
176,311,65645,6,0,L|149:309,1,17.8749991817475,2|0,0:0|0:0,0:0:0:0:
86,282,65731,2,0,L|58:283,1,17.8749991817475,0|0,0:0|0:0,0:0:0:0:
68,282,65817,2,0,L|97:283,1,17.8749991817475,0|0,0:0|0:0,0:0:0:0:
176,311,65904,2,0,L|202:311,1,17.8749991817475,0|0,0:0|0:0,0:0:0:0:
415,259,65990,5,8,0:0:0:0:
454,201,66076,1,0,0:0:0:0:
439,133,66162,1,0,0:0:0:0:
380,97,66248,1,0,0:0:0:0:
190,177,66335,5,2,0:0:0:0:
242,175,66421,1,0,0:0:0:0:
295,173,66507,1,0,0:0:0:0:
348,171,66593,1,0,0:0:0:0:
165,317,66679,5,2,0:0:0:0:
129,313,66723,1,0,0:0:0:0:
101,292,66766,1,0,0:0:0:0:
86,260,66809,1,0,0:0:0:0:
90,225,66852,1,2,0:0:0:0:
111,196,66895,1,0,0:0:0:0:
144,183,66938,1,0,0:0:0:0:
179,188,66981,1,0,0:0:0:0:
223,188,67024,5,0,0:0:0:0:
259,183,67067,1,0,0:0:0:0:
286,164,67110,1,0,0:0:0:0:
301,131,67154,1,0,0:0:0:0:
297,96,67197,1,0,0:0:0:0:
275,68,67240,1,0,0:0:0:0:
226,62,67283,1,0,0:0:0:0:
30,108,67369,5,12,0:0:0:0:
26,39,67484,1,0,0:0:0:0:
139,35,67599,1,0,0:0:0:0:
383,160,67714,6,0,B|67:160,2,307.999990600586,0|0|0,0:0|0:0|0:0,0:0:0:0:
276,233,68518,1,0,0:0:0:0:
383,160,68633,1,0,0:0:0:0:
126,269,68748,5,8,0:0:0:0:
322,158,69093,2,0,L|-15:158,1,263.99999194336,2|0,0:0|0:0,0:0:0:0:
206,104,69438,1,2,0:0:0:0:
339,44,69610,5,2,0:0:0:0:
307,43,69668,1,0,0:0:0:0:
275,43,69725,1,0,0:0:0:0:
75,331,69783,6,0,P|174:307|67:182,1,330,0|0,0:0|0:0,0:0:0:0:
77,177,70128,2,0,P|179:151|69:28,1,330,8|0,0:0|0:0,0:0:0:0:
82,21,70473,2,0,P|188:51|74:170,1,330,0|0,0:0|0:0,0:0:0:0:
90,177,70817,5,0,0:0:0:0:
199,170,70932,1,0,0:0:0:0:
90,177,71047,1,0,0:0:0:0:
380,297,71162,6,0,L|492:300,1,76.9999976501466,2|0,0:0|0:0,0:0:0:0:
380,297,71335,2,0,L|285:297,1,76.9999976501466,0|0,0:0|0:0,0:0:0:0:
94,313,71507,6,0,P|58:242|183:133,1,214.49999018097,8|0,0:0|0:0,0:0:0:0:
295,225,71852,2,0,P|352:168|252:61,1,214.49999018097,0|0,0:0|0:0,0:0:0:0:
78,192,72197,6,0,L|439:193,1,307.999990600586,6|0,0:0|0:0,0:0:0:0:
66,161,72886,1,8,0:0:0:0:
179,147,73001,1,0,0:0:0:0:
66,161,73116,1,0,0:0:0:0:
359,225,73231,6,0,L|-2:226,2,307.999990600586,0|0|0,0:0|0:0|0:0,0:0:0:0:
246,211,74036,1,0,0:0:0:0:
359,225,74151,1,0,0:0:0:0:
86,186,74266,5,8,0:0:0:0:
299,111,74610,2,0,L|-56:109,1,263.99999194336,2|0,0:0|0:0,0:0:0:0:
186,55,74955,1,2,0:0:0:0:
35,96,75128,5,2,0:0:0:0:
101,95,75185,1,0,0:0:0:0:
169,96,75243,1,0,0:0:0:0:
432,217,75300,6,0,P|424:284|231:324,1,288.74999118805,0|0,0:0|0:0,0:0:0:0:
239,331,75645,2,0,P|247:264|440:224,1,288.74999118805,8|0,0:0|0:0,0:0:0:0:
432,217,75990,2,0,P|424:284|231:324,1,288.74999118805,0|0,0:0|0:0,0:0:0:0:
239,331,76335,5,0,0:0:0:0:
343,329,76450,1,0,0:0:0:0:
445,292,76564,1,0,0:0:0:0:
485,215,76679,1,2,0:0:0:0:
457,141,76794,1,0,0:0:0:0:
388,122,76909,1,0,0:0:0:0:
101,171,77024,1,8,0:0:0:0:
226,273,77197,5,0,0:0:0:0:
100,280,77369,2,0,L|101:162,1,110,0|0,0:0|0:0,0:0:0:0:
289,222,77714,6,0,L|289:101,1,110,2|0,0:0|0:0,0:0:0:0:
168,114,78059,1,0,0:0:0:0:
47,102,78231,1,0,0:0:0:0:
239,252,78404,2,0,L|355:259,3,110,8|0|0|2,0:1|0:0|0:0|0:0,0:0:0:0:
167,284,79093,1,0,0:0:0:0:
75,240,79266,1,2,0:0:0:0:
122,170,79438,1,2,0:0:0:0:
290,171,79610,6,0,B|365:89|365:89|290:171,1,220
136,154,80128,1,0,0:0:0:0:
136,154,80300,1,2,0:0:0:0:
329,137,80473,5,2,0:0:0:0:
88,248,80817,1,0,0:0:0:0:
347,319,81162,2,0,L|359:201,1,110,8|0,0:1|0:0,0:0:0:0:
240,198,81507,1,0,0:0:0:0:
70,170,81679,2,0,L|288:110,1,220,2|2,0:0|0:0,0:0:0:0:
149,87,82197,1,0,0:0:0:0:
320,107,82369,2,0,P|358:138|219:296,1,330,2|0,0:0|0:0,0:0:0:0:
106,266,83059,1,2,0:0:0:0:
293,280,83231,6,0,L|293:37,1,220,2|0,0:0|0:0,0:0:0:0:
100,229,83748,2,0,P|62:167|144:53,1,220,0|0,0:0|0:0,0:0:0:0:
385,267,84438,1,2,0:0:0:0:
198,281,84610,6,0,L|198:38,1,220,0|2,0:0|0:0,0:0:0:0:
391,230,85128,2,0,P|429:168|347:54,1,220,0|2,0:0|0:0,0:0:0:0:
94,289,85817,1,0,0:0:0:0:
276,217,85990,6,0,L|160:217,1,110,2|0,0:0|0:0,0:0:0:0:
39,177,86335,2,0,L|156:177,1,110,0|0,0:0|0:0,0:0:0:0:
342,189,86679,1,8,0:1:0:0:
361,158,86794,1,0,0:0:0:0:
356,123,86909,1,0,0:0:0:0:
329,100,87024,2,0,L|206:101,1,110,0|2,0:0|0:0,0:0:0:0:
81,260,87369,6,0,L|205:260,2,110,0|0|2,0:0|0:0|0:0,0:0:0:0:
280,238,87886,2,0,L|45:239,1,220,0|2,0:0|0:0,0:0:0:0:
190,185,88404,1,0,0:0:0:0:
60,238,88576,1,2,0:0:0:0:
323,305,88748,5,6,0:0:0:0:
405,286,88921,1,0,0:0:0:0:
171,281,89093,2,0,P|140:257|215:140,1,220,0|8,0:0|0:0,0:0:0:0:
369,122,89610,1,0,0:0:0:0:
216,141,89783,2,0,L|218:256,1,110,0|2,0:0|0:0,0:0:0:0:
395,304,90128,1,0,0:0:0:0:
267,307,90300,1,2,0:0:0:0:
395,304,90473,1,2,0:0:0:0:
157,317,90645,6,0,P|116:269|198:166,1,220,0|2,0:0|0:0,0:0:0:0:
366,182,91162,2,0,L|366:301,1,110,0|0,0:0|0:0,0:0:0:0:
100,342,91507,6,0,L|101:207,1,110,2|0,0:0|0:0,0:0:0:0:
230,202,91852,2,0,L|109:201,1,110
350,332,92197,2,0,L|351:217,1,110,8|0,0:0|0:0,0:0:0:0:
199,335,92541,1,0,0:0:0:0:
434,289,92714,6,0,P|481:175|412:144,1,220,2|2,0:0|0:0,0:0:0:0:
279,137,93231,1,2,0:0:0:0:
25,306,93404,2,0,L|254:302,1,220,0|2,0:0|0:0,0:0:0:0:
119,145,93921,2,0,L|123:304,1,110,0|0,0:0|0:0,0:0:0:0:
384,327,94266,5,2,0:0:0:0:
122,333,94610,1,0,0:0:0:0:
223,289,94783,1,0,0:0:0:0:
409,275,94955,1,8,0:0:0:0:
452,217,95070,1,0,0:0:0:0:
448,145,95185,1,0,0:0:0:0:
398,93,95300,1,0,0:0:0:0:
233,79,95473,1,2,0:0:0:0:
413,161,95645,6,0,L|414:288,1,110,0|0,0:0|0:0,0:0:0:0:
345,274,95904,1,0,0:0:0:0:
143,313,95990,2,0,L|140:181,1,110,2|0,0:0|0:0,0:0:0:0:
307,239,96335,1,8,0:0:0:0:
248,182,96450,1,0,0:0:0:0:
254,107,96564,1,0,0:0:0:0:
312,56,96679,1,0,0:0:0:0:
462,63,96852,1,2,0:0:0:0:
217,68,97024,6,0,L|370:65,1,110,2|0,0:0|0:0,0:0:0:0:
463,114,97369,1,0,0:0:0:0:
226,247,97541,2,0,P|228:142|327:110,1,220
479,159,98059,1,0,0:0:0:0:
238,213,98231,2,0,L|9:213,1,220,2|2,0:0|0:0,0:0:0:0:
162,233,98748,1,2,0:0:0:0:
415,316,98921,6,0,P|451:266|328:164,1,220,0|2,0:0|0:0,0:0:0:0:
114,98,99438,2,0,L|186:184,1,110,0|0,0:0|0:0,0:0:0:0:
350,42,99783,5,0,0:0:0:0:
373,110,100128,1,0,0:0:0:0:
395,178,100473,1,0,0:0:0:0:
419,248,100817,1,0,0:0:0:0:
276,251,100990,1,0,0:0:0:0:
102,242,101162,6,0,L|119:112,1,110
223,151,101507,2,0,L|240:21,1,110
132,230,101852,2,0,L|149:100,1,110
250,151,102197,1,0,0:0:0:0:
427,162,102369,6,0,P|463:205|383:345,1,220
279,334,102886,1,0,0:0:0:0:
96,227,103059,2,0,P|58:184|126:41,1,220
240,51,103576,1,0,0:0:0:0:
431,117,103748,6,0,P|457:199|159:84,1,770
373,97,105300,5,0,0:0:0:0:
387,163,105645,1,0,0:0:0:0:
406,231,105990,1,0,0:0:0:0:
422,296,106335,1,0,0:0:0:0:
146,329,106679,6,0,L|116:214,1,110,0|0,0:0|0:0,0:0:0:0:
225,327,107024,2,0,L|195:212,1,110,0|0,0:0|0:0,0:0:0:0:
304,317,107369,2,0,L|274:202,1,110,0|0,0:0|0:0,0:0:0:0:
383,302,107714,2,0,L|353:187,1,110,0|0,0:0|0:0,0:0:0:0:
179,129,108059,5,0,0:0:0:0:
288,130,108231,1,0,0:0:0:0:
398,126,108404,1,0,0:0:0:0:
220,135,108576,2,0,P|143:188|294:322,1,330,0|0,0:0|0:0,0:0:0:0:
371,330,109266,1,0,0:0:0:0:
142,233,109438,6,0,B|87:240|87:240|153:228,1,110,0|0,0:0|0:0,0:0:0:0:
375,237,109783,1,0,0:0:0:0:
397,231,109869,1,0,0:0:0:0:
375,237,109955,1,0,0:0:0:0:
227,337,110128,6,0,L|99:337,1,110,0|0,0:0|0:0,0:0:0:0:
347,74,110473,2,0,P|398:148|329:202,1,165,0|0,0:0|0:0,0:0:0:0:
141,209,110817,1,6,0:0:0:0:
403,273,111335,5,0,0:0:0:0:
441,255,111392,1,0,0:0:0:0:
403,273,111450,1,0,0:0:0:0:
256,286,111507,6,0,P|211:173|267:89,1,220,8|2,0:0|0:0,0:0:0:0:
382,64,112024,1,0,0:0:0:0:
116,312,112197,6,0,P|78:223|169:160,1,220,2|0,0:0|0:0,0:0:0:0:
295,160,112714,1,0,0:0:0:0:
257,156,112771,1,0,0:0:0:0:
199,156,112829,1,0,0:0:0:0:
40,154,112886,6,0,L|38:39,1,110,8|0,0:0|0:0,0:0:0:0:
277,299,113231,2,0,L|279:167,1,110,2|0,0:0|0:0,0:0:0:0:
45,200,113576,1,2,0:0:0:0:
410,230,114093,5,0,0:0:0:0:
369,210,114151,1,0,0:0:0:0:
315,201,114208,1,0,0:0:0:0:
136,184,114266,2,0,P|94:120|154:-22,1,220,8|2,0:0|0:0,0:0:0:0:
407,234,114955,5,2,0:0:0:0:
124,203,115300,1,8,0:0:0:0:
369,200,115473,1,2,0:0:0:0:
105,116,115817,5,0,0:0:0:0:
148,117,115875,1,0,0:0:0:0:
205,116,115932,1,0,0:0:0:0:
403,127,115990,2,0,L|402:260,1,110,8|0,0:0|0:0,0:0:0:0:
166,322,116335,5,6,0:0:0:0:
289,301,116507,1,0,0:0:0:0:
104,231,116679,5,2,0:0:0:0:
227,210,116852,1,0,0:0:0:0:
67,198,117024,6,0,L|66:64,1,110,10|0,0:0|0:0,0:0:0:0:
316,220,117369,6,0,L|378:195,1,55,2|0,0:0|0:0,0:0:0:0:
204,173,117541,2,0,L|151:139,1,55,0|0,0:0|0:0,0:0:0:0:
395,320,117714,5,2,0:0:0:0:
272,299,117886,1,0,0:0:0:0:
428,251,118059,5,2,0:0:0:0:
305,230,118231,1,0,0:0:0:0:
466,208,118404,6,0,L|467:74,1,110,10|0,0:0|0:0,0:0:0:0:
234,264,118748,6,0,L|154:264,1,55,2|0,0:0|0:0,0:0:0:0:
26,172,118921,2,0,L|77:211,1,55
264,328,119093,6,0,L|389:327,1,115.49999647522,2|0,0:0|0:0,0:0:0:0:
380,327,119266,2,0,L|255:326,1,115.49999647522,2|0,0:0|0:0,0:0:0:0:
264,328,119438,6,0,L|415:328,1,134.749995887756,2|0,0:0|0:0,0:0:0:0:
399,328,119610,2,0,L|251:327,1,134.749995887756,2|0,0:0|0:0,0:0:0:0:
235,327,119783,6,0,L|21:327,1,211.750006462097,10|0,0:0|0:0,0:0:0:0:
23,327,119955,2,0,L|259:326,1,211.750006462097,2|0,0:0|0:0,0:0:0:0:
234,326,120128,6,0,L|19:326,1,211.750006462097,2|0,0:0|0:0,0:0:0:0:
22,326,120300,2,0,L|241:326,1,211.750006462097,2|0,0:0|0:0,0:0:0:0:
259,325,120473,6,0,L|503:324,1,230.99999295044,2|0,0:0|0:0,0:0:0:0:
489,324,120645,2,0,L|232:322,1,240.625
248,322,120817,6,0,L|494:320,1,240.625,2|0,0:0|0:0,0:0:0:0:
488,320,120990,2,0,L|223:319,1,240.625
121,267,121162,1,8,0:0:0:0:
418,281,121852,6,0,B|53:281,1,330.000012588501,6|0,0:0|0:0,0:0:0:0:
379,122,122541,1,8,0:0:0:0:
274,121,122656,1,0,0:0:0:0:
170,118,122771,1,0,0:0:0:0:
439,187,122886,6,0,L|73:186,2,307.999990600586,0|0|0,0:0|0:0|0:0,0:0:0:0:
334,186,123691,1,0,0:0:0:0:
230,183,123806,1,0,0:0:0:0:
466,168,123921,6,0,P|472:266|380:334,1,214.49999018097,8|0,0:0|0:0,0:0:0:0:
306,352,124266,2,0,L|42:351,1,263.99999194336,2|0,0:0|0:0,0:0:0:0:
173,297,124610,1,2,0:0:0:0:
38,255,124783,5,2,0:0:0:0:
64,233,124840,1,0,0:0:0:0:
112,217,124898,1,0,0:0:0:0:
369,189,124955,6,0,B|434:141|434:141|433:97|433:97|244:98,1,309.37501180172,0|0,0:0|0:0,0:0:0:0:
233,99,125300,2,0,B|48:98|48:98|47:142|47:142|112:190,1,309.37501180172,8|0,0:0|0:0,0:0:0:0:
126,186,125645,2,0,B|310:185|310:185|311:229|311:229|231:281,1,309.37501180172,0|0,0:0|0:0,0:0:0:0:
242,273,125990,5,0,0:0:0:0:
130,280,126105,1,0,0:0:0:0:
242,273,126220,1,0,0:0:0:0:
444,295,126335,6,0,P|470:210|366:164,1,214.49999018097,2|0,0:0|0:0,0:0:0:0:
216,176,126679,2,0,P|190:91|294:45,1,214.49999018097,8|0,0:0|0:0,0:0:0:0:
442,98,127024,2,0,P|432:227|359:221,1,214.49999018097,0|0,0:0|0:0,0:0:0:0:
74,303,127369,6,0,L|430:302,1,307.999990600586,6|0,0:0|0:0,0:0:0:0:
115,269,128059,1,8,0:0:0:0:
215,242,128174,1,0,0:0:0:0:
115,269,128289,1,0,0:0:0:0:
388,266,128404,6,0,L|84:269,2,285.99998690796,0|0|0,0:0|0:0|0:0,0:0:0:0:
289,240,129208,1,0,0:0:0:0:
389,267,129323,1,0,0:0:0:0:
186,260,129438,6,0,P|148:168|245:120,1,214.49999018097,8|0,0:0|0:0,0:0:0:0:
312,117,129783,2,0,L|-41:118,1,263.99999194336,2|0,0:0|0:0,0:0:0:0:
181,58,130128,1,2,0:0:0:0:
290,55,130300,5,2,0:0:0:0:
338,53,130358,1,0,0:0:0:0:
290,55,130415,1,0,0:0:0:0:
118,300,130473,6,0,P|72:166|202:100,1,309.37501180172,0|0,0:0|0:0,0:0:0:0:
197,99,130817,2,0,B|423:99|423:99|487:160,1,309.37501180172,8|0,0:0|0:0,0:0:0:0:
483,156,131162,2,0,B|256:156|256:156|193:217,1,309.37501180172,0|0,0:0|0:0,0:0:0:0:
196,213,131507,5,0,0:0:0:0:
313,231,131622,1,0,0:0:0:0:
196,213,131737,1,0,0:0:0:0:
481,233,131852,6,0,L|481:210,1,20.6250007867813,2|0,0:0|0:0,0:0:0:0:
419,185,131938,2,0,L|391:182,1,20.6250007867813,0|0,0:0|0:0,0:0:0:0:
467,198,132024,2,0,L|467:175,1,20.6250007867813,0|0,0:0|0:0,0:0:0:0:
405,150,132110,2,0,L|377:147,1,20.6250007867813,0|0,0:0|0:0,0:0:0:0:
148,227,132197,5,8,0:0:0:0:
86,198,132283,1,0,0:0:0:0:
87,131,132369,1,0,0:0:0:0:
150,105,132455,1,0,0:0:0:0:
369,185,132541,5,0,0:0:0:0:
416,137,132628,1,0,0:0:0:0:
391,75,132714,1,0,0:0:0:0:
323,73,132800,1,0,0:0:0:0:
165,304,132886,5,2,0:0:0:0:
130,296,132929,1,0,0:0:0:0:
98,280,132973,1,0,0:0:0:0:
70,257,133016,1,0,0:0:0:0:
50,228,133059,1,2,0:0:0:0:
36,195,133102,1,0,0:0:0:0:
32,160,133145,1,0,0:0:0:0:
36,124,133188,1,0,0:0:0:0:
48,91,133231,5,0,0:0:0:0:
68,61,133274,1,0,0:0:0:0:
95,38,133317,1,0,0:0:0:0:
127,21,133360,1,0,0:0:0:0:
161,13,133404,1,0,0:0:0:0:
197,13,133447,1,0,0:0:0:0:
235,22,133490,1,0,0:0:0:0:
403,202,133576,6,0,L|501:185,2,95.3333289693199,12|0|0,0:0|0:0|0:0,0:0:0:0:
163,284,133921,6,0,L|519:286,2,307.999990600586,0|0|0,0:0|0:0|0:0,0:0:0:0:
62,268,134725,1,0,0:0:0:0:
163,284,134840,1,0,0:0:0:0:
398,267,134955,6,0,P|462:159|341:131,1,230.99999295044,8|0,0:0|0:0,0:0:0:0:
322,116,135300,2,0,L|48:115,1,263.99999194336,2|0,0:0|0:0,0:0:0:0:
210,148,135645,1,2,0:0:0:0:
73,227,135817,5,2,0:0:0:0:
33,264,135875,1,0,0:0:0:0:
73,227,135932,1,0,0:0:0:0:
411,226,135990,6,0,P|372:131|172:93,1,309.37501180172,0|0,0:0|0:0,0:0:0:0:
185,86,136335,2,0,P|224:181|424:219,1,309.37501180172,8|0,0:0|0:0,0:0:0:0:
410,225,136679,2,0,L|117:226,1,288.74999118805,0|0,0:0|0:0,0:0:0:0:
121,225,137024,5,0,0:0:0:0:
226,222,137139,1,0,0:0:0:0:
332,224,137254,1,0,0:0:0:0:
90,228,137369,5,2,0:0:0:0:
56,167,137455,1,0,0:0:0:0:
81,103,137541,1,0,0:0:0:0:
147,81,137627,1,0,0:0:0:0:
342,159,137714,2,0,L|96:246,1,214.49999018097,8|0,0:0|0:0,0:0:0:0:
299,235,138059,2,0,P|351:197|248:158,1,214.49999018097,0|0,0:0|0:0,0:0:0:0:
42,333,138404,6,0,L|414:334,1,307.999990600586,6|0,0:0|0:0,0:0:0:0:
43,261,139093,1,8,0:0:0:0:
150,263,139208,1,0,0:0:0:0:
257,264,139323,1,0,0:0:0:0:
476,172,139438,6,0,L|104:173,2,307.999990600586,0|0|0,0:0|0:0|0:0,0:0:0:0:
369,174,140243,1,0,0:0:0:0:
262,175,140358,1,0,0:0:0:0:
49,322,140473,6,0,L|314:320,1,214.49999018097,8|0,0:0|0:0,0:0:0:0:
345,315,140817,2,0,L|37:315,1,263.99999194336,2|0,0:0|0:0,0:0:0:0:
235,269,141162,1,2,0:0:0:0:
368,205,141335,5,2,0:0:0:0:
308,205,141392,1,0,0:0:0:0:
247,206,141450,1,0,0:0:0:0:
87,206,141507,6,0,P|219:113|374:124,1,309.37501180172,0|0,0:0|0:0,0:0:0:0:
361,119,141852,2,0,P|306:158|104:148,1,268.124987726212,8|0,0:0|0:0,0:0:0:0:
113,153,142197,2,0,P|185:113|308:91,1,206.25,0|0,0:0|0:0,0:0:0:0:
305,90,142541,5,0,0:0:0:0:
209,91,142656,1,0,0:0:0:0:
120,132,142771,1,0,0:0:0:0:
103,215,142886,1,2,0:0:0:0:
138,291,143001,1,0,0:0:0:0:
199,337,143116,1,0,0:0:0:0:
489,289,143231,6,0,L|496:126,1,110,8|0,0:0|0:0,0:0:0:0:
184,161,143748,1,0,0:0:0:0:
340,151,143921,1,0,0:0:0:0:
256,192,153576,12,0,154610,0:0:0:0:
412,288,154783,5,0,0:0:0:0:
262,295,154955,1,0,0:0:0:0:
330,254,155128,1,0,0:0:0:0:
336,175,155300,1,0,0:0:0:0:
275,125,155473,1,0,0:0:0:0:
177,90,155645,5,0,0:0:0:0:
266,57,155817,1,0,0:0:0:0:
355,84,155990,1,0,0:0:0:0:
266,57,156162,1,0,0:0:0:0:
146,90,156335,6,0,L|55:93,2,82.5000031471254,0|0|0,0:0|0:0|0:0,0:0:0:0:
307,117,156852,2,0,P|357:146|268:286,1,247.500009441376,0|0,0:0|0:0,0:0:0:0:
180,292,157541,1,0,0:0:0:0:
299,288,157714,6,0,L|151:227,1,123.750004720688,0|0,0:0|0:0,0:0:0:0:
252,198,158059,2,0,L|361:199,1,82.5000031471254,0|0,0:0|0:0,0:0:0:0:
206,199,158404,2,0,P|189:143|283:84,1,165.000006294251,0|0,0:0|0:0,0:0:0:0:
370,81,158921,1,0,0:0:0:0:
262,92,159093,5,0,0:0:0:0:
153,109,159266,1,0,0:0:0:0:
262,92,159438,1,0,0:0:0:0:
423,107,159610,2,0,P|481:151|381:248,1,247.500009441376,0|0,0:0|0:0,0:0:0:0:
258,250,160300,1,0,0:0:0:0:
379,244,160473,6,0,L|360:143,1,82.5000031471254,0|0,0:0|0:0,0:0:0:0:
231,162,160817,2,0,P|161:137|198:48,1,165.000006294251,0|0,0:0|0:0,0:0:0:0:
469,201,161507,1,0,0:0:0:0:
367,242,161679,1,0,0:0:0:0:
367,242,161852,5,0,0:0:0:0:
469,201,162024,1,0,0:0:0:0:
367,242,162197,1,0,0:0:0:0:
206,269,162369,2,0,P|159:220|268:101,1,247.500009441376,0|0,0:0|0:0,0:0:0:0:
370,96,163059,1,0,0:0:0:0:
225,182,163231,6,0,L|213:269,1,82.5000031471254,0|0,0:0|0:0,0:0:0:0:
318,194,163576,2,0,L|330:281,1,82.5000031471254,0|0,0:0|0:0,0:0:0:0:
192,192,163921,2,0,L|179:309,1,110,0|0,0:0|0:0,0:0:0:0:
346,197,164266,5,0,0:0:0:0:
367,213,164309,1,0,0:0:0:0:
377,238,164352,1,0,0:0:0:0:
373,265,164395,1,0,0:0:0:0:
355,286,164438,1,8,0:1:0:0:
193,311,164610,1,0,0:0:0:0:
94,158,164783,5,0,0:0:0:0:
73,174,164826,1,0,0:0:0:0:
63,199,164869,1,0,0:0:0:0:
67,226,164912,1,0,0:0:0:0:
85,247,164955,1,8,0:1:0:0:
222,269,165128,1,0,0:0:0:0:
481,86,165300,2,0,L|482:333,1,220
32,293,165990,5,0,0:0:0:0:
281,275,166335,1,0,0:0:0:0:
72,281,166679,5,8,0:0:0:0:
72,209,166794,1,0,0:0:0:0:
119,155,166909,1,0,0:0:0:0:
191,146,167024,2,0,L|64:146,1,110,0|0,0:0|0:0,0:0:0:0:
325,326,167369,6,0,P|369:224|312:190,1,165,0|0,0:0|0:0,0:0:0:0:
263,199,167714,2,0,L|114:198,1,110,0|0,0:0|0:0,0:0:0:0:
344,237,168059,5,8,0:0:0:0:
393,185,168174,1,0,0:0:0:0:
379,116,168289,1,0,0:0:0:0:
314,89,168404,2,0,L|157:89,1,110,0|0,0:0|0:0,0:0:0:0:
458,337,168748,6,0,L|458:64,1,220,0|0,0:0|0:0,0:0:0:0:
150,302,169438,5,8,0:0:0:0:
216,301,169553,1,0,0:0:0:0:
283,300,169668,1,0,0:0:0:0:
350,299,169783,1,0,0:0:0:0:
350,299,169955,1,0,0:0:0:0:
120,257,170128,6,0,P|79:225|141:148,1,165,0|0,0:0|0:0,0:0:0:0:
208,150,170473,1,0,0:0:0:0:
329,129,170645,1,0,0:0:0:0:
45,317,170817,6,0,L|44:80,1,220,8|0,0:0|0:0,0:0:0:0:
491,196,171507,5,0,0:0:0:0:
240,175,171852,1,0,0:0:0:0:
447,226,172197,5,8,0:0:0:0:
447,154,172312,1,0,0:0:0:0:
400,100,172427,1,0,0:0:0:0:
312,80,172541,2,0,L|422:80,1,110,0|0,0:0|0:0,0:0:0:0:
183,152,172886,6,0,P|126:216|173:280,1,165,0|0,0:0|0:0,0:0:0:0:
246,264,173231,2,0,L|88:265,1,110,0|0,0:0|0:0,0:0:0:0:
319,249,173576,5,8,0:0:0:0:
348,182,173691,1,0,0:0:0:0:
329,113,173806,1,0,0:0:0:0:
268,74,173921,2,0,L|109:74,1,110,0|0,0:0|0:0,0:0:0:0:
464,297,174266,6,0,L|465:46,1,220,0|0,0:0|0:0,0:0:0:0:
166,305,174955,5,8,0:0:0:0:
95,303,175070,1,0,0:0:0:0:
166,305,175185,1,0,0:0:0:0:
279,248,175300,2,0,L|431:248,1,110,0|0,0:0|0:0,0:0:0:0:
130,205,175645,6,0,P|89:164|145:83,1,165,0|0,0:0|0:0,0:0:0:0:
220,77,175990,1,0,0:0:0:0:
385,68,176162,1,0,0:0:0:0:
76,312,176335,6,0,L|69:82,1,220,8|0,0:0|0:0,0:0:0:0:
479,250,177024,5,6,0:0:0:0:
104,295,177541,1,0,0:0:0:0:
59,295,177599,1,0,0:0:0:0:
104,295,177656,1,0,0:0:0:0:
239,228,177714,1,8,0:0:0:0:
57,178,178059,1,2,0:0:0:0:
489,132,178404,6,0,L|239:133,1,220,2|0,0:0|0:0,0:0:0:0:
433,156,178921,1,0,0:0:0:0:
479,156,178978,1,0,0:0:0:0:
433,156,179036,1,0,0:0:0:0:
302,87,179093,1,8,0:0:0:0:
490,14,179438,1,2,0:0:0:0:
62,166,179783,5,2,0:0:0:0:
447,212,180300,1,0,0:0:0:0:
400,211,180358,1,0,0:0:0:0:
354,210,180415,1,0,0:0:0:0:
210,245,180473,1,8,0:0:0:0:
424,260,180817,1,2,0:0:0:0:
199,266,181162,5,2,0:0:0:0:
199,266,181507,1,8,0:0:0:0:
456,126,181679,1,2,0:0:0:0:
186,168,182024,5,0,0:0:0:0:
243,168,182082,1,0,0:0:0:0:
299,168,182139,1,0,0:0:0:0:
482,189,182197,2,0,L|483:320,1,110,8|0,0:0|0:0,0:0:0:0:
210,318,182541,6,0,L|210:155,1,131.99999597168,6|0,0:0|0:0,0:0:0:0:
395,288,182886,2,0,L|395:122,1,131.99999597168,2|0,0:0|0:0,0:0:0:0:
210,186,183231,2,0,L|210:362,1,131.99999597168,10|0,0:0|0:0,0:0:0:0:
481,235,183576,6,0,L|480:166,1,65.9999979858399,2|0,0:0|0:0,0:0:0:0:
286,232,183748,2,0,L|286:149,1,65.9999979858399,0|0,0:0|0:0,0:0:0:0:
481,235,183921,6,0,L|481:69,1,131.99999597168,2|0,0:0|0:0,0:0:0:0:
296,140,184266,2,0,L|296:316,1,131.99999597168,2|0,0:0|0:0,0:0:0:0:
481,235,184610,2,0,L|481:69,1,131.99999597168,10|0,0:0|0:0,0:0:0:0:
185,223,184955,6,0,L|185:147,1,65.9999979858399,2|0,0:0|0:0,0:0:0:0:
380,221,185128,2,0,L|380:145,1,65.9999979858399,0|0,0:0|0:0,0:0:0:0:
42,308,185300,6,0,L|164:308,1,115.49999647522,2|0,0:0|0:0,0:0:0:0:
157,308,185473,2,0,L|30:308,1,115.49999647522,0|0,0:0|0:0,0:0:0:0:
41,308,185645,6,0,L|191:308,1,134.749995887756,2|0,0:0|0:0,0:0:0:0:
175,308,185817,2,0,L|26:308,1,134.749995887756,0|0,0:0|0:0,0:0:0:0:
40,308,185990,6,0,L|278:307,1,230.99999295044,10|0,0:0|0:0,0:0:0:0:
270,307,186162,2,0,L|132:306,1,134.749995887756,0|0,0:0|0:0,0:0:0:0:
135,306,186335,6,0,L|373:305,1,230.99999295044,2|0,0:0|0:0,0:0:0:0:
365,305,186507,2,0,L|227:304,1,134.749995887756,0|0,0:0|0:0,0:0:0:0:
230,304,186680,5,2,0:0:0:0:
484,262,186852,1,2,0:0:0:0:
484,262,186938,1,2,0:0:0:0:
331,205,187024,1,8,0:1:0:0:
384,185,187110,1,2,0:0:0:0:
437,165,187197,1,2,0:0:0:0:
132,180,187369,1,8,0:1:0:0:
32,270,188059,5,6,0:0:0:0:
301,274,188231,2,0,B|397:271|397:271|475:218|475:218|376:170|376:170|219:169,1,374.000007133484,2|0,0:0|0:0,0:0:0:0:
54,221,188748,1,8,0:0:0:0:
181,187,188921,1,0,0:0:0:0:
474,220,189093,1,0,0:0:0:0:
347,180,189266,1,2,0:0:0:0:
54,221,189438,5,0,0:0:0:0:
352,326,189610,2,0,P|240:233|384:160,1,330.000012588501,2|0,0:0|0:0,0:0:0:0:
68,154,190128,5,8,0:0:0:0:
347,328,190300,2,0,B|-14:328,1,307.999990600586,0|0,0:0|0:0,0:0:0:0:
39,328,190817,6,0,L|362:328,1,253.000004825592,2|2,0:0|0:0,0:0:0:0:
340,328,191047,1,0,0:0:0:0:
330,289,191105,1,0,0:0:0:0:
276,291,191162,2,0,B|16:288|16:288|264:285,1,506.000009651184,0|8,0:0|0:0,0:0:0:0:
496,259,191679,6,0,P|450:129|290:152,1,307.999990600586,0|2,0:0|0:0,0:0:0:0:
46,175,192197,2,0,B|287:176|287:176|289:320,1,363.000011077881,0|0,0:0|0:0,0:0:0:0:
118,297,192541,6,0,P|58:216|183:179,1,230.99999295044,2|0,0:0|0:0,0:0:0:0:
386,109,192886,2,0,P|443:197|333:245,1,230.99999295044,8|0,0:0|0:0,0:0:0:0:
163,113,193231,2,0,P|106:201|216:249,1,230.99999295044,0|0,0:0|0:0,0:0:0:0:
385,251,193576,5,6,0:0:0:0:
63,225,193748,1,2,0:0:0:0:
63,225,193921,1,0,0:0:0:0:
385,251,194093,5,0,0:0:0:0:
63,225,194266,1,8,0:0:0:0:
63,225,194438,1,0,0:0:0:0:
385,251,194610,5,0,0:0:0:0:
385,251,194783,1,2,0:0:0:0:
63,225,194955,5,0,0:0:0:0:
385,251,195128,2,0,P|470:157|335:71,1,307.999990600586,2|0,0:0|0:0,0:0:0:0:
81,255,195645,5,8,0:0:0:0:
432,321,195817,2,0,L|85:321,1,307.999990600586,0|0,0:0|0:0,0:0:0:0:
124,321,196335,6,0,L|408:321,1,253.000004825592,2|2,0:0|0:0,0:0:0:0:
432,321,196564,1,0,0:0:0:0:
490,205,196622,1,0,0:0:0:0:
490,205,196679,2,0,B|7:205,1,461.999985900879,0|8,0:0|0:0,0:0:0:0:
317,326,197197,6,0,P|423:218|317:184,1,307.999990600586,0|2,0:0|0:0,0:0:0:0:
69,331,197714,2,0,B|312:330|312:330|310:179,1,363.000011077881,0|0,0:0|0:0,0:0:0:0:
137,205,198059,6,0,L|319:207,1,153.999995300293,2|2,0:0|0:0,0:0:0:0:
237,208,198317,1,2,0:0:0:0:
37,275,198404,5,8,0:0:0:0:
43,199,198490,1,2,0:0:0:0:
91,140,198576,1,0,0:0:0:0:
164,118,198662,1,0,0:0:0:0:
354,185,198748,5,2,0:0:0:0:
356,122,198834,1,2,0:0:0:0:
268,128,198920,1,0,0:0:0:0:
212,127,199006,1,0,0:0:0:0:
480,270,199093,5,2,0:0:0:0:
201,271,199266,2,0,P|94:247|221:118,1,374.000007133484,2|0,0:0|0:0,0:0:0:0:
444,266,199783,5,12,0:0:0:0:
338,233,199956,1,0,0:0:0:0:
65,265,200128,5,0,0:0:0:0:
172,226,200301,1,2,0:0:0:0:
444,266,200473,5,0,0:0:0:0:
112,346,200645,2,0,L|433:342,1,307.999990600586,2|0,0:0|0:0,0:0:0:0:
155,212,201162,5,8,0:0:0:0:
407,217,201335,2,0,P|432:106|257:34,1,307.999990600586,0|0,0:0|0:0,0:0:0:0:
172,31,201852,6,0,L|471:33,1,253.000004825592,2|2,0:0|0:0,0:0:0:0:
369,32,202082,1,0,0:0:0:0:
314,34,202139,1,0,0:0:0:0:
28,210,202197,2,0,L|506:213,1,461.999985900879,0|8,0:0|0:0,0:0:0:0:
243,322,202714,6,0,P|172:297|249:128,1,307.999990600586,0|2,0:0|0:0,0:0:0:0:
491,112,203231,2,0,B|250:111|250:111|252:255,1,363.000011077881,0|0,0:0|0:0,0:0:0:0:
425,181,203576,6,0,P|443:280|340:338,1,230.99999295044,2|0,0:0|0:0,0:0:0:0:
143,176,203921,2,0,P|58:263|158:292,1,230.99999295044,8|0,0:0|0:0,0:0:0:0:
347,297,204266,2,0,P|413:234|310:149,1,230.99999295044,0|0,0:0|0:0,0:0:0:0:
27,228,204610,5,6,0:0:0:0:
349,202,204782,1,2,0:0:0:0:
349,202,204955,1,0,0:0:0:0:
27,228,205127,5,0,0:0:0:0:
349,202,205299,1,8,0:0:0:0:
349,202,205472,1,0,0:0:0:0:
27,228,205644,5,0,0:0:0:0:
27,228,205817,1,2,0:0:0:0:
349,202,205989,5,0,0:0:0:0:
27,228,206162,2,0,P|26:147|256:48,1,307.999990600586,2|0,0:0|0:0,0:0:0:0:
481,157,206679,5,8,0:0:0:0:
159,305,206852,2,0,L|486:307,1,307.999990600586,0|0,0:0|0:0,0:0:0:0:
466,306,207369,6,0,L|167:307,1,242.000007385254,2|2,0:0|0:0,0:0:0:0:
170,308,207599,1,0,0:0:0:0:
125,267,207656,1,0,0:0:0:0:
170,308,207714,2,0,B|413:304|413:304|145:306,1,484.000014770508,0|8,0:0|0:0,0:0:0:0:
410,271,208231,6,0,P|474:176|306:60,1,307.999990600586,0|2,0:0|0:0,0:0:0:0:
85,287,208748,2,0,L|79:100,1,153.999995300293,0|2,0:0|0:0,0:0:0:0:
257,245,209093,2,0,B|100:246|100:246|174:220,1,230.99999295044,0|0,0:0|0:0,0:0:0:0:
401,177,209438,5,8,0:0:0:0:
253,158,209783,1,0,0:0:0:0:
397,105,210128,1,0,0:0:0:0:
