osu file format v14

[General]
AudioFilename: audio.mp3
AudioLeadIn: 0
PreviewTime: 120756
Countdown: 0
SampleSet: Soft
StackLeniency: 0.6
Mode: 0
LetterboxInBreaks: 0
WidescreenStoryboard: 1

[Editor]
Bookmarks: 469,10986,33572,54606,60124,65641,71158,77193,99779,120813,126331,131848,137365,143917,154951,164951,170469,175986,181503,187020,192537,198055,203572,210124
DistanceSpacing: 0.9
BeatDivisor: 4
GridSize: 4
TimelineZoom: 1.6

[Metadata]
Title:Byoumei wa Ai Datta
TitleUnicode:病名は愛だった
Artist:Neru
ArtistUnicode:Neru
Creator:Ellyu
Version:Collab Advanced
Source:
Tags:[-naniwa-] -Ken Pata-Mon rew0825 HootOwlStar RyoKazuka
BeatmapID:2343587
BeatmapSetID:684960

[Difficulty]
HPDrainRate:5
CircleSize:3.5
OverallDifficulty:5
ApproachRate:6.5
SliderMultiplier:1.30000000596046
SliderTickRate:1

[Events]
//Background and Video events
0,0,"jpgisbetterthanpng.jpg",0,0
//Break Periods
2,144116,153976
//Storyboard Layer 0 (Background)
//Storyboard Layer 1 (Fail)
//Storyboard Layer 2 (Pass)
//Storyboard Layer 3 (Foreground)
//Storyboard Layer 4 (Overlay)
//Storyboard Sound Samples

[TimingPoints]
469,344.827586206897,4,2,23,30,1,0
469,-111.111111111111,4,2,23,20,0,0
11503,-100,4,2,23,30,0,0
22537,-100,4,2,23,40,0,0
45124,-100,4,2,23,30,0,0
45641,-100,4,2,23,40,0,0
46503,-100,4,2,23,30,0,0
47020,-100,4,2,23,40,0,0
47882,-100,4,2,23,30,0,0
48400,-100,4,2,23,40,0,0
49606,-100,4,2,23,30,0,0
49951,-100,4,2,23,40,0,0
50124,-100,4,2,23,60,0,0
55641,-90.9090909090909,4,2,23,60,0,0
76331,-90.9090909090909,4,2,23,50,0,0
77710,-100,4,2,23,30,0,0
99779,-100,4,2,23,30,0,0
110813,-100,4,2,23,40,0,0
111331,-100,4,2,23,30,0,0
111848,-100,4,2,23,40,0,0
112710,-100,4,2,23,30,0,0
113227,-100,4,2,23,40,0,0
114089,-100,4,2,23,30,0,0
114606,-100,4,2,23,40,0,0
115813,-100,4,2,23,30,0,0
116158,-100,4,2,23,40,0,0
116331,-100,4,2,23,60,0,0
121848,-90.9090909090909,4,2,23,60,0,0
142537,-90.9090909090909,4,2,23,50,0,0
143917,-90.9090909090909,4,2,1,20,0,0
154951,-111.111111111111,4,2,23,30,0,0
165986,-100,4,2,1,20,0,0
177020,-100,4,2,23,40,0,0
177537,-100,4,2,23,30,0,0
178055,-100,4,2,23,40,0,0
178917,-100,4,2,23,30,0,0
179434,-100,4,2,23,40,0,0
180296,-100,4,2,23,30,0,0
180813,-100,4,2,23,40,0,0
182020,-100,4,2,23,30,0,0
182365,-100,4,2,23,40,0,0
182537,-100,4,2,23,60,0,0
188055,-90.9090909090909,4,2,23,60,0,0
208744,-100,4,2,23,50,0,0

[Colours]
Combo1 : 192,192,192
Combo2 : 103,120,237
Combo3 : 255,147,201
Combo4 : 77,179,155
Combo5 : 255,68,68
Combo6 : 217,90,243
Combo7 : 128,128,128

[HitObjects]
146,64,469,6,0,L|78:70,2,58.4999984829424,2|0|0,0:0|0:0|0:0,0:0:0:0:
177,42,986,2,0,P|160:81|165:175,1,116.999996965885,2|0,0:0|0:0,0:0:0:0:
180,186,1503,1,2,0:0:0:0:
300,245,1848,1,0,0:0:0:0:
300,245,2020,2,0,L|442:234,1,116.999996965885,2|0,0:0|0:0,0:0:0:0:
447,259,2537,2,0,B|468:200|468:200|440:87,1,175.499995448827,2|0,0:0|0:0,0:0:0:0:
450,54,3227,6,0,P|400:53|371:44,1,58.4999984829424,2|0,0:0|0:0,0:0:0:0:
358,34,3572,1,0,0:0:0:0:
325,17,3744,2,0,P|278:6|206:11,1,116.999996965885,2|0,0:0|0:0,0:0:0:0:
178,32,4262,1,2,0:0:0:0:
136,156,4606,1,0,0:0:0:0:
136,156,4779,2,0,L|281:148,1,116.999996965885,2|0,0:0|0:0,0:0:0:0:
287,133,5296,2,0,P|265:186|362:237,1,175.499995448827,2|0,0:0|0:0,0:0:0:0:
386,234,5986,6,0,L|394:155,2,58.4999984829424,2|0|0,0:0|0:0|0:0,0:0:0:0:
380,268,6503,2,0,B|241:280,1,116.999996965885,2|0,0:0|0:0,0:0:0:0:
239,307,7020,1,2,0:0:0:0:
133,243,7365,1,0,0:0:0:0:
133,243,7537,2,0,B|113:189|113:189|136:112,1,116.999996965885,2|0,0:0|0:0,0:0:0:0:
111,99,8055,2,0,B|203:118|203:73|286:99,1,175.499995448827,2|0,0:0|0:0,0:0:0:0:
319,113,8744,6,0,L|379:106,1,58.4999984829424,2|0,0:0|0:0,0:0:0:0:
412,120,9089,1,0,0:0:0:0:
447,134,9262,2,0,P|460:194|443:254,1,116.999996965885,2|0,0:0|0:0,0:0:0:0:
419,273,9779,1,2,0:0:0:0:
295,295,10124,1,0,0:0:0:0:
295,295,10296,2,0,B|252:292|252:292|222:302|222:302|179:299,1,116.999996965885,2|0,0:0|0:0,0:0:0:0:
144,320,10813,2,0,L|152:380,2,58.4999984829424,2|0|0,0:0|0:0|0:0,0:0:0:0:
156,192,11503,6,0,P|92:220|20:124,1,195.000000894069,2|2,0:0|0:0,0:0:0:0:
40,108,12193,2,0,L|32:43,1,65.000000298023,2|0,0:0|0:0,0:0:0:0:
52,12,12537,1,0,0:0:0:0:
172,60,12882,2,0,B|240:68|240:68|296:36|296:36|372:44,1,195.000000894069,2|0,0:0|0:0,0:0:0:0:
384,72,13572,1,2,0:0:0:0:
384,72,13744,2,0,P|416:36|512:56,1,130.000000596046,2|0,0:0|0:0,0:0:0:0:
512,72,14262,6,0,B|480:200|480:200|512:256,1,195.000000894069,2|2,0:0|0:0,0:0:0:0:
492,288,14951,2,0,L|352:272,1,130.000000596046,2|0,0:0|0:0,0:0:0:0:
332,248,15469,1,2,0:0:0:0:
332,248,15641,2,0,P|360:296|336:364,1,130.000000596046,0|2,0:0|0:0,0:0:0:0:
300,380,16158,1,0,0:0:0:0:
300,380,16331,2,0,L|160:364,1,130.000000596046,2|0,0:0|0:0,0:0:0:0:
40,384,17020,6,0,B|24:316|24:316|52:264|52:264|36:192,1,195.000000894069,2|2,0:0|0:0,0:0:0:0:
16,168,17710,2,0,P|18:135|29:105,1,65.000000298023,2|2,0:0|0:0,0:0:0:0:
132,28,18227,1,0,0:0:0:0:
160,56,18400,2,0,L|320:44,1,130.000000596046,2|0,0:0|0:0,0:0:0:0:
328,60,18917,2,0,P|364:80|400:84,1,65.000000298023,2|2,0:0|0:0,0:0:0:0:
420,60,19262,2,0,L|408:196,1,130.000000596046,2|0,0:0|0:0,0:0:0:0:
408,228,19779,6,0,P|480:224|492:332,1,195.000000894069,2|0,0:0|0:0,0:0:0:0:
468,352,20469,2,0,L|320:340,1,130.000000596046,2|0,0:0|0:0,0:0:0:0:
212,320,21158,2,0,P|200:356|196:384,2,65.000000298023,2|0|0,0:0|0:0|0:0,0:0:0:0:
240,292,21675,2,0,P|234:259|224:229,1,65.000000298023,2|2,0:0|0:0,0:0:0:0:
204,196,22020,2,0,L|60:208,1,130.000000596046,2|0,0:0|0:0,0:0:0:0:
40,228,22537,6,0,B|56:168|56:168|28:100,1,130.000000596046,8|0,0:0|0:0,0:0:0:0:
140,32,23227,2,0,B|188:56|188:56|264:44,1,130.000000596046,2|0,0:0|0:0,0:0:0:0:
292,68,23744,2,0,P|320:48|352:36,1,65.000000298023,8|8,0:0|0:0,0:0:0:0:
384,56,24089,2,0,L|400:196,1,130.000000596046,8|0,0:0|0:0,0:0:0:0:
432,204,24606,2,0,P|460:184|492:172,2,65.000000298023,2|0|0,0:0|0:0|0:0,0:0:0:0:
496,316,25296,6,0,L|360:308,1,130.000000596046,8|0,0:0|0:0,0:0:0:0:
256,380,25986,2,0,B|204:344|204:344|132:372,1,130.000000596046,2|0,0:0|0:0,0:0:0:0:
104,380,26503,2,0,L|93:312,1,65.000000298023,8|8,0:0|0:0,0:0:0:0:
56,324,26848,2,0,L|76:188,1,130.000000596046,8|0,0:0|0:0,0:0:0:0:
40,212,27365,2,0,L|20:76,1,130.000000596046,2|0,0:0|0:0,0:0:0:0:
136,24,28055,6,0,B|236:-16|236:64|336:24,1,195.000000894069,8|0,0:0|0:0,0:0:0:0:
364,16,28744,2,0,P|404:60|392:128,1,130.000000596046,2|0,0:0|0:0,0:0:0:0:
364,148,29262,2,0,L|372:220,1,65.000000298023,8|8,0:0|0:0,0:0:0:0:
344,244,29606,1,8,0:0:0:0:
316,268,29779,2,0,L|176:260,1,130.000000596046,0|2,0:0|0:0,0:0:0:0:
156,284,30296,1,0,0:0:0:0:
48,212,30641,1,0,0:0:0:0:
12,224,30813,6,0,L|28:360,1,130.000000596046,8|0,0:0|0:0,0:0:0:0:
60,372,31331,2,0,P|112:340|140:328,1,65.000000298023,0|2,0:0|0:0,0:0:0:0:
152,332,31675,2,0,L|292:340,1,130.000000596046,0|8,0:0|0:0,0:0:0:0:
292,300,32193,2,0,P|312:348|436:320,1,195.000000894069,8|0,0:0|0:0,0:0:0:0:
468,340,32882,2,0,P|452:276|460:212,1,130.000000596046,2|0,0:0|0:0,0:0:0:0:
477,82,33572,6,0,L|263:98,1,195.000000894069,8|0,0:0|0:0,0:0:0:0:
251,73,34262,2,0,B|275:133|275:133|255:224,1,130.000000596046,2|8,0:0|0:0,0:0:0:0:
243,234,34779,1,0,0:0:0:0:
243,234,34951,2,0,P|201:223|169:219,1,65.000000298023,8|0,0:0|0:0,0:0:0:0:
141,229,35296,2,0,P|99:240|67:244,1,65.000000298023,2|2,0:0|0:0,0:0:0:0:
39,233,35641,1,2,0:0:0:0:
113,341,35986,6,0,L|245:349,1,130.000000596046,8|8,0:0|0:0,0:0:0:0:
282,336,36503,1,0,0:0:0:0:
282,336,36675,2,0,L|269:247,1,65.000000298023,0|0,0:0|0:0,0:0:0:0:
265,233,37020,2,0,B|312:252|312:252|402:241,1,130.000000596046,2|8,0:0|0:0,0:0:0:0:
424,222,37537,2,0,P|444:154|425:81,1,130.000000596046,0|0,0:0|0:0,0:0:0:0:
412,63,38055,1,8,0:0:0:0:
294,118,38400,1,2,0:0:0:0:
195,35,38744,1,8,0:0:0:0:
77,90,39089,6,0,L|99:298,1,195.000000894069,8|0,0:0|0:0,0:0:0:0:
77,317,39779,2,0,P|141:302|209:344,1,130.000000596046,2|8,0:0|0:0,0:0:0:0:
321,371,40469,2,0,L|392:363,1,65.000000298023,8|0,0:0|0:0,0:0:0:0:
414,338,40813,2,0,L|404:255,1,65.000000298023,2|0,0:0|0:0,0:0:0:0:
427,240,41158,2,0,B|360:251|363:219|298:226,1,130.000000596046,2|8,0:0|0:0,0:0:0:0:
265,241,41675,1,0,0:0:0:0:
265,241,41848,6,0,B|283:195|283:195|260:93,1,130.000000596046,8|0,0:0|0:0,0:0:0:0:
257,84,42365,1,0,0:0:0:0:
257,84,42537,2,0,L|101:77,1,130.000000596046,2|8,0:0|0:0,0:0:0:0:
38,171,43227,2,0,P|29:226|58:302,1,130.000000596046,2|8,0:0|0:0,0:0:0:0:
184,292,43917,2,0,P|200:243|204:206,1,65.000000298023,2|0,0:0|0:0,0:0:0:0:
230,203,44262,2,0,P|236:234|248:265,1,65.000000298023,8|0,0:0|0:0,0:0:0:0:
277,290,44606,6,0,L|479:279,1,195.000000894069,2|2,0:0|0:0,0:0:0:0:
497,308,45296,2,0,P|508:239|471:172,1,130.000000596046,2|2,0:0|0:0,0:0:0:0:
466,157,45813,1,0,0:0:0:0:
466,157,45986,2,0,P|453:114|454:82,1,65.000000298023,2|0,0:0|0:0,0:0:0:0:
458,55,46331,1,0,0:0:0:0:
341,0,46675,1,2,0:0:0:0:
225,58,47020,2,0,L|220:135,1,65.000000298023,2|0,0:0|0:0,0:0:0:0:
239,157,47365,6,0,P|176:147|107:142,1,130.000000596046,2|0,0:0|0:0,0:0:0:0:
77,157,47882,1,2,0:0:0:0:
77,157,48055,2,0,L|90:308,1,130.000000596046,2|2,0:0|0:0,0:0:0:0:
201,350,48744,2,0,P|265:345|329:335,1,130.000000596046,2|0,0:0|0:0,0:0:0:0:
373,343,49262,1,2,0:0:0:0:
373,343,49434,2,0,P|354:290|354:256,1,65.000000298023,0|2,0:0|0:0,0:0:0:0:
361,243,49779,1,2,0:0:0:0:
302,125,50124,6,0,P|251:130|158:87,1,130.000000596046,2|2,0:0|0:0,0:0:0:0:
259,6,50813,2,0,P|310:1|403:44,1,130.000000596046,2|2,0:0|0:0,0:0:0:0:
430,147,51503,2,0,L|417:292,1,130.000000596046,2|2,0:0|0:0,0:0:0:0:
432,312,52020,1,0,0:0:0:0:
432,312,52193,2,0,P|459:294|490:285,2,65.000000298023,2|0|2,0:0|0:0|0:0,0:0:0:0:
320,376,52882,6,0,L|184:364,1,130.000000596046,2|2,0:0|0:0,0:0:0:0:
112,260,53572,2,0,L|248:248,1,130.000000596046,2|2,0:0|0:0,0:0:0:0:
340,160,54262,1,2,0:0:0:0:
216,124,54606,2,0,L|208:52,1,65.000000298023,2|0,0:0|0:0,0:0:0:0:
232,28,54951,1,2,0:0:0:0:
232,28,55641,5,8,0:0:0:0:
256,52,55813,2,0,P|324:68|376:20,1,143.000005019664,8|0,0:0|0:0,0:0:0:0:
396,52,56331,2,0,L|416:200,1,143.000005019664,2|2,0:0|0:0,0:0:0:0:
500,292,57020,2,0,P|484:336|468:360,1,71.5000025098322,2|8,0:0|0:0,0:0:0:0:
440,372,57365,1,2,0:0:0:0:
320,324,57710,2,0,L|248:328,1,71.5000025098322,2|0,0:0|0:0,0:0:0:0:
216,344,58055,2,0,B|182:347|182:347|150:327,1,71.5000025098322,8|0,0:0|0:0,0:0:0:0:
120,304,58400,6,0,L|108:392,2,71.5000025098322,8|8|2,0:0|0:0|0:0,0:0:0:0:
12,236,59089,2,0,L|0:148,1,71.5000025098322,2|0,0:0|0:0,0:0:0:0:
36,172,59434,2,0,L|24:84,1,71.5000025098322,2|8,0:0|0:0,0:0:0:0:
60,108,59779,2,0,L|48:20,2,71.5000025098322,2|0|2,0:0|0:0|0:0,0:0:0:0:
175,166,60469,1,2,0:0:0:0:
257,67,60813,1,2,0:0:0:0:
372,125,61158,5,8,0:0:0:0:
405,113,61331,2,0,L|392:265,1,143.000005019664,8|0,0:0|0:0,0:0:0:0:
424,272,61848,2,0,P|336:273|281:329,1,143.000005019664,2|2,0:0|0:0,0:0:0:0:
176,354,62537,2,0,P|127:351|91:331,1,71.5000025098322,2|8,0:0|0:0,0:0:0:0:
77,321,62882,1,2,0:0:0:0:
23,206,63227,2,0,P|56:194|92:194,1,71.5000025098322,2|0,0:0|0:0,0:0:0:0:
126,205,63572,2,0,L|118:113,1,71.5000025098322,8|0,0:0|0:0,0:0:0:0:
106,100,63917,6,0,P|139:111|175:111,2,71.5000025098322,8|8|2,0:0|0:0|0:0,0:0:0:0:
198,9,64606,2,0,L|298:17,1,71.5000025098322,2|0,0:0|0:0,0:0:0:0:
279,48,64951,2,0,L|379:56,1,71.5000025098322,2|8,0:0|0:0,0:0:0:0:
360,87,65296,2,0,L|460:95,2,71.5000025098322,2|0|2,0:0|0:0|0:0,0:0:0:0:
288,192,65986,2,0,L|188:200,1,71.5000025098322,2|0,0:0|0:0,0:0:0:0:
196,224,66331,1,2,0:0:0:0:
84,164,66675,5,8,0:0:0:0:
84,164,66848,2,0,P|48:100|84:32,1,143.000005019664,8|0,0:0|0:0,0:0:0:0:
104,24,67365,2,0,B|148:52|148:52|248:36,1,143.000005019664,2|2,0:0|0:0,0:0:0:0:
360,0,68055,2,0,P|380:40|388:72,1,71.5000025098322,2|8,0:0|0:0,0:0:0:0:
360,88,68400,1,2,0:0:0:0:
432,196,68744,2,0,P|476:176|504:172,1,71.5000025098322,2|0,0:0|0:0,0:0:0:0:
512,208,69089,2,0,L|500:284,1,71.5000025098322,8|0,0:0|0:0,0:0:0:0:
476,304,69434,6,0,L|488:380,2,71.5000025098322,8|8|2,0:0|0:0|0:0,0:0:0:0:
352,264,70124,2,0,B|316:260|316:260|280:284,1,71.5000025098322,2|0,0:0|0:0,0:0:0:0:
256,300,70469,2,0,B|220:304|220:304|184:280,1,71.5000025098322,2|8,0:0|0:0,0:0:0:0:
160,264,70813,2,0,B|124:260|124:260|88:284,2,71.5000025098322,2|0|2,0:0|0:0|0:0,0:0:0:0:
140,137,71503,1,2,0:0:0:0:
267,117,71848,1,2,0:0:0:0:
287,244,72193,5,8,0:0:0:0:
287,244,72365,2,0,P|376:240|422:206,1,143.000005019664,8|0,0:0|0:0,0:0:0:0:
459,219,72882,2,0,P|437:152|432:70,1,143.000005019664,2|2,0:0|0:0,0:0:0:0:
326,5,73572,2,0,L|250:10,1,71.5000025098322,2|8,0:0|0:0,0:0:0:0:
228,43,73917,1,2,0:0:0:0:
114,102,74262,2,0,L|38:97,1,71.5000025098322,2|0,0:0|0:0,0:0:0:0:
9,124,74606,2,0,P|13:170|38:224,1,71.5000025098322,8|0,0:0|0:0,0:0:0:0:
48,226,74951,6,0,P|44:272|19:326,2,71.5000025098322,8|8|2,0:0|0:0|0:0,0:0:0:0:
173,190,75641,2,0,L|256:180,1,71.5000025098322,2|0,0:0|0:0,0:0:0:0:
265,218,75986,2,0,L|335:226,1,71.5000025098322,2|8,0:0|0:0,0:0:0:0:
355,188,76331,2,0,L|438:178,2,71.5000025098322,2|0|2,0:0|0:0|0:0,0:0:0:0:
295,74,77020,2,0,P|312:32|320:-4,2,71.5000025098322,2|0|0,0:0|0:0|0:0,0:0:0:0:
256,96,77537,1,0,0:0:0:0:
256,96,77710,6,0,B|192:88|192:88|132:120|132:120|60:108,1,195.000000894069,8|2,0:0|0:0,0:0:0:0:
44,80,78400,2,0,L|68:216,1,130.000000596046,2|0,0:0|0:0,0:0:0:0:
16,328,79089,2,0,P|52:312|88:308,1,65.000000298023,2|0,0:0|0:0,0:0:0:0:
108,336,79434,2,0,P|156:372|220:348,1,130.000000596046,8|2,0:0|0:0,0:0:0:0:
248,328,79951,2,0,P|296:292|360:316,1,130.000000596046,8|0,0:0|0:0,0:0:0:0:
388,336,80469,5,8,0:0:0:0:
504,276,80813,1,0,0:0:0:0:
452,156,81158,2,0,L|380:164,1,65.000000298023,2|0,0:0|0:0,0:0:0:0:
352,152,81503,2,0,P|328:116|324:80,1,65.000000298023,0|2,0:0|0:0,0:0:0:0:
344,60,81848,1,0,0:0:0:0:
220,16,82193,2,0,B|176:44|176:44|88:28,1,130.000000596046,8|2,0:0|0:0,0:0:0:0:
60,20,82710,1,8,0:0:0:0:
4,136,83055,1,0,0:0:0:0:
4,136,83227,6,0,B|20:200|20:200|0:256|0:256|20:324,1,195.000000894069,8|2,0:0|0:0,0:0:0:0:
32,360,83917,1,2,0:0:0:0:
32,360,84089,2,0,P|80:316|160:332,1,130.000000596046,2|0,0:0|0:0,0:0:0:0:
176,340,84606,1,2,0:0:0:0:
300,380,84951,2,0,L|280:244,1,130.000000596046,0|2,0:0|0:0,0:0:0:0:
312,228,85469,2,0,B|356:252|356:252|436:236,1,130.000000596046,8|0,0:0|0:0,0:0:0:0:
460,264,85986,6,0,B|420:164|500:164|460:64,1,195.000000894069,8|0,0:0|0:0,0:0:0:0:
448,40,86675,2,0,P|408:52|376:56,1,65.000000298023,2|0,0:0|0:0,0:0:0:0:
348,40,87020,2,0,P|308:28|276:24,1,65.000000298023,2|0,0:0|0:0,0:0:0:0:
248,40,87365,1,2,0:0:0:0:
296,160,87710,2,0,L|436:152,1,130.000000596046,8|2,0:0|0:0,0:0:0:0:
460,168,88227,2,0,P|476:200|444:288,1,130.000000596046,8|0,0:0|0:0,0:0:0:0:
416,308,88744,6,0,L|428:384,2,65.000000298023,8|0|0,0:0|0:0|0:0,0:0:0:0:
296,256,89434,2,0,L|308:180,1,65.000000298023,2|0,0:0|0:0,0:0:0:0:
336,168,89779,2,0,L|324:92,1,65.000000298023,0|2,0:0|0:0,0:0:0:0:
296,80,90124,1,2,0:0:0:0:
168,108,90469,2,0,P|76:108|56:84,1,130.000000596046,8|2,0:0|0:0,0:0:0:0:
28,112,90986,2,0,L|44:244,1,130.000000596046,8|0,0:0|0:0,0:0:0:0:
20,272,91503,6,0,B|120:232|120:312|220:272,1,195.000000894069,8|2,0:0|0:0,0:0:0:0:
240,252,92193,2,0,P|270:253|312:272,1,65.000000298023,2|0,0:0|0:0,0:0:0:0:
328,296,92537,2,0,L|320:364,1,65.000000298023,0|2,0:0|0:0,0:0:0:0:
352,384,92882,1,0,0:0:0:0:
472,336,93227,2,0,L|456:200,1,130.000000596046,8|2,0:0|0:0,0:0:0:0:
488,184,93744,1,8,0:0:0:0:
468,48,94089,1,0,0:0:0:0:
468,48,94262,6,0,L|328:60,1,130.000000596046,8|0,0:0|0:0,0:0:0:0:
304,76,94779,2,0,P|256:64|232:44,1,65.000000298023,2|2,0:0|0:0,0:0:0:0:
228,20,95124,2,0,L|216:160,1,130.000000596046,2|0,0:0|0:0,0:0:0:0:
212,188,95641,1,2,0:0:0:0:
88,148,95986,2,0,L|100:288,1,130.000000596046,0|2,0:0|0:0,0:0:0:0:
68,300,96503,2,0,P|136:288|188:340,1,130.000000596046,8|0,0:0|0:0,0:0:0:0:
208,352,97020,6,0,P|312:360|344:280,1,195.000000894069,8|0,0:0|0:0,0:0:0:0:
316,264,97710,2,0,L|460:276,1,130.000000596046,2|2,0:0|0:0,0:0:0:0:
476,248,98227,1,0,0:0:0:0:
476,248,98400,1,2,0:0:0:0:
392,148,98744,2,0,B|372:88|372:88|400:24,1,130.000000596046,8|2,0:0|0:0,0:0:0:0:
360,40,99262,2,0,B|300:60|300:60|236:32,1,130.000000596046,8|0,0:0|0:0,0:0:0:0:
204,14,99779,6,0,P|215:105|110:133,1,195.000000894069,2|0,0:0|0:0,0:0:0:0:
94,131,100469,1,2,0:0:0:0:
31,244,100813,2,0,L|44:320,1,65.000000298023,2|0,0:0|0:0,0:0:0:0:
33,346,101158,2,0,P|77:324|122:325,1,65.000000298023,2|0,0:0|0:0,0:0:0:0:
131,322,101503,2,0,P|179:330|215:357,1,65.000000298023,2|0,0:0|0:0,0:0:0:0:
226,357,101848,1,2,0:0:0:0:
348,305,102193,1,2,0:0:0:0:
348,305,102365,6,0,P|333:246|323:160,1,130.000000596046,0|0,0:0|0:0,0:0:0:0:
339,144,102882,1,2,0:0:0:0:
339,144,103055,2,0,L|195:134,1,130.000000596046,0|0,0:0|0:0,0:0:0:0:
184,113,103572,1,2,0:0:0:0:
184,113,103744,2,0,L|54:122,1,130.000000596046,0|0,0:0|0:0,0:0:0:0:
27,150,104262,1,2,0:0:0:0:
93,261,104606,1,2,0:0:0:0:
220,284,104951,1,2,0:0:0:0:
332,219,105296,6,0,P|425:213|438:311,1,195.000000894069,2|0,0:0|0:0,0:0:0:0:
460,333,105986,2,0,P|377:327|304:319,1,130.000000596046,2|2,0:0|0:0,0:0:0:0:
236,232,106675,2,0,P|223:190|223:156,1,65.000000298023,2|0,0:0|0:0,0:0:0:0:
237,133,107020,2,0,P|250:91|250:57,1,65.000000298023,2|0,0:0|0:0,0:0:0:0:
239,32,107365,1,2,0:0:0:0:
116,10,107710,1,2,0:0:0:0:
116,10,107882,6,0,B|91:51|91:51|101:154,1,130.000000596046,0|0,0:0|0:0,0:0:0:0:
129,165,108400,1,2,0:0:0:0:
129,165,108572,2,0,B|136:246|136:246|111:287,1,130.000000596046,0|0,0:0|0:0,0:0:0:0:
87,319,109089,1,2,0:0:0:0:
204,375,109434,6,0,L|298:369,1,65.000000298023,2|0,0:0|0:0,0:0:0:0:
297,344,109779,1,2,0:0:0:0:
402,267,110124,2,0,P|446:272|475:283,1,65.000000298023,2|0,0:0|0:0,0:0:0:0:
502,291,110469,2,0,P|491:232|489:197,1,65.000000298023,2|0,0:0|0:0,0:0:0:0:
505,190,110813,6,0,P|516:145|408:49,1,195.000000894069,2|2,0:0|0:0,0:0:0:0:
386,63,111503,2,0,B|325:84|325:84|234:59,1,130.000000596046,2|2,0:0|0:0,0:0:0:0:
230,55,112020,1,0,0:0:0:0:
230,55,112193,2,0,L|157:60,1,65.000000298023,2|0,0:0|0:0,0:0:0:0:
130,42,112537,1,0,0:0:0:0:
51,145,112882,1,2,0:0:0:0:
142,238,113227,2,0,P|155:290|155:315,1,65.000000298023,2|0,0:0|0:0,0:0:0:0:
141,337,113572,6,0,L|300:328,1,130.000000596046,2|0,0:0|0:0,0:0:0:0:
304,309,114089,1,2,0:0:0:0:
304,309,114262,2,0,P|364:340|436:330,1,130.000000596046,2|2,0:0|0:0,0:0:0:0:
456,312,114779,1,0,0:0:0:0:
456,312,114951,2,0,B|478:244|440:244|453:183,1,130.000000596046,2|0,0:0|0:0,0:0:0:0:
471,152,115469,1,2,0:0:0:0:
471,152,115641,2,0,L|377:145,1,65.000000298023,0|2,0:0|0:0,0:0:0:0:
378,119,115986,1,2,0:0:0:0:
264,57,116331,6,0,P|249:113|270:193,1,130.000000596046,2|2,0:0|0:0,0:0:0:0:
377,244,117020,2,0,P|392:188|371:108,1,130.000000596046,2|2,0:0|0:0,0:0:0:0:
264,57,117710,2,0,L|108:64,1,130.000000596046,2|2,0:0|0:0,0:0:0:0:
65,173,118400,2,0,L|221:180,1,130.000000596046,2|2,0:0|0:0,0:0:0:0:
252,297,119089,5,2,0:0:0:0:
383,306,119434,1,2,0:0:0:0:
457,198,119779,1,2,0:0:0:0:
399,79,120124,1,2,0:0:0:0:
268,70,120469,1,2,0:0:0:0:
194,178,120813,2,0,L|204:248,1,65.000000298023,2|2,0:0|0:0,0:0:0:0:
208,280,121158,1,2,0:0:0:0:
208,280,121848,5,8,0:0:0:0:
180,304,122020,2,0,P|112:288|56:336,1,143.000005019664,8|0,0:0|0:0,0:0:0:0:
36,360,122537,2,0,B|52:308|52:308|28:220,1,143.000005019664,2|2,0:0|0:0,0:0:0:0:
0,96,123227,2,0,P|12:44|28:16,1,71.5000025098322,2|8,0:0|0:0,0:0:0:0:
52,16,123572,1,2,0:0:0:0:
172,68,123917,2,0,L|248:56,1,71.5000025098322,2|0,0:0|0:0,0:0:0:0:
272,76,124262,2,0,B|304:96|304:96|344:88,1,71.5000025098322,8|0,0:0|0:0,0:0:0:0:
364,64,124606,6,0,L|352:-8,2,71.5000025098322,8|8|2,0:0|0:0|0:0,0:0:0:0:
480,116,125296,2,0,P|460:164|444:180,1,71.5000025098322,2|0,0:0|0:0,0:0:0:0:
452,212,125641,2,0,P|403:231|381:231,1,71.5000025098322,2|8,0:0|0:0,0:0:0:0:
360,256,125986,2,0,P|311:236|295:220,2,71.5000025098322,2|0|2,0:0|0:0|0:0,0:0:0:0:
368,128,126675,1,2,0:0:0:0:
376,0,127020,1,2,0:0:0:0:
262,58,127365,5,8,0:0:0:0:
228,71,127537,2,0,L|62:54,1,143.000005019664,8|0,0:0|0:0,0:0:0:0:
52,70,128055,2,0,B|26:136|26:136|46:224,1,143.000005019664,2|2,0:0|0:0,0:0:0:0:
146,282,128744,2,0,P|197:264|231:266,1,71.5000025098322,2|8,0:0|0:0,0:0:0:0:
248,271,129089,1,2,0:0:0:0:
372,301,129434,2,0,L|384:382,1,71.5000025098322,2|0,0:0|0:0,0:0:0:0:
413,353,129779,2,0,L|402:282,1,71.5000025098322,8|0,0:0|0:0,0:0:0:0:
434,267,130124,6,0,L|523:279,2,71.5000025098322,8|8|2,0:0|0:0|0:0,0:0:0:0:
362,160,130813,2,0,P|314:167|270:186,1,71.5000025098322,2|0,0:0|0:0,0:0:0:0:
262,194,131158,2,0,P|223:224|195:262,1,71.5000025098322,2|8,0:0|0:0,0:0:0:0:
193,273,131503,2,0,P|175:318|169:365,2,71.5000025098322,2|0|2,0:0|0:0|0:0,0:0:0:0:
300,344,132193,2,0,L|384:336,1,71.5000025098322,2|0,0:0|0:0,0:0:0:0:
400,360,132537,1,2,0:0:0:0:
504,284,132882,5,8,0:0:0:0:
504,284,133055,2,0,L|480:140,1,143.000005019664,8|0,0:0|0:0,0:0:0:0:
504,116,133572,2,0,P|460:140|388:76,1,143.000005019664,2|2,0:0|0:0,0:0:0:0:
288,16,134262,2,0,P|236:32|212:44,1,71.5000025098322,2|8,0:0|0:0,0:0:0:0:
196,64,134606,1,2,0:0:0:0:
76,16,134951,2,0,P|63:69|62:95,1,71.5000025098322,2|0,0:0|0:0,0:0:0:0:
80,116,135296,2,0,P|92:169|93:195,1,71.5000025098322,8|0,0:0|0:0,0:0:0:0:
72,216,135641,6,0,L|-4:204,2,71.5000025098322,8|8|2,0:0|0:0|0:0,0:0:0:0:
172,300,136331,2,0,B|208:284|208:284|244:292,1,71.5000025098322,2|0,0:0|0:0,0:0:0:0:
264,264,136675,2,0,B|300:278|300:278|320:309,1,71.5000025098322,2|8,0:0|0:0,0:0:0:0:
352,316,137020,2,0,B|368:352|368:352|360:388,2,71.5000025098322,2|0|2,0:0|0:0|0:0,0:0:0:0:
480,301,137710,1,2,0:0:0:0:
465,173,138055,1,2,0:0:0:0:
341,191,138400,5,8,0:0:0:0:
341,191,138572,2,0,L|180:175,1,143.000005019664,8|0,0:0|0:0,0:0:0:0:
172,200,139089,2,0,B|195:151|195:151|172:43,1,143.000005019664,2|2,0:0|0:0,0:0:0:0:
60,9,139779,2,0,P|48:45|48:81,1,71.5000025098322,2|8,0:0|0:0,0:0:0:0:
58,112,140124,1,2,0:0:0:0:
84,238,140469,2,0,L|76:314,1,71.5000025098322,2|0,0:0|0:0,0:0:0:0:
94,339,140813,2,0,P|142:351|174:351,1,71.5000025098322,8|0,0:0|0:0,0:0:0:0:
198,342,141158,6,0,P|246:330|278:330,2,71.5000025098322,8|8|2,0:0|0:0|0:0,0:0:0:0:
187,214,141848,2,0,P|202:162|209:116,1,71.5000025098322,2|0,0:0|0:0,0:0:0:0:
227,116,142193,2,0,P|243:168|266:202,1,71.5000025098322,2|8,0:0|0:0,0:0:0:0:
284,195,142537,2,0,P|310:139|314:108,2,71.5000025098322,2|0|2,0:0|0:0|0:0,0:0:0:0:
386,274,143227,2,0,P|479:248|413:364,1,286.000010039329,2|2,0:0|0:0,0:0:0:0:
74,85,154951,6,0,B|166:26|271:92|271:92|375:163|469:83,1,409.499989380597,2|0,0:0|0:0,0:0:0:0:
444,59,156331,2,0,P|403:96|414:275,1,233.99999393177,2|2,0:0|0:0,0:0:0:0:
485,346,157365,1,2,0:0:0:0:
372,375,157710,6,0,B|283:332|283:332|148:340|148:340|119:264|119:264|236:255,1,409.499989380597,2|0,0:0|0:0,0:0:0:0:
239,234,159089,2,0,P|264:181|156:39,1,233.99999393177,2|2,0:0|0:0,0:0:0:0:
150,157,160124,1,2,0:0:0:0:
239,234,160469,6,0,B|331:222|331:222|379:240|379:240|476:227|476:227|465:317|465:317|380:329,1,409.499989380597,2|0,0:0|0:0,0:0:0:0:
359,346,161848,2,0,L|117:375,1,233.99999393177,2|2,0:0|0:0,0:0:0:0:
55,281,162882,1,2,0:0:0:0:
117,182,163227,6,0,P|178:191|236:217,1,116.999996965885,2|2,0:0|0:0,0:0:0:0:
331,155,163917,2,0,L|318:28,1,116.999996965885,2|2,0:0|0:0,0:0:0:0:
208,8,164606,1,2,0:0:0:0:
104,56,164951,2,0,P|125:100|145:120,1,58.4999984829424,2|0,0:0|0:0,0:0:0:0:
157,132,165296,2,0,L|33:116,1,116.999996965885,2|2,0:0|0:0,0:0:0:0:
0,228,165986,6,0,P|96:232|116:322,1,195.000000894069,2|0,0:0|0:0,0:0:0:0:
104,348,166675,2,0,P|156:324|228:328,1,130.000000596046,2|2,0:0|0:0,0:0:0:0:
331,375,167365,1,2,0:0:0:0:
324,260,167710,2,0,P|332:212|348:188,1,65.000000298023,2|0,0:0|0:0,0:0:0:0:
368,184,168055,2,0,L|500:176,1,130.000000596046,2|2,0:0|0:0,0:0:0:0:
440,72,168744,6,0,B|312:80|312:80|280:68|260:36,1,195.000000894069,2|0,0:0|0:0,0:0:0:0:
240,12,169434,2,0,L|260:160,1,130.000000596046,2|2,0:0|0:0,0:0:0:0:
176,224,170124,1,2,0:0:0:0:
230,326,170469,1,2,0:0:0:0:
343,306,170813,1,2,0:0:0:0:
358,192,171158,1,2,0:0:0:0:
257,140,171503,6,0,P|183:140|60:127,1,195.000000894069,2|0,0:0|0:0,0:0:0:0:
33,101,172193,2,0,L|49:232,1,130.000000596046,2|2,0:0|0:0,0:0:0:0:
116,326,172882,1,2,0:0:0:0:
211,258,173227,2,0,B|277:253|277:253|334:281|334:281|419:274,1,195.000000894069,2|0,0:0|0:0,0:0:0:0:
438,273,173917,1,2,0:0:0:0:
476,162,174262,6,0,P|420:164|385:34,1,195.000000894069,2|0,0:0|0:0,0:0:0:0:
400,24,174951,2,0,P|337:53|272:53,1,130.000000596046,2|2,0:0|0:0,0:0:0:0:
168,8,175641,1,2,0:0:0:0:
60,56,175986,2,0,P|76:96|84:136,1,65.000000298023,2|0,0:0|0:0,0:0:0:0:
56,140,176331,2,0,P|8:176|8:244,1,130.000000596046,2|2,0:0|0:0,0:0:0:0:
40,356,177020,6,0,B|100:348|100:348|160:372|160:372|240:360,1,195.000000894069,2|2,0:0|0:0,0:0:0:0:
248,336,177710,2,0,P|292:300|372:316,1,130.000000596046,2|2,0:0|0:0,0:0:0:0:
464,364,178400,2,0,L|480:216,1,130.000000596046,2|0,0:0|0:0,0:0:0:0:
512,232,178917,1,2,0:0:0:0:
512,232,179089,2,0,L|496:84,1,130.000000596046,2|2,0:0|0:0,0:0:0:0:
400,40,179779,6,0,P|360:96|252:52,1,195.000000894069,2|2,0:0|0:0,0:0:0:0:
272,32,180469,2,0,L|140:44,1,130.000000596046,2|2,0:0|0:0,0:0:0:0:
28,12,181158,1,2,0:0:0:0:
59,130,181503,1,0,0:0:0:0:
59,130,181675,2,0,L|45:270,1,130.000000596046,2|2,0:0|0:0,0:0:0:0:
65,293,182193,1,2,0:0:0:0:
176,256,182537,6,0,P|226:244|316:240,1,130.000000596046,2|2,0:0|0:0,0:0:0:0:
380,148,183227,2,0,P|315:145|251:131,1,130.000000596046,2|2,0:0|0:0,0:0:0:0:
275,17,183917,2,0,L|424:6,1,130.000000596046,2|2,0:0|0:0,0:0:0:0:
486,92,184606,2,0,L|497:241,1,130.000000596046,2|2,0:0|0:0,0:0:0:0:
405,297,185296,5,2,0:0:0:0:
347,195,185641,1,2,0:0:0:0:
257,271,185986,1,2,0:0:0:0:
199,169,186331,1,2,0:0:0:0:
109,245,186675,1,2,0:0:0:0:
51,143,187020,2,0,L|59:77,1,65.000000298023,2|0,0:0|0:0,0:0:0:0:
59,78,188055,6,0,L|80:241,1,143.000005019664,8|0,0:0|0:0,0:0:0:0:
84,256,188572,1,0,0:0:0:0:
88,292,188744,2,0,P|36:276|12:276,2,71.5000025098322,2|0|2,0:0|0:0|0:0,0:0:0:0:
188,376,189434,1,2,0:0:0:0:
216,352,189606,2,0,P|300:356|340:292,1,143.000005019664,8|0,0:0|0:0,0:0:0:0:
364,296,190124,2,0,P|416:308|440:328,1,71.5000025098322,2|2,0:0|0:0,0:0:0:0:
452,348,190469,1,8,0:0:0:0:
504,228,190813,6,0,L|488:152,1,71.5000025098322,8|8,0:0|0:0,0:0:0:0:
512,128,191158,1,0,0:0:0:0:
388,88,191503,2,0,L|404:12,2,71.5000025098322,2|0|0,0:0|0:0|0:0,0:0:0:0:
272,148,192193,2,0,L|256:72,1,71.5000025098322,2|8,0:0|0:0,0:0:0:0:
280,48,192538,1,2,0:0:0:0:
163,101,192882,1,2,0:0:0:0:
37,72,193227,1,2,0:0:0:0:
75,194,193572,6,0,P|83:265|80:340,1,143.000005019664,8|0,0:0|0:0,0:0:0:0:
207,364,194262,2,0,L|286:356,2,71.5000025098322,2|0|2,0:0|0:0|0:0,0:0:0:0:
197,329,194779,1,8,0:0:0:0:
187,294,194951,2,0,L|363:274,1,143.000005019664,2|0,0:0|0:0,0:0:0:0:
362,263,195469,1,0,0:0:0:0:
395,249,195641,2,0,P|427:187|402:106,1,143.000005019664,2|8,0:0|0:0,0:0:0:0:
313,36,196331,6,0,P|281:98|306:179,1,143.000005019664,8|0,0:0|0:0,0:0:0:0:
183,227,197020,2,0,P|136:212|89:205,1,71.5000025098322,2|0,0:0|0:0,0:0:0:0:
79,214,197365,1,0,0:0:0:0:
44,340,197710,2,0,P|91:325|138:318,1,71.5000025098322,2|8,0:0|0:0,0:0:0:0:
148,327,198055,1,2,0:0:0:0:
264,380,198400,2,0,L|272:296,1,71.5000025098322,2|0,0:0|0:0,0:0:0:0:
300,288,198744,1,2,0:0:0:0:
220,188,199089,6,0,B|180:216|180:216|80:200,1,143.000005019664,8|0,0:0|0:0,0:0:0:0:
56,220,199606,1,0,0:0:0:0:
28,240,199779,2,0,L|36:324,2,71.5000025098322,2|0|2,0:0|0:0|0:0,0:0:0:0:
4,112,200469,1,2,0:0:0:0:
32,92,200641,2,0,B|72:120|72:120|172:104,1,143.000005019664,8|0,0:0|0:0,0:0:0:0:
200,116,201158,2,0,P|184:72|184:44,1,71.5000025098322,2|2,0:0|0:0,0:0:0:0:
200,16,201503,1,8,0:0:0:0:
324,48,201848,6,0,L|396:40,1,71.5000025098322,8|8,0:0|0:0,0:0:0:0:
428,56,202193,1,0,0:0:0:0:
348,156,202537,2,0,L|276:148,2,71.5000025098322,2|0|0,0:0|0:0|0:0,0:0:0:0:
408,268,203227,2,0,L|480:260,1,71.5000025098322,2|8,0:0|0:0,0:0:0:0:
512,276,203572,1,2,0:0:0:0:
425,370,203917,1,2,0:0:0:0:
298,348,204262,1,2,0:0:0:0:
253,227,204606,6,0,P|256:161|275:61,1,143.000005019664,8|0,0:0|0:0,0:0:0:0:
152,28,205296,2,0,P|95:33|54:41,2,71.5000025098322,2|0|2,0:0|0:0|0:0,0:0:0:0:
155,63,205813,1,8,0:0:0:0:
158,98,205986,2,0,P|86:122|42:198,1,143.000005019664,2|0,0:0|0:0,0:0:0:0:
43,210,206503,1,0,0:0:0:0:
38,245,206675,2,0,L|197:250,1,143.000005019664,2|8,0:0|0:0,0:0:0:0:
297,304,207365,6,0,L|439:299,1,143.000005019664,8|0,0:0|0:0,0:0:0:0:
468,172,208055,2,0,B|437:155|437:155|381:168,1,71.5000025098322,2|0,0:0|0:0,0:0:0:0:
367,172,208400,1,0,0:0:0:0:
255,108,208744,2,0,B|222:125|222:125|168:112,1,65.000000298023,2|8,0:0|0:0,0:0:0:0:
163,111,209089,1,2,0:0:0:0:
53,188,209434,1,2,0:0:0:0:
173,236,209779,1,2,0:0:0:0:
72,316,210124,5,2,0:0:0:0:
