osu file format v14

[General]
AudioFilename: audio.mp3
AudioLeadIn: 0
PreviewTime: 57308
Countdown: 0
SampleSet: Soft
StackLeniency: 0.7
Mode: 0
LetterboxInBreaks: 0
WidescreenStoryboard: 0

[Editor]
Bookmarks: 14082,21985,32148,42632,52955
DistanceSpacing: 0.8
BeatDivisor: 6
GridSize: 32
TimelineZoom: 5.299998

[Metadata]
Title:Bye-bye Nostalgica
TitleUnicode:ばいばい、ノスタルジーカ
Artist:Neru
ArtistUnicode:Neru
Creator:Seria
Version:Together
Source:モンスターパズルアドベンチャー
Tags:Neru 押入れP りゅうせー Vocaloid 鏡音レン Kagamine Len
BeatmapID:1423988
BeatmapSetID:673004

[Difficulty]
HPDrainRate:5.5
CircleSize:4
OverallDifficulty:8.2
ApproachRate:9.3
SliderMultiplier:1.86
SliderTickRate:1

[Events]
//Background and Video events
0,0,"Bye_Bye_Nostalgica.png",0,0
//Break Periods
//Storyboard Layer 0 (Background)
//Storyboard Layer 1 (Fail)
//Storyboard Layer 2 (Pass)
//Storyboard Layer 3 (Foreground)
//Storyboard Layer 4 (Overlay)
//Storyboard Sound Samples

[TimingPoints]
1350,322.58064516129,4,2,1,60,1,0
1350,-333.333333333333,4,2,1,30,0,0
1672,-333.333333333333,4,2,1,5,0,0
1834,-333.333333333333,4,2,1,30,0,0
1995,-333.333333333333,4,2,1,5,0,0
2318,-333.333333333333,4,2,1,30,0,0
4253,-333.333333333333,4,2,1,5,0,0
4414,-333.333333333333,4,2,1,30,0,0
4576,-333.333333333333,4,2,1,5,0,0
4898,-333.333333333333,4,2,1,30,0,0
6834,-333.333333333333,4,2,1,5,0,0
6995,-333.333333333333,4,2,1,30,0,0
7801,-333.333333333333,4,2,1,5,0,0
7963,-333.333333333333,4,2,1,30,0,0
8124,-333.333333333333,4,2,1,30,0,0
9091,-833.333333333333,4,2,1,30,0,0
9414,-833.333333333333,4,2,1,5,0,0
10301,-833.333333333333,4,2,1,5,0,0
10382,-833.333333333333,4,2,1,30,0,0
10705,-333.333333333333,4,2,1,5,0,0
11032,-333.333333333333,4,2,1,30,0,0
12802,-100,4,2,1,5,0,0
12965,-100,4,2,1,50,0,0
20704,-142.857142857143,4,2,1,50,0,0
21028,-142.857142857143,4,2,1,5,0,0
21188,-142.857142857143,4,2,1,50,0,0
21995,-125,4,2,1,40,0,0
30866,-100,4,2,1,45,0,0
32157,-100,4,2,1,50,0,0
41995,-125,4,2,1,45,0,0
42640,-166.666666666667,4,2,1,40,0,0
42963,-166.666666666667,4,2,1,5,0,0
43285,-166.666666666667,4,2,1,40,0,0
44253,-166.666666666667,4,2,1,5,0,0
44576,-166.666666666667,4,2,1,40,0,0
45543,-166.666666666667,4,2,1,5,0,0
45866,-166.666666666667,4,2,1,40,0,0
47802,-142.857142857143,4,2,1,40,0,0
48124,-142.857142857143,4,2,1,5,0,0
48285,-142.857142857143,4,2,1,40,0,0
48769,-142.857142857143,4,2,1,5,0,0
48930,-142.857142857143,4,2,1,40,0,0
51349,-135.135135135135,4,2,1,45,0,0
51672,-128.205128205128,4,2,1,45,0,0
51995,-121.951219512195,4,2,1,45,0,0
52317,-116.279069767442,4,2,1,50,0,0
52962,-100,4,2,1,55,0,0
55544,-100,4,2,1,55,0,0
55866,-100,4,2,1,60,0,0
56027,-100,4,2,1,60,0,0
56189,-100,4,2,1,65,0,0
56350,-100,4,2,1,65,0,0
56511,-100,4,2,1,70,0,0
56673,-100,4,2,1,70,0,0
57156,-333.33334,4,2,1,60,0,0
57479,-333.33334,4,2,1,5,0,0
57882,-142.857142857143,4,2,1,60,0,0
57962,-83.3333333333334,4,2,1,70,0,1
67801,-83.3333333333334,4,2,1,70,0,0
68285,-83.3333333333334,4,2,3,70,0,1
68608,-83.3333333333334,4,2,1,70,0,1
72963,-83.3333333333334,4,2,1,70,0,1
73446,-166.666666666667,4,2,1,40,0,0
73769,-166.666666666667,4,2,1,5,0,0
73930,-166.666666666667,4,2,1,40,0,0
74253,-142.857142857143,4,2,1,40,0,0
76189,-142.857142857143,4,2,1,60,0,0
77479,-100,4,2,1,60,0,0
78124,-100,4,2,1,60,0,0
78608,-83.3333333333333,4,2,1,70,0,1
88608,-285.714285714286,4,2,1,60,0,0
88850,-285.714285714286,4,2,1,5,0,0
88930,-80,4,2,3,70,0,1
89253,-80,4,2,1,70,0,1
92640,-83.3333333333333,4,2,1,70,0,1
92962,-71.4285714285714,4,2,1,60,0,1
93177,-71.4285714285714,4,2,1,60,0,1
93393,-71.4285714285714,4,2,1,60,0,1
93608,-71.4285714285714,4,2,1,60,0,1
93823,-71.4285714285714,4,2,1,60,0,1
94038,-71.4285714285714,4,2,1,60,0,1
94253,-181.818181818182,4,2,3,60,0,0
94495,-181.818181818182,4,2,3,5,0,0
94575,-66.6666666666667,4,2,3,65,0,1
94898,-66.6666666666667,4,2,1,65,0,1
95382,-76.9230769230769,4,2,1,65,0,1
100543,-83.3333333333333,4,2,1,65,0,1
101833,-86.9565217391303,4,2,1,60,0,0
108930,-90.9090909090909,4,2,1,60,0,0
109253,-90.9090909090909,4,2,1,5,0,0
109576,-90.9090909090909,4,2,1,60,0,0
109737,-384.615384615385,4,2,1,60,0,0
109818,-384.615384615385,4,2,1,30,0,0
114576,-384.615384615385,4,2,1,30,0,0

[Colours]
Combo1 : 255,93,62
Combo2 : 0,180,225
Combo3 : 0,200,100
Combo4 : 241,224,122
Combo5 : 236,209,176

[HitObjects]
122,239,1350,6,0,L|115:154,2,83.6999974456788,0|0|2,0:0|0:0|0:0,0:0:0:0:
260,58,2962,6,0,L|251:118,1,55.7999982971192
310,185,3608,1,0,0:0:0:0:
398,286,3930,6,0,P|418:245|413:196,2,83.6999974456788,2|0|2,0:0|0:0|0:0,0:0:0:0:
141,286,5543,5,0,0:0:0:0:
186,205,5866,1,0,0:0:0:0:
140,132,6188,1,0,0:0:0:0:
185,50,6511,2,0,P|224:66|265:58,1,83.6999974456788,2|0,0:0|0:0,0:0:0:0:
357,162,7479,6,0,L|350:77,1,83.6999974456788,2|0,0:0|0:0,0:0:0:0:
464,40,8124,2,0,L|454:105,2,55.7999982971192
273,171,9091,6,0,L|357:161,1,83.7000020434571,2|0,0:0|0:0,0:0:0:0:
407,220,10382,2,0,B|455:228,1,44.6400010898438,2|0,0:0|0:0,0:0:0:0:
256,192,11108,12,0,12801,0:0:0:0:
199,182,12962,5,0,1:0:0:0:
199,182,13043,1,0,1:0:0:0:
199,182,13124,2,0,B|291:175,1,93,0|0,1:0|0:0,0:0:0:0:
184,287,13446,1,0,1:0:0:0:
184,287,13527,1,0,1:0:0:0:
184,287,13608,2,0,L|89:293,1,93,0|0,1:0|0:0,0:0:0:0:
282,96,13930,1,8,0:0:0:0:
316,328,14091,6,0,P|347:249|285:172,1,186,6|0,0:0|0:0,0:0:0:0:
462,125,14575,2,0,L|359:127,1,93,8|0,0:0|0:0,0:0:0:0:
266,199,14898,1,2,0:0:0:0:
378,41,15059,1,2,0:0:0:0:
434,226,15220,1,10,0:0:0:0:
189,126,15382,6,0,B|249:101|249:101|377:127,1,186,2|0,0:0|0:0,0:0:0:0:
438,315,15866,2,0,B|423:269|423:269|440:200,1,93,10|0,0:0|0:0,0:0:0:0:
368,126,16188,1,2,0:0:0:0:
315,301,16349,1,2,0:0:0:0:
368,126,16511,1,10,0:0:0:0:
315,301,16672,6,0,P|252:302|316:348,1,186,6|0,0:0|0:0,0:0:0:0:
466,227,17156,2,0,L|466:119,1,93,10|0,0:0|0:0,0:0:0:0:
167,113,17479,2,0,B|214:95|214:95|272:103,1,93,2|0,0:0|0:0,0:0:0:0:
366,212,17801,1,8,1:0:0:0:
366,212,17882,1,0,1:0:0:0:
366,212,17962,6,0,P|435:214|431:115,1,186,2|0,1:0|0:0,0:0:0:0:
259,223,18446,5,8,0:0:0:0:
360,67,18608,1,0,0:0:0:0:
466,227,18769,1,0,0:0:0:0:
371,40,18930,1,0,0:0:0:0:
259,223,19091,1,8,1:0:0:0:
224,233,19172,1,0,1:0:0:0:
189,234,19253,1,0,1:0:0:0:
154,225,19333,1,0,1:0:0:0:
128,206,19414,6,0,P|102:162|200:171,1,186,6|8,0:0|0:0,0:0:0:0:
380,215,19898,2,0,P|401:171|303:171,1,186,6|0,0:0|0:0,0:0:0:0:
264,356,20382,1,8,1:0:0:0:
262,324,20462,1,0,1:0:0:0:
261,291,20543,1,0,1:0:0:0:
261,257,20624,1,0,1:0:0:0:
259,223,20704,6,0,B|262:145|262:145|289:103|289:103|290:15,1,195.299994039917,6|0,0:0|0:0,0:0:0:0:
116,126,21349,1,8,0:0:0:0:
389,68,21511,1,8,0:0:0:0:
394,76,21833,1,0,1:0:0:0:
394,76,21914,1,0,1:0:0:0:
394,76,21995,6,0,P|381:123|388:156,1,74.4,0|2,0:0|0:0,0:0:0:0:
475,263,22317,2,0,P|474:212|450:177,1,74.4,2|2,0:0|0:0,0:0:0:0:
330,223,22640,1,2,0:0:0:0:
254,249,22801,1,0,0:0:0:0:
182,210,22962,1,2,0:0:0:0:
196,131,23124,6,0,P|199:58|135:15,1,148.8,2|2,0:0|0:0,0:0:0:0:
45,113,23608,2,0,P|84:104|126:94,1,74.4,2|2,0:0|0:0,0:0:0:0:
363,138,23930,2,0,B|263:158|263:158|312:172,1,148.8,2|2,0:0|1:0,0:0:0:0:
337,180,24333,1,0,1:0:0:0:
337,180,24414,1,0,1:0:0:0:
476,243,24575,6,0,P|436:256|389:271,1,74.4,2|0,0:0|0:0,0:0:0:0:
461,160,24898,1,0,0:0:0:0:
397,305,25059,1,0,0:0:0:0:
337,180,25220,1,0,0:0:0:0:
476,243,25382,1,0,0:0:0:0:
299,308,25543,1,2,0:0:0:0:
351,158,25704,1,0,0:0:0:0:
279,333,25866,6,0,B|165:352|165:352|189:319,1,148.8,2|0,0:0|0:0,0:0:0:0:
132,106,26349,1,0,0:0:0:0:
132,106,26511,2,0,B|114:160|114:160|147:261,1,148.8,2|2,0:0|0:0,0:0:0:0:
237,247,26995,1,8,0:0:0:0:
266,94,27156,6,0,P|197:73|124:115,1,148.8,6|0,0:0|0:0,0:0:0:0:
354,111,27640,1,2,0:0:0:0:
207,164,27801,1,2,0:0:0:0:
201,27,27962,1,0,0:0:0:0:
344,144,28124,1,2,0:0:0:0:
430,28,28285,6,0,B|455:69|455:69|432:175,1,148.8,2|0,0:0|0:0,0:0:0:0:
432,307,28769,2,0,P|477:307|528:306,1,74.4,2|0,0:0|0:0,0:0:0:0:
336,230,29091,2,0,P|296:232|246:234,1,74.4,2|0,0:0|0:0,0:0:0:0:
144,179,29414,1,2,1:0:0:0:
144,179,29495,1,0,1:0:0:0:
144,179,29575,1,0,1:0:0:0:
100,306,29737,5,2,0:0:0:0:
33,150,29898,1,0,0:0:0:0:
185,262,30059,1,0,0:0:0:0:
31,180,30220,1,0,0:0:0:0:
259,56,30382,1,0,0:0:0:0:
131,105,30543,2,0,L|148:202,1,74.4,2|10,0:0|0:0,0:0:0:0:
315,223,30866,6,0,B|267:274|267:274|269:232,1,93,4|0,0:0|0:0,0:0:0:0:
410,132,31188,2,0,B|486:152|486:152|461:164,1,93,4|8,0:0|0:0,0:0:0:0:
263,124,31511,2,0,B|207:75|207:75|241:77,1,93,4|0,0:0|0:0,0:0:0:0:
404,250,31833,1,8,0:0:0:0:
413,276,31914,1,8,0:0:0:0:
416,303,31995,1,8,0:0:0:0:
412,331,32075,1,8,0:0:0:0:
398,357,32156,6,0,B|304:325|316:405|207:378,1,186,12|2,0:0|0:0,0:0:0:0:
92,264,32640,1,10,0:0:0:0:
290,124,32801,1,2,0:0:0:0:
210,275,32962,1,2,0:0:0:0:
103,123,33124,1,0,0:0:0:0:
315,232,33285,1,10,0:0:0:0:
291,38,33446,6,0,P|215:62|208:159,1,186,2|2,0:0|0:0,0:0:0:0:
351,216,33930,1,10,0:0:0:0:
290,124,34091,1,2,0:0:0:0:
210,275,34253,1,2,0:0:0:0:
423,157,34414,1,0,0:0:0:0:
419,338,34575,1,10,0:0:0:0:
314,103,34737,1,0,0:0:0:0:
314,326,34898,6,4,B|348:293|348:293|195:274,1,186,6|8,0:0|0:0,0:0:0:0:
85,325,35382,1,0,0:0:0:0:
94,127,35543,1,0,0:0:0:0:
94,127,35704,1,2,0:0:0:0:
210,275,35866,1,10,0:0:0:0:
330,57,36027,6,0,B|308:120|308:120|347:237,1,186,6|0,0:0|0:0,0:0:0:0:
314,326,36511,1,8,0:0:0:0:
158,178,36672,2,0,P|193:132|239:123,1,93,2|0,0:0|0:0,0:0:0:0:
412,182,36995,1,2,0:0:0:0:
241,207,37156,1,10,0:0:0:0:
410,147,37317,1,2,0:0:0:0:
230,81,37479,6,0,L|124:84,1,93,6|0,0:0|0:0,0:0:0:0:
257,238,37801,2,0,L|357:232,1,93,8|2,0:0|0:0,0:0:0:0:
100,164,38124,1,2,0:0:0:0:
257,238,38285,1,0,0:0:0:0:
230,81,38446,1,8,0:0:0:0:
154,242,38608,1,2,0:0:0:0:
320,85,38769,6,0,B|279:73|279:73|215:83,1,93,6|0,0:0|0:0,0:0:0:0:
64,251,39091,2,0,B|102:258|102:258|166:238,1,93,10|2,0:0|0:0,0:0:0:0:
69,153,39414,1,0,0:0:0:0:
178,272,39575,1,2,0:0:0:0:
229,80,39737,2,0,B|189:92|189:92|110:81,1,93,8|2,0:0|0:0,0:0:0:0:
389,211,40059,6,0,B|362:138|396:85|396:85|422:143,1,186,6|8,0:0|0:0,0:0:0:0:
468,203,40462,1,0,0:0:0:0:
468,203,40543,2,0,P|464:254|458:301,1,93
276,243,40866,1,0,0:0:0:0:
421,138,41027,1,8,0:0:0:0:
300,324,41188,6,0,P|243:321|209:292,1,93
294,151,41511,1,8,0:0:0:0:
294,151,41591,1,8,0:0:0:0:
294,151,41672,2,0,L|274:248,1,93,10|0,0:0|0:0,0:0:0:0:
93,333,41995,2,0,P|89:294|81:238,1,74.4,2|0,0:0|0:0,0:0:0:0:
134,119,42317,1,10,0:3:0:0:
141,91,42479,1,8,0:0:0:0:
300,331,42640,6,0,B|235:314|235:314|195:346|195:346|144:314|88:334,1,223.199993188477,6|8,0:0|0:0,0:0:0:0:
202,198,43608,1,2,0:0:0:0:
87,48,43930,6,0,B|67:190|67:190|136:125,1,223.199993188477,2|10,0:0|0:0,0:0:0:0:
293,116,44898,1,2,0:0:0:0:
473,208,45220,6,0,B|417:200|389:233|389:233|336:201|336:201|291:218|255:200,1,223.199993188477,2|8,0:0|0:0,0:0:0:0:
148,62,46188,1,2,0:0:0:0:
264,121,46511,1,2,0:0:0:0:
231,19,46833,1,2,0:0:0:0:
60,176,47156,2,0,P|119:169|178:164,1,111.599996594238,10|2,0:0|0:0,0:0:0:0:
256,359,47801,6,0,P|210:294|249:225,1,167.399994891358,6|2,0:0|0:0,0:0:0:0:
310,288,48446,2,0,B|376:281|376:281|424:307|424:307|508:296,1,195.299994039917,8|2,0:0|0:0,0:0:0:0:
455,172,49091,6,0,P|392:185|338:153,1,130.199996026611,2|2,0:0|0:0,0:0:0:0:
173,170,49737,2,0,B|121:165|121:165|72:177|72:177|24:172,1,130.199996026611,8|0,0:0|0:0,0:0:0:0:
161,286,50220,1,2,0:0:0:0:
161,286,50382,6,0,P|143:220|184:161,1,130.199996026611,2|2,0:0|0:0,0:0:0:0:
307,229,50866,1,2,0:0:0:0:
307,229,51027,2,0,L|215:229,1,65.0999980133057,8|0,0:0|0:0,0:0:0:0:
399,158,51349,2,0,L|484:157,1,68.8200016801758,2|0,0:0|0:0,0:0:0:0:
300,50,51672,6,0,L|214:44,1,72.5400024351197,2|0,0:0|0:0,0:0:0:0:
386,232,51995,2,0,P|399:184|395:139,1,76.2600011636353,2|0,0:0|0:0,0:0:0:0:
123,48,52317,2,0,P|109:91|117:149,1,79.980001220398,10|0,0:0|0:0,0:0:0:0:
277,164,52640,1,2,1:0:0:0:
257,138,52720,1,0,1:0:0:0:
274,111,52801,1,0,1:0:0:0:
302,126,52882,1,0,1:0:0:0:
307,157,52962,6,0,P|242:171|201:73,1,186,14|8,0:0|0:0,0:0:0:0:
388,231,53446,1,2,0:0:0:0:
284,310,53608,2,0,P|232:311|181:310,1,93,2|0,0:0|0:0,0:0:0:0:
65,206,53930,1,8,0:0:0:0:
65,206,54091,6,0,B|133:198|133:198|177:221|177:221|256:209,1,186
420,128,54575,2,0,P|375:132|315:138,1,93,8|0,0:0|0:0,0:0:0:0:
196,316,54898,1,8,0:0:0:0:
196,316,54979,1,0,0:0:0:0:
196,316,55059,1,0,0:0:0:0:
199,124,55220,1,8,0:0:0:0:
106,223,55382,1,8,0:0:0:0:
309,111,55543,5,12,0:0:0:0:
383,247,55704,1,0,0:0:0:0:
359,32,55866,1,8,0:0:0:0:
218,261,56027,1,8,0:0:0:0:
240,38,56188,1,8,0:0:0:0:
443,302,56349,1,8,0:0:0:0:
470,29,56511,1,8,0:0:0:0:
106,223,56672,1,8,0:0:0:0:
240,38,57156,6,0,L|261:164,1,125.549996168518,12|0,0:0|0:0,0:0:0:0:
266,185,57962,6,0,P|322:105|205:51,1,223.199993188477,6|0,0:0|0:0,0:0:0:0:
82,141,58446,1,8,0:0:0:0:
197,298,58608,1,0,0:0:0:0:
245,112,58769,1,2,0:0:0:0:
63,251,58930,1,2,0:0:0:0:
266,185,59091,1,10,0:0:0:0:
439,324,59253,6,0,P|343:357|299:263,1,223.199993188477,2|2,0:0|0:0,0:0:0:0:
388,117,59737,1,10,0:0:0:0:
439,324,59898,1,2,0:0:0:0:
247,163,60059,2,0,B|211:145|211:145|138:151,1,111.599996594238,2|0,0:0|0:0,0:0:0:0:
372,276,60382,1,2,1:0:0:0:
372,276,60462,1,0,1:0:0:0:
372,276,60543,6,0,B|378:216|339:178|339:178|358:139|358:139|338:103|362:52,1,223.199993188477,14|0,0:0|0:0,0:0:0:0:
166,255,61027,2,0,B|207:241|207:241|297:257,1,111.599996594238,8|0,0:0|0:0,0:0:0:0:
459,281,61349,1,2,0:0:0:0:
252,346,61511,1,2,0:0:0:0:
434,98,61672,1,10,0:0:0:0:
439,263,61833,6,0,B|369:255|338:282|338:282|302:257|302:257|255:263|225:237,1,223.199993188477,2|0,0:0|0:0,0:0:0:0:
78,268,62317,1,10,0:0:0:0:
136,89,62479,1,2,0:0:0:0:
278,172,62640,1,2,1:0:0:0:
272,156,62720,1,0,1:0:0:0:
267,141,62801,1,8,0:0:0:0:
264,128,62882,1,8,0:0:0:0:
261,116,62962,2,0,L|321:116,1,55.7999982971192,10|8,0:0|0:0,0:0:0:0:
401,90,63124,6,0,P|350:126|432:112,1,223.199993188477,14|0,0:0|0:0,0:0:0:0:
250,178,63608,2,0,B|264:253|354:304|354:304|325:248,1,223.199993188477,8|2,0:0|0:0,0:0:0:0:
169,233,64091,1,0,0:0:0:0:
354,153,64253,1,10,0:0:0:0:
238,34,64414,6,0,P|143:42|124:154,1,223.199993188477,2|0,0:0|0:0,0:0:0:0:
329,255,64898,2,0,P|359:201|351:144,1,111.599996594238,10|0,0:0|0:0,0:0:0:0:
67,278,65220,2,0,P|116:270|185:261,1,111.599996594238,2|0,0:0|0:0,0:0:0:0:
223,129,65543,1,10,0:0:0:0:
223,129,65624,1,8,0:0:0:0:
223,129,65704,1,8,0:0:0:0:
223,129,65785,1,8,0:0:0:0:
223,129,65866,6,0,P|271:190|261:98,1,223.199993188477,14|10,0:0|0:0,0:0:0:0:
133,70,66349,1,14,0:0:0:0:
117,196,66511,1,2,0:0:0:0:
109,53,66672,1,14,0:0:0:0:
99,182,66833,1,2,0:0:0:0:
336,261,66995,6,0,B|291:299|239:282|239:282|198:321|198:321|151:309|104:349,1,223.199993188477,6|8,0:0|0:0,0:0:0:0:
111,307,67398,1,8,0:0:0:0:
111,307,67479,1,8,0:0:0:0:
275,199,67640,1,0,0:0:0:0:
289,365,67801,1,10,0:0:0:0:
187,107,67962,1,10,0:0:0:0:
187,107,68285,6,0,B|351:77|351:77|307:119,1,223.199993188477,6|0,0:0|0:0,0:0:0:0:
170,28,68769,2,0,L|314:4,1,111.599996594238,8|0,0:0|0:0,0:0:0:0:
471,169,69091,1,2,0:0:0:0:
350,76,69253,1,2,0:0:0:0:
431,270,69414,1,10,0:0:0:0:
471,169,69575,6,0,B|344:143|383:228|250:196,1,223.199993188477,2|2,0:0|0:0,0:0:0:0:
51,150,70059,1,8,0:0:0:0:
242,289,70220,1,2,0:0:0:0:
277,105,70382,1,2,0:0:0:0:
123,305,70543,1,2,0:0:0:0:
76,65,70704,1,2,1:0:0:0:
76,65,70785,1,0,1:0:0:0:
76,65,70866,6,0,B|155:75|155:75|293:11,1,223.199993188477,14|0,0:0|0:0,0:0:0:0:
166,178,71349,2,0,L|29:159,1,111.599996594238,8|0,0:0|0:0,0:0:0:0:
342,124,71672,1,2,0:0:0:0:
427,267,71833,1,2,0:0:0:0:
394,52,71995,1,10,0:0:0:0:
321,223,72156,6,0,B|334:286|317:376|317:376|366:320,1,223.199993188477,2|2,0:0|0:0,0:0:0:0:
258,156,72640,2,0,P|201:136|142:143,1,111.599996594238,10|0,0:0|0:0,0:0:0:0:
29,235,72962,1,10,3:0:0:0:
46,129,73124,1,8,3:0:0:0:
29,235,73285,1,10,0:0:0:0:
113,300,73446,6,0,B|168:307|168:307|205:338|205:338|277:344,1,167.399994891358,6|0,0:0|0:0,0:0:0:0:
491,306,74253,2,0,P|424:321|359:280,1,130.199996026611,10|0,0:0|0:0,0:0:0:0:
308,162,74737,2,0,P|362:191|429:174,1,130.199996026611,2|0,0:0|0:0,0:0:0:0:
222,130,75220,2,0,B|166:137|166:137|95:109,2,130.199996026611,2|10|2,0:0|0:0|0:0,0:0:0:0:
380,101,76027,1,0,0:0:0:0:
350,240,76188,5,14,0:0:0:0:
284,58,76349,1,0,0:0:0:0:
284,58,76511,1,0,0:0:0:0:
215,220,76672,5,12,0:0:0:0:
430,174,76833,1,0,0:0:0:0:
430,174,76995,1,0,0:0:0:0:
405,320,77156,5,14,0:0:0:0:
277,167,77317,1,2,0:0:0:0:
108,176,77479,6,0,P|153:230|228:208,1,139.5,14|0,0:0|0:0,0:0:0:0:
277,167,77801,2,0,B|229:140|229:140|178:150,1,93,12|0,0:0|0:0,0:0:0:0:
225,313,78124,1,10,0:0:0:0:
359,146,78285,1,10,0:0:0:0:
355,124,78366,1,8,0:0:0:0:
350,104,78446,1,8,0:0:0:0:
345,84,78527,1,8,0:0:0:0:
340,64,78608,6,0,B|231:19|231:19|120:76,1,223.199993188477,14|0,0:0|0:0,0:0:0:0:
248,271,79091,2,0,P|273:213|264:161,1,111.599996594238,8|0,0:0|0:0,0:0:0:0:
62,164,79414,1,2,0:0:0:0:
183,205,79575,1,2,0:0:0:0:
137,67,79737,1,10,0:0:0:0:
311,205,79898,6,0,B|142:236|142:236|192:198,1,223.199993188477,2|2,0:0|0:0,0:0:0:0:
331,291,80382,2,0,L|205:318,1,111.599996594238,10|2,0:0|0:0,0:0:0:0:
324,117,80704,1,2,0:0:0:0:
406,233,80866,1,0,0:0:0:0:
176,181,81027,2,0,L|240:164,1,55.7999982971192,10|0,1:0|1:0,1:0:0:0:
348,139,81188,6,0,P|287:59|178:91,1,223.199993188477,6|0,0:0|0:0,0:0:0:0:
342,238,81672,2,0,B|379:261|379:261|465:262,1,111.599996594238,8|0,0:0|0:0,0:0:0:0:
315,149,81995,1,2,0:0:0:0:
221,282,82156,1,2,0:0:0:0:
180,87,82317,1,10,0:0:0:0:
422,179,82479,6,0,B|456:134|456:134|449:20|449:20|404:59,1,223.199993188477,2|0,0:0|0:0,0:0:0:0:
322,311,82962,2,0,P|255:307|214:273,1,111.599996594238,10|0,0:0|0:0,0:0:0:0:
164,62,83285,2,0,L|174:137,1,55.7999982971192,2|0,1:0|1:0,1:0:0:0:
302,58,83446,2,0,L|308:-10,1,55.7999982971192,0|0,1:0|0:0,0:0:0:0:
422,179,83608,1,10,0:0:0:0:
422,179,83688,1,8,0:0:0:0:
422,179,83769,6,0,P|342:195|417:263,1,223.199993188477,14|0,0:0|0:0,0:0:0:0:
302,58,84253,2,0,L|177:33,1,111.599996594238,8|0,0:0|0:0,0:0:0:0:
20,62,84575,1,2,0:0:0:0:
20,62,84737,1,0,0:0:0:0:
147,242,84898,1,10,0:0:0:0:
251,157,85059,6,0,B|161:130|161:130|94:180|30:146,1,223.199993188477,2|0,0:0|0:0,0:0:0:0:
264,316,85543,2,0,P|325:310|373:264,1,111.599996594238,10|0,0:0|0:0,0:0:0:0:
358,14,85866,2,0,P|300:29|256:82,1,111.599996594238,2|0,0:0|0:0,0:0:0:0:
413,166,86188,1,2,1:0:0:0:
437,159,86269,1,0,1:0:0:0:
462,154,86349,1,0,1:0:0:0:
486,150,86430,1,0,1:0:0:0:
509,145,86511,6,0,B|517:193|517:193|498:265,1,111.599996594238,14|0,0:0|0:0,0:0:0:0:
317,175,86833,1,10,0:0:0:0:
94,170,86995,2,0,P|150:171|195:208,1,111.599996594238,14|0,0:0|0:0,0:0:0:0:
293,355,87317,2,0,L|178:357,1,111.599996594238,14|0,0:0|0:0,0:0:0:0:
295,195,87640,6,0,B|311:133|275:37|275:37|264:99,1,223.199993188477,14|8,0:0|0:0,0:0:0:0:
254,135,88043,1,8,0:0:0:0:
254,135,88124,1,8,0:0:0:0:
381,99,88285,1,0,0:0:0:0:
192,268,88446,1,2,0:0:0:0:
192,268,88608,2,0,L|179:322,1,48.8249985099793,10|0,0:0|0:0,0:0:0:0:
209,244,88930,6,0,P|275:217|176:166,1,232.5,6|0,0:0|0:0,0:0:0:0:
344,305,89414,2,0,B|401:299|401:299|472:238,1,116.25,12|0,0:0|0:0,0:0:0:0:
188,149,89737,1,10,0:0:0:0:
344,305,89898,1,2,0:0:0:0:
373,85,90059,1,10,0:0:0:0:
211,331,90220,6,0,P|114:320|103:203,1,232.5,2|2,0:0|0:0,0:0:0:0:
371,275,90704,1,10,0:0:0:0:
182,248,90866,1,0,0:0:0:0:
372,119,91027,1,10,0:0:0:0:
253,346,91188,1,0,0:0:0:0:
279,87,91349,1,10,0:0:0:0:
455,332,91511,6,0,B|513:203|402:241|478:96,1,232.5,6|0,0:0|0:0,0:0:0:0:
256,270,91995,2,0,B|296:262|296:262|374:275,1,116.25,8|0,0:0|0:0,0:0:0:0:
126,306,92317,2,0,B|94:320|94:320|0:308,1,116.25,10|0,0:0|0:0,0:0:0:0:
46,96,92640,2,0,P|42:135|40:188,2,74.3999977294923,0|0|0,1:0|1:0|1:0,1:0:0:0:
170,121,92962,6,0,L|279:138,1,86.7999973510743,10|0,0:0|0:0,0:0:0:0:
417,128,93177,2,0,L|317:151,1,86.7999973510743,10|0,0:0|0:0,0:0:0:0:
179,200,93393,2,0,L|288:219,1,86.7999973510743,10|0,0:0|0:0,0:0:0:0:
429,207,93608,2,0,L|319:234,1,86.7999973510743,10|0,0:0|0:0,0:0:0:0:
185,284,93823,2,0,L|297:300,1,86.7999973510743,10|0,0:0|0:0,0:0:0:0:
434,291,94038,2,0,L|314:325,1,86.7999973510743,10|0,0:0|0:0,0:0:0:0:
187,359,94253,6,0,B|185:311|188:270,1,76.7250023414612,6|0,0:0|0:0,0:0:0:0:
187,359,94575,2,0,P|118:322|236:227,1,279.000010643006,8|2,0:0|0:0,0:0:0:0:
335,349,95059,1,0,0:0:0:0:
275,138,95220,1,8,0:0:0:0:
31,171,95382,6,0,B|125:208|125:208|291:168,1,241.799988931275,2|0,0:0|0:0,0:0:0:0:
167,12,95866,2,0,B|116:52|144:124,1,120.899994465637,10|0,0:0|0:0,0:0:0:0:
335,315,96188,2,0,B|384:268|363:201,1,120.899994465637,2|0,0:0|0:0,0:0:0:0:
225,81,96511,1,10,1:0:0:0:
225,81,96591,1,0,1:0:0:0:
225,81,96672,1,0,1:0:0:0:
163,317,96833,6,0,B|156:250|150:189,1,120.899994465637,14|0,0:0|0:0,0:0:0:0:
303,42,97156,1,0,0:0:0:0:
375,250,97317,2,0,B|388:182|398:131,1,120.899994465637,12|0,0:0|0:0,0:0:0:0:
252,348,97640,1,0,0:0:0:0:
392,277,97801,2,0,B|455:283|516:291,1,120.899994465637,14|2,0:0|0:0,0:0:0:0:
221,90,98124,6,0,B|141:70|141:70|167:102,1,120.899994465637,14|0,0:0|0:0,0:0:0:0:
398,132,98446,2,0,B|489:155|489:155|450:170,1,120.899994465637,8|0,0:0|0:0,0:0:0:0:
392,277,98769,1,10,0:0:0:0:
341,55,98930,1,0,0:0:0:0:
124,209,99091,1,10,0:0:0:0:
162,203,99172,1,8,0:0:0:0:
201,197,99253,1,8,0:0:0:0:
236,193,99333,1,8,0:0:0:0:
275,190,99414,6,0,P|250:95|127:126,1,241.799988931275,14|8,0:0|0:0,0:0:0:0:
368,302,99898,1,0,1:0:0:0:
363,259,99979,1,0,1:0:0:0:
357,223,100059,2,0,B|334:71|334:71|301:160,1,241.799988931275,10|8,1:0|0:0,0:0:0:0:
107,318,100543,6,0,P|164:340|218:323,1,111.599996594238
357,223,100866,1,0,0:0:0:0:
238,59,101027,1,8,0:0:0:0:
164,257,101188,1,0,0:0:0:0:
122,51,101349,1,0,1:0:0:0:
122,51,101430,1,0,1:0:0:0:
122,51,101511,1,0,1:0:0:0:
281,178,101672,1,0,1:0:0:0:
281,178,101753,1,0,1:0:0:0:
281,178,101833,6,0,P|188:161|165:258,1,213.900004079819,14|0,0:0|0:0,0:0:0:0:
373,220,102317,2,0,L|370:72,1,106.950002039909,8|0,0:0|0:0,0:0:0:0:
63,257,102640,2,0,B|112:274|112:274|187:250,2,106.950002039909,2|2|10,0:0|0:0|0:0,0:0:0:0:
197,54,103124,6,0,B|176:113|176:113|191:198|191:198|156:274,1,213.900004079819,2|0,0:0|0:0,0:0:0:0:
272,366,103608,2,0,P|275:304|284:234,1,106.950002039909,8|0,0:0|0:0,0:0:0:0:
370,113,103930,1,2,0:0:0:0:
370,113,104091,1,2,0:0:0:0:
452,259,104253,1,10,0:0:0:0:
249,145,104414,6,0,B|155:122|155:122|32:170,1,213.900004079819,6|0,0:0|0:0,0:0:0:0:
241,318,104898,2,0,P|297:243|245:143,1,213.900004079819,10|2,0:0|0:0,0:0:0:0:
45,164,105382,1,0,0:0:0:0:
153,340,105543,1,10,0:0:0:0:
339,166,105704,6,0,B|194:185|194:185|248:144,1,213.900004079819,2|0,0:0|0:0,0:0:0:0:
350,63,106188,1,8,0:0:0:0:
456,201,106349,1,0,0:0:0:0:
346,41,106511,1,0,0:0:0:0:
306,297,106672,1,0,0:0:0:0:
247,144,106833,1,0,1:0:0:0:
208,152,106914,1,0,1:0:0:0:
172,161,106995,1,0,1:0:0:0:
141,169,107075,1,0,1:0:0:0:
110,177,107156,6,0,P|42:176|56:57,1,213.900004079819,14|8,0:0|0:0,0:0:0:0:
391,234,107640,2,0,P|331:203|317:336,1,213.900004079819,6|0,0:0|0:0,0:0:0:0:
164,165,108124,1,0,1:0:0:0:
164,165,108204,1,0,1:0:0:0:
164,165,108285,1,0,1:0:0:0:
164,165,108366,1,0,1:0:0:0:
164,165,108446,1,0,1:0:0:0:
391,234,108608,6,0,B|407:180|407:180|394:119,1,106.950002039909,14|0,0:0|0:0,0:0:0:0:
145,335,108930,2,0,B|251:374|251:374|235:324|235:324|331:383|404:357|404:357|338:311,1,409.200012487793,14|8,0:0|0:0,0:0:0:0:
293,256,109656,5,8,0:0:0:0:
293,256,109737,2,0,B|343:202|317:125|317:125|297:80|264:24|330:-16|413:-6|457:63|420:107|398:154|350:136|315:125|315:125|277:122|218:41|91:86,1,725.39999557251,12|0,0:0|0:0,0:0:0:0:
