osu file format v14

[General]
AudioFilename: audio.mp3
AudioLeadIn: 0
PreviewTime: 26189
Countdown: 0
SampleSet: Normal
StackLeniency: 0.7
Mode: 1
LetterboxInBreaks: 0
WidescreenStoryboard: 1

[Editor]
DistanceSpacing: 1
BeatDivisor: 4
GridSize: 32
TimelineZoom: 1.8

[Metadata]
Title:Child Protective Services Theme Song
TitleUnicode:Child Protective Services Theme Song
Artist:Nero's Day At Disneyland
ArtistUnicode:Nero's Day At Disneyland
Creator:Horiiizon
Version:Oni
Source:
Tags:Glitch IDM From Rotting Fantasylands Electronic Instrumental
BeatmapID:2219033
BeatmapSetID:1059180

[Difficulty]
HPDrainRate:5.5
CircleSize:5
OverallDifficulty:5
ApproachRate:5
SliderMultiplier:1.4
SliderTickRate:1

[Events]
//Background and Video events
0,0,"glitch wp.jpg",0,0
//Break Periods
//Storyboard Layer 0 (Background)
//Storyboard Layer 1 (Fail)
//Storyboard Layer 2 (Pass)
//Storyboard Layer 3 (Foreground)
//Storyboard Layer 4 (Overlay)
//Storyboard Sound Samples

[TimingPoints]
3037,361.750874231279,4,1,0,60,1,0
8825,-100,4,1,0,70,0,0
11719,-100,4,1,0,80,0,0
13889,-100,4,1,0,70,0,0
17507,-100,4,1,0,80,0,0
19677,-100,4,1,0,70,0,0
20401,-100,4,1,0,90,0,0
26189,-100,4,1,0,80,0,1
37765,-100,4,1,0,70,0,0
48979,-100,4,1,0,80,0,0
49341,-100,4,1,0,70,0,0
55310,-100,4,1,0,60,0,0
60917,361.750874231279,3,1,0,60,1,0
64896,-100,3,1,0,70,0,0
69508,-100,3,1,0,60,0,0
78283,361.750874231279,4,1,0,90,1,8
79719,361.750874231279,4,1,0,70,1,0
85507,-100,4,1,0,80,0,9
96743,361.750874231279,4,1,0,80,1,8
97104,361.750874231279,4,1,0,80,1,9
108318,-100,4,1,0,80,0,8

[HitObjects]
256,192,3217,5,0,0:0:0:0:
256,192,3398,1,8,0:0:0:0:
256,192,3579,1,0,0:0:0:0:
256,192,3941,1,8,0:0:0:0:
256,192,4122,1,0,0:0:0:0:
256,192,4664,1,8,0:0:0:0:
256,192,4845,1,0,0:0:0:0:
256,192,5026,1,0,0:0:0:0:
256,192,5388,1,0,0:0:0:0:
256,192,5569,1,8,0:0:0:0:
256,192,5750,1,8,0:0:0:0:
256,192,6111,1,8,0:0:0:0:
256,192,6292,1,0,0:0:0:0:
256,192,6473,1,8,0:0:0:0:
256,192,6564,1,0,0:0:0:0:
256,192,6835,1,0,0:0:0:0:
256,192,7016,1,8,0:0:0:0:
256,192,7197,1,8,0:0:0:0:
256,192,7287,1,8,0:0:0:0:
256,192,7558,1,0,0:0:0:0:
256,192,7739,1,0,0:0:0:0:
256,192,7920,1,0,0:0:0:0:
256,192,8101,1,8,0:0:0:0:
256,192,8463,1,0,0:0:0:0:
256,192,8825,1,0,0:0:0:0:
256,192,9005,1,8,0:0:0:0:
256,192,9186,1,8,0:0:0:0:
256,192,9367,1,0,0:0:0:0:
256,192,9458,1,0,0:0:0:0:
256,192,9548,1,8,0:0:0:0:
256,192,9729,1,8,0:0:0:0:
256,192,9910,1,0,0:0:0:0:
256,192,10272,1,0,0:0:0:0:
256,192,10452,1,8,0:0:0:0:
256,192,10543,1,8,0:0:0:0:
256,192,10633,1,0,0:0:0:0:
256,192,10814,1,0,0:0:0:0:
256,192,10995,1,8,0:0:0:0:
256,192,11176,1,0,0:0:0:0:
256,192,11357,1,0,0:0:0:0:
256,192,11538,1,8,0:0:0:0:
256,192,11719,1,0,0:0:0:0:
256,192,11899,1,8,0:0:0:0:
256,192,12080,1,8,0:0:0:0:
256,192,12171,1,8,0:0:0:0:
256,192,12261,1,0,0:0:0:0:
256,192,12442,1,8,0:0:0:0:
256,192,12623,1,0,0:0:0:0:
256,192,12804,1,8,0:0:0:0:
256,192,12985,1,8,0:0:0:0:
256,192,13075,1,8,0:0:0:0:
256,192,13166,1,0,0:0:0:0:
256,192,13346,1,0,0:0:0:0:
256,192,13527,1,0,0:0:0:0:
256,192,13708,1,0,0:0:0:0:
256,192,13889,1,8,0:0:0:0:
256,192,14070,1,0,0:0:0:0:
256,192,14251,1,8,0:0:0:0:
256,192,14613,1,4,0:0:0:0:
256,192,14793,1,8,0:0:0:0:
256,192,14974,1,8,0:0:0:0:
256,192,15155,1,0,0:0:0:0:
256,192,15246,1,0,0:0:0:0:
256,192,15336,1,8,0:0:0:0:
256,192,15517,1,8,0:0:0:0:
256,192,15698,1,0,0:0:0:0:
256,192,16060,1,0,0:0:0:0:
256,192,16240,1,0,0:0:0:0:
256,192,16331,1,0,0:0:0:0:
256,192,16421,1,8,0:0:0:0:
256,192,16602,1,0,0:0:0:0:
256,192,16783,1,8,0:0:0:0:
256,192,16964,1,8,0:0:0:0:
253,187,17145,1,0,0:0:0:0:
256,192,17507,1,0,0:0:0:0:
256,192,17687,1,8,0:0:0:0:
256,192,17868,1,0,0:0:0:0:
256,192,18049,1,0,0:0:0:0:
256,192,18230,1,8,0:0:0:0:
256,192,18411,1,0,0:0:0:0:
256,192,18592,1,0,0:0:0:0:
256,192,18773,1,8,0:0:0:0:
256,192,18863,1,8,0:0:0:0:
256,192,18954,1,0,0:0:0:0:
256,192,19134,1,0,0:0:0:0:
256,192,19315,1,0,0:0:0:0:
256,160,19496,1,0,0:0:0:0:
256,192,19677,1,8,0:0:0:0:
256,192,19858,1,0,0:0:0:0:
256,192,20039,1,8,0:0:0:0:
256,192,20401,1,0,0:0:0:0:
256,192,20491,1,0,0:0:0:0:
256,192,20581,1,0,0:0:0:0:
256,192,20672,1,0,0:0:0:0:
256,192,20762,1,8,0:0:0:0:
256,192,20943,1,0,0:0:0:0:
256,192,21034,1,0,0:0:0:0:
256,192,21124,1,8,0:0:0:0:
256,192,21305,1,8,0:0:0:0:
256,192,21486,1,0,0:0:0:0:
256,192,21667,1,0,0:0:0:0:
256,192,21848,1,0,0:0:0:0:
256,192,21938,1,8,0:0:0:0:
256,192,22028,1,0,0:0:0:0:
256,192,22209,1,8,0:0:0:0:
256,192,22390,1,0,0:0:0:0:
256,192,22571,1,8,0:0:0:0:
253,186,22752,1,0,0:0:0:0:
256,192,22933,1,0,0:0:0:0:
256,192,23023,1,0,0:0:0:0:
256,192,23114,1,8,0:0:0:0:
256,192,23295,1,0,0:0:0:0:
288,192,23475,1,8,0:0:0:0:
288,192,23656,1,0,0:0:0:0:
256,192,23747,1,0,0:0:0:0:
256,192,23837,1,0,0:0:0:0:
256,192,24018,1,8,0:0:0:0:
256,192,24199,1,0,0:0:0:0:
256,192,24380,1,8,0:0:0:0:
256,192,24470,1,8,0:0:0:0:
256,192,24561,1,8,0:0:0:0:
256,192,24742,1,0,0:0:0:0:
256,192,24922,1,0,0:0:0:0:
256,192,25103,1,0,0:0:0:0:
256,192,25284,1,0,0:0:0:0:
256,192,25465,1,8,0:0:0:0:
256,192,25646,1,0,0:0:0:0:
256,192,25827,1,8,0:0:0:0:
256,192,26189,1,0,0:0:0:0:
256,192,26369,1,8,0:0:0:0:
256,192,26550,1,8,0:0:0:0:
256,192,26731,1,0,0:0:0:0:
256,192,26912,1,8,0:0:0:0:
256,192,27093,1,8,0:0:0:0:
256,192,27274,1,0,0:0:0:0:
256,192,27636,1,0,0:0:0:0:
256,192,27816,1,8,0:0:0:0:
256,192,27907,1,8,0:0:0:0:
256,192,27997,1,0,0:0:0:0:
256,192,28178,1,0,0:0:0:0:
256,192,28359,1,8,0:0:0:0:
256,192,28540,1,0,0:0:0:0:
256,192,28721,1,8,0:0:0:0:
256,192,28902,1,8,0:0:0:0:
256,192,29083,1,0,0:0:0:0:
256,192,29263,1,8,0:0:0:0:
256,192,29444,1,0,0:0:0:0:
256,192,29535,1,8,0:0:0:0:
256,192,29625,1,8,0:0:0:0:
256,192,29806,1,0,0:0:0:0:
256,192,29987,1,0,0:0:0:0:
256,192,30168,1,8,0:0:0:0:
256,192,30349,1,8,0:0:0:0:
256,192,30439,1,8,0:0:0:0:
256,192,30530,1,0,0:0:0:0:
256,192,30710,1,8,0:0:0:0:
260,195,30891,1,0,0:0:0:0:
256,192,31072,1,0,0:0:0:0:
256,192,31253,1,8,0:0:0:0:
256,192,31344,1,8,0:0:0:0:
256,192,31434,1,8,0:0:0:0:
256,192,31524,1,8,0:0:0:0:
256,192,31615,1,0,0:0:0:0:
256,192,31977,1,0,0:0:0:0:
256,192,32157,1,8,0:0:0:0:
256,192,32338,1,8,0:0:0:0:
256,192,32519,1,0,0:0:0:0:
256,192,32700,1,8,0:0:0:0:
256,192,32881,1,8,0:0:0:0:
256,192,33062,1,0,0:0:0:0:
256,192,33424,1,0,0:0:0:0:
256,192,33604,1,8,0:0:0:0:
256,192,33695,1,8,0:0:0:0:
256,192,33785,1,0,0:0:0:0:
256,192,33966,1,0,0:0:0:0:
256,192,34147,1,8,0:0:0:0:
256,192,34328,1,0,0:0:0:0:
256,192,34509,1,8,0:0:0:0:
256,192,34690,1,8,0:0:0:0:
256,192,34871,1,0,0:0:0:0:
256,192,35051,1,8,0:0:0:0:
256,192,35232,1,0,0:0:0:0:
256,192,35323,1,8,0:0:0:0:
256,192,35413,1,8,0:0:0:0:
256,192,35594,1,0,0:0:0:0:
256,192,35775,1,0,0:0:0:0:
256,192,35956,1,8,0:0:0:0:
256,192,36137,1,8,0:0:0:0:
256,192,36227,1,8,0:0:0:0:
256,192,36318,1,0,0:0:0:0:
256,192,36498,1,8,0:0:0:0:
247,184,36679,1,0,0:0:0:0:
247,184,36860,1,0,0:0:0:0:
256,192,37041,1,8,0:0:0:0:
256,192,37132,1,8,0:0:0:0:
256,192,37222,1,8,0:0:0:0:
256,192,37312,1,8,0:0:0:0:
256,192,37403,1,0,0:0:0:0:
256,192,37765,1,4,0:0:0:0:
256,192,40659,1,12,0:0:0:0:
256,192,43553,1,4,0:0:0:0:
256,192,46447,1,12,0:0:0:0:
256,192,48979,5,12,0:0:0:0:
256,192,49341,1,0,0:0:0:0:
256,192,49702,1,8,0:0:0:0:
256,192,50064,1,8,0:0:0:0:
256,192,50426,1,8,0:0:0:0:
256,192,50788,1,0,0:0:0:0:
256,192,51149,1,0,0:0:0:0:
256,192,51511,1,8,0:0:0:0:
256,192,51873,1,8,0:0:0:0:
256,192,52235,1,0,0:0:0:0:
256,192,52596,1,8,0:0:0:0:
256,192,52958,1,8,0:0:0:0:
256,192,53320,1,8,0:0:0:0:
256,192,53501,1,0,0:0:0:0:
256,192,53682,1,0,0:0:0:0:
256,192,54043,1,8,0:0:0:0:
256,192,54405,1,8,0:0:0:0:
256,192,54767,1,8,0:0:0:0:
256,192,54948,1,0,0:0:0:0:
256,192,55129,1,0,0:0:0:0:
256,192,55310,1,8,0:0:0:0:
256,192,55400,1,8,0:0:0:0:
256,192,55490,1,8,0:0:0:0:
256,192,55671,1,0,0:0:0:0:
256,192,55852,1,8,0:0:0:0:
256,192,56033,1,0,0:0:0:0:
256,192,56214,1,8,0:0:0:0:
256,192,56395,1,0,0:0:0:0:
256,192,56576,1,0,0:0:0:0:
256,192,56757,1,8,0:0:0:0:
256,192,56847,1,8,0:0:0:0:
256,192,56937,1,8,0:0:0:0:
256,192,57118,1,0,0:0:0:0:
256,192,57299,1,8,0:0:0:0:
256,192,57480,1,0,0:0:0:0:
256,192,57661,1,8,0:0:0:0:
256,192,57842,1,0,0:0:0:0:
256,192,58023,1,0,0:0:0:0:
256,192,58204,1,8,0:0:0:0:
256,192,58294,1,8,0:0:0:0:
256,192,58384,1,8,0:0:0:0:
256,192,58565,1,0,0:0:0:0:
256,192,58746,1,8,0:0:0:0:
256,192,58927,1,0,0:0:0:0:
256,192,59108,1,8,0:0:0:0:
256,192,59289,1,0,0:0:0:0:
256,192,59470,1,0,0:0:0:0:
256,192,59651,1,8,0:0:0:0:
256,192,59741,1,8,0:0:0:0:
256,192,59831,1,8,0:0:0:0:
256,192,60012,1,0,0:0:0:0:
256,192,60193,1,8,0:0:0:0:
256,192,60374,1,0,0:0:0:0:
256,192,60464,1,0,0:0:0:0:
256,192,60555,1,8,0:0:0:0:
256,192,60736,1,0,0:0:0:0:
256,192,60917,1,0,0:0:0:0:
256,192,61278,1,0,0:0:0:0:
256,192,61640,1,0,0:0:0:0:
256,192,62002,1,8,0:0:0:0:
256,192,62364,1,8,0:0:0:0:
256,192,62725,1,8,0:0:0:0:
256,192,63087,1,0,0:0:0:0:
256,192,63449,1,8,0:0:0:0:
256,192,63811,1,8,0:0:0:0:
256,192,64172,1,0,0:0:0:0:
256,192,64353,1,0,0:0:0:0:
256,192,64534,1,8,0:0:0:0:
256,192,64715,1,8,0:0:0:0:
256,192,64896,1,4,0:0:0:0:
256,192,65258,1,0,0:0:0:0:
256,192,65438,1,8,0:0:0:0:
256,192,65619,1,0,0:0:0:0:
256,192,65800,1,8,0:0:0:0:
256,192,65891,1,8,0:0:0:0:
256,192,65981,1,0,0:0:0:0:
256,192,66162,1,8,0:0:0:0:
256,192,66343,1,4,0:0:0:0:
256,192,66705,1,0,0:0:0:0:
256,192,66795,1,0,0:0:0:0:
256,192,66885,1,8,0:0:0:0:
256,192,67066,1,0,0:0:0:0:
256,192,67247,1,8,0:0:0:0:
256,192,67428,1,0,0:0:0:0:
256,192,67609,1,0,0:0:0:0:
256,192,67790,1,8,0:0:0:0:
256,192,67971,1,8,0:0:0:0:
256,192,68152,1,0,0:0:0:0:
256,192,68513,1,12,0:0:0:0:
256,192,68875,1,0,0:0:0:0:
256,192,68965,1,0,0:0:0:0:
256,192,69056,1,8,0:0:0:0:
256,192,69237,1,0,0:0:0:0:
256,192,69599,1,0,0:0:0:0:
256,192,69779,1,0,0:0:0:0:
256,192,69960,1,8,0:0:0:0:
256,192,70141,1,8,0:0:0:0:
256,192,70322,1,8,0:0:0:0:
256,192,70503,1,8,0:0:0:0:
256,192,70684,1,0,0:0:0:0:
256,192,70865,1,8,0:0:0:0:
256,192,71046,1,0,0:0:0:0:
256,192,71226,1,0,0:0:0:0:
256,192,71407,1,0,0:0:0:0:
256,192,71588,1,0,0:0:0:0:
256,192,71769,1,8,0:0:0:0:
256,192,71950,1,8,0:0:0:0:
256,192,72040,1,8,0:0:0:0:
256,192,72131,1,8,0:0:0:0:
256,192,72221,1,8,0:0:0:0:
256,192,72312,1,0,0:0:0:0:
256,192,72493,1,0,0:0:0:0:
256,192,72673,1,0,0:0:0:0:
256,192,72854,1,8,0:0:0:0:
256,192,73035,1,0,0:0:0:0:
256,192,73216,1,0,0:0:0:0:
256,192,73397,1,8,0:0:0:0:
256,192,73578,1,8,0:0:0:0:
256,192,73940,1,0,0:0:0:0:
256,192,74120,1,0,0:0:0:0:
256,192,74301,1,8,0:0:0:0:
256,192,74482,1,8,0:0:0:0:
256,192,74663,1,8,0:0:0:0:
256,192,74844,1,8,0:0:0:0:
256,192,75025,1,0,0:0:0:0:
256,192,75206,1,8,0:0:0:0:
256,192,75387,1,0,0:0:0:0:
256,192,75567,1,0,0:0:0:0:
256,192,75748,1,0,0:0:0:0:
256,192,75929,1,0,0:0:0:0:
256,192,76110,1,8,0:0:0:0:
256,192,76291,1,8,0:0:0:0:
256,192,76381,1,8,0:0:0:0:
256,192,76472,1,8,0:0:0:0:
256,192,76562,1,8,0:0:0:0:
256,192,76653,1,0,0:0:0:0:
256,192,76834,1,0,0:0:0:0:
256,192,77014,1,0,0:0:0:0:
256,192,77195,1,8,0:0:0:0:
256,192,77376,1,0,0:0:0:0:
256,192,77557,1,0,0:0:0:0:
256,192,77738,1,8,0:0:0:0:
256,192,77919,1,8,0:0:0:0:
256,192,78100,1,8,0:0:0:0:
256,192,78644,1,8,0:0:0:0:
256,192,78735,1,0,0:0:0:0:
256,192,78825,1,0,0:0:0:0:
249,199,78916,1,8,0:0:0:0:
256,192,79006,1,0,0:0:0:0:
256,192,79187,1,0,0:0:0:0:
256,192,79368,1,8,0:0:0:0:
256,192,79549,1,12,0:0:0:0:
256,192,79719,1,0,0:0:0:0:
256,192,79899,1,8,0:0:0:0:
256,192,80080,1,0,0:0:0:0:
256,192,80261,1,8,0:0:0:0:
256,192,80442,1,8,0:0:0:0:
256,192,80804,1,0,0:0:0:0:
231,183,81166,1,0,0:0:0:0:
224,192,81346,1,8,0:0:0:0:
224,192,81527,1,0,0:0:0:0:
224,192,81708,1,8,0:0:0:0:
224,192,81889,1,8,0:0:0:0:
224,192,82251,1,0,0:0:0:0:
224,192,82432,1,0,0:0:0:0:
224,192,82613,1,0,0:0:0:0:
224,192,82793,1,8,0:0:0:0:
224,192,82884,1,8,0:0:0:0:
224,192,82974,1,8,0:0:0:0:
224,192,83155,1,0,0:0:0:0:
224,192,83336,1,8,0:0:0:0:
224,192,83517,1,0,0:0:0:0:
224,192,83607,1,0,0:0:0:0:
224,192,83698,1,0,0:0:0:0:
256,192,83879,1,0,0:0:0:0:
224,192,84060,1,8,0:0:0:0:
224,192,84240,1,8,0:0:0:0:
224,192,84421,1,8,0:0:0:0:
224,192,84602,1,8,0:0:0:0:
224,192,84783,1,8,0:0:0:0:
249,188,85145,1,8,0:0:0:0:
256,192,85507,5,0,0:0:0:0:
256,192,85687,1,8,0:0:0:0:
256,192,85868,1,8,0:0:0:0:
256,192,86049,1,0,0:0:0:0:
256,192,86230,1,8,0:0:0:0:
256,192,86411,1,8,0:0:0:0:
256,192,86592,1,0,0:0:0:0:
256,192,86954,1,0,0:0:0:0:
256,192,87134,1,8,0:0:0:0:
256,192,87225,1,8,0:0:0:0:
256,192,87315,1,0,0:0:0:0:
256,192,87496,1,0,0:0:0:0:
256,192,87677,1,8,0:0:0:0:
256,192,87858,1,0,0:0:0:0:
256,192,88039,1,8,0:0:0:0:
256,192,88220,1,8,0:0:0:0:
256,192,88401,1,0,0:0:0:0:
256,192,88581,1,8,0:0:0:0:
256,192,88762,1,0,0:0:0:0:
256,192,88853,1,8,0:0:0:0:
256,192,88943,1,8,0:0:0:0:
256,192,89124,1,0,0:0:0:0:
256,192,89305,1,0,0:0:0:0:
256,192,89486,1,8,0:0:0:0:
256,192,89667,1,8,0:0:0:0:
256,192,89757,1,8,0:0:0:0:
256,192,89848,1,0,0:0:0:0:
256,192,90028,1,8,0:0:0:0:
251,181,90209,1,0,0:0:0:0:
252,182,90390,1,0,0:0:0:0:
256,192,90571,1,8,0:0:0:0:
256,192,90661,1,8,0:0:0:0:
256,192,90752,1,8,0:0:0:0:
256,192,90842,1,8,0:0:0:0:
256,192,90933,1,0,0:0:0:0:
256,192,91295,1,0,0:0:0:0:
256,192,91475,1,8,0:0:0:0:
256,192,91656,1,8,0:0:0:0:
256,192,91837,1,0,0:0:0:0:
256,192,92018,1,8,0:0:0:0:
256,192,92199,1,8,0:0:0:0:
256,192,92380,1,0,0:0:0:0:
256,192,92742,1,0,0:0:0:0:
256,192,92922,1,8,0:0:0:0:
256,192,93013,1,8,0:0:0:0:
256,192,93103,1,0,0:0:0:0:
256,192,93284,1,0,0:0:0:0:
256,192,93465,1,8,0:0:0:0:
256,192,93646,1,0,0:0:0:0:
256,192,93827,1,8,0:0:0:0:
256,192,94008,1,8,0:0:0:0:
256,192,94189,1,0,0:0:0:0:
256,192,94369,1,8,0:0:0:0:
256,192,94550,1,0,0:0:0:0:
256,192,94641,1,8,0:0:0:0:
256,192,94731,1,8,0:0:0:0:
256,192,94912,1,0,0:0:0:0:
256,192,95093,1,0,0:0:0:0:
256,192,95274,1,8,0:0:0:0:
256,192,95455,1,8,0:0:0:0:
256,192,95545,1,8,0:0:0:0:
256,192,95636,1,0,0:0:0:0:
256,192,95816,1,8,0:0:0:0:
263,192,95997,1,0,0:0:0:0:
263,192,96178,1,0,0:0:0:0:
256,192,96359,1,8,0:0:0:0:
256,192,96449,1,8,0:0:0:0:
256,192,96540,1,8,0:0:0:0:
256,192,96630,1,8,0:0:0:0:
256,192,96721,1,0,0:0:0:0:
256,192,97104,1,0,0:0:0:0:
256,192,97284,1,8,0:0:0:0:
256,192,97465,1,8,0:0:0:0:
256,192,97646,1,0,0:0:0:0:
256,192,97827,1,8,0:0:0:0:
256,192,98008,1,8,0:0:0:0:
256,192,98189,1,0,0:0:0:0:
256,192,98551,1,0,0:0:0:0:
256,192,98731,1,8,0:0:0:0:
256,192,98822,1,8,0:0:0:0:
256,192,98912,1,0,0:0:0:0:
256,192,99093,1,0,0:0:0:0:
256,192,99274,1,8,0:0:0:0:
256,192,99455,1,0,0:0:0:0:
256,192,99636,1,8,0:0:0:0:
256,192,99817,1,8,0:0:0:0:
256,192,99998,1,0,0:0:0:0:
256,192,100178,1,8,0:0:0:0:
256,192,100359,1,0,0:0:0:0:
256,192,100450,1,8,0:0:0:0:
256,192,100540,1,8,0:0:0:0:
256,192,100721,1,0,0:0:0:0:
256,192,100902,1,0,0:0:0:0:
256,192,101083,1,8,0:0:0:0:
256,192,101264,1,8,0:0:0:0:
256,192,101354,1,8,0:0:0:0:
256,192,101445,1,0,0:0:0:0:
256,192,101625,1,8,0:0:0:0:
247,189,101806,1,0,0:0:0:0:
251,188,101987,1,0,0:0:0:0:
256,192,102168,1,8,0:0:0:0:
256,192,102258,1,8,0:0:0:0:
256,192,102349,1,8,0:0:0:0:
256,192,102439,1,8,0:0:0:0:
256,192,102530,1,0,0:0:0:0:
256,192,102892,1,0,0:0:0:0:
256,192,103072,1,8,0:0:0:0:
256,192,103253,1,8,0:0:0:0:
256,192,103434,1,0,0:0:0:0:
256,192,103615,1,8,0:0:0:0:
256,192,103796,1,8,0:0:0:0:
256,192,103977,1,0,0:0:0:0:
256,192,104339,1,0,0:0:0:0:
256,192,104519,1,8,0:0:0:0:
256,192,104610,1,8,0:0:0:0:
256,192,104700,1,0,0:0:0:0:
256,192,104881,1,0,0:0:0:0:
256,192,105062,1,8,0:0:0:0:
256,192,105243,1,0,0:0:0:0:
256,192,105424,1,8,0:0:0:0:
256,192,105605,1,8,0:0:0:0:
256,192,105786,1,0,0:0:0:0:
256,192,105966,1,8,0:0:0:0:
256,192,106147,1,0,0:0:0:0:
256,192,106238,1,8,0:0:0:0:
256,192,106328,1,8,0:0:0:0:
256,192,106509,1,0,0:0:0:0:
256,192,106690,1,0,0:0:0:0:
256,192,106871,1,8,0:0:0:0:
256,192,107052,1,8,0:0:0:0:
256,192,107142,1,8,0:0:0:0:
256,192,107233,1,0,0:0:0:0:
256,192,107413,1,8,0:0:0:0:
251,196,107594,1,0,0:0:0:0:
256,192,107775,1,0,0:0:0:0:
256,192,107956,1,8,0:0:0:0:
256,192,108046,1,8,0:0:0:0:
256,192,108137,1,8,0:0:0:0:
256,192,108227,1,8,0:0:0:0:
256,192,108318,1,0,0:0:0:0:
