osu file format v14

[General]
AudioFilename: audio.mp3
AudioLeadIn: 0
PreviewTime: 26189
Countdown: 0
SampleSet: Normal
StackLeniency: 0.7
Mode: 1
LetterboxInBreaks: 0
WidescreenStoryboard: 1

[Editor]
DistanceSpacing: 1
BeatDivisor: 4
GridSize: 32
TimelineZoom: 1.3

[Metadata]
Title:Child Protective Services Theme Song
TitleUnicode:Child Protective Services Theme Song
Artist:Nero's Day At Disneyland
ArtistUnicode:Nero's Day At Disneyland
Creator:Horiiizon
Version:Kantan
Source:
Tags:Glitch IDM From Rotting Fantasylands Electronic Instrumental
BeatmapID:2229401
BeatmapSetID:1059180

[Difficulty]
HPDrainRate:8
CircleSize:5
OverallDifficulty:2
ApproachRate:5
SliderMultiplier:1.4
SliderTickRate:1

[Events]
//Background and Video events
0,0,"glitch wp.jpg",0,0
//Break Periods
//Storyboard Layer 0 (Background)
//Storyboard Layer 1 (Fail)
//Storyboard Layer 2 (Pass)
//Storyboard Layer 3 (Foreground)
//Storyboard Layer 4 (Overlay)
//Storyboard Sound Samples

[TimingPoints]
3037,361.750874231279,4,1,0,60,1,0
8825,-100,4,1,0,70,0,0
11719,-100,4,1,0,80,0,0
13889,-100,4,1,0,70,0,0
17507,-100,4,1,0,80,0,0
19677,-100,4,1,0,70,0,0
20401,-100,4,1,0,90,0,0
26189,-100,4,1,0,80,0,1
37765,-100,4,1,0,70,0,0
48979,-100,4,1,0,80,0,0
49341,-100,4,1,0,70,0,0
60917,361.750874231279,3,1,0,60,1,0
64896,-100,3,1,0,70,0,0
69508,-100,3,1,0,60,0,0
78283,361.750874231279,4,1,0,90,1,8
79719,361.750874231279,4,1,0,70,1,0
85507,-100,4,1,0,80,0,9
96743,361.750874231279,4,1,0,80,1,8
97104,361.750874231279,4,1,0,80,1,1
108318,-100,4,1,0,80,0,8

[HitObjects]
256,192,3217,5,0,0:0:0:0:
256,192,3579,1,0,0:0:0:0:
256,192,4664,1,8,0:0:0:0:
256,192,5026,1,8,0:0:0:0:
256,192,6292,1,0,0:0:0:0:
256,192,7197,1,8,0:0:0:0:
256,192,8101,1,8,0:0:0:0:
256,192,8825,1,0,0:0:0:0:
256,192,9548,1,8,0:0:0:0:
256,192,10272,1,0,0:0:0:0:
256,192,10633,1,8,0:0:0:0:
256,192,10995,1,8,0:0:0:0:
256,192,11719,1,0,0:0:0:0:
256,192,12442,1,8,0:0:0:0:
256,192,12804,1,0,0:0:0:0:
260,194,13889,1,8,0:0:0:0:
256,192,14613,1,4,0:0:0:0:
256,192,15336,1,0,0:0:0:0:
256,192,16060,1,0,0:0:0:0:
256,192,16421,1,8,0:0:0:0:
256,192,16783,1,8,0:0:0:0:
256,192,17507,1,0,0:0:0:0:
256,192,17868,1,0,0:0:0:0:
256,192,18230,1,8,0:0:0:0:
256,192,18592,1,8,0:0:0:0:
256,192,18954,1,0,0:0:0:0:
256,192,20401,1,0,0:0:0:0:
256,192,20762,1,0,0:0:0:0:
256,192,21124,1,8,0:0:0:0:
256,192,21848,1,0,0:0:0:0:
256,192,22209,1,8,0:0:0:0:
256,192,22571,1,8,0:0:0:0:
256,192,23295,1,0,0:0:0:0:
256,192,23656,1,0,0:0:0:0:
256,192,24018,1,8,0:0:0:0:
256,192,24380,1,8,0:0:0:0:
256,192,24742,1,0,0:0:0:0:
256,192,26189,5,0,0:0:0:0:
256,192,26912,1,8,0:0:0:0:
256,192,27636,1,0,0:0:0:0:
256,192,27997,1,8,0:0:0:0:
256,192,28721,1,8,0:0:0:0:
256,192,29444,1,0,0:0:0:0:
256,192,29806,1,8,0:0:0:0:
256,192,30530,1,0,0:0:0:0:
255,193,31615,1,8,0:0:0:0:
255,193,31977,1,0,0:0:0:0:
256,192,32700,1,8,0:0:0:0:
256,192,33424,1,0,0:0:0:0:
256,192,33785,1,8,0:0:0:0:
256,192,34509,1,8,0:0:0:0:
256,192,35232,1,0,0:0:0:0:
256,192,35594,1,8,0:0:0:0:
256,192,36318,1,0,0:0:0:0:
250,192,37403,1,8,0:0:0:0:
256,192,37765,1,4,0:0:0:0:
256,192,40659,1,12,0:0:0:0:
256,192,43553,1,4,0:0:0:0:
256,192,46447,1,12,0:0:0:0:
256,192,48979,1,12,0:0:0:0:
256,192,49341,1,0,0:0:0:0:
256,192,50788,1,0,0:0:0:0:
256,192,52235,1,0,0:0:0:0:
256,192,52958,1,8,0:0:0:0:
256,224,53682,1,0,0:0:0:0:
256,192,55129,1,0,0:0:0:0:
256,192,55490,1,8,0:0:0:0:
256,192,56214,1,8,0:0:0:0:
256,192,56576,1,8,0:0:0:0:
256,192,56937,1,8,0:0:0:0:
256,192,58023,1,8,0:0:0:0:
256,192,58384,1,0,0:0:0:0:
256,192,59108,1,8,0:0:0:0:
256,192,59470,1,0,0:0:0:0:
256,192,60193,1,8,0:0:0:0:
256,192,60917,1,0,0:0:0:0:
256,192,62002,1,8,0:0:0:0:
256,192,63087,1,8,0:0:0:0:
256,192,64172,1,0,0:0:0:0:
261,197,64896,1,4,0:0:0:0:
256,192,65258,1,8,0:0:0:0:
256,192,65619,1,8,0:0:0:0:
256,192,65981,1,8,0:0:0:0:
256,192,66343,1,4,0:0:0:0:
256,192,67066,1,0,0:0:0:0:
256,192,67428,1,8,0:0:0:0:
256,192,68152,1,8,0:0:0:0:
256,192,68513,1,12,0:0:0:0:
256,192,69599,1,4,0:0:0:0:
256,192,70684,1,8,0:0:0:0:
256,192,71769,1,8,0:0:0:0:
256,192,72131,1,8,0:0:0:0:
256,192,72493,1,0,0:0:0:0:
256,192,72854,1,8,0:0:0:0:
256,192,73940,1,0,0:0:0:0:
256,192,75025,1,8,0:0:0:0:
256,192,76110,1,8,0:0:0:0:
256,192,76472,1,8,0:0:0:0:
256,192,76834,1,0,0:0:0:0:
255,186,77195,1,0,0:0:0:0:
256,192,78644,1,8,0:0:0:0:
247,180,79187,1,8,0:0:0:0:
256,192,79549,1,12,0:0:0:0:
256,192,80442,1,8,0:0:0:0:
256,192,80804,1,0,0:0:0:0:
256,192,81889,1,0,0:0:0:0:
256,192,82251,1,0,0:0:0:0:
256,192,83336,1,8,0:0:0:0:
256,192,83698,1,0,0:0:0:0:
256,192,84060,1,8,0:0:0:0:
256,192,84783,1,8,0:0:0:0:
256,192,85507,5,0,0:0:0:0:
256,192,86230,1,8,0:0:0:0:
256,192,86954,1,0,0:0:0:0:
256,192,87315,1,8,0:0:0:0:
256,192,88039,1,8,0:0:0:0:
256,192,88762,1,0,0:0:0:0:
256,192,89124,1,8,0:0:0:0:
256,192,89848,1,0,0:0:0:0:
255,193,90933,1,8,0:0:0:0:
255,193,91295,1,0,0:0:0:0:
256,192,92018,1,8,0:0:0:0:
256,192,92742,1,0,0:0:0:0:
256,192,93103,1,8,0:0:0:0:
256,192,93827,1,8,0:0:0:0:
256,192,94550,1,0,0:0:0:0:
256,192,94912,1,8,0:0:0:0:
256,192,95636,1,0,0:0:0:0:
250,192,96721,1,8,0:0:0:0:
256,192,97104,5,0,0:0:0:0:
256,192,97827,1,8,0:0:0:0:
256,192,98551,1,0,0:0:0:0:
256,192,98912,1,8,0:0:0:0:
256,192,99636,1,8,0:0:0:0:
256,192,100359,1,0,0:0:0:0:
256,192,100721,1,8,0:0:0:0:
256,192,101445,1,0,0:0:0:0:
255,193,102530,1,8,0:0:0:0:
255,193,102892,1,0,0:0:0:0:
256,192,103615,1,8,0:0:0:0:
256,192,104339,1,0,0:0:0:0:
256,192,104700,1,8,0:0:0:0:
256,192,105424,1,8,0:0:0:0:
256,192,106147,1,0,0:0:0:0:
256,192,106509,1,8,0:0:0:0:
256,192,107233,1,0,0:0:0:0:
252,186,108318,1,0,0:0:0:0:
