osu file format v14

[General]
AudioFilename: audio.mp3
AudioLeadIn: 0
PreviewTime: 26189
Countdown: 0
SampleSet: Normal
StackLeniency: 0.7
Mode: 1
LetterboxInBreaks: 0
WidescreenStoryboard: 1

[Editor]
DistanceSpacing: 1
BeatDivisor: 2
GridSize: 32
TimelineZoom: 2

[Metadata]
Title:Child Protective Services Theme Song
TitleUnicode:Child Protective Services Theme Song
Artist:Nero's Day At Disneyland
ArtistUnicode:Nero's Day At Disneyland
Creator:Horiiizon
Version:Futsuu
Source:
Tags:Glitch IDM From Rotting Fantasylands Electronic Instrumental
BeatmapID:2314070
BeatmapSetID:1059180

[Difficulty]
HPDrainRate:7
CircleSize:5
OverallDifficulty:3
ApproachRate:5
SliderMultiplier:1.4
SliderTickRate:1

[Events]
//Background and Video events
0,0,"glitch wp.jpg",0,0
//Break Periods
//Storyboard Layer 0 (Background)
//Storyboard Layer 1 (Fail)
//Storyboard Layer 2 (Pass)
//Storyboard Layer 3 (Foreground)
//Storyboard Layer 4 (Overlay)
//Storyboard Sound Samples

[TimingPoints]
3037,361.750874231279,4,1,0,60,1,0
8825,-100,4,1,0,70,0,0
11719,-100,4,1,0,80,0,0
13889,-100,4,1,0,70,0,0
17507,-100,4,1,0,80,0,0
19677,-100,4,1,0,70,0,0
20401,-100,4,1,0,90,0,0
26189,-100,4,1,0,80,0,1
37765,-100,4,1,0,70,0,0
48979,-100,4,1,0,80,0,0
49341,-100,4,1,0,70,0,0
60917,361.750874231279,3,1,0,60,1,0
64896,-100,3,1,0,70,0,0
69508,-100,3,1,0,60,0,0
78283,361.750874231279,4,1,0,90,1,8
79719,361.750874231279,4,1,0,70,1,0
85507,-100,4,1,0,80,0,9
96743,361.750874231279,4,1,0,80,1,8
97104,361.750874231279,4,1,0,80,1,1
108318,-100,4,1,0,80,0,8

[HitObjects]
256,192,3217,5,0,0:0:0:0:
256,192,3579,1,0,0:0:0:0:
256,192,3941,1,8,0:0:0:0:
256,192,4664,1,8,0:0:0:0:
256,192,5026,1,8,0:0:0:0:
256,192,5388,1,0,0:0:0:0:
255,222,5750,1,8,0:0:0:0:
256,192,6111,1,0,0:0:0:0:
256,192,6292,1,0,0:0:0:0:
256,192,6835,1,8,0:0:0:0:
263,191,7197,1,8,0:0:0:0:
256,192,7558,1,0,0:0:0:0:
256,192,8101,1,8,0:0:0:0:
256,192,8463,1,0,0:0:0:0:
256,192,8825,1,0,0:0:0:0:
267,186,9186,1,8,0:0:0:0:
254,198,9729,1,0,0:0:0:0:
256,192,9910,1,0,0:0:0:0:
256,192,10272,1,0,0:0:0:0:
256,192,10633,1,8,0:0:0:0:
256,192,10814,1,8,0:0:0:0:
273,185,11176,1,8,0:0:0:0:
262,199,11538,1,8,0:0:0:0:
258,199,11899,1,0,0:0:0:0:
256,192,12080,1,0,0:0:0:0:
257,189,12623,1,8,0:0:0:0:
256,192,12985,1,8,0:0:0:0:
271,195,13346,1,0,0:0:0:0:
256,192,13889,1,8,0:0:0:0:
256,192,14251,1,0,0:0:0:0:
256,192,14613,1,4,0:0:0:0:
256,192,15336,1,8,0:0:0:0:
256,192,15698,1,0,0:0:0:0:
256,192,16060,1,0,0:0:0:0:
256,192,16421,1,8,0:0:0:0:
256,192,16602,1,8,0:0:0:0:
256,192,16783,1,8,0:0:0:0:
256,192,17507,1,0,0:0:0:0:
256,192,17687,1,0,0:0:0:0:
256,192,17868,1,0,0:0:0:0:
256,192,18230,1,8,0:0:0:0:
256,192,18592,1,8,0:0:0:0:
256,192,18954,1,0,0:0:0:0:
256,192,19677,1,8,0:0:0:0:
256,192,20039,1,0,0:0:0:0:
256,192,20401,1,0,0:0:0:0:
256,192,20762,1,0,0:0:0:0:
256,192,20943,1,0,0:0:0:0:
256,192,21124,1,0,0:0:0:0:
256,160,21848,1,8,0:0:0:0:
256,160,22028,1,8,0:0:0:0:
256,160,22209,1,8,0:0:0:0:
256,160,22571,1,0,0:0:0:0:
256,192,23295,1,0,0:0:0:0:
256,192,23475,1,0,0:0:0:0:
256,192,23656,1,0,0:0:0:0:
256,192,24018,1,8,0:0:0:0:
256,192,24380,1,8,0:0:0:0:
256,192,24742,1,0,0:0:0:0:
256,192,25103,1,0,0:0:0:0:
256,192,25827,1,8,0:0:0:0:
256,192,26189,1,0,0:0:0:0:
256,192,26550,1,0,0:0:0:0:
256,192,26731,1,0,0:0:0:0:
256,192,27093,1,8,0:0:0:0:
256,192,27274,1,8,0:0:0:0:
256,192,27816,1,8,0:0:0:0:
256,192,27997,1,8,0:0:0:0:
256,192,28178,1,8,0:0:0:0:
256,192,28540,1,0,0:0:0:0:
256,192,28902,1,8,0:0:0:0:
256,192,29263,1,0,0:0:0:0:
256,192,29444,1,0,0:0:0:0:
256,192,29987,1,8,0:0:0:0:
256,192,30168,1,8,0:0:0:0:
256,192,30349,1,8,0:0:0:0:
256,192,30710,1,0,0:0:0:0:
256,192,31253,1,8,0:0:0:0:
256,192,31977,1,0,0:0:0:0:
256,192,32338,1,0,0:0:0:0:
256,192,32519,1,0,0:0:0:0:
256,192,32881,1,8,0:0:0:0:
256,192,33062,1,8,0:0:0:0:
256,192,33604,1,8,0:0:0:0:
256,192,33785,1,8,0:0:0:0:
256,192,33966,1,8,0:0:0:0:
256,192,34328,1,0,0:0:0:0:
256,192,34690,1,8,0:0:0:0:
256,192,35051,1,0,0:0:0:0:
256,192,35232,1,0,0:0:0:0:
256,192,35775,1,8,0:0:0:0:
259,186,35956,1,8,0:0:0:0:
256,192,36137,1,8,0:0:0:0:
256,192,36498,1,0,0:0:0:0:
256,192,37041,5,8,0:0:0:0:
256,192,37765,1,4,0:0:0:0:
256,192,40659,1,12,0:0:0:0:
256,192,43553,1,4,0:0:0:0:
256,192,46447,1,12,0:0:0:0:
256,192,48979,1,12,0:0:0:0:
256,192,49341,1,0,0:0:0:0:
256,192,50788,1,0,0:0:0:0:
256,192,52235,1,0,0:0:0:0:
256,192,53501,1,0,0:0:0:0:
256,192,53682,1,0,0:0:0:0:
256,192,54948,5,0,0:0:0:0:
256,192,55129,1,0,0:0:0:0:
250,184,55490,1,8,0:0:0:0:
256,192,55671,1,8,0:0:0:0:
256,192,55852,1,8,0:0:0:0:
256,192,56214,1,8,0:0:0:0:
256,192,56937,1,8,0:0:0:0:
256,192,57118,1,8,0:0:0:0:
256,192,57299,1,8,0:0:0:0:
268,186,57661,1,0,0:0:0:0:
261,193,58384,1,8,0:0:0:0:
261,193,58565,1,8,0:0:0:0:
261,193,58746,1,8,0:0:0:0:
261,193,59108,1,8,0:0:0:0:
256,192,59470,1,0,0:0:0:0:
256,192,59831,1,8,0:0:0:0:
256,192,60012,1,8,0:0:0:0:
256,192,60374,1,0,0:0:0:0:
256,192,60555,1,0,0:0:0:0:
256,192,60917,1,0,0:0:0:0:
256,192,62002,1,8,0:0:0:0:
261,194,63087,1,8,0:0:0:0:
256,192,64172,1,0,0:0:0:0:
256,192,64534,1,8,0:0:0:0:
256,192,64896,1,4,0:0:0:0:
256,192,65258,1,0,0:0:0:0:
256,192,65981,1,8,0:0:0:0:
260,195,66343,1,4,0:0:0:0:
256,192,66705,1,0,0:0:0:0:
256,192,66885,1,0,0:0:0:0:
256,192,67066,1,0,0:0:0:0:
256,192,67428,1,8,0:0:0:0:
256,192,68152,1,0,0:0:0:0:
256,192,68513,1,12,0:0:0:0:
256,192,68875,1,8,0:0:0:0:
256,217,69056,1,8,0:0:0:0:
241,218,69237,1,8,0:0:0:0:
256,224,69599,1,4,0:0:0:0:
256,224,70322,1,8,0:0:0:0:
256,224,70684,1,8,0:0:0:0:
256,192,71046,1,0,0:0:0:0:
256,192,71769,1,8,0:0:0:0:
266,211,71950,1,8,0:0:0:0:
256,192,72131,1,8,0:0:0:0:
256,192,72493,1,0,0:0:0:0:
256,192,72854,1,8,0:0:0:0:
256,192,73940,1,0,0:0:0:0:
266,191,74663,1,8,0:0:0:0:
256,192,75387,1,0,0:0:0:0:
256,192,76110,1,8,0:0:0:0:
256,192,76291,1,8,0:0:0:0:
261,190,76472,1,8,0:0:0:0:
256,192,76834,1,0,0:0:0:0:
256,192,77195,1,0,0:0:0:0:
256,192,77919,1,8,0:0:0:0:
256,192,78644,1,0,0:0:0:0:
256,192,78825,1,0,0:0:0:0:
256,192,79187,1,8,0:0:0:0:
256,192,79549,1,12,0:0:0:0:
256,192,79719,1,0,0:0:0:0:
256,192,80442,1,8,0:0:0:0:
256,192,80804,1,0,0:0:0:0:
256,192,81346,1,8,0:0:0:0:
256,192,81889,1,8,0:0:0:0:
256,192,82251,1,0,0:0:0:0:
256,192,82613,1,0,0:0:0:0:
256,192,83155,1,8,0:0:0:0:
256,192,83336,1,8,0:0:0:0:
256,192,83698,1,0,0:0:0:0:
256,192,84060,1,8,0:0:0:0:
256,192,84421,1,8,0:0:0:0:
256,192,84783,1,8,0:0:0:0:
256,192,85507,1,0,0:0:0:0:
256,192,85868,1,0,0:0:0:0:
256,192,86049,1,0,0:0:0:0:
256,192,86411,1,8,0:0:0:0:
256,192,86592,1,8,0:0:0:0:
256,192,87134,1,8,0:0:0:0:
256,192,87315,1,8,0:0:0:0:
256,192,87496,1,8,0:0:0:0:
256,192,87858,1,0,0:0:0:0:
256,192,88220,1,8,0:0:0:0:
256,192,88581,1,0,0:0:0:0:
256,192,88762,1,0,0:0:0:0:
256,192,89305,1,8,0:0:0:0:
256,192,89667,1,8,0:0:0:0:
256,192,90028,1,0,0:0:0:0:
256,192,90571,1,8,0:0:0:0:
256,192,91295,5,0,0:0:0:0:
256,192,91656,1,0,0:0:0:0:
256,192,91837,1,0,0:0:0:0:
256,192,92199,1,8,0:0:0:0:
256,192,92380,1,8,0:0:0:0:
256,192,92922,1,8,0:0:0:0:
256,192,93103,1,8,0:0:0:0:
256,192,93284,1,8,0:0:0:0:
256,192,93646,1,0,0:0:0:0:
256,192,94008,1,8,0:0:0:0:
256,192,94369,1,0,0:0:0:0:
256,192,94550,1,0,0:0:0:0:
256,192,95093,1,8,0:0:0:0:
260,186,95274,1,8,0:0:0:0:
256,192,95455,1,8,0:0:0:0:
256,192,95816,1,0,0:0:0:0:
256,192,96359,5,8,0:0:0:0:
256,192,97104,5,0,0:0:0:0:
256,192,97465,1,0,0:0:0:0:
256,192,97646,1,0,0:0:0:0:
256,192,98008,1,8,0:0:0:0:
256,192,98189,1,8,0:0:0:0:
256,192,98731,1,8,0:0:0:0:
256,192,98912,1,8,0:0:0:0:
256,192,99093,1,8,0:0:0:0:
256,192,99455,1,0,0:0:0:0:
256,192,99817,1,8,0:0:0:0:
256,192,100178,1,0,0:0:0:0:
256,192,100359,1,0,0:0:0:0:
256,192,100902,1,8,0:0:0:0:
264,200,101083,1,8,0:0:0:0:
256,192,101264,1,8,0:0:0:0:
256,192,101625,1,0,0:0:0:0:
256,192,102168,1,8,0:0:0:0:
256,192,102892,5,0,0:0:0:0:
256,192,103253,1,0,0:0:0:0:
256,192,103434,1,0,0:0:0:0:
256,192,103796,1,8,0:0:0:0:
256,192,103977,1,8,0:0:0:0:
256,192,104519,1,8,0:0:0:0:
256,192,104700,1,8,0:0:0:0:
256,192,104881,1,8,0:0:0:0:
256,192,105243,1,0,0:0:0:0:
256,192,105605,1,8,0:0:0:0:
256,192,105966,1,0,0:0:0:0:
256,192,106147,1,0,0:0:0:0:
256,192,106690,1,8,0:0:0:0:
264,200,106871,1,8,0:0:0:0:
256,192,107052,1,8,0:0:0:0:
256,192,107413,1,0,0:0:0:0:
256,192,107956,1,8,0:0:0:0:
247,190,108318,1,0,0:0:0:0:
