osu file format v14

[General]
AudioFilename: Nero vs After School - Sound In Motion vs AH (Fauxami Mashup) UPDATED.mp3
AudioLeadIn: 0
PreviewTime: 89813
Countdown: 1
SampleSet: Normal
StackLeniency: 0.7
Mode: 0
LetterboxInBreaks: 1
WidescreenStoryboard: 1

[Editor]
Bookmarks: 111882,133951,156020,178089,244296,266365,288433,310502
DistanceSpacing: 1
BeatDivisor: 2
GridSize: 4
TimelineZoom: 1.8

[Metadata]
Title:Sound In Motion vs. AH
TitleUnicode:Sound In Motion vs. AH
Artist:Nero vs. After School
ArtistUnicode:Nero vs. 애프터스쿨
Creator:galvenize
Version:ryuubey's Easy
Source:
Tags:fauxami mashup remix korean electronic drum and & bass dnb ryuu kyubey exote frey
BeatmapID:609693
BeatmapSetID:234646

[Difficulty]
HPDrainRate:2
CircleSize:3
OverallDifficulty:2
ApproachRate:3
SliderMultiplier:0.9
SliderTickRate:1

[Events]
//Background and Video events
0,0,"bg1.jpg",0,0
//Break Periods
2,178343,204289
//Storyboard Layer 0 (Background)
//Storyboard Layer 1 (Fail)
//Storyboard Layer 2 (Pass)
//Storyboard Layer 3 (Foreground)
//Storyboard Layer 4 (Overlay)
//Storyboard Sound Samples

[TimingPoints]
89867,344.827586206897,4,1,5,70,1,0

[Colours]
Combo1 : 169,52,87
Combo2 : 211,44,48

[HitObjects]
324,168,89867,6,0,B|272:152|272:152|128:172,1,180,4|0,0:0|0:0,0:0:0:0:
56,176,90901,1,8,0:0:0:0:
96,96,91246,2,0,L|296:68,1,180
364,60,92281,1,8,0:0:0:0:
452,44,92625,6,0,B|496:40|496:40|512:116|464:184,1,180,0|0,0:0|0:0,0:0:0:0:
392,332,94005,2,0,P|304:316|212:332,1,180,0|0,0:0|0:0,0:0:0:0:
128,348,95039,1,8,0:0:0:0:
152,260,95384,6,0,B|156:192|128:136|128:136|184:108,1,180,4|0,0:0|0:0,0:0:0:0:
256,72,96419,1,8,0:0:0:0:
337,112,96763,2,0,B|384:136|384:136|356:192|360:260,1,180,4|0,0:0|0:0,0:0:0:0:
432,316,97798,1,8,0:0:0:0:
472,236,98143,6,0,B|472:184|500:140|500:140|500:88|444:36,1,180,0|0,0:0|0:0,0:0:0:0:
392,24,99177,1,8,0:0:0:0:
304,48,99522,2,0,B|240:56|240:56|216:176|216:176|196:152|160:132|128:132|96:136|60:168,1,360,4|4,0:0|0:0,0:0:0:0:
48,312,101591,6,0,P|96:288|152:276,1,90,0|8,0:0|0:0,0:0:0:0:
220,268,102281,2,0,B|272:268|300:218|300:218|368:268,1,180
432,324,103315,1,8,0:0:0:0:
488,256,103660,6,0,P|504:168|472:64,1,180
304,112,105039,2,0,B|244:128|244:128|108:112,1,180
36,108,106074,1,8,0:0:0:0:
76,188,106419,6,0,B|92:248|92:248|160:248|192:300,1,180,4|0,0:0|0:0,0:0:0:0:
256,364,107453,1,8,0:0:0:0:
320,300,107798,2,0,B|352:248|420:248|420:248|436:188,1,180,4|0,0:0|0:0,0:0:0:0:
476,108,108832,1,8,0:0:0:0:
392,72,109177,6,0,P|304:56|216:76,1,180,0|0,0:0|0:0,0:0:0:0:
128,72,110212,1,8,0:0:0:0:
112,160,110556,2,0,B|92:212|92:212|184:232|184:232|216:296|152:356,1,270,4|8,0:0|0:0,0:0:0:0:
252,360,111936,6,0,L|452:336,1,180,4|0,0:0|0:0,0:0:0:0:
476,164,113315,2,0,L|297:185,1,180,4|0,0:0|0:0,0:0:0:0:
132,112,114694,2,0,P|124:200|153:290,1,180,4|0,0:0|0:0,0:0:0:0:
324,336,116074,2,0,P|381:324|440:340,1,90,0|8,0:0|0:0,0:0:0:0:
468,260,116763,2,0,P|456:202|472:144,1,90,0|8,0:0|0:0,0:0:0:0:
400,104,117453,6,0,P|305:128|208:108,1,180,4|0,0:0|0:0,0:0:0:0:
64,40,118832,2,0,L|80:244,1,180,4|0,0:0|0:0,0:0:0:0:
220,332,120212,2,0,P|314:307|412:328,1,180,4|0,0:0|0:0,0:0:0:0:
448,148,121591,2,0,L|452:56,1,90,0|8,0:0|0:0,0:0:0:0:
364,36,122281,2,0,L|367:125,1,90,0|8,0:0|0:0,0:0:0:0:
280,148,122970,6,0,B|232:172|192:148|140:128|92:160,1,180,4|0,0:0|0:0,0:0:0:0:
44,220,124005,1,8,0:0:0:0:
88,300,124350,2,0,P|136:312|180:300,1,90,0|8,0:0|0:0,0:0:0:0:
256,264,125039,1,0,0:0:0:0:
260,86,125729,6,0,B|308:70|347:91|347:91|384:54|436:62,1,180
496,120,126763,1,8,0:0:0:0:
424,180,127108,2,0,P|408:272|432:372,1,180
252,312,128488,6,0,L|148:332,1,90,4|8,0:0|0:0,0:0:0:0:
144,240,129177,2,0,L|40:220,1,90,0|8,0:0|0:0,0:0:0:0:
56,132,129867,2,0,P|52:80|72:24,1,90,4|8,0:0|0:0,0:0:0:0:
152,36,130556,2,0,P|191:56|236:62,1,90,0|8,0:0|0:0,0:0:0:0:
308,116,131246,6,0,P|300:216|320:304,1,180
392,344,132281,1,8,0:0:0:0:
428,264,132625,2,0,P|436:164|416:76,1,180,4|0,0:0|0:0,0:0:0:0:
348,32,133660,1,8,0:0:0:0:
256,192,134005,12,4,136763,0:0:0:0:
88,260,138143,6,0,B|56:260|20:272|20:272|12:204|52:140,1,180
96,96,139177,1,8,0:0:0:0:
172,48,139522,6,0,L|272:52,1,90,4|8,0:0|0:0,0:0:0:0:
288,140,140212,2,0,L|198:136,1,90,0|8,0:0|0:0,0:0:0:0:
220,224,140901,2,0,L|320:228,1,90,4|8,0:0|0:0,0:0:0:0:
376,168,141591,2,0,P|377:118|340:60,1,90,0|8,0:0|0:0,0:0:0:0:
272,64,142281,6,0,B|208:76|208:76|80:60,1,180,0|0,0:0|0:0,0:0:0:0:
116,236,143660,2,0,B|212:248|212:248|260:284|260:284|384:300,1,270,4|8,0:0|0:0,0:0:0:0:
460,288,145039,6,0,P|492:196|444:96,1,180,4|0,0:0|0:0,0:0:0:0:
308,36,146419,2,0,P|276:118|301:203,1,180,4|0,0:0|0:0,0:0:0:0:
212,360,147798,2,0,B|160:340|160:340|16:356,1,180,4|0,0:0|0:0,0:0:0:0:
68,176,149177,2,0,L|220:160,2,135,0|0|8,0:0|0:0|0:0,0:0:0:0:
88,88,150556,6,0,B|180:68|180:68|236:60|284:100,1,180,4|0,0:0|0:0,0:0:0:0:
364,236,151936,2,0,B|456:248|456:248|428:144,1,180,4|0,0:0|0:0,0:0:0:0:
344,144,152970,1,8,0:0:0:0:
280,208,153315,2,0,B|236:228|236:228|176:208|96:236,1,180,4|0,0:0|0:0,0:0:0:0:
24,196,154350,1,8,0:0:0:0:
52,112,154694,2,0,B|112:80|112:80|180:116|180:116|232:52|324:80,1,270,4|8,0:0|0:0,0:0:0:0:
364,124,156074,6,0,P|360:168|376:240,1,90,4|8,0:0|0:0,0:0:0:0:
436,272,156763,1,0,0:0:0:0:
260,316,157453,2,0,P|156:296|72:324,1,180
24,252,158488,1,8,0:0:0:0:
56,168,158832,6,0,P|112:180|164:148,1,90,0|8,0:0|0:0,0:0:0:0:
216,116,159522,2,0,P|258:104|301:117,1,90,0|8,0:0|0:0,0:0:0:0:
360,184,160212,2,0,L|356:284,2,90,0|8|0,0:0|0:0|0:0,0:0:0:0:
456,32,161591,6,0,B|404:72|344:32|344:32|320:76|320:76|244:32|204:72,1,270,4|8,0:0|0:0,0:0:0:0:
144,16,162970,2,0,B|125:55|132:108|184:140|184:140|104:128|104:172|32:144,1,270,4|8,0:0|0:0,0:0:0:0:
56,244,164350,6,0,L|64:356,1,90,4|8,0:0|0:0,0:0:0:0:
148,364,165039,2,0,L|141:274,1,90,0|8,0:0|0:0,0:0:0:0:
224,236,165729,2,0,P|300:160|244:170,1,270,0|8,0:0|0:0,0:0:0:0:
216,92,167108,6,0,B|168:124|128:104|76:80|28:112,1,180,4|0,0:0|0:0,0:0:0:0:
92,276,168488,2,0,P|176:300|265:263,1,180,4|0,0:0|0:0,0:0:0:0:
244,88,169867,2,0,P|326:56|412:80,1,180,4|0,0:0|0:0,0:0:0:0:
416,260,171246,2,0,L|312:244,1,90,0|8,0:0|0:0,0:0:0:0:
280,324,171936,2,0,L|176:340,1,90,0|8,0:0|0:0,0:0:0:0:
108,300,172625,6,0,P|124:207|92:108,1,180,4|0,0:0|0:0,0:0:0:0:
276,76,174005,2,0,B|368:96|368:96|455:58,1,180,4|0,0:0|0:0,0:0:0:0:
256,192,175384,12,4,178143,0:0:0:0:
256,192,205729,12,4,211246,0:0:0:0:
164,124,212625,5,4,0:0:0:0:
256,268,214005,1,4,0:0:0:0:
348,124,215384,1,4,0:0:0:0:
60,76,216763,6,0,L|84:188,1,90,4|0,0:0|0:0,0:0:0:0:
152,112,217453,2,0,L|176:224,1,90,4|0,0:0|0:0,0:0:0:0:
240,260,218143,2,0,L|352:244,1,90,4|0,0:0|0:0,0:0:0:0:
304,332,218832,2,0,L|416:316,1,90,4|0,0:0|0:0,0:0:0:0:
448,248,219522,6,0,B|484:112|484:112|292:176|372:40|190:88|190:88|168:136|196:184,1,540,4|0,0:0|0:0,0:0:0:0:
240,250,221936,1,8,0:0:0:0:
188,324,222281,6,0,P|100:308|20:232,1,180,4|0,0:0|0:0,0:0:0:0:
116,92,223660,2,0,B|168:76|168:76|300:92,1,180
380,72,224694,1,8,0:0:0:0:
420,152,225039,6,0,B|452:240|452:240|424:272|380:288,1,180
292,280,226074,1,8,0:0:0:0:
204,260,226419,2,0,B|116:244|116:244|20:260,1,180
28,168,227453,1,8,0:0:0:0:
65,84,227798,6,0,B|136:88|160:168|160:168|197:142,1,180,4|0,0:0|0:0,0:0:0:0:
256,76,228832,1,8,0:0:0:0:
314,142,229177,2,0,B|352:168|352:168|376:88|448:80,1,180,4|0,0:0|0:0,0:0:0:0:
448,172,230212,1,8,0:0:0:0:
401,248,230556,6,0,B|340:271|297:244|297:244|263:269|216:257,1,180
142,287,231591,1,8,0:0:0:0:
72,228,231936,2,0,B|72:176|108:136|108:136|196:160|257:85|257:85|264:124|244:180,1,360,4|4,0:0|0:0,0:0:0:0:
276,344,234005,6,0,P|328:324|376:272,1,90,0|8,0:0|0:0,0:0:0:0:
380,216,234694,2,0,P|364:120|384:32,1,180,0|0,0:0|0:0,0:0:0:0:
472,40,235729,1,8,0:0:0:0:
472,132,236074,6,0,P|500:216|460:320,1,180,0|0,0:0|0:0,0:0:0:0:
300,340,237453,2,0,B|244:320|244:320|112:340,1,180
52,284,238488,1,8,0:0:0:0:
84,200,238832,6,0,P|104:120|200:144,1,180,4|0,0:0|0:0,0:0:0:0:
256,184,239867,1,8,0:0:0:0:
320,248,240212,2,0,P|402:254|423:174,1,180,4|0,0:0|0:0,0:0:0:0:
368,104,241246,1,8,0:0:0:0:
280,108,241591,6,0,B|232:124|232:124|176:88|92:112,1,180
40,168,242625,1,8,0:0:0:0:
60,256,242970,2,0,B|108:240|108:240|152:256|152:256|196:240|196:240|232:256|232:256|280:272|324:252,1,270,4|0,0:0|0:0,0:0:0:0:
400,216,244350,6,0,P|388:100|412:12,1,180,4|0,0:0|0:0,0:0:0:0:
224,64,245729,2,0,B|172:60|144:96|144:96|96:72|44:92,1,180,4|0,0:0|0:0,0:0:0:0:
80,268,247108,2,0,P|188:256|272:296,1,180,4|0,0:0|0:0,0:0:0:0:
424,336,248488,2,0,L|440:220,1,90,0|8,0:0|0:0,0:0:0:0:
388,172,249177,2,0,L|404:56,1,90,0|8,0:0|0:0,0:0:0:0:
316,52,249867,6,0,B|256:45|256:45|198:59|198:59|118:51,1,180,4|0,0:0|0:0,0:0:0:0:
44,208,251246,2,0,B|103:214|103:214|161:200|161:200|241:208,1,180,4|0,0:0|0:0,0:0:0:0:
372,304,252625,2,0,P|404:212|380:104,1,180,4|0,0:0|0:0,0:0:0:0:
220,88,254005,2,0,L|120:72,2,90,0|8|0,0:0|0:0|0:0,0:0:0:0:
272,164,255039,1,8,0:0:0:0:
332,232,255384,6,0,L|432:216,1,90,4|8,0:0|0:0,0:0:0:0:
460,300,256074,2,0,L|371:314,1,90,0|8,0:0|0:0,0:0:0:0:
280,308,256763,2,0,P|231:294|168:316,1,90,0|8,0:0|0:0,0:0:0:0:
120,352,257453,1,0,0:0:0:0:
44,188,258143,6,0,L|32:64,1,90,0|8,0:0|0:0,0:0:0:0:
100,36,258832,1,0,0:0:0:0:
164,100,259177,1,8,0:0:0:0:
224,36,259522,2,0,L|412:24,1,180
480,188,260901,6,0,L|468:292,1,90,4|8,0:0|0:0,0:0:0:0:
380,268,261591,2,0,L|392:372,1,90,0|8,0:0|0:0,0:0:0:0:
300,356,262281,2,0,P|260:336|208:344,1,90,4|8,0:0|0:0,0:0:0:0:
132,304,262970,2,0,L|142:214,1,90,0|8,0:0|0:0,0:0:0:0:
192,140,263660,6,0,P|288:160|376:132,1,180,0|0,0:0|0:0,0:0:0:0:
404,56,264694,1,8,0:0:0:0:
464,124,265039,2,0,L|453:213,1,90,4|8,0:0|0:0,0:0:0:0:
372,252,265729,2,0,L|361:341,1,90,0|8,0:0|0:0,0:0:0:0:
256,192,266419,12,4,269177,0:0:0:0:
64,212,270556,6,0,P|88:124|68:32,1,180
156,12,271591,1,8,0:0:0:0:
240,40,271936,6,0,P|281:54|368:60,1,90,4|8,0:0|0:0,0:0:0:0:
392,124,272625,2,0,P|349:138|305:145,1,90,0|8,0:0|0:0,0:0:0:0:
244,212,273315,2,0,P|285:226|372:232,1,90,4|8,0:0|0:0,0:0:0:0:
308,320,274005,2,0,P|264:312|192:328,1,90,0|8,0:0|0:0,0:0:0:0:
132,344,274694,6,0,B|104:308|104:308|120:140,1,180,0|0,0:0|0:0,0:0:0:0:
256,60,276074,2,0,B|300:120|256:188|256:196|212:260|256:320,1,270,4|8,0:0|0:0,0:0:0:0:
324,260,277453,6,0,L|380:72,1,180,4|0,0:0|0:0,0:0:0:0:
196,88,278832,2,0,L|144:260,1,180,4|0,0:0|0:0,0:0:0:0:
324,284,280212,2,0,P|392:236|488:252,1,180,4|0,0:0|0:0,0:0:0:0:
352,124,281591,2,0,P|304:120|248:132,1,90,0|8,0:0|0:0,0:0:0:0:
240,216,282281,2,0,P|195:220|150:213,1,90,0|8,0:0|0:0,0:0:0:0:
80,160,282970,6,0,B|60:96|65:42|65:42|132:76,1,180,4|0,0:0|0:0,0:0:0:0:
280,128,284350,2,0,B|300:192|294:245|294:245|240:217,1,180,4|0,0:0|0:0,0:0:0:0:
152,244,285384,1,8,0:0:0:0:
164,332,285729,2,0,B|296:356|296:356|368:340,1,180
424,316,286763,1,8,0:0:0:0:
464,236,287108,2,0,B|488:188|460:160|460:160|392:196|392:196|328:168|264:208,1,270,4|8,0:0|0:0,0:0:0:0:
208,148,288488,5,4,0:0:0:0:
128,108,288832,2,0,P|84:124|32:116,1,90,8|0,0:0|0:0,0:0:0:0:
12,204,289522,1,8,0:0:0:0:
84,256,289867,2,0,L|96:368,2,90,0|8|0,0:0|0:0|0:0,0:0:0:0:
160,204,290901,1,8,0:0:0:0:
240,244,291246,6,0,L|340:256,1,90,0|8,0:0|0:0,0:0:0:0:
392,192,291936,2,0,L|492:180,1,90,0|8,0:0|0:0,0:0:0:0:
480,92,292625,2,0,L|264:116,1,180
136,44,294005,5,4,0:0:0:0:
108,128,294350,2,0,P|132:212|120:312,1,180,8|8,0:0|0:0,0:0:0:0:
212,324,295384,1,4,0:0:0:0:
284,268,295729,2,0,L|463:258,1,180,8|8,0:0|0:0,0:0:0:0:
436,172,296763,6,0,P|424:128|428:76,1,90,0|8,0:0|0:0,0:0:0:0:
344,48,297453,1,0,0:0:0:0:
272,104,297798,1,8,0:0:0:0:
204,44,298143,2,0,B|128:72|48:40|48:40|76:92|64:160,1,270,4|8,0:0|0:0,0:0:0:0:
64,236,299522,6,0,P|156:220|240:244,1,180,4|0,0:0|0:0,0:0:0:0:
416,280,300901,2,0,L|436:92,1,180,4|0,0:0|0:0,0:0:0:0:
260,56,302281,2,0,B|204:50|204:50|131:58|131:58|51:50,1,180,4|0,0:0|0:0,0:0:0:0:
80,232,303660,2,0,P|126:218|192:236,1,90,0|8,0:0|0:0,0:0:0:0:
240,276,304350,2,0,P|286:289|352:272,1,90,0|8,0:0|0:0,0:0:0:0:
412,252,305039,6,0,B|404:160|404:160|428:68,1,180,4|0,0:0|0:0,0:0:0:0:
248,40,306419,2,0,P|151:63|40:48,1,180,4|0,0:0|0:0,0:0:0:0:
80,236,307798,2,0,B|116:264|121:312|121:312|172:296|228:328,1,180,4|0,0:0|0:0,0:0:0:0:
388,296,309177,2,0,L|404:192,1,90,0|8,0:0|0:0,0:0:0:0:
316,176,309867,2,0,L|304:76,1,90,0|8,0:0|0:0,0:0:0:0:
376,32,310556,1,4,0:0:0:0:
