osu file format v14

[General]
AudioFilename: Nero vs After School - Sound In Motion vs AH (Fauxami Mashup) UPDATED.mp3
AudioLeadIn: 0
PreviewTime: 89813
Countdown: 1
SampleSet: Soft
StackLeniency: 0.7
Mode: 0
LetterboxInBreaks: 1
WidescreenStoryboard: 1

[Editor]
Bookmarks: 111882,167399,247054
DistanceSpacing: 1.2
BeatDivisor: 4
GridSize: 4
TimelineZoom: 1

[Metadata]
Title:Sound In Motion vs. AH
TitleUnicode:Sound In Motion vs. AH
Artist:Nero vs. After School
ArtistUnicode:Nero vs. 애프터스쿨
Creator:galvenize
Version:Frey's Hard
Source:
Tags:fauxami mashup remix korean electronic drum and & bass dnb ryuu kyubey exote frey
BeatmapID:559811
BeatmapSetID:234646

[Difficulty]
HPDrainRate:5
CircleSize:4
OverallDifficulty:6
ApproachRate:8
SliderMultiplier:1.5
SliderTickRate:1

[Events]
//Background and Video events
0,0,"bg1.jpg",0,0
//Break Periods
2,178343,199462
//Storyboard Layer 0 (Background)
//Storyboard Layer 1 (Fail)
//Storyboard Layer 2 (Pass)
//Storyboard Layer 3 (Foreground)
//Storyboard Layer 4 (Overlay)
//Storyboard Sound Samples

[TimingPoints]
89867,344.827586206897,4,1,0,70,1,0
134350,-100,4,2,0,70,0,0
136763,-100,4,1,0,70,0,0
210556,-100,4,2,0,70,0,0
222108,-100,4,1,0,70,0,0
266419,-100,4,2,0,70,0,0
269177,-100,4,1,0,70,0,0

[Colours]
Combo1 : 169,52,87
Combo2 : 211,44,48

[HitObjects]
52,112,89694,5,0,0:0:0:0:
52,112,89867,2,0,P|132:100|152:96,1,75,4|0,0:0|0:0,0:0:0:0:
116,192,90212,1,8,0:0:0:0:
184,252,90384,2,0,L|188:304,2,37.5,0|0|0,0:0|0:0|0:0,0:0:0:0:
236,176,90729,1,0,0:0:0:0:
324,184,90901,2,0,L|328:104,1,75,8|0,0:0|0:0,0:0:0:0:
332,20,91246,5,0,0:0:0:0:
408,68,91419,2,0,L|404:142,1,75,0|8,0:0|0:0,0:0:0:0:
324,184,91763,1,0,0:0:0:0:
244,228,91936,1,0,0:0:0:0:
320,276,92108,2,0,P|368:268|408:260,2,75,0|8|0,0:0|0:0|0:0,0:0:0:0:
264,348,92625,5,0,0:0:0:0:
188,300,92798,2,0,L|196:248,2,37.5,0|0|8,0:0|0:0|0:0,0:0:0:0:
100,316,93143,1,0,0:0:0:0:
44,248,93315,2,0,L|28:152,1,75
120,152,93660,2,0,L|136:56,1,75,8|0,0:0|0:0,0:0:0:0:
204,24,94005,5,0,0:0:0:0:
204,24,94177,1,0,0:0:0:0:
248,104,94350,1,8,0:0:0:0:
248,104,94522,1,0,0:0:0:0:
180,160,94694,2,0,P|88:172|80:172,1,75
48,240,95039,2,0,L|36:288,3,37.5,8|0|0|0,0:0|0:0|0:0|0:0,0:0:0:0:
48,240,95384,6,0,P|87:247|125:250,1,75
208,284,95729,2,0,P|216:236|228:188,1,75,8|0,0:0|0:0,0:0:0:0:
256,124,96074,2,0,B|308:124|308:124|348:152|348:152|400:152,1,150,0|8,0:0|0:0,0:0:0:0:
256,260,96763,2,0,B|204:260|204:260|164:232|164:232|112:232,1,150,0|8,0:0|0:0,0:0:0:0:
36,280,97281,1,0,0:0:0:0:
36,192,97453,2,0,P|64:160|100:144,1,75,0|0,0:0|0:0,0:0:0:0:
132,64,97798,2,0,P|164:92|180:128,1,75,8|0,0:0|0:0,0:0:0:0:
156,208,98143,5,0,0:0:0:0:
188,292,98315,1,0,0:0:0:0:
256,236,98488,1,8,0:0:0:0:
324,292,98660,1,0,0:0:0:0:
356,208,98832,2,0,B|344:156|344:156|360:112|360:112|344:44,1,150,0|8,0:0|0:0,0:0:0:0:
268,24,99350,1,0,0:0:0:0:
200,84,99522,6,0,P|192:124|204:168,2,75,0|0|8,0:0|0:0|0:0,0:0:0:0:
280,124,100039,1,0,0:0:0:0:
281,215,100212,2,0,L|356:208,1,75
444,220,100556,1,8,0:0:0:0:
388,292,100729,1,0,0:0:0:0:
356,208,100901,5,0,0:0:0:0:
400,128,101074,2,0,L|472:116,2,37.5,0|0|8,0:0|0:0|0:0,0:0:0:0:
328,76,101419,1,0,0:0:0:0:
276,148,101591,1,0,0:0:0:0:
301,234,101763,2,0,P|341:242|405:242,2,75,0|8|0,0:0|0:0|0:0,0:0:0:0:
211,234,102281,6,0,P|171:242|107:242,1,75,0|0,0:0|0:0,0:0:0:0:
68,300,102625,1,8,0:0:0:0:
52,212,102798,1,0,0:0:0:0:
120,156,102970,1,0,0:0:0:0:
104,68,103143,1,0,0:0:0:0:
104,68,103315,2,0,P|48:64|8:56,1,75,8|0,0:0|0:0,0:0:0:0:
4,148,103660,5,0,0:0:0:0:
68,212,103832,2,0,L|64:252,2,37.5,0|0|8,0:0|0:0|0:0,0:0:0:0:
144,164,104177,1,0,0:0:0:0:
208,228,104350,2,0,P|216:292|216:324,1,75
140,348,104694,2,0,P|132:284|132:252,1,75,8|0,0:0|0:0,0:0:0:0:
208,228,105039,5,0,0:0:0:0:
288,268,105212,1,0,0:0:0:0:
212,316,105384,1,8,0:0:0:0:
208,228,105556,1,0,0:0:0:0:
284,180,105729,1,0,0:0:0:0:
364,220,105901,1,0,0:0:0:0:
288,268,106074,2,0,L|284:312,3,37.5,8|0|0|0,0:0|0:0|0:0|0:0,0:0:0:0:
288,268,106419,6,0,P|212:276|192:276,1,75
148,216,106763,1,8,0:0:0:0:
148,216,106936,1,0,0:0:0:0:
140,128,107108,2,0,P|220:112|312:116,1,150,0|8,0:0|0:0,0:0:0:0:
208,276,107798,6,0,P|172:292|120:300,1,75
60,256,108143,1,8,0:0:0:0:
60,168,108315,1,0,0:0:0:0:
140,128,108488,2,0,P|220:112|312:116,1,150,0|8,0:0|0:0,0:0:0:0:
208,276,109177,6,0,P|244:292|296:300,1,75
348,356,109522,2,0,P|393:346|428:332,1,75,8|0,0:0|0:0,0:0:0:0:
452,252,109867,2,0,P|460:192|428:120,2,112.5,0|0|0,0:0|0:0|0:0,0:0:0:0:
376,200,110556,6,0,L|288:212,1,75,0|0,0:0|0:0,0:0:0:0:
210,210,110901,2,0,L|136:200,1,75,8|0,0:0|0:0,0:0:0:0:
84,124,111246,1,0,0:0:0:0:
172,112,111419,1,0,0:0:0:0:
228,40,111591,1,8,0:0:0:0:
140,28,111763,1,0,0:0:0:0:
172,112,111936,6,0,P|256:104|352:92,1,150,4|8,0:0|0:0,0:0:0:0:
388,156,112453,1,0,0:0:0:0:
364,244,112625,1,0,0:0:0:0:
276,256,112798,2,0,P|288:204|304:172,2,75,0|8|0,0:0|0:0|0:0,0:0:0:0:
332,328,113315,6,0,P|424:312|452:260,1,150,0|8,0:0|0:0,0:0:0:0:
364,244,113832,1,0,0:0:0:0:
276,256,114005,2,0,P|216:248|180:240,1,75
224,332,114350,2,0,P|186:338|149:341,1,75,8|0,0:0|0:0,0:0:0:0:
68,304,114694,6,0,P|36:232|60:168,1,150,0|8,0:0|0:0,0:0:0:0:
132,112,115212,1,0,0:0:0:0:
216,140,115384,1,0,0:0:0:0:
148,200,115556,1,0,0:0:0:0:
132,112,115729,2,0,L|148:32,1,75,8|0,0:0|0:0,0:0:0:0:
236,48,116074,6,0,P|328:44|408:36,1,150,0|8,0:0|0:0,0:0:0:0:
448,104,116591,2,0,P|436:192|436:276,1,150,0|0,0:0|0:0,0:0:0:0:
456,340,117108,2,0,L|496:332,3,37.5,8|0|0|0,0:0|0:0|0:0|0:0,0:0:0:0:
456,340,117453,6,0,P|376:328|276:328,1,150,0|8,0:0|0:0,0:0:0:0:
236,384,117970,1,0,0:0:0:0:
156,344,118143,1,0,0:0:0:0:
176,256,118315,1,0,0:0:0:0:
264,248,118488,2,0,P|272:168|272:152,1,75,8|0,0:0|0:0,0:0:0:0:
216,104,118832,6,0,P|152:68|80:104,1,150,0|8,0:0|0:0,0:0:0:0:
148,164,119350,1,0,0:0:0:0:
192,244,119522,1,0,0:0:0:0:
256,180,119694,1,0,0:0:0:0:
320,244,119867,1,8,0:0:0:0:
364,164,120039,1,0,0:0:0:0:
295,104,120212,6,0,P|358:68|425:95,1,150,0|8,0:0|0:0,0:0:0:0:
440,184,120729,1,0,0:0:0:0:
452,272,120901,1,0,0:0:0:0:
368,240,121074,2,0,P|280:232|260:228,2,75,0|8|0,0:0|0:0|0:0,0:0:0:0:
352,328,121591,5,0,0:0:0:0:
352,328,121763,1,0,0:0:0:0:
368,240,121936,1,8,0:0:0:0:
368,240,122108,1,0,0:0:0:0:
300,180,122281,5,0,0:0:0:0:
300,180,122453,1,0,0:0:0:0:
212,196,122625,1,8,0:0:0:0:
212,196,122798,1,0,0:0:0:0:
180,280,122970,6,0,P|256:288|328:280,1,150,0|8,0:0|0:0,0:0:0:0:
412,316,123488,2,0,L|448:152,1,150,0|0,0:0|0:0,0:0:0:0:
376,108,124005,1,8,0:0:0:0:
400,20,124177,1,0,0:0:0:0:
464,84,124350,5,0,0:0:0:0:
375,108,124522,2,0,P|338:113|301:115,1,75,0|8,0:0|0:0,0:0:0:0:
224,68,124867,1,0,0:0:0:0:
152,120,125039,1,0,0:0:0:0:
184,204,125212,2,0,P|108:212|92:212,2,75,0|8|0,0:0|0:0|0:0,0:0:0:0:
276,204,125729,5,0,0:0:0:0:
232,284,125901,2,0,L|236:328,2,37.5,0|0|8,0:0|0:0|0:0,0:0:0:0:
144,292,126246,1,0,0:0:0:0:
84,224,126419,2,0,L|100:148,1,75
40,84,126763,1,8,0:0:0:0:
12,168,126936,1,0,0:0:0:0:
84,224,127108,6,0,P|124:228|180:220,1,75
216,156,127453,2,0,P|253:152|290:155,2,75,8|0|0,0:0|0:0|0:0,0:0:0:0:
256,236,127970,1,0,0:0:0:0:
348,236,128143,2,0,L|385:236,3,37.5,8|0|0|0,0:0|0:0|0:0|0:0,0:0:0:0:
348,236,128488,6,0,P|344:284|332:328,1,75
424,340,128832,1,8,0:0:0:0:
424,340,129005,1,0,0:0:0:0:
464,260,129177,2,0,P|461:222|453:185,1,75,0|0,0:0|0:0,0:0:0:0:
368,160,129522,1,8,0:0:0:0:
368,160,129694,1,0,0:0:0:0:
304,224,129867,6,0,L|208:212,1,75
172,148,130212,2,0,L|97:157,1,75,8|0,0:0|0:0,0:0:0:0:
28,212,130556,2,0,P|12:176|16:128,1,75
64,68,130901,2,0,P|100:52|148:56,1,75,8|0,0:0|0:0,0:0:0:0:
208,104,131246,6,0,P|224:140|220:188,1,75,0|0,0:0|0:0,0:0:0:0:
176,252,131591,2,0,P|140:268|92:264,2,75,8|0|0,0:0|0:0|0:0,0:0:0:0:
256,296,132108,1,0,0:0:0:0:
336,252,132281,1,8,0:0:0:0:
256,212,132453,1,0,0:0:0:0:
336,168,132625,5,0,0:0:0:0:
176,252,132970,1,8,0:0:0:0:
336,340,133315,1,0,0:0:0:0:
496,252,133660,1,12,0:0:0:0:
496,252,134005,6,0,P|484:192|476:104,2,150,0|2|0,0:0|0:0|0:0,0:0:0:0:
452,332,134867,1,0,0:0:0:0:
384,276,135039,1,2,0:0:0:0:
340,356,135212,1,0,0:0:0:0:
272,296,135384,6,0,P|264:244|264:212,1,75
200,160,135729,1,2,0:0:0:0:
168,244,135901,1,0,0:0:0:0:
104,180,136074,1,0,0:0:0:0:
72,264,136246,2,0,P|68:320|64:344,2,75,0|2|0,0:0|0:0|0:0,0:0:0:0:
8,200,136763,5,4,0:0:0:0:
40,116,136936,1,0,0:0:0:0:
124,88,137108,2,0,P|192:104|212:108,1,75,8|0,0:0|0:0,0:0:0:0:
220,192,137453,1,0,0:0:0:0:
220,192,137625,1,0,0:0:0:0:
132,212,137798,1,8,0:0:0:0:
132,212,137970,1,0,0:0:0:0:
160,128,138143,6,0,P|168:88|172:52,1,75
256,20,138488,1,8,0:0:0:0:
340,56,138660,1,0,0:0:0:0:
340,144,138832,2,0,P|396:160|432:164,1,75
484,108,139177,2,0,L|492:68,3,37.5,8|0|0|0,0:0|0:0|0:0|0:0,0:0:0:0:
484,108,139522,6,0,P|500:164|496:200,1,75,2|0,0:0|0:0,0:0:0:0:
499,180,139781,2,0,P|483:236|483:296,1,112.5,2|0,0:0|0:0,0:0:0:0:
414,351,140212,2,0,L|340:340,1,75,2|0,0:0|0:0,0:0:0:0:
340,340,140470,2,0,L|225:359,1,112.5,2|0,0:0|0:0,0:0:0:0:
148,316,140901,6,0,P|140:276|148:228,1,75,2|0,0:0|0:0,0:0:0:0:
143,242,141160,2,0,P|152:172|140:128,1,112.5,2|0,0:0|0:0,0:0:0:0:
64,88,141591,2,0,P|104:48|212:88,1,150,2|8,0:0|0:0,0:0:0:0:
256,124,142108,1,0,0:0:0:0:
255,215,142281,6,0,P|216:216|182:228,1,75,2|0,0:0|0:0,0:0:0:0:
183,228,142539,2,0,P|121:232|65:212,1,112.5,2|0,0:0|0:0,0:0:0:0:
16,148,142970,2,0,L|24:60,1,75,2|0,0:0|0:0,0:0:0:0:
22,73,143229,2,0,L|151:47,1,112.5,2|0,0:0|0:0,0:0:0:0:
176,132,143660,6,0,P|248:136|264:136,1,75,2|0,0:0|0:0,0:0:0:0:
332,96,144005,1,8,0:0:0:0:
408,144,144177,1,0,0:0:0:0:
488,100,144350,1,2,0:0:0:0:
488,188,144522,2,0,P|488:230|476:288,2,75,0|8|0,0:0|0:0|0:0,0:0:0:0:
408,144,145039,6,0,P|392:220|400:312,1,150,0|8,0:0|0:0,0:0:0:0:
468,348,145556,1,0,0:0:0:0:
384,380,145729,1,0,0:0:0:0:
312,328,145901,1,0,0:0:0:0:
312,328,146074,2,0,L|224:336,1,75,8|0,0:0|0:0,0:0:0:0:
152,364,146419,6,0,P|108:305|122:234,1,150,0|8,0:0|0:0,0:0:0:0:
176,160,146936,1,0,0:0:0:0:
212,244,147108,2,0,L|300:252,1,75,0|0,0:0|0:0,0:0:0:0:
376,240,147453,1,8,0:0:0:0:
400,152,147625,1,0,0:0:0:0:
328,100,147798,6,0,B|296:108|256:88|256:88|216:108|180:100,1,150,0|8,0:0|0:0,0:0:0:0:
156,188,148315,1,0,0:0:0:0:
92,124,148488,2,0,P|92:84|104:48,1,75
184,8,148832,1,8,0:0:0:0:
184,8,149005,1,0,0:0:0:0:
260,60,149177,6,0,P|336:52|412:60,1,150,0|8,0:0|0:0,0:0:0:0:
404,152,149694,2,0,P|329:159|255:151,1,150
192,84,150212,2,0,L|136:84,3,37.5,8|0|0|0,0:0|0:0|0:0|0:0,0:0:0:0:
192,84,150556,6,0,P|164:152|196:220,1,150,0|8,0:0|0:0,0:0:0:0:
280,196,151074,1,0,0:0:0:0:
252,280,151246,2,0,L|260:360,1,75
340,312,151591,2,0,L|414:304,1,75,8|0,0:0|0:0,0:0:0:0:
484,244,151936,6,0,P|504:184|464:96,1,150,0|8,0:0|0:0,0:0:0:0:
392,148,152453,1,0,0:0:0:0:
352,68,152625,1,0,0:0:0:0:
432,28,152798,2,0,P|472:24|508:24,2,75,0|8|0,0:0|0:0|0:0,0:0:0:0:
352,68,153315,6,0,P|276:72|176:56,1,150,0|8,0:0|0:0,0:0:0:0:
116,92,153832,1,0,0:0:0:0:
28,120,154005,1,0,0:0:0:0:
96,180,154177,1,0,0:0:0:0:
96,180,154350,2,0,P|156:188|200:188,1,75,8|0,0:0|0:0,0:0:0:0:
256,160,154694,5,0,0:0:0:0:
256,160,154867,1,0,0:0:0:0:
240,248,155039,1,8,0:0:0:0:
240,248,155212,1,0,0:0:0:0:
328,264,155384,5,0,0:0:0:0:
328,264,155556,1,0,0:0:0:0:
344,352,155729,1,8,0:0:0:0:
344,352,155901,1,0,0:0:0:0:
256,332,156074,6,0,P|96:344|84:344,1,150,4|8,0:0|0:0,0:0:0:0:
40,284,156591,1,0,0:0:0:0:
124,252,156763,2,0,P|132:176|136:84,1,150,0|8,0:0|0:0,0:0:0:0:
76,32,157281,2,0,L|16:36,2,37.5,0|0|0,0:0|0:0|0:0,0:0:0:0:
48,116,157625,5,0,0:0:0:0:
135,102,157798,1,8,0:0:0:0:
168,20,157970,1,0,0:0:0:0:
256,40,158143,2,0,P|276:112|244:176,1,150,0|8,0:0|0:0,0:0:0:0:
160,208,158660,2,0,L|104:216,2,37.5,0|0|0,0:0|0:0|0:0,0:0:0:0:
176,296,159005,5,0,0:0:0:0:
256,336,159177,1,8,0:0:0:0:
336,296,159350,1,0,0:0:0:0:
351,207,159522,2,0,P|316:160|336:76,1,150,0|8,0:0|0:0,0:0:0:0:
404,136,160039,1,0,0:0:0:0:
456,64,160212,6,0,P|491:111|471:195,1,150,0|8,0:0|0:0,0:0:0:0:
420,268,160729,1,0,0:0:0:0:
352,208,160901,1,0,0:0:0:0:
298,281,161074,1,0,0:0:0:0:
228,224,161246,2,0,L|168:232,3,37.5,8|0|0|0,0:0|0:0|0:0|0:0,0:0:0:0:
228,224,161591,6,0,P|236:176|240:128,1,75
168,96,161936,2,0,P|132:108|98:123,1,75,8|0,0:0|0:0,0:0:0:0:
64,208,162281,2,0,P|80:268|84:328,2,112.5,0|0|0,0:0|0:0|0:0,0:0:0:0:
8,136,162970,5,0,0:0:0:0:
100,124,163143,1,0,0:0:0:0:
156,196,163315,2,0,L|208:188,2,37.5,8|0|0,0:0|0:0|0:0,0:0:0:0:
64,208,163660,2,0,P|49:153|43:97,2,112.5,0|0|0,0:0|0:0|0:0,0:0:0:0:
120,280,164350,6,0,L|208:288,1,75
256,224,164694,1,8,0:0:0:0:
204,152,164867,1,0,0:0:0:0:
256,80,165039,2,0,P|320:76|380:60,2,112.5,0|0|0,0:0|0:0|0:0,0:0:0:0:
168,68,165729,5,0,0:0:0:0:
204,152,165901,1,0,0:0:0:0:
136,212,166074,1,8,0:0:0:0:
56,168,166246,1,0,0:0:0:0:
80,80,166419,1,0,0:0:0:0:
168,68,166591,2,0,P|240:80|272:84,2,75,0|8|0,0:0|0:0|0:0,0:0:0:0:
136,152,167108,6,0,L|300:180,1,150,0|8,0:0|0:0,0:0:0:0:
316,92,167625,1,0,0:0:0:0:
344,8,167798,1,0,0:0:0:0:
256,24,167970,2,0,P|217:23|180:20,2,75,0|8|0,0:0|0:0|0:0,0:0:0:0:
316,92,168488,6,0,P|392:84|480:88,1,150,0|8,0:0|0:0,0:0:0:0:
436,172,169005,1,0,0:0:0:0:
368,232,169177,2,0,P|304:264|280:272,1,75
211,265,169522,2,0,P|176:250|144:232,1,75,8|0,0:0|0:0,0:0:0:0:
124,144,169867,6,0,P|64:192|64:272,1,150,0|8,0:0|0:0,0:0:0:0:
56,352,170384,1,0,0:0:0:0:
136,312,170556,2,0,L|216:308,1,75
292,344,170901,2,0,L|372:340,1,75,8|0,0:0|0:0,0:0:0:0:
456,360,171246,6,0,L|488:204,1,150,0|8,0:0|0:0,0:0:0:0:
452,128,171763,2,0,P|392:160|308:140,1,150
304,56,172281,2,0,L|248:48,3,37.5,8|0|0|0,0:0|0:0|0:0|0:0,0:0:0:0:
304,56,172625,6,0,P|364:24|448:44,1,150,0|8,0:0|0:0,0:0:0:0:
452,128,173143,1,0,0:0:0:0:
388,192,173315,2,0,P|312:184|280:176,1,75
232,148,173660,1,8,0:0:0:0:
192,228,173832,1,0,0:0:0:0:
112,188,174005,6,0,P|96:112|112:20,1,150,0|8,0:0|0:0,0:0:0:0:
192,68,174522,1,0,0:0:0:0:
196,156,174694,1,0,0:0:0:0:
112,188,174867,2,0,P|48:184|16:184,2,75,0|8|0,0:0|0:0|0:0,0:0:0:0:
182,243,175384,6,0,P|255:259|328:244,1,150,0|8,0:0|0:0,0:0:0:0:
416,256,175901,1,0,0:0:0:0:
360,328,176074,1,0,0:0:0:0:
276,360,176246,1,0,0:0:0:0:
276,360,176419,2,0,P|224:356|168:344,1,75,8|0,0:0|0:0,0:0:0:0:
196,264,176763,5,0,0:0:0:0:
196,264,176936,1,0,0:0:0:0:
116,224,177108,1,8,0:0:0:0:
116,224,177281,1,0,0:0:0:0:
120,312,177453,5,0,0:0:0:0:
120,312,177625,1,0,0:0:0:0:
201,352,177798,1,8,0:0:0:0:
201,352,177970,1,0,0:0:0:0:
280,304,178143,5,4,0:0:0:0:
256,192,200212,12,0,209867,2:0:0:0:
440,224,210729,5,0,0:0:0:0:
464,312,210901,1,2,0:0:0:0:
376,288,211074,1,0,0:0:0:0:
352,200,211246,2,0,P|292:208|224:212,1,112.5,0|2,1:0|0:0,0:0:0:0:
120,84,212108,5,0,0:0:0:0:
40,40,212281,1,2,0:0:0:0:
40,128,212453,1,0,0:0:0:0:
116,176,212625,2,0,P|108:256|100:304,1,112.5,0|2,1:0|0:0,0:0:0:0:
396,176,213488,5,0,0:0:0:0:
320,224,213660,1,2,0:0:0:0:
400,268,213832,1,0,0:0:0:0:
480,224,214005,2,0,P|484:144|452:100,1,112.5,0|2,1:0|0:0,0:0:0:0:
216,308,214867,5,0,0:0:0:0:
184,224,215039,1,2,0:0:0:0:
100,256,215212,1,0,0:0:0:0:
132,340,215384,2,0,P|212:352|300:360,1,150,0|2,1:0|0:0,0:0:0:0:
348,300,215901,2,0,P|340:252|328:140,1,150
324,60,216419,1,2,0:0:0:0:
404,104,216591,1,0,0:0:0:0:
412,192,216763,6,0,P|336:232|268:228,1,150,0|0,1:0|1:0,0:0:0:0:
100,192,217453,2,0,P|176:152|244:156,1,150,0|0,1:0|1:0,0:0:0:0:
256,336,218143,5,0,1:0:0:0:
364,192,218488,1,0,1:0:0:0:
256,48,218832,1,0,1:0:0:0:
148,192,219177,1,0,1:0:0:0:
256,192,219522,12,0,221591,1:0:0:0:
416,80,222108,5,0,0:0:0:0:
416,80,222281,2,0,P|368:76|316:68,1,75,4|0,0:0|0:0,0:0:0:0:
268,124,222625,1,8,0:0:0:0:
312,200,222798,2,0,L|300:256,2,37.5,0|0|0,0:0|0:0|0:0,0:0:0:0:
392,160,223143,1,0,0:0:0:0:
448,228,223315,2,0,P|452:300|452:332,1,75,8|0,0:0|0:0,0:0:0:0:
388,364,223660,5,0,0:0:0:0:
308,320,223832,1,0,0:0:0:0:
324,232,224005,1,8,0:0:0:0:
240,260,224177,1,0,0:0:0:0:
220,348,224350,1,0,0:0:0:0:
308,320,224522,2,0,P|349:324|392:328,2,75,0|8|0,0:0|0:0|0:0,0:0:0:0:
240,260,225039,5,0,0:0:0:0:
260,172,225212,2,0,L|272:104,2,37.5,0|0|8,0:0|0:0|0:0,0:0:0:0:
172,196,225556,1,0,0:0:0:0:
148,284,225729,2,0,P|88:292|48:296,1,75
24,220,226074,2,0,P|47:164|63:127,1,75,8|0,0:0|0:0,0:0:0:0:
88,68,226419,5,0,0:0:0:0:
88,68,226591,1,0,0:0:0:0:
176,88,226763,1,8,0:0:0:0:
176,88,226936,1,0,0:0:0:0:
196,176,227108,2,0,P|248:172|280:168,1,75
344,220,227453,2,0,L|392:228,3,37.5,8|0|0|0,0:0|0:0|0:0|0:0,0:0:0:0:
344,219,227798,6,0,P|358:185|358:148,1,75
312,68,228143,2,0,L|224:52,1,75,8|0,0:0|0:0,0:0:0:0:
168,108,228488,2,0,P|148:180|172:256,1,150,0|8,0:0|0:0,0:0:0:0:
344,276,229177,2,0,P|364:204|340:128,1,150,0|8,0:0|0:0,0:0:0:0:
284,68,229694,1,0,0:0:0:0:
196,60,229867,2,0,L|100:52,1,75
60,120,230212,2,0,L|53:194,1,75,8|0,0:0|0:0,0:0:0:0:
124,252,230556,5,0,0:0:0:0:
204,208,230729,1,0,0:0:0:0:
256,280,230901,1,8,0:0:0:0:
308,208,231074,1,0,0:0:0:0:
388,252,231246,2,0,B|416:188|368:140|368:140|372:84,1,150,0|8,0:0|0:0,0:0:0:0:
380,24,231763,1,0,0:0:0:0:
296,60,231936,6,0,P|216:72|188:76,2,75,0|0|8,0:0|0:0|0:0,0:0:0:0:
284,148,232453,1,0,0:0:0:0:
196,164,232625,2,0,P|128:152|24:128,1,150,0|8,0:0|0:0,0:0:0:0:
8,216,233143,1,0,0:0:0:0:
92,248,233315,5,0,0:0:0:0:
104,336,233488,2,0,L|160:328,2,37.5,0|0|8,0:0|0:0|0:0,0:0:0:0:
16,308,233832,1,0,0:0:0:0:
92,248,234005,2,0,L|188:260,1,75
232,320,234350,2,0,L|306:310,1,75,8|0,0:0|0:0,0:0:0:0:
396,296,234694,6,0,P|400:216|400:192,1,75
336,156,235039,1,8,0:0:0:0:
320,68,235212,1,0,0:0:0:0:
388,8,235384,1,0,0:0:0:0:
408,96,235556,2,0,P|472:104|504:104,2,75,0|8|0,0:0|0:0|0:0,0:0:0:0:
320,68,236074,5,0,0:0:0:0:
252,128,236246,2,0,L|260:176,2,37.5,0|0|8,0:0|0:0|0:0,0:0:0:0:
172,84,236591,1,0,0:0:0:0:
108,148,236763,2,0,P|100:200|96:236,1,75
172,276,237108,1,8,0:0:0:0:
88,312,237281,1,0,0:0:0:0:
16,260,237453,5,0,0:0:0:0:
16,260,237625,1,0,0:0:0:0:
97,222,237798,1,8,0:0:0:0:
97,222,237970,1,0,0:0:0:0:
172,276,238143,2,0,P|192:340|200:376,1,75
256,280,238488,2,0,L|256:228,3,37.5,8|0|0|0,0:0|0:0|0:0|0:0,0:0:0:0:
256,280,238832,6,0,L|364:288,1,75
412,248,239177,1,8,0:0:0:0:
420,160,239350,1,0,0:0:0:0:
344,108,239522,2,0,L|194:96,1,150,0|8,0:0|0:0,0:0:0:0:
168,276,240212,2,0,L|317:287,1,150,0|8,0:0|0:0,0:0:0:0:
396,332,240729,1,0,0:0:0:0:
448,260,240901,2,0,L|432:168,1,75
360,136,241246,2,0,L|344:44,1,75,8|0,0:0|0:0,0:0:0:0:
412,0,241591,5,0,0:0:0:0:
488,48,241763,2,0,L|500:121,1,75,0|8,0:0|0:0,0:0:0:0:
435,186,242108,1,0,0:0:0:0:
360,136,242281,2,0,P|284:128|236:128,2,112.5,0|0|0,0:0|0:0|0:0,0:0:0:0:
352,224,242970,6,0,P|316:264|288:292,1,75
210,279,243315,2,0,P|184:252|160:224,1,75,8|0,0:0|0:0,0:0:0:0:
72,244,243660,1,0,0:0:0:0:
100,160,243832,1,0,0:0:0:0:
16,128,244005,1,8,0:0:0:0:
44,44,244177,1,0,0:0:0:0:
128,76,244350,6,0,P|192:68|300:48,1,150,4|8,0:0|0:0,0:0:0:0:
308,136,244867,1,0,0:0:0:0:
396,112,245039,2,0,P|408:48|412:12,1,75
496,12,245384,1,8,0:0:0:0:
512,100,245556,1,0,0:0:0:0:
463,176,245729,6,0,P|391:195|317:192,1,150,0|8,0:0|0:0,0:0:0:0:
256,260,246246,1,0,0:0:0:0:
194,192,246419,1,0,0:0:0:0:
256,124,246591,2,0,L|256:28,2,75,0|8|0,0:0|0:0|0:0,0:0:0:0:
194,192,247108,6,0,P|120:195|48:176,1,150,0|8,0:0|0:0,0:0:0:0:
48,176,247625,1,0,0:0:0:0:
0,252,247798,1,0,0:0:0:0:
28,336,247970,1,0,0:0:0:0:
28,336,248143,2,0,P|88:336|136:332,1,75,8|0,0:0|0:0,0:0:0:0:
168,272,248488,6,0,P|336:288|348:292,1,150,0|8,0:0|0:0,0:0:0:0:
364,360,249005,2,0,P|400:324|376:216,1,150
312,188,249522,2,0,L|244:192,3,37.5,8|0|0|0,0:0|0:0|0:0|0:0,0:0:0:0:
312,188,249867,6,0,P|295:117|339:59,1,150,0|8,0:0|0:0,0:0:0:0:
428,56,250384,1,0,0:0:0:0:
460,140,250556,1,0,0:0:0:0:
400,208,250729,1,0,0:0:0:0:
312,188,250901,2,0,L|208:196,1,75,8|0,0:0|0:0,0:0:0:0:
176,260,251246,6,0,L|16:244,1,150,0|8,0:0|0:0,0:0:0:0:
4,156,251763,1,0,0:0:0:0:
92,180,251936,1,0,0:0:0:0:
28,244,252108,2,0,L|16:348,2,75,0|8|0,0:0|0:0|0:0,0:0:0:0:
92,180,252625,6,0,P|168:176|256:156,1,150,0|8,0:0|0:0,0:0:0:0:
308,220,253143,1,0,0:0:0:0:
224,252,253315,1,0,0:0:0:0:
292,312,253488,1,0,0:0:0:0:
208,340,253660,2,0,P|144:352|112:356,1,75,8|0,0:0|0:0,0:0:0:0:
44,364,254005,5,0,0:0:0:0:
44,364,254177,1,0,0:0:0:0:
80,280,254350,1,8,0:0:0:0:
80,280,254522,1,0,0:0:0:0:
164,248,254694,5,0,0:0:0:0:
164,248,254867,1,0,0:0:0:0:
128,164,255039,1,8,0:0:0:0:
128,164,255212,1,0,0:0:0:0:
44,196,255384,5,0,0:0:0:0:
80,280,255556,2,0,L|72:332,2,37.5,0|0|8,0:0|0:0|0:0,0:0:0:0:
164,248,255901,2,0,L|332:240,1,150
400,272,256419,2,0,P|424:216|432:176,1,75,8|0,0:0|0:0,0:0:0:0:
500,152,256763,6,0,P|488:116|472:82,1,75,0|0,0:0|0:0,0:0:0:0:
384,68,257108,1,8,0:0:0:0:
295,53,257281,1,0,0:0:0:0:
256,132,257453,1,0,0:0:0:0:
167,147,257625,2,0,P|96:156|60:156,2,75,0|8|0,0:0|0:0|0:0,0:0:0:0:
224,220,258143,5,0,0:0:0:0:
148,268,258315,2,0,L|136:336,2,37.5,0|0|8,0:0|0:0|0:0,0:0:0:0:
60,244,258660,1,0,0:0:0:0:
20,164,258832,2,0,P|12:112|12:72,1,75
84,36,259177,2,0,P|92:88|92:128,1,75,8|0,0:0|0:0,0:0:0:0:
20,164,259522,5,0,0:0:0:0:
60,244,259694,1,0,0:0:0:0:
132,192,259867,1,8,0:0:0:0:
216,228,260039,2,0,P|208:288|204:316,1,75
256,376,260384,1,0,0:0:0:0:
306,302,260556,2,0,L|368:300,3,37.5,8|0|0|0,0:0|0:0|0:0|0:0,0:0:0:0:
306,302,260901,6,0,P|300:265|296:228,1,75
364,168,261246,1,8,0:0:0:0:
364,168,261419,1,0,0:0:0:0:
444,212,261591,2,0,L|449:249|454:286,1,75
386,346,261936,1,8,0:0:0:0:
386,346,262108,1,0,0:0:0:0:
306,302,262281,6,0,L|232:296,1,75
204,208,262625,2,0,L|278:201,1,75,8|0,0:0|0:0,0:0:0:0:
364,232,262970,2,0,L|438:226,1,75
466,138,263315,2,0,L|392:131,1,75,8|0,0:0|0:0,0:0:0:0:
356,48,263660,5,0,0:0:0:0:
302,122,263832,1,0,0:0:0:0:
212,112,264005,2,0,P|200:48|200:20,2,75,8|0|0,0:0|0:0|0:0,0:0:0:0:
256,192,264522,1,0,0:0:0:0:
300,272,264694,1,8,0:0:0:0:
256,352,264867,1,0,0:0:0:0:
212,272,265039,5,0,0:0:0:0:
388,316,265384,1,8,0:0:0:0:
432,140,265729,1,0,0:0:0:0:
256,96,266074,1,12,0:0:0:0:
256,96,266419,6,0,B|280:168|232:168|256:244,2,150,0|2|0,0:0|0:0|0:0,0:0:0:0:
184,40,267281,1,0,0:0:0:0:
128,112,267453,2,0,L|64:104|32:100,1,75,2|0,0:0|0:0,0:0:0:0:
0,176,267798,6,0,L|25:235|37:265,1,75,0|0,0:0|0:0,0:0:0:0:
120,256,268143,2,0,L|158:204|178:178,1,75,2|0,0:0|0:0,0:0:0:0:
256,208,268488,1,0,0:0:0:0:
346,196,268660,2,0,P|408:192|444:184,2,75,0|2|0,0:0|0:0|0:0,0:0:0:0:
308,280,269177,5,0,0:0:0:0:
308,280,269350,1,0,0:0:0:0:
364,348,269522,1,8,0:0:0:0:
364,348,269694,1,0,0:0:0:0:
404,268,269867,2,0,P|396:196|388:160,1,75
324,140,270212,2,0,P|252:148|216:156,1,75,8|0,0:0|0:0,0:0:0:0:
172,196,270556,5,0,0:0:0:0:
108,132,270729,1,0,0:0:0:0:
140,49,270901,2,0,P|175:36|212:28,1,75,8|0,0:0|0:0,0:0:0:0:
264,104,271246,2,0,P|312:120|352:128,1,75
424,112,271591,2,0,L|432:68,3,37.5,8|0|0|0,0:0|0:0|0:0|0:0,0:0:0:0:
424,112,271936,6,0,L|444:208,1,75,2|0,0:0|0:0,0:0:0:0:
439,185,272194,2,0,L|416:296,1,112.5,2|0,0:0|0:0,0:0:0:0:
340,344,272625,2,0,P|280:344|244:328,1,75,2|0,0:0|0:0,0:0:0:0:
266,339,272884,2,0,P|206:339|144:364,1,112.5,2|0,0:0|0:0,0:0:0:0:
88,300,273315,6,0,L|72:220,1,75,2|0,0:0|0:0,0:0:0:0:
73,226,273574,2,0,L|195:199,1,112.5,2|0,0:0|0:0,0:0:0:0:
204,116,274005,2,0,P|160:56|80:60,1,150,2|8,0:0|0:0,0:0:0:0:
28,120,274522,1,0,0:0:0:0:
68,200,274694,6,0,P|108:216|152:216,1,75,2|0,0:0|0:0,0:0:0:0:
139,217,274953,2,0,P|192:196|252:200,1,112.5,2|0,0:0|0:0,0:0:0:0:
208,280,275384,2,0,L|308:300,1,75,2|0,0:0|0:0,0:0:0:0:
281,294,275643,2,0,L|396:272,1,112.5,2|0,0:0|0:0,0:0:0:0:
476,300,276074,5,2,0:0:0:0:
476,300,276246,1,0,0:0:0:0:
456,212,276419,1,8,0:0:0:0:
456,212,276591,1,0,0:0:0:0:
372,184,276763,1,2,0:0:0:0:
392,96,276936,2,0,L|484:88,2,75,0|8|0,0:0|0:0|0:0,0:0:0:0:
304,124,277453,6,0,P|227:117|148:104,1,150,0|8,0:0|0:0,0:0:0:0:
144,16,277970,1,0,0:0:0:0:
72,72,278143,1,0,0:0:0:0:
84,160,278315,2,0,P|32:168|-4:172,2,75,0|8|0,0:0|0:0|0:0,0:0:0:0:
168,196,278832,6,0,P|148:264|132:348,1,150,0|8,0:0|0:0,0:0:0:0:
132,341,279350,1,0,0:0:0:0:
220,316,279522,2,0,P|288:308|320:308,1,75
384,312,279867,2,0,P|421:314|458:320,1,75,8|0,0:0|0:0,0:0:0:0:
492,236,280212,6,0,P|480:164|476:72,1,150,0|8,0:0|0:0,0:0:0:0:
404,32,280729,1,0,0:0:0:0:
388,120,280901,1,0,0:0:0:0:
304,152,281074,2,0,P|232:144|200:140,2,75,0|8|0,0:0|0:0|0:0,0:0:0:0:
372,212,281591,6,0,P|364:280|296:328,1,150,0|8,0:0|0:0,0:0:0:0:
209,326,282108,2,0,P|150:284|140:212,1,150,0|0,0:0|0:0,0:0:0:0:
228,236,282625,2,0,L|292:228,3,37.5,8|0|0|0,0:0|0:0|0:0|0:0,0:0:0:0:
228,236,282970,6,0,P|242:155|240:72,1,150,0|8,0:0|0:0,0:0:0:0:
156,116,283488,1,0,0:0:0:0:
120,32,283660,1,0,0:0:0:0:
32,56,283832,1,0,0:0:0:0:
68,140,284005,2,0,P|64:204|56:236,1,75,8|0,0:0|0:0,0:0:0:0:
12,292,284350,6,0,P|92:300|148:248,1,150,0|8,0:0|0:0,0:0:0:0:
168,172,284867,1,0,0:0:0:0:
256,192,285039,1,0,0:0:0:0:
232,280,285212,2,0,P|296:268|336:260,2,75,0|8|0,0:0|0:0|0:0,0:0:0:0:
142,258,285729,6,0,P|112:192|144:124,1,150,0|8,0:0|0:0,0:0:0:0:
232,104,286246,1,0,0:0:0:0:
168,40,286419,1,0,0:0:0:0:
80,60,286591,2,0,P|16:68|0:68,2,75,0|8|0,0:0|0:0|0:0,0:0:0:0:
168,40,287108,5,0,0:0:0:0:
168,40,287281,1,0,0:0:0:0:
232,104,287453,1,8,0:0:0:0:
232,104,287625,1,0,0:0:0:0:
200,188,287798,5,0,0:0:0:0:
200,188,287970,1,0,0:0:0:0:
264,252,288143,1,8,0:0:0:0:
264,252,288315,1,0,0:0:0:0:
296,168,288488,6,0,P|352:228|332:312,1,150,4|8,0:0|0:0,0:0:0:0:
264,252,289005,1,0,0:0:0:0:
232,336,289177,2,0,P|176:276|196:192,1,150,0|8,0:0|0:0,0:0:0:0:
264,252,289694,2,0,L|280:200,2,37.5,0|0|0,0:0|0:0|0:0,0:0:0:0:
324,320,290039,5,0,0:0:0:0:
400,272,290212,1,8,0:0:0:0:
460,340,290384,1,0,0:0:0:0:
492,256,290556,2,0,P|484:168|468:96,1,150,0|8,0:0|0:0,0:0:0:0:
380,124,291074,2,0,L|340:120,2,37.5,0|0|0,0:0|0:0|0:0,0:0:0:0:
412,40,291419,5,0,0:0:0:0:
472,108,291591,1,8,0:0:0:0:
440,192,291763,1,0,0:0:0:0:
352,212,291936,2,0,P|280:200|176:172,1,150,0|8,0:0|0:0,0:0:0:0:
120,208,292453,1,0,0:0:0:0:
140,120,292625,6,0,P|192:72|256:104,1,150,0|8,0:0|0:0,0:0:0:0:
256,192,293143,1,0,0:0:0:0:
256,281,293315,1,0,0:0:0:0:
344,304,293488,1,0,0:0:0:0:
392,228,293660,2,0,L|385:177,3,37.5,8|0|0|0,0:0|0:0|0:0|0:0,0:0:0:0:
392,228,294005,6,0,L|496:216,1,75
468,308,294350,1,8,0:0:0:0:
380,316,294522,1,0,0:0:0:0:
392,228,294694,2,0,P|396:168|392:112,2,112.5,0|0|0,0:0|0:0|0:0,0:0:0:0:
308,260,295384,6,0,P|270:265|233:267,1,75
144,252,295729,2,0,L|132:200,2,37.5,8|0|0,0:0|0:0|0:0,0:0:0:0:
234,268,296074,2,0,P|238:328|234:384,2,112.5,0|0|0,0:0|0:0|0:0,0:0:0:0:
204,184,296763,6,0,P|208:144|216:104,1,75
296,68,297108,1,8,0:0:0:0:
292,160,297281,1,0,0:0:0:0:
204,184,297453,2,0,P|116:188|72:184,2,112.5,0|0|0,0:0|0:0|0:0,0:0:0:0:
292,160,298143,5,0,0:0:0:0:
356,220,298315,1,0,0:0:0:0:
332,308,298488,1,8,0:0:0:0:
244,336,298660,1,0,0:0:0:0:
180,272,298832,1,0,0:0:0:0:
204,184,299005,2,0,P|208:136|204:84,2,75,0|8|0,0:0|0:0|0:0,0:0:0:0:
116,208,299522,6,0,P|96:136|132:64,1,150,0|8,0:0|0:0,0:0:0:0:
200,20,300039,1,0,0:0:0:0:
280,64,300212,2,0,P|288:108|292:148,1,75
232,204,300556,2,0,P|260:220|304:228,1,75,8|0,0:0|0:0,0:0:0:0:
372,172,300901,6,0,P|400:244|352:308,1,150,0|8,0:0|0:0,0:0:0:0:
284,344,301419,1,0,0:0:0:0:
216,284,301591,1,0,0:0:0:0:
136,328,301763,2,0,P|68:336|36:336,2,75,0|8|0,0:0|0:0|0:0,0:0:0:0:
216,284,302281,6,0,P|192:216|168:120,1,150,0|8,0:0|0:0,0:0:0:0:
252,96,302798,1,0,0:0:0:0:
172,52,302970,1,0,0:0:0:0:
92,96,303143,1,0,0:0:0:0:
92,96,303315,2,0,P|80:168|80:192,1,75,8|0,0:0|0:0,0:0:0:0:
104,256,303660,6,0,P|176:272|240:232,1,150,0|8,0:0|0:0,0:0:0:0:
273,149,304177,2,0,P|336:111|408:128,1,150,0|0,0:0|0:0,0:0:0:0:
464,200,304694,2,0,L|508:204,3,37.5,8|0|0|0,0:0|0:0|0:0|0:0,0:0:0:0:
464,200,305039,6,0,P|465:273|415:327,1,150,0|8,0:0|0:0,0:0:0:0:
384,240,305556,1,0,0:0:0:0:
328,312,305729,1,0,0:0:0:0:
296,224,305901,1,0,0:0:0:0:
240,296,306074,2,0,P|160:304|148:304,1,75,8|0,0:0|0:0,0:0:0:0:
88,352,306419,6,0,P|80:276|124:220,1,150,0|8,0:0|0:0,0:0:0:0:
212,212,306936,1,0,0:0:0:0:
164,136,307108,1,0,0:0:0:0:
76,144,307281,2,0,P|64:84|60:48,2,75,0|8|0,0:0|0:0|0:0,0:0:0:0:
122,220,307798,6,0,P|224:236|308:240,1,150,0|8,0:0|0:0,0:0:0:0:
340,180,308315,1,0,0:0:0:0:
356,268,308488,1,0,0:0:0:0:
428,212,308660,1,0,0:0:0:0:
428,212,308832,2,0,P|436:160|440:120,1,75,8|0,0:0|0:0,0:0:0:0:
376,72,309177,5,0,0:0:0:0:
376,72,309350,1,0,0:0:0:0:
301,122,309522,1,8,0:0:0:0:
301,122,309694,1,0,0:0:0:0:
211,122,309867,5,0,0:0:0:0:
211,122,310039,1,0,0:0:0:0:
136,72,310212,1,8,0:0:0:0:
136,72,310384,1,0,0:0:0:0:
72,136,310556,5,4,0:0:0:0:
