osu file format v14

[General]
AudioFilename: Nero vs After School - Sound In Motion vs AH (Fauxami Mashup) UPDATED.mp3
AudioLeadIn: 0
PreviewTime: 89813
Countdown: 1
SampleSet: Normal
StackLeniency: 0.7
Mode: 0
LetterboxInBreaks: 1
WidescreenStoryboard: 0

[Editor]
DistanceSpacing: 2
BeatDivisor: 4
GridSize: 4
TimelineZoom: 0.8

[Metadata]
Title:Sound In Motion vs. AH
TitleUnicode:Sound In Motion vs. AH
Artist:Nero vs. After School
ArtistUnicode:Nero vs. 애프터스쿨
Creator:galvenize
Version:Extra
Source:
Tags:fauxami mashup remix korean electronic drum and & bass dnb ryuu kyubey exote frey
BeatmapID:544136
BeatmapSetID:234646

[Difficulty]
HPDrainRate:7
CircleSize:4
OverallDifficulty:9
ApproachRate:9.3
SliderMultiplier:2.2
SliderTickRate:1

[Events]
//Background and Video events
0,0,"bg1.jpg",0,0
//Break Periods
2,178170,199658
//Storyboard Layer 0 (Background)
//Storyboard Layer 1 (Fail)
//Storyboard Layer 2 (Pass)
//Storyboard Layer 3 (Foreground)
//Storyboard Layer 4 (Overlay)
//Storyboard Sound Samples

[TimingPoints]
89867,344.827586206897,4,1,0,70,1,0
134037,-200,4,1,0,65,0,0
134296,-200,4,2,0,65,0,0
136623,-100,4,1,0,65,0,0
200211,-100,4,2,0,5,0,0
209037,-200,4,2,0,5,0,0
209867,-200,4,2,0,35,0,0
210589,-200,4,2,0,65,0,0
222140,-100,4,1,0,65,0,0
266278,-200,4,2,0,65,0,0
269037,-100,4,1,0,65,0,0

[Colours]
Combo1 : 169,52,87
Combo2 : 211,44,48

[HitObjects]
148,200,89694,5,0,0:0:0:0:
148,200,89867,2,0,P|88:216|24:204,1,110,4|0,0:0|0:0,0:0:0:0:
364,184,90212,2,0,P|424:168|488:180,1,110,8|0,0:0|0:0,0:0:0:0:
476,188,90470,1,0,0:0:0:0:
480,204,90556,1,0,0:0:0:0:
420,296,90729,1,0,0:0:0:0:
264,140,90901,1,8,0:0:0:0:
364,184,91074,1,0,0:0:0:0:
172,288,91246,5,0,0:0:0:0:
120,72,91419,1,0,0:0:0:0:
44,276,91591,1,8,0:0:0:0:
364,184,91763,1,0,0:0:0:0:
24,148,91936,1,0,0:0:0:0:
384,44,92108,2,0,L|496:40,2,110,0|8|0,0:0|0:0|0:0,0:0:0:0:
192,164,92625,5,4,0:0:0:0:
328,340,92798,1,0,0:0:0:0:
328,340,92884,1,0,0:0:0:0:
328,340,92970,1,8,0:0:0:0:
420,276,93143,1,0,0:0:0:0:
208,336,93315,1,0,0:0:0:0:
284,128,93488,1,0,0:0:0:0:
288,240,93660,1,8,0:0:0:0:
196,40,93832,1,0,0:0:0:0:
24,292,94005,5,0,0:0:0:0:
220,196,94177,1,0,0:0:0:0:
132,128,94350,1,8,0:0:0:0:
208,336,94522,1,0,0:0:0:0:
384,208,94694,1,0,0:0:0:0:
196,40,94867,2,0,P|140:32|76:36,1,110,0|8,0:0|0:0,0:0:0:0:
76,48,95125,1,0,0:0:0:0:
64,60,95212,1,0,0:0:0:0:
52,72,95298,1,0,0:0:0:0:
40,84,95384,6,0,L|48:212,1,110,4|0,0:0|0:0,0:0:0:0:
208,336,95729,1,8,0:0:0:0:
212,316,95901,1,0,0:0:0:0:
216,296,96074,2,0,L|368:288,1,110
460,32,96419,2,0,L|308:40,1,110,8|0,0:0|0:0,0:0:0:0:
152,48,96763,5,0,0:0:0:0:
448,164,96936,2,0,L|464:284,1,110,0|8,0:0|0:0,0:0:0:0:
104,296,97281,1,0,0:0:0:0:
216,296,97453,2,0,L|200:176,1,110
460,32,97798,2,0,L|476:152,1,110,8|0,0:0|0:0,0:0:0:0:
492,248,98143,1,0,0:0:0:0:
256,192,98315,5,0,0:0:0:0:
256,192,98488,1,8,0:0:0:0:
364,172,98660,1,0,0:0:0:0:
188,40,98832,1,0,0:0:0:0:
92,240,99005,1,0,0:0:0:0:
144,144,99177,1,8,0:0:0:0:
144,144,99350,1,0,0:0:0:0:
236,344,99522,5,0,0:0:0:0:
276,40,99694,1,0,0:0:0:0:
20,156,99867,1,8,0:0:0:0:
492,228,100039,1,0,0:0:0:0:
256,192,100212,1,0,0:0:0:0:
256,192,100556,1,8,0:0:0:0:
256,192,100901,6,0,P|204:208|144:200,1,110,4|0,0:0|0:0,0:0:0:0:
136,192,101160,1,0,0:0:0:0:
124,180,101246,1,8,0:0:0:0:
332,108,101419,1,0,0:0:0:0:
440,296,101591,1,0,0:0:0:0:
476,192,101763,1,0,0:0:0:0:
328,360,101936,1,8,0:0:0:0:
196,60,102108,1,0,0:0:0:0:
112,336,102281,5,0,0:0:0:0:
216,304,102453,1,0,0:0:0:0:
112,336,102625,1,8,0:0:0:0:
96,112,102798,1,0,0:0:0:0:
112,336,102970,1,0,0:0:0:0:
216,184,103143,2,0,L|336:184,2,110,0|8|0,0:0|0:0|0:0,0:0:0:0:
84,196,103660,5,4,0:0:0:0:
332,60,103832,1,0,0:0:0:0:
332,60,103919,1,0,0:0:0:0:
332,60,104005,1,8,0:0:0:0:
272,152,104177,1,0,0:0:0:0:
224,52,104350,1,0,0:0:0:0:
440,92,104522,1,0,0:0:0:0:
84,196,104694,1,8,0:0:0:0:
176,132,104867,1,0,0:0:0:0:
76,88,105039,5,0,0:0:0:0:
316,240,105212,1,0,0:0:0:0:
332,60,105384,1,8,0:0:0:0:
200,352,105556,1,0,0:0:0:0:
76,88,105729,1,0,0:0:0:0:
436,196,105901,1,0,0:0:0:0:
432,212,105988,1,0,0:0:0:0:
428,228,106074,1,8,0:0:0:0:
424,244,106160,1,0,0:0:0:0:
420,260,106246,1,0,0:0:0:0:
416,276,106332,1,0,0:0:0:0:
412,292,106419,6,0,P|364:328|312:328,1,110,4|0,0:0|0:0,0:0:0:0:
236,256,106763,1,8,0:0:0:0:
216,36,106936,1,0,0:0:0:0:
180,140,107108,2,0,P|136:172|80:192,1,110
336,356,107453,2,0,P|320:284|328:212,1,110,8|0,0:0|0:0,0:0:0:0:
332,140,107798,5,0,0:0:0:0:
144,332,107970,1,0,0:0:0:0:
144,332,108143,2,0,P|88:352|24:352,1,110,8|0,0:0|0:0,0:0:0:0:
80,32,108488,2,0,P|148:72|184:108,1,110
336,356,108832,2,0,P|340:292|360:232,1,110,8|0,0:0|0:0,0:0:0:0:
384,144,109177,5,0,0:0:0:0:
272,148,109350,1,0,0:0:0:0:
56,200,109522,1,8,0:0:0:0:
128,116,109694,1,0,0:0:0:0:
180,360,109867,2,0,P|240:368|340:336,2,165,0|0|0,0:0|0:0|0:0,0:0:0:0:
128,264,110556,5,2,0:2:0:0:
452,352,110729,1,2,0:2:0:0:
360,48,110901,1,10,0:2:0:0:
340,320,111074,1,2,0:2:0:0:
48,36,111246,1,2,0:2:0:0:
48,36,111591,1,8,0:0:0:0:
48,36,111936,5,4,0:0:0:0:
260,188,112108,1,0,0:0:0:0:
204,92,112281,1,8,0:0:0:0:
92,288,112453,1,0,0:0:0:0:
92,288,112539,1,0,0:0:0:0:
92,288,112625,1,0,0:0:0:0:
200,304,112798,1,0,0:0:0:0:
72,160,112970,1,8,0:0:0:0:
336,52,113143,1,0,0:0:0:0:
300,348,113315,5,0,0:0:0:0:
164,204,113488,1,0,0:0:0:0:
480,268,113660,1,8,0:0:0:0:
392,200,113832,1,0,0:0:0:0:
392,200,113919,1,0,0:0:0:0:
392,200,114005,1,0,0:0:0:0:
396,308,114177,1,0,0:0:0:0:
476,156,114350,1,8,0:0:0:0:
480,360,114522,1,0,0:0:0:0:
336,52,114694,5,0,0:0:0:0:
48,200,114867,1,0,0:0:0:0:
192,320,115039,1,8,0:0:0:0:
116,36,115212,1,0,0:0:0:0:
116,36,115298,1,0,0:0:0:0:
116,36,115384,1,0,0:0:0:0:
328,188,115556,1,0,0:0:0:0:
220,160,115729,1,8,0:0:0:0:
420,100,115901,1,0,0:0:0:0:
192,320,116074,6,0,P|136:320|52:232,1,165,2|0,0:2|0:0,0:0:0:0:
220,160,116419,2,0,L|236:220,1,55,2|0,0:2|0:0,0:0:0:0:
320,348,116591,2,0,P|308:264|332:180,1,165,2|0,0:2|0:0,0:0:0:0:
356,140,116936,1,0,0:0:0:0:
92,40,117108,1,8,0:0:0:0:
88,56,117194,1,0,0:0:0:0:
84,72,117281,1,0,0:0:0:0:
80,88,117367,1,0,0:0:0:0:
76,104,117453,5,4,0:0:0:0:
216,272,117625,1,0,0:0:0:0:
224,36,117798,1,8,0:0:0:0:
84,328,117970,1,0,0:0:0:0:
84,328,118056,1,0,0:0:0:0:
84,328,118143,2,0,L|64:208,1,110
428,56,118488,2,0,L|448:176,1,110,8|0,0:0|0:0,0:0:0:0:
412,256,118832,5,0,0:0:0:0:
228,132,119005,1,0,0:0:0:0:
428,56,119177,1,8,0:0:0:0:
240,336,119350,1,0,0:0:0:0:
240,336,119436,1,0,0:0:0:0:
240,336,119522,1,0,0:0:0:0:
144,284,119694,1,0,0:0:0:0:
216,64,119867,1,8,0:0:0:0:
40,108,120039,1,0,0:0:0:0:
104,192,120212,6,0,L|232:200,1,110,4|0,0:0|0:0,0:0:0:0:
452,136,120556,2,0,L|324:128,1,110,8|0,0:0|0:0,0:0:0:0:
342,129,120815,1,0,0:0:0:0:
342,129,120901,1,0,0:0:0:0:
356,328,121074,1,0,0:0:0:0:
452,136,121246,1,8,0:0:0:0:
200,224,121419,1,0,0:0:0:0:
456,352,121591,6,0,L|456:232,1,110
56,32,121936,2,0,L|56:152,1,110,8|0,0:0|0:0,0:0:0:0:
500,304,122281,2,0,L|492:188,1,110
88,252,122625,1,8,0:0:0:0:
88,252,122798,1,8,0:0:0:0:
288,332,122970,6,0,L|404:312,2,110,4|0|8,0:0|0:0|0:0,0:0:0:0:
288,332,123488,1,0,0:0:0:0:
288,332,123832,5,0,0:0:0:0:
160,60,124005,1,8,0:0:0:0:
76,128,124177,1,0,0:0:0:0:
412,76,124350,1,0,0:0:0:0:
248,256,124522,1,0,0:0:0:0:
184,168,124694,1,8,0:0:0:0:
460,252,124867,1,0,0:0:0:0:
32,332,125039,1,0,0:0:0:0:
184,168,125212,2,0,L|160:40,2,110,0|8|0,0:0|0:0|0:0,0:0:0:0:
124,260,125729,5,0,0:0:0:0:
316,344,125901,1,0,0:0:0:0:
316,344,125988,1,0,0:0:0:0:
316,344,126074,1,8,0:0:0:0:
304,124,126246,1,0,0:0:0:0:
208,324,126419,1,0,0:0:0:0:
116,124,126591,1,0,0:0:0:0:
464,40,126763,1,8,0:0:0:0:
424,256,126936,1,0,0:0:0:0:
424,256,127022,1,0,0:0:0:0:
424,256,127108,5,0,0:0:0:0:
208,216,127281,1,0,0:0:0:0:
0,292,127453,1,8,0:0:0:0:
376,216,127625,1,0,0:0:0:0:
32,248,127798,2,0,P|12:192|12:116,1,110
320,40,128143,1,0,0:0:0:0:
316,56,128229,1,0,0:0:0:0:
316,72,128315,1,0,0:0:0:0:
312,88,128401,1,0,0:0:0:0:
312,104,128488,6,0,P|256:128|168:84,1,165,2|0,0:2|0:0,0:0:0:0:
104,8,128832,2,0,L|72:136,1,110,10|0,0:2|0:0,0:0:0:0:
132,328,129177,1,2,0:2:0:0:
344,264,129350,1,2,0:2:0:0:
344,264,129436,2,0,P|356:208|452:160,1,165,2|2,0:2|0:2,0:0:0:0:
340,352,129867,5,2,0:2:0:0:
168,216,130039,1,2,0:2:0:0:
332,68,130212,1,2,0:2:0:0:
252,272,130384,1,2,0:2:0:0:
464,216,130556,2,0,P|464:144|412:100,1,110,2|0,0:2|0:0,0:0:0:0:
360,188,130815,2,0,P|272:208|200:172,1,165,2|2,0:2|0:2,0:0:0:0:
206,178,131246,6,0,P|152:216|88:216,1,110
120,32,131591,2,0,P|192:56|232:92,1,110,8|0,0:0|0:0,0:0:0:0:
328,352,131936,2,0,P|288:308|216:296,1,110
292,88,132281,2,0,P|340:44|396:36,1,110,8|0,0:0|0:0,0:0:0:0:
256,192,132625,12,0,134005,0:0:0:0:
176,52,134350,6,0,P|124:64|72:104,1,110
60,164,134867,1,0,0:0:0:0:
108,216,135039,1,0,0:0:0:0:
172,188,135212,1,0,0:0:0:0:
236,220,135384,5,2,0:2:0:0:
232,144,135556,1,2,0:2:0:0:
304,252,135729,1,2,0:2:0:0:
240,292,135901,1,2,0:2:0:0:
296,176,136074,1,2,0:2:0:0:
172,260,136246,2,0,L|132:308,2,55,0|0|0,0:0|0:0|0:0,0:0:0:0:
284,64,136763,5,4,0:0:0:0:
400,252,136936,1,0,0:0:0:0:
184,208,137108,1,8,0:0:0:0:
404,24,137281,1,0,0:0:0:0:
300,356,137453,1,0,0:0:0:0:
80,352,137625,1,0,0:0:0:0:
328,160,137798,1,8,0:0:0:0:
88,88,137970,1,0,0:0:0:0:
200,316,138143,5,0,0:0:0:0:
232,64,138315,1,0,0:0:0:0:
232,64,138401,1,0,0:0:0:0:
232,64,138488,1,8,0:0:0:0:
24,224,138660,2,0,P|88:248|148:224,1,110
328,160,139005,1,0,0:0:0:0:
336,180,139091,1,0,0:0:0:0:
344,200,139177,1,8,0:0:0:0:
352,220,139263,1,0,0:0:0:0:
360,240,139350,1,0,0:0:0:0:
368,260,139436,1,0,0:0:0:0:
376,280,139522,6,0,P|400:228|436:188,1,110,2|0,0:2|0:0,0:0:0:0:
456,176,139781,2,0,L|456:60,1,110,2|0,0:2|0:0,0:0:0:0:
440,52,140039,1,0,0:0:0:0:
136,104,140212,2,0,P|112:156|76:196,1,110,2|0,0:2|0:0,0:0:0:0:
56,208,140470,2,0,L|56:324,1,110,2|0,0:2|0:0,0:0:0:0:
72,332,140729,1,0,0:0:0:0:
297,274,140901,6,0,P|341:244|352:192,1,110,2|0,0:2|0:0,0:0:0:0:
159,191,141160,2,0,P|170:244|215:274,1,110,2|0,0:2|0:0,0:0:0:0:
256,192,141419,1,2,0:2:0:0:
256,192,141591,2,0,B|224:100|292:100|252:24,1,165,2|0,0:2|0:0,0:0:0:0:
236,24,141936,1,10,0:2:0:0:
340,136,142108,1,2,0:2:0:0:
160,192,142281,6,0,L|32:200,1,110,2|0,0:2|0:0,0:0:0:0:
0,280,142539,2,0,L|128:272,1,110,2|0,0:2|0:0,0:0:0:0:
109,273,142798,1,2,0:2:0:0:
352,192,142970,2,0,L|480:184,1,110,2|0,0:2|0:0,0:0:0:0:
512,104,143229,2,0,L|384:112,1,110,2|0,0:2|0:0,0:0:0:0:
403,111,143488,1,2,0:2:0:0:
404,300,143660,5,2,0:2:0:0:
108,84,143832,1,2,0:2:0:0:
404,84,144005,1,2,0:2:0:0:
108,300,144177,1,2,0:2:0:0:
320,200,144350,2,0,P|328:140|300:104,1,110,2|0,0:2|0:0,0:0:0:0:
192,184,144694,2,0,P|184:244|212:280,1,110,2|0,0:2|0:0,0:0:0:0:
416,300,145039,5,4,0:0:0:0:
416,300,145384,1,8,0:0:0:0:
224,72,145556,1,0,0:0:0:0:
224,72,145643,1,0,0:0:0:0:
224,72,145729,1,0,0:0:0:0:
140,208,145901,1,0,0:0:0:0:
348,140,146074,1,8,0:0:0:0:
192,292,146246,1,0,0:0:0:0:
44,128,146419,5,0,0:0:0:0:
88,344,146591,1,0,0:0:0:0:
256,152,146763,1,8,0:0:0:0:
24,256,146936,1,0,0:0:0:0:
24,256,147022,1,0,0:0:0:0:
24,256,147108,1,0,0:0:0:0:
304,340,147281,1,0,0:0:0:0:
332,48,147453,1,8,0:0:0:0:
208,68,147625,1,0,0:0:0:0:
388,232,147798,5,0,0:0:0:0:
492,124,147970,1,0,0:0:0:0:
208,296,148143,1,8,0:0:0:0:
68,92,148315,1,0,0:0:0:0:
68,92,148401,1,0,0:0:0:0:
68,92,148488,1,0,0:0:0:0:
240,164,148660,1,0,0:0:0:0:
36,248,148832,1,8,0:0:0:0:
152,40,149005,1,0,0:0:0:0:
208,296,149177,6,0,P|296:304|380:276,1,165
340,176,149522,2,0,L|292:216,1,55,8|0,0:0|0:0,0:0:0:0:
312,104,149694,2,0,P|384:104|412:204,1,165
392,288,150039,1,0,0:0:0:0:
364,272,150125,1,0,0:0:0:0:
336,256,150212,1,8,0:0:0:0:
308,240,150298,1,0,0:0:0:0:
280,224,150384,1,0,0:0:0:0:
252,208,150470,1,0,0:0:0:0:
220,196,150556,5,4,0:0:0:0:
64,352,150729,1,0,0:0:0:0:
72,132,150901,1,8,0:0:0:0:
192,316,151074,1,0,0:0:0:0:
192,316,151160,1,0,0:0:0:0:
192,316,151246,2,0,L|312:320,1,110
456,68,151591,2,0,L|336:64,1,110,8|0,0:0|0:0,0:0:0:0:
168,44,151936,5,0,0:0:0:0:
288,228,152108,1,0,0:0:0:0:
156,172,152281,1,8,0:0:0:0:
436,196,152453,1,0,0:0:0:0:
436,196,152539,1,0,0:0:0:0:
436,196,152625,2,0,L|420:312,1,110
320,140,152970,1,8,0:0:0:0:
56,164,153143,1,0,0:0:0:0:
228,116,153315,5,0,0:0:0:0:
196,260,153488,1,0,0:0:0:0:
48,40,153660,1,8,0:0:0:0:
268,24,153832,1,0,0:0:0:0:
268,24,153919,1,0,0:0:0:0:
268,24,154005,2,0,L|388:32,1,110
288,312,154350,1,8,0:0:0:0:
352,100,154522,1,0,0:0:0:0:
396,360,154694,6,0,P|456:360|496:324,1,110
116,24,155039,2,0,P|56:24|16:60,1,110,8|0,0:0|0:0,0:0:0:0:
452,300,155384,2,0,P|468:228|444:172,1,110
60,84,155729,2,0,P|44:156|68:212,1,110,8|0,0:0|0:0,0:0:0:0:
256,192,156074,5,4,0:0:0:0:
256,192,156419,1,8,0:0:0:0:
60,84,156591,1,0,0:0:0:0:
60,84,156763,1,0,0:0:0:0:
168,60,156936,1,0,0:0:0:0:
132,164,157108,1,8,0:0:0:0:
60,84,157281,1,0,0:0:0:0:
60,84,157367,1,0,0:0:0:0:
60,84,157453,5,0,0:0:0:0:
192,256,157625,1,0,0:0:0:0:
388,156,157798,1,8,0:0:0:0:
300,104,157970,1,0,0:0:0:0:
400,328,158143,1,0,0:0:0:0:
472,240,158315,1,0,0:0:0:0:
472,240,158488,1,8,0:0:0:0:
392,52,158660,1,0,0:0:0:0:
392,52,158746,1,0,0:0:0:0:
392,52,158832,5,0,0:0:0:0:
472,240,159005,1,0,0:0:0:0:
280,348,159177,1,8,0:0:0:0:
120,196,159350,1,0,0:0:0:0:
264,28,159522,1,0,0:0:0:0:
296,196,159694,1,0,0:0:0:0:
296,196,159867,1,8,0:0:0:0:
76,108,160039,1,0,0:0:0:0:
176,316,160212,5,0,0:0:0:0:
176,316,160298,2,0,L|176:204,1,110
204,176,160556,1,8,0:0:0:0:
412,296,160729,1,0,0:0:0:0:
332,28,160901,2,0,P|276:56|248:104,1,110
412,296,161246,1,8,0:0:0:0:
416,264,161332,1,0,0:0:0:0:
420,232,161419,1,0,0:0:0:0:
424,200,161505,1,0,0:0:0:0:
428,168,161591,5,4,0:0:0:0:
328,124,161763,1,0,0:0:0:0:
412,56,161936,1,8,0:0:0:0:
312,252,162108,1,0,0:0:0:0:
116,152,162281,2,0,P|56:196|16:276,2,165,0|0|0,0:0|0:0|0:0,0:0:0:0:
216,116,162970,5,0,0:0:0:0:
424,196,163143,1,0,0:0:0:0:
336,116,163315,1,8,0:0:0:0:
336,116,163401,1,0,0:0:0:0:
336,116,163488,1,0,0:0:0:0:
320,324,163660,2,0,P|244:360|156:352,2,165,0|0|0,0:0|0:0|0:0,0:0:0:0:
352,300,164263,1,0,0:0:0:0:
380,272,164350,5,0,0:0:0:0:
336,116,164522,1,0,0:0:0:0:
92,208,164694,1,8,0:0:0:0:
56,312,164867,1,0,0:0:0:0:
224,152,165039,2,0,P|200:88|104:64,1,165
60,72,165384,1,8,0:0:0:0:
88,264,165556,2,0,L|92:204,1,55
56,312,165729,5,0,0:0:0:0:
224,152,165901,1,0,0:0:0:0:
180,248,166074,1,8,0:0:0:0:
216,40,166246,1,0,0:0:0:0:
292,204,166419,2,0,P|364:232|428:224,1,110
480,232,166677,2,0,L|296:268,1,165
56,312,167108,5,4,0:0:0:0:
56,312,167453,1,8,0:0:0:0:
244,196,167625,1,0,0:0:0:0:
244,196,167712,1,0,0:0:0:0:
244,196,167798,1,0,0:0:0:0:
132,160,167970,1,0,0:0:0:0:
252,344,168143,1,8,0:0:0:0:
24,236,168315,1,0,0:0:0:0:
192,68,168488,5,0,0:0:0:0:
168,244,168660,1,0,0:0:0:0:
328,96,168832,1,8,0:0:0:0:
40,68,169005,1,0,0:0:0:0:
40,68,169091,1,0,0:0:0:0:
40,68,169177,1,0,0:0:0:0:
84,284,169350,1,0,0:0:0:0:
296,340,169522,1,8,0:0:0:0:
492,240,169694,1,0,0:0:0:0:
256,92,169867,5,0,0:0:0:0:
240,240,170039,1,0,0:0:0:0:
156,160,170212,1,8,0:0:0:0:
420,72,170384,1,0,0:0:0:0:
420,72,170470,1,0,0:0:0:0:
420,72,170556,1,0,0:0:0:0:
340,264,170729,1,0,0:0:0:0:
492,240,170901,1,8,0:0:0:0:
200,88,171074,1,0,0:0:0:0:
92,324,171246,6,0,P|152:348|252:320,1,165
340,264,171591,2,0,L|348:336,1,55,8|0,0:0|0:0,0:0:0:0:
260,224,171763,2,0,P|332:172|416:208,1,165
340,264,172108,1,0,0:0:0:0:
332,232,172194,1,0,0:0:0:0:
324,200,172281,1,8,0:0:0:0:
316,168,172367,1,0,0:0:0:0:
308,136,172453,1,0,0:0:0:0:
300,104,172539,1,0,0:0:0:0:
288,72,172625,5,0,0:0:0:0:
84,160,172798,1,0,0:0:0:0:
216,160,172970,1,8,0:0:0:0:
20,64,173143,1,0,0:0:0:0:
20,64,173229,1,0,0:0:0:0:
20,64,173315,1,0,0:0:0:0:
100,268,173488,1,0,0:0:0:0:
192,68,173660,1,8,0:0:0:0:
256,280,173832,1,0,0:0:0:0:
188,168,174005,5,0,0:0:0:0:
360,32,174177,1,0,0:0:0:0:
448,232,174350,1,8,0:0:0:0:
340,148,174522,1,0,0:0:0:0:
340,148,174608,1,0,0:0:0:0:
340,148,174694,1,0,0:0:0:0:
160,280,174867,1,0,0:0:0:0:
376,316,175039,1,8,0:0:0:0:
152,88,175212,1,0,0:0:0:0:
244,160,175384,5,0,0:0:0:0:
48,288,175556,1,0,0:0:0:0:
12,84,175729,1,8,0:0:0:0:
256,276,175901,1,0,0:0:0:0:
256,276,175988,1,0,0:0:0:0:
256,276,176074,1,0,0:0:0:0:
164,224,176246,1,0,0:0:0:0:
348,104,176419,1,8,0:0:0:0:
108,148,176591,1,0,0:0:0:0:
444,216,176763,6,0,L|464:328,1,110
372,40,177108,2,8,L|352:152,1,110,8|0,0:0|0:0,0:0:0:0:
68,168,177453,2,0,L|48:56,1,110
148,320,177798,1,8,0:0:0:0:
148,320,177970,1,8,0:0:0:0:
256,192,200212,12,0,202970,0:0:0:0:
256,192,203056,12,0,205729,0:0:0:0:
256,192,205815,12,0,209177,0:0:0:0:
200,100,209867,6,0,P|252:96|304:84,2,82.5
188,88,210729,5,0,0:0:0:0:
108,64,210901,1,0,0:0:0:0:
48,120,211074,1,0,0:0:0:0:
80,196,211246,2,0,P|92:244|92:288,1,82.5,0|0,1:0|0:0,0:0:0:0:
92,276,212108,5,0,0:0:0:0:
164,236,212281,1,0,0:0:0:0:
248,228,212453,1,0,0:0:0:0:
328,248,212625,2,0,P|368:256|428:248,1,82.5,0|0,1:0|0:0,0:0:0:0:
409,253,213488,5,0,0:0:0:0:
372,180,213660,1,0,0:0:0:0:
360,328,213832,1,0,0:0:0:0:
460,176,214005,2,0,L|452:84,1,82.5,0|0,1:0|0:0,0:0:0:0:
452,93,214867,5,0,0:0:0:0:
376,120,215039,1,0,0:0:0:0:
164,68,215212,1,0,0:0:0:0:
244,56,215384,2,0,P|248:104|224:144,1,82.5,0|0,1:0|0:0,0:0:0:0:
200,160,215729,1,0,0:0:0:0:
268,328,215901,2,0,P|264:280|288:240,1,82.5
312,224,216246,1,0,0:0:0:0:
160,348,216419,5,0,0:0:0:0:
80,336,216591,1,0,0:0:0:0:
160,348,216763,2,0,B|156:296|176:296|156:252,1,82.5,0|0,1:0|0:0,0:0:0:0:
364,88,218143,5,0,1:0:0:0:
364,88,218401,1,0,0:0:0:0:
364,88,219005,5,0,0:0:0:0:
300,140,219177,1,0,0:0:0:0:
224,108,219350,1,0,0:0:0:0:
148,80,219522,2,0,P|104:84|56:104,1,82.5,0|0,1:0|0:0,0:0:0:0:
68,97,220384,5,0,0:0:0:0:
68,208,220556,1,0,0:0:0:0:
168,252,220729,1,0,0:0:0:0:
252,180,220901,2,0,L|256:100,1,55
360,132,221246,2,0,L|356:52,1,55
152,132,221591,2,0,L|156:52,1,55,0|0,1:0|0:0,0:0:0:0:
328,224,221936,1,0,1:0:0:0:
168,252,222108,1,0,0:1:0:0:
168,252,222281,6,0,P|120:292|60:292,1,110,4|0,0:0|0:0,0:0:0:0:
74,88,222625,2,0,P|128:95|168:132,1,110,8|0,0:0|0:0,0:0:0:0:
160,144,222884,1,0,0:0:0:0:
152,156,222970,1,0,0:0:0:0:
344,48,223143,1,0,0:0:0:0:
424,252,223315,1,8,0:0:0:0:
356,176,223488,1,0,0:0:0:0:
464,168,223660,5,0,0:0:0:0:
308,320,223832,1,0,0:0:0:0:
252,108,224005,1,8,0:0:0:0:
104,348,224177,1,0,0:0:0:0:
424,248,224350,1,0,0:0:0:0:
192,232,224522,2,0,L|80:232,2,110,0|8|0,0:0|0:0|0:0,0:0:0:0:
64,56,225039,5,0,0:0:0:0:
168,48,225212,1,0,0:0:0:0:
168,48,225298,1,0,0:0:0:0:
168,48,225384,1,8,0:0:0:0:
92,252,225556,1,0,0:0:0:0:
280,136,225729,1,0,0:0:0:0:
60,152,225901,1,0,0:0:0:0:
424,268,226074,1,8,0:0:0:0:
472,180,226246,1,0,0:0:0:0:
184,224,226419,5,0,0:0:0:0:
384,132,226591,1,0,0:0:0:0:
392,352,226763,1,8,0:0:0:0:
244,124,226936,1,0,0:0:0:0:
56,256,227108,1,0,0:0:0:0:
392,352,227281,1,0,0:0:0:0:
400,320,227367,1,0,0:0:0:0:
408,288,227453,1,8,0:0:0:0:
416,256,227539,1,0,0:0:0:0:
424,224,227625,1,0,0:0:0:0:
428,192,227712,1,0,0:0:0:0:
436,164,227798,5,0,0:0:0:0:
244,124,227970,1,0,0:0:0:0:
344,92,228143,1,8,0:0:0:0:
188,296,228315,1,0,0:0:0:0:
64,128,228488,2,0,L|56:12,1,110
304,216,228832,2,0,L|292:344,1,110,8|0,0:0|0:0,0:0:0:0:
188,296,229177,5,0,0:0:0:0:
400,244,229350,2,0,L|400:128,1,110,0|8,0:0|0:0,0:0:0:0:
180,108,229694,1,0,0:0:0:0:
312,36,229867,2,0,L|292:148,1,110
56,340,230212,2,0,L|44:192,1,110,8|0,0:0|0:0,0:0:0:0:
36,136,230556,5,0,0:0:0:0:
36,136,230729,1,0,0:0:0:0:
216,260,230901,1,8,0:0:0:0:
396,132,231074,1,0,0:0:0:0:
316,320,231246,1,0,0:0:0:0:
244,160,231419,1,0,0:0:0:0:
196,352,231591,1,8,0:0:0:0:
420,216,231763,1,0,0:0:0:0:
108,272,231936,5,0,0:0:0:0:
164,60,232108,1,0,0:0:0:0:
384,268,232281,1,8,0:0:0:0:
72,152,232453,1,0,0:0:0:0:
448,92,232625,1,0,0:0:0:0:
448,92,232970,1,8,0:0:0:0:
448,92,233315,6,0,P|396:108|320:96,1,110,4|0,0:0|0:0,0:0:0:0:
341,103,233574,1,0,0:0:0:0:
341,103,233660,1,8,0:0:0:0:
128,52,233832,1,0,0:0:0:0:
264,224,234005,1,0,0:0:0:0:
224,120,234177,1,0,0:0:0:0:
40,240,234350,1,8,0:0:0:0:
232,344,234522,1,0,0:0:0:0:
420,228,234694,5,0,0:0:0:0:
264,224,234867,1,0,0:0:0:0:
344,164,235039,1,8,0:0:0:0:
232,344,235212,1,0,0:0:0:0:
76,52,235384,1,0,0:0:0:0:
140,240,235556,2,0,L|128:364,2,110,0|8|0,0:0|0:0|0:0,0:0:0:0:
316,104,236074,5,0,0:0:0:0:
192,96,236246,1,0,0:0:0:0:
192,96,236332,1,0,0:0:0:0:
192,96,236419,1,8,0:0:0:0:
292,292,236591,1,0,0:0:0:0:
440,84,236763,1,0,0:0:0:0:
80,136,236936,1,0,0:0:0:0:
172,220,237108,1,8,0:0:0:0:
192,96,237281,1,0,0:0:0:0:
56,268,237453,5,0,0:0:0:0:
264,196,237625,1,0,0:0:0:0:
416,324,237798,1,8,0:0:0:0:
320,68,237970,1,0,0:0:0:0:
212,356,238143,2,0,P|156:372|96:360,1,110
96,332,238401,1,0,0:0:0:0:
92,300,238488,1,8,0:0:0:0:
88,268,238574,1,0,0:0:0:0:
84,236,238660,1,0,0:0:0:0:
80,204,238746,1,0,0:0:0:0:
76,172,238832,5,4,0:0:0:0:
208,68,239005,1,0,0:0:0:0:
396,184,239177,1,8,0:0:0:0:
280,184,239350,1,0,0:0:0:0:
452,44,239522,2,0,P|472:100|476:160,1,110
60,340,239867,2,0,P|40:284|36:224,1,110,8|0,0:0|0:0,0:0:0:0:
52,136,240212,5,0,0:0:0:0:
236,256,240384,1,0,0:0:0:0:
284,40,240556,1,8,0:0:0:0:
140,280,240729,1,0,0:0:0:0:
360,328,240901,2,0,P|396:284|400:216,1,110
152,56,241246,2,0,P|116:100|112:168,1,110,8|0,0:0|0:0,0:0:0:0:
236,256,241591,5,0,0:0:0:0:
404,112,241763,1,0,0:0:0:0:
348,220,241936,1,8,0:0:0:0:
236,48,242108,1,0,0:0:0:0:
176,336,242281,2,0,P|116:352|8:336,2,165,0|0|0,0:0|0:0|0:0,0:0:0:0:
284,144,242970,5,0,0:0:0:0:
84,52,243143,1,0,0:0:0:0:
44,268,243315,1,8,0:0:0:0:
252,340,243488,1,0,0:0:0:0:
436,216,243660,1,0,0:0:0:0:
436,216,244005,1,8,0:0:0:0:
436,216,244350,5,0,0:0:0:0:
276,68,244522,1,0,0:0:0:0:
72,148,244694,1,8,0:0:0:0:
292,176,244867,1,0,0:0:0:0:
292,176,244953,1,0,0:0:0:0:
292,176,245039,1,0,0:0:0:0:
176,132,245212,1,0,0:0:0:0:
396,120,245384,1,8,0:0:0:0:
188,44,245556,1,0,0:0:0:0:
84,236,245729,5,0,0:0:0:0:
292,176,245901,1,0,0:0:0:0:
196,360,246074,1,8,0:0:0:0:
288,64,246246,1,0,0:0:0:0:
288,64,246332,1,0,0:0:0:0:
288,64,246419,1,0,0:0:0:0:
408,248,246591,1,0,0:0:0:0:
192,284,246763,1,8,0:0:0:0:
96,84,246936,1,0,0:0:0:0:
304,264,247108,5,0,0:0:0:0:
388,48,247281,1,0,0:0:0:0:
240,208,247453,1,8,0:0:0:0:
20,220,247625,1,0,0:0:0:0:
20,220,247712,1,0,0:0:0:0:
20,220,247798,1,0,0:0:0:0:
136,276,247970,1,0,0:0:0:0:
256,336,248143,1,8,0:0:0:0:
364,48,248315,1,0,0:0:0:0:
252,232,248488,6,0,L|100:164,1,165
156,44,248832,2,0,L|128:96,1,55,8|0,0:0|0:0,0:0:0:0:
64,208,249005,2,0,P|120:160|212:184,1,165
208,208,249350,1,0,0:0:0:0:
212,240,249436,1,0,0:0:0:0:
216,272,249522,1,8,0:0:0:0:
220,304,249608,1,0,0:0:0:0:
224,336,249694,1,0,0:0:0:0:
256,324,249781,1,0,0:0:0:0:
288,324,249867,5,4,0:0:0:0:
440,356,250039,1,0,0:0:0:0:
468,92,250212,1,8,0:0:0:0:
376,280,250384,1,0,0:0:0:0:
376,280,250470,1,0,0:0:0:0:
376,280,250556,2,0,L|356:160,1,110
236,56,250901,5,8,0:0:0:0:
68,200,251074,1,0,0:0:0:0:
212,364,251246,1,0,0:0:0:0:
260,168,251419,1,0,0:0:0:0:
96,316,251591,1,8,0:0:0:0:
44,104,251763,1,0,0:0:0:0:
44,104,251850,1,0,0:0:0:0:
44,104,251936,2,0,P|120:96|160:96,1,110
372,84,252281,1,8,0:0:0:0:
172,172,252453,1,0,0:0:0:0:
496,176,252625,5,0,0:0:0:0:
468,64,252798,1,0,0:0:0:0:
144,84,252970,1,8,0:0:0:0:
364,176,253143,1,0,0:0:0:0:
364,176,253229,1,0,0:0:0:0:
364,176,253315,1,0,0:0:0:0:
224,232,253488,1,0,0:0:0:0:
496,176,253660,1,8,0:0:0:0:
32,184,253832,1,0,0:0:0:0:
76,336,254005,6,0,L|200:360,1,110
436,48,254350,2,0,L|312:24,1,110,8|0,0:0|0:0,0:0:0:0:
328,356,254694,2,0,L|436:336,1,110
152,40,255039,1,8,0:0:0:0:
152,40,255212,1,0,0:0:0:0:
44,176,255384,6,0,L|52:296,2,110,4|0|8,0:0|0:0|0:0,0:0:0:0:
44,176,255901,1,0,0:0:0:0:
52,156,256246,1,0,0:0:0:0:
188,332,256419,1,8,0:0:0:0:
368,208,256591,1,0,0:0:0:0:
248,204,256763,5,0,0:0:0:0:
324,320,256936,1,0,0:0:0:0:
448,112,257108,1,8,0:0:0:0:
152,236,257281,1,0,0:0:0:0:
108,32,257453,1,0,0:0:0:0:
336,112,257625,2,0,P|396:88|432:32,2,110,0|8|0,0:0|0:0|0:0,0:0:0:0:
228,80,258143,5,0,0:0:0:0:
432,284,258315,1,0,0:0:0:0:
432,284,258401,1,0,0:0:0:0:
432,284,258488,1,8,0:0:0:0:
216,324,258660,1,0,0:0:0:0:
312,24,258832,1,0,0:0:0:0:
328,180,259005,1,0,0:0:0:0:
16,172,259177,1,8,0:0:0:0:
172,148,259350,1,0,0:0:0:0:
172,148,259436,1,0,0:0:0:0:
172,148,259522,5,0,0:0:0:0:
80,104,259694,1,0,0:0:0:0:
328,180,259867,1,8,0:0:0:0:
136,240,260039,1,0,0:0:0:0:
440,112,260212,2,0,P|460:196|448:228,1,110
432,248,260470,1,0,0:0:0:0:
396,264,260556,1,8,0:0:0:0:
356,260,260643,1,0,0:0:0:0:
328,236,260729,1,0,0:0:0:0:
312,200,260815,1,0,0:0:0:0:
324,160,260901,6,0,P|272:120|168:144,1,165,4|0,0:0|0:0,0:0:0:0:
120,204,261246,2,0,L|112:88,1,110,8|0,0:0|0:0,0:0:0:0:
392,180,261591,2,0,L|400:296,1,110
408,372,261850,2,0,P|352:328|264:344,1,165
264,343,262281,5,0,0:0:0:0:
152,112,262453,1,0,0:0:0:0:
392,180,262625,1,8,0:0:0:0:
152,284,262798,1,0,0:0:0:0:
300,48,262970,2,0,L|428:40,1,110
504,24,263229,2,0,P|452:60|432:164,1,165
368,344,263660,6,0,P|308:356|244:324,1,110
168,88,264005,2,0,P|204:148|200:192,1,110,8|0,0:0|0:0,0:0:0:0:
0,332,264350,2,0,P|16:280|56:244,1,110
368,136,264694,2,0,P|324:172|248:172,1,110,8|0,0:0|0:0,0:0:0:0:
280,64,265039,5,0,0:0:0:0:
432,320,265384,1,0,0:0:0:0:
456,28,265729,1,0,0:0:0:0:
56,356,266074,1,0,0:0:0:0:
56,356,266419,6,0,P|44:284|48:224,2,110,0|2|0,0:0|0:2|0:0,0:0:0:0:
124,336,267281,1,0,0:0:0:0:
192,316,267453,1,2,0:2:0:0:
256,348,267625,1,0,0:0:0:0:
312,304,267798,5,0,0:0:0:0:
228,176,267970,1,0,0:0:0:0:
240,248,268143,1,2,0:0:0:0:
304,128,268315,1,0,0:0:0:0:
152,216,268488,1,0,0:0:0:0:
352,216,268660,2,0,L|408:216,2,55,2|2|2,0:0|0:0|0:0,0:0:0:0:
412,136,269177,5,4,0:0:0:0:
400,344,269350,1,0,0:0:0:0:
204,152,269522,1,8,0:0:0:0:
216,248,269694,1,0,0:0:0:0:
304,128,269867,1,0,0:0:0:0:
320,336,270039,1,0,0:0:0:0:
96,160,270212,1,8,0:0:0:0:
408,228,270384,1,0,0:0:0:0:
464,52,270556,5,0,0:0:0:0:
262,36,270729,1,0,0:0:0:0:
262,36,270815,1,0,0:0:0:0:
262,36,270901,1,8,0:0:0:0:
214,341,271074,2,0,P|267:351|320:336,1,110
400,136,271419,1,0,0:0:0:0:
368,132,271505,1,0,0:0:0:0:
336,128,271591,1,8,0:0:0:0:
304,124,271677,1,0,0:0:0:0:
272,120,271763,1,0,0:0:0:0:
240,116,271850,1,0,0:0:0:0:
208,112,271936,6,0,P|144:120|72:88,1,110,4|0,0:0|0:0,0:0:0:0:
100,76,272194,2,0,L|84:192,1,110
52,196,272453,1,0,0:0:0:0:
304,272,272625,2,0,P|368:264|440:296,1,110
412,308,272884,2,0,L|428:192,1,110
460,188,273143,1,0,0:0:0:0:
180,156,273315,6,0,L|188:272,1,110
324,265,273574,2,0,L|332:156,1,110
256,304,273832,1,0,0:0:0:0:
172,64,274005,2,0,B|216:64|256:40|256:40|296:64|348:64,1,165
360,52,274350,1,0,0:0:0:0:
52,28,274522,1,0,0:0:0:0:
184,264,274694,6,0,P|164:324|108:340,1,110
32,280,274953,2,0,P|52:220|108:204,1,110
104,276,275212,1,0,0:0:0:0:
360,288,275384,2,0,P|420:268|436:212,1,110
376,136,275643,2,0,P|316:156|300:212,1,110
372,208,275901,1,0,0:0:0:0:
472,108,276074,5,0,0:0:0:0:
156,224,276246,1,0,0:0:0:0:
280,180,276419,1,8,0:0:0:0:
260,332,276591,1,0,0:0:0:0:
164,104,276763,2,0,P|104:92|40:128,1,110
348,280,277108,2,0,P|408:292|472:256,1,110,8|0,0:0|0:0,0:0:0:0:
256,192,277453,5,4,0:0:0:0:
256,192,277798,1,8,0:0:0:0:
32,176,277970,1,0,0:0:0:0:
32,176,278056,1,0,0:0:0:0:
32,176,278143,1,0,0:0:0:0:
136,96,278315,1,0,0:0:0:0:
236,348,278488,1,8,0:0:0:0:
416,160,278660,1,0,0:0:0:0:
256,192,278832,5,0,0:0:0:0:
428,360,279005,1,0,0:0:0:0:
480,256,279177,1,8,0:0:0:0:
132,320,279350,1,0,0:0:0:0:
132,320,279436,1,0,0:0:0:0:
132,320,279522,1,0,0:0:0:0:
240,64,279694,1,0,0:0:0:0:
56,184,279867,1,8,0:0:0:0:
416,160,280039,1,0,0:0:0:0:
288,332,280212,5,0,0:0:0:0:
256,192,280384,1,0,0:0:0:0:
352,248,280556,1,8,0:0:0:0:
64,264,280729,1,0,0:0:0:0:
64,264,280815,1,0,0:0:0:0:
64,264,280901,1,0,0:0:0:0:
260,276,281074,1,0,0:0:0:0:
124,104,281246,1,8,0:0:0:0:
360,68,281419,1,0,0:0:0:0:
132,336,281591,6,0,P|216:352|280:304,1,165
324,208,281936,2,0,L|348:276,1,55,8|0,0:0|0:0,0:0:0:0:
320,112,282108,2,0,P|224:160|240:240,1,165
324,208,282453,1,0,0:0:0:0:
352,200,282539,1,0,0:0:0:0:
380,192,282625,1,8,0:0:0:0:
408,184,282712,1,0,0:0:0:0:
436,176,282798,1,0,0:0:0:0:
464,168,282884,1,0,0:0:0:0:
492,160,282970,5,4,0:0:0:0:
436,288,283143,1,0,0:0:0:0:
200,120,283315,1,8,0:0:0:0:
320,112,283488,1,0,0:0:0:0:
320,112,283574,1,0,0:0:0:0:
320,112,283660,1,0,0:0:0:0:
76,316,283832,1,0,0:0:0:0:
156,40,284005,1,8,0:0:0:0:
264,216,284177,1,0,0:0:0:0:
56,140,284350,5,0,0:0:0:0:
224,344,284522,1,0,0:0:0:0:
328,296,284694,1,8,0:0:0:0:
212,128,284867,1,0,0:0:0:0:
212,128,284953,1,0,0:0:0:0:
212,128,285039,1,0,0:0:0:0:
416,40,285212,1,0,0:0:0:0:
308,316,285384,1,8,0:0:0:0:
172,224,285556,1,0,0:0:0:0:
460,208,285729,5,0,0:0:0:0:
324,36,285901,1,0,0:0:0:0:
220,56,286074,1,8,0:0:0:0:
308,316,286246,1,0,0:0:0:0:
308,316,286332,1,0,0:0:0:0:
308,316,286419,1,0,0:0:0:0:
128,148,286591,2,0,P|108:88|120:36,1,110,0|8,0:0|0:0,0:0:0:0:
248,24,286936,1,0,0:0:0:0:
336,328,287108,6,0,P|400:320|436:272,1,110
128,152,287453,2,0,L|152:268,1,110,8|0,0:0|0:0,0:0:0:0:
420,144,287798,2,0,L|432:8,1,110
44,68,288143,1,8,0:0:0:0:
44,68,288315,1,0,0:0:0:0:
256,192,288488,5,4,0:0:0:0:
256,192,288832,1,8,0:0:0:0:
40,228,289005,1,0,0:0:0:0:
124,332,289177,1,0,0:0:0:0:
168,212,289350,1,8,0:0:0:0:
168,212,289522,1,8,0:0:0:0:
32,320,289694,1,0,0:0:0:0:
32,320,289781,1,0,0:0:0:0:
32,320,289867,5,0,0:0:0:0:
160,140,290039,1,0,0:0:0:0:
464,220,290212,1,8,0:0:0:0:
256,288,290384,1,0,0:0:0:0:
400,328,290556,1,0,0:0:0:0:
456,104,290729,1,8,0:0:0:0:
456,104,290901,1,8,0:0:0:0:
348,148,291074,1,0,0:0:0:0:
348,148,291160,1,0,0:0:0:0:
348,148,291246,5,0,0:0:0:0:
144,64,291419,1,0,0:0:0:0:
120,336,291591,1,8,0:0:0:0:
248,128,291763,1,0,0:0:0:0:
124,176,291936,1,0,0:0:0:0:
416,248,292108,1,8,0:0:0:0:
416,248,292281,1,8,0:0:0:0:
200,260,292453,1,0,0:0:0:0:
472,104,292625,6,0,P|436:56|376:48,1,110
376,52,292884,1,0,0:0:0:0:
360,60,292970,1,8,0:0:0:0:
324,276,293143,1,0,0:0:0:0:
124,176,293315,2,0,P|136:120|184:88,2,110,0|0|8,0:0|0:0|0:0,0:0:0:0:
152,192,293746,1,0,0:0:0:0:
184,200,293832,1,0,0:0:0:0:
216,196,293919,1,0,0:0:0:0:
248,184,294005,5,4,0:0:0:0:
436,68,294177,1,0,0:0:0:0:
400,284,294350,1,8,0:0:0:0:
232,60,294522,1,0,0:0:0:0:
56,372,294694,2,0,P|24:312|24:200,2,165,0|0|0,0:0|0:0|0:0,0:0:0:0:
260,288,295384,5,0,0:0:0:0:
152,280,295556,1,0,0:0:0:0:
476,364,295729,1,8,0:0:0:0:
476,364,295815,1,0,0:0:0:0:
476,364,295901,1,0,0:0:0:0:
304,120,296074,2,0,P|340:56|444:16,2,165,0|0|0,0:0|0:0|0:0,0:0:0:0:
320,156,296677,1,0,0:0:0:0:
336,192,296763,5,0,0:0:0:0:
148,304,296936,1,0,0:0:0:0:
8,164,297108,1,8,0:0:0:0:
276,296,297281,1,0,0:0:0:0:
460,164,297453,2,0,P|472:96|476:-12,2,165,0|0|0,0:0|0:0|0:0,0:0:0:0:
460,164,298056,1,0,0:0:0:0:
460,164,298143,5,0,0:0:0:0:
424,256,298315,1,0,0:0:0:0:
184,336,298488,1,8,0:0:0:0:
336,312,298660,1,0,0:0:0:0:
36,204,298832,2,0,P|20:144|44:76,1,110
140,84,299091,2,0,L|124:272,1,165
232,32,299522,5,4,0:0:0:0:
232,32,299867,1,8,0:0:0:0:
356,216,300039,1,0,0:0:0:0:
356,216,300125,1,0,0:0:0:0:
356,216,300212,1,0,0:0:0:0:
136,224,300384,1,0,0:0:0:0:
232,32,300556,1,8,0:0:0:0:
220,320,300729,1,0,0:0:0:0:
16,240,300901,5,0,0:0:0:0:
236,232,301074,1,0,0:0:0:0:
376,64,301246,1,8,0:0:0:0:
424,344,301419,1,0,0:0:0:0:
424,344,301505,1,0,0:0:0:0:
424,344,301591,1,0,0:0:0:0:
320,152,301763,1,0,0:0:0:0:
124,52,301936,1,8,0:0:0:0:
140,272,302108,1,0,0:0:0:0:
248,80,302281,5,0,0:0:0:0:
376,64,302453,1,0,0:0:0:0:
192,184,302625,1,8,0:0:0:0:
20,48,302798,1,0,0:0:0:0:
20,48,302884,1,0,0:0:0:0:
20,48,302970,1,0,0:0:0:0:
48,268,303143,1,0,0:0:0:0:
268,248,303315,1,8,0:0:0:0:
192,184,303488,1,0,0:0:0:0:
344,344,303660,6,0,P|416:328|432:224,1,165
352,148,304005,2,0,L|352:220,1,55,8|0,0:0|0:0,0:0:0:0:
268,248,304177,2,0,P|212:216|104:244,1,165
36,312,304522,1,0,0:0:0:0:
44,268,304608,1,0,0:0:0:0:
52,224,304694,1,8,0:0:0:0:
56,180,304781,1,0,0:0:0:0:
64,136,304867,1,0,0:0:0:0:
68,92,304953,1,0,0:0:0:0:
76,48,305039,5,4,0:0:0:0:
184,72,305212,1,0,0:0:0:0:
208,240,305384,1,8,0:0:0:0:
184,72,305556,1,0,0:0:0:0:
184,72,305643,1,0,0:0:0:0:
184,72,305729,1,0,0:0:0:0:
264,148,305901,1,0,0:0:0:0:
68,248,306074,1,8,0:0:0:0:
272,328,306246,1,0,0:0:0:0:
460,212,306419,6,0,L|444:96,1,110
184,72,306763,2,0,L|180:188,1,110,8|0,0:0|0:0,0:0:0:0:
180,181,307022,1,0,0:0:0:0:
180,181,307108,1,0,0:0:0:0:
284,56,307281,1,0,0:0:0:0:
72,116,307453,1,8,0:0:0:0:
456,120,307625,1,0,0:0:0:0:
180,181,307798,5,0,0:0:0:0:
184,72,307970,1,0,0:0:0:0:
376,176,308143,1,8,0:0:0:0:
252,356,308315,1,0,0:0:0:0:
252,356,308401,1,0,0:0:0:0:
252,356,308488,1,0,0:0:0:0:
376,76,308660,1,0,0:0:0:0:
256,260,308832,1,8,0:0:0:0:
136,76,309005,1,0,0:0:0:0:
376,76,309177,6,0,P|432:104|452:156,1,110
136,308,309522,2,0,P|80:280|60:228,1,110,8|0,0:0|0:0,0:0:0:0:
256,40,309867,2,0,L|256:160,1,110
256,344,310212,1,8,0:0:0:0:
256,344,310384,1,0,0:0:0:0:
256,192,310556,1,4,0:0:0:0:
