osu file format v14

[General]
AudioFilename: Nero vs After School - Sound In Motion vs AH (Fauxami Mashup) UPDATED.mp3
AudioLeadIn: 0
PreviewTime: 89813
Countdown: 1
SampleSet: Normal
StackLeniency: 0.7
Mode: 0
LetterboxInBreaks: 1
WidescreenStoryboard: 1

[Editor]
Bookmarks: 111882,144899,167399
DistanceSpacing: 1.4
BeatDivisor: 4
GridSize: 4
TimelineZoom: 1.8

[Metadata]
Title:Sound In Motion vs. AH
TitleUnicode:Sound In Motion vs. AH
Artist:Nero vs. After School
ArtistUnicode:Nero vs. 애프터스쿨
Creator:galvenize
Version:Another
Source:
Tags:fauxami mashup remix korean electronic drum and & bass dnb ryuu kyubey exote frey
BeatmapID:548219
BeatmapSetID:234646

[Difficulty]
HPDrainRate:6
CircleSize:4
OverallDifficulty:8
ApproachRate:9
SliderMultiplier:1.8
SliderTickRate:1

[Events]
//Background and Video events
0,0,"bg1.jpg",0,0
//Break Periods
2,178170,199611
//Storyboard Layer 0 (Background)
//Storyboard Layer 1 (Fail)
//Storyboard Layer 2 (Pass)
//Storyboard Layer 3 (Foreground)
//Storyboard Layer 4 (Overlay)
//Storyboard Sound Samples

[TimingPoints]
89867,344.827586206897,4,1,0,70,1,0
134037,-200,4,1,0,65,0,0
134296,-133.333333333333,4,2,0,65,0,0
136623,-100,4,1,0,65,0,0
200211,-200,4,1,0,5,0,0
209866,-200,4,1,0,35,0,0
210589,-200,4,2,0,65,0,0
222140,-100,4,1,0,65,0,0
266278,-200,4,2,0,65,0,0
269037,-100,4,1,0,65,0,0

[Colours]
Combo1 : 169,52,87
Combo2 : 211,44,48

[HitObjects]
104,84,89694,5,0,0:0:0:0:
104,84,89867,2,0,P|84:132|80:176,1,90,4|0,1:0|0:0,0:0:0:0:
244,292,90212,2,0,P|238:247|219:206,1,90,8|0,0:0|0:0,0:0:0:0:
208,204,90470,1,0,0:0:0:0:
196,200,90556,1,0,0:0:0:0:
152,280,90729,1,0,0:0:0:0:
336,264,90901,1,8,0:0:0:0:
244,292,91074,1,0,0:0:0:0:
400,328,91246,5,0,0:0:0:0:
304,176,91419,1,0,0:0:0:0:
336,264,91591,1,8,0:0:0:0:
484,164,91763,1,0,0:0:0:0:
328,76,91936,1,0,0:0:0:0:
196,200,92108,2,0,P|148:208|96:204,2,90,2|8|2,0:2|1:0|0:2,0:2:0:0:
304,176,92625,5,4,1:0:0:0:
220,328,92798,1,0,0:0:0:0:
220,328,92884,1,0,0:0:0:0:
220,328,92970,1,8,0:0:0:0:
280,260,93143,1,0,0:0:0:0:
320,340,93315,1,0,0:0:0:0:
192,200,93488,1,0,0:0:0:0:
132,280,93660,1,8,0:0:0:0:
180,108,93832,1,0,0:0:0:0:
280,260,94005,6,0,P|332:256|376:224,1,90
264,84,94350,2,0,P|212:88|168:120,1,90,8|0,0:0|0:0,0:0:0:0:
356,140,94694,1,0,0:2:0:0:
440,112,94867,1,0,0:2:0:0:
264,180,95039,1,8,0:0:0:0:
260,204,95125,1,0,0:2:0:0:
256,228,95212,1,8,0:0:0:0:
252,252,95298,1,0,0:2:0:0:
248,276,95384,6,0,L|144:292,1,90,4|0,1:0|0:0,0:0:0:0:
100,220,95729,1,8,0:0:0:0:
100,220,95901,1,0,0:0:0:0:
196,120,96074,2,0,P|212:76|216:24,1,90
64,140,96419,2,0,P|80:192|108:228,1,90,8|0,0:0|0:0,0:0:0:0:
168,280,96763,5,0,0:0:0:0:
352,120,96936,2,0,P|400:108|448:112,1,90,0|8,0:0|0:0,0:0:0:0:
352,280,97281,1,0,0:0:0:0:
352,280,97453,2,0,P|296:276|248:252,1,90
64,140,97798,2,0,P|40:184|32:232,1,90,8|0,0:0|0:0,0:0:0:0:
72,340,98143,5,0,0:0:0:0:
72,340,98315,1,0,0:0:0:0:
224,348,98488,1,8,0:0:0:0:
352,280,98660,1,0,0:0:0:0:
208,132,98832,1,0,0:0:0:0:
164,224,99005,1,0,0:0:0:0:
312,160,99177,1,8,0:0:0:0:
316,368,99350,1,0,0:0:0:0:
260,256,99522,6,0,P|252:208|248:148,1,90
416,72,99867,2,0,P|416:132|408:172,1,90,8|0,0:0|0:0,0:0:0:0:
292,36,100212,1,0,0:0:0:0:
292,36,100556,1,8,0:0:0:0:
292,36,100901,6,0,P|236:48|188:72,1,90,4|0,1:0|0:0,0:0:0:0:
206,61,101160,1,0,0:0:0:0:
206,61,101246,1,8,0:0:0:0:
152,132,101419,1,0,0:0:0:0:
232,236,101591,1,0,0:0:0:0:
308,188,101763,1,0,0:0:0:0:
56,200,101936,1,8,0:0:0:0:
84,284,102108,1,0,0:0:0:0:
152,132,102281,6,0,P|120:76|92:52,1,90
84,284,102625,1,8,0:0:0:0:
300,300,102798,1,0,0:0:0:0:
232,236,102970,1,0,0:0:0:0:
156,344,103143,2,0,P|108:372|44:368,2,90,0|8|0,0:0|0:0|0:0,0:0:0:0:
144,216,103660,5,0,0:0:0:0:
204,148,103832,2,0,L|192:104,2,45,0|0|8,0:0|0:0|0:0,0:0:0:0:
232,236,104177,1,0,0:0:0:0:
292,168,104350,1,0,0:0:0:0:
112,136,104522,1,0,0:0:0:0:
232,236,104694,1,8,0:0:0:0:
260,48,104867,1,0,0:0:0:0:
292,168,105039,6,0,P|364:180|396:168,1,90
378,175,105384,1,8,0:0:0:0:
360,44,105556,1,0,0:0:0:0:
324,260,105729,1,0,0:0:0:0:
476,152,105901,1,0,0:0:0:0:
472,136,105988,1,0,0:0:0:0:
468,120,106074,1,8,0:0:0:0:
464,104,106160,1,0,0:0:0:0:
460,88,106246,1,0,0:0:0:0:
456,72,106332,1,0,0:0:0:0:
452,56,106419,6,0,L|344:44,1,90,4|0,1:0|0:0,0:0:0:0:
192,104,106763,1,8,0:0:0:0:
192,104,106936,1,0,0:0:0:0:
272,248,107108,2,0,P|232:280|188:292,1,90
107,83,107453,2,0,P|152:84|192:104,1,90,8|0,0:0|0:0,0:0:0:0:
128,168,107798,5,0,0:0:0:0:
404,120,107970,2,0,P|396:56|368:20,1,90,0|8,0:0|0:0,0:0:0:0:
205,190,108315,1,0,0:0:0:0:
205,190,108488,2,0,P|233:225|272:248,1,90
504,240,108832,2,0,P|456:272|428:304,1,90,8|0,0:0|0:0,0:0:0:0:
376,364,109177,5,0,0:0:0:0:
232,320,109350,1,2,0:2:0:0:
232,320,109436,1,2,0:2:0:0:
232,320,109522,2,0,P|180:304|132:304,1,90,8|2,0:0|0:2,0:0:0:0:
36,196,109867,2,2,P|112:176|168:176,2,135,2|2|2,0:2|0:2|0:2,0:2:0:0:
100,260,110556,5,2,2:0:0:0:
276,300,110729,1,2,2:0:0:0:
440,224,110901,1,2,2:0:0:0:
108,128,111074,1,2,2:0:0:0:
256,192,111246,1,2,2:2:0:0:
256,192,111591,1,2,2:0:0:0:
256,192,111936,6,0,P|236:140|228:96,1,90,4|0,1:0|0:0,0:0:0:0:
229,106,112194,1,0,0:0:0:0:
229,106,112281,1,8,0:0:0:0:
440,224,112453,2,0,P|424:268|396:308,1,90
348,128,112798,1,0,0:0:0:0:
436,108,112970,1,8,0:0:0:0:
256,192,113143,1,0,0:0:0:0:
96,112,113315,6,0,P|52:104|0:112,1,90
7,109,113574,1,0,0:0:0:0:
7,109,113660,1,8,0:0:0:0:
96,316,113832,2,0,L|112:220,1,90
172,160,114177,1,0,0:0:0:0:
24,208,114350,1,8,0:0:0:0:
200,252,114522,1,0,0:0:0:0:
156,40,114694,6,0,P|208:24|256:32,1,90
242,27,114953,1,0,0:0:0:0:
242,27,115039,1,8,0:0:0:0:
440,188,115212,2,0,P|472:140|484:96,1,90
324,112,115556,1,0,0:0:0:0:
320,248,115729,1,8,0:0:0:0:
440,188,115901,1,0,0:0:0:0:
324,112,116074,6,0,P|252:108|184:128,1,135,2|0,2:0|0:0,0:0:0:0:
152,144,116419,1,10,2:0:0:0:
160,344,116591,2,0,B|132:360|96:364|96:364|56:340|40:296,1,135,2|0,2:0|0:0,0:0:0:0:
32,276,116936,1,2,0:2:0:0:
232,240,117108,1,8,0:0:0:0:
237,261,117194,1,0,0:0:0:0:
242,283,117281,1,2,0:2:0:0:
247,304,117367,1,0,0:0:0:0:
252,325,117453,6,0,P|317:328|372:306,1,90
340,321,117712,1,0,0:0:0:0:
340,321,117798,1,8,0:0:0:0:
433,121,117970,2,0,P|368:133|336:152,1,90
346,234,118315,1,0,0:0:0:0:
431,207,118488,1,8,0:0:0:0:
260,235,118660,1,0,0:0:0:0:
184,184,118832,6,0,P|136:172|88:172,1,90
95,171,119091,1,0,0:0:0:0:
95,171,119177,1,8,0:0:0:0:
304,36,119350,2,0,P|332:76|352:116,1,90
224,96,119694,1,0,0:0:0:0:
140,68,119867,1,8,0:0:0:0:
288,168,120039,1,0,0:0:0:0:
192,264,120212,6,0,P|188:316|192:360,1,90
191,353,120470,1,0,0:0:0:0:
191,353,120556,1,8,0:0:0:0:
216,184,120729,2,0,P|124:208|108:260,1,135
108,284,121074,2,0,P|64:300|16:308,2,90,0|8|0,0:0|0:0|0:0,0:0:0:0:
216,184,121591,6,0,P|208:124|240:84,1,90
324,232,121936,2,0,P|287:280|236:285,1,90
320,112,122281,2,0,P|380:104|420:136,1,90
448,232,122625,1,8,0:0:0:0:
448,232,122798,1,0,0:0:0:0:
108,212,122970,6,0,P|96:268|96:312,2,90,4|0|0,1:0|0:0|0:0,0:0:0:0:
136,84,123488,1,0,0:0:0:0:
136,84,123832,2,0,P|196:68|252:56,1,90,0|8,0:0|0:0,0:0:0:0:
312,52,124177,1,0,0:0:0:0:
384,108,124350,1,0,0:0:0:0:
232,204,124522,1,0,0:0:0:0:
232,116,124694,1,8,0:0:0:0:
392,204,124867,1,0,0:0:0:0:
240,300,125039,1,0,0:0:0:0:
80,212,125212,2,0,P|68:152|68:112,2,90,0|8|0,0:0|0:0|0:0,0:0:0:0:
128,288,125729,5,4,0:0:0:0:
232,116,125901,1,0,0:0:0:0:
232,116,125988,1,0,0:0:0:0:
232,116,126074,1,8,0:0:0:0:
308,164,126246,1,0,0:0:0:0:
144,152,126419,1,0,0:0:0:0:
288,44,126591,1,0,0:0:0:0:
220,204,126763,2,0,P|212:256|216:296,1,90,8|0,0:0|0:0,0:0:0:0:
215,292,127022,1,0,0:0:0:0:
215,292,127108,5,0,0:0:0:0:
304,272,127281,1,0,0:0:0:0:
116,248,127453,1,8,0:0:0:0:
232,116,127625,1,0,0:0:0:0:
280,360,127798,1,0,0:0:0:0:
116,248,127970,2,0,P|104:192|104:128,1,90,0|8,0:0|0:0,0:0:0:0:
108,144,128229,1,0,0:0:0:0:
116,128,128315,1,0,0:0:0:0:
124,112,128401,1,0,0:0:0:0:
132,96,128488,6,0,B|164:116|200:120|200:120|248:112|288:80,1,135,4|0,0:0|0:0,0:0:0:0:
340,60,128832,2,0,P|308:120|312:152,1,90,8|0,0:0|0:0,0:0:0:0:
416,268,129177,2,0,P|448:208|444:176,1,90
356,204,129436,2,0,P|320:276|364:340,1,135
416,268,129867,5,0,0:0:0:0:
260,180,130039,1,0,0:0:0:0:
172,336,130212,1,8,0:0:0:0:
112,260,130384,1,0,0:0:0:0:
312,348,130556,2,0,P|376:352|428:340,1,90
401,347,130815,2,0,P|384:264|384:192,1,135
256,192,131246,12,0,134005,0:0:0:0:
176,96,134350,5,0,0:0:0:0:
176,96,134694,2,0,L|168:172,1,67.5000025749208,2|0,0:0|0:0,0:0:0:0:
343,163,135039,2,0,L|336:96,1,67.5000025749208
256,140,135384,1,2,0:0:0:0:
256,220,135556,1,0,0:0:0:0:
176,96,135729,1,0,0:0:0:0:
344,164,135901,1,0,0:0:0:0:
408,112,136074,1,2,0:0:0:0:
464,172,136246,2,0,L|472:248,2,67.5000025749208,2|2|0,0:0|0:0|0:0,0:0:0:0:
408,112,136763,5,4,0:0:0:0:
332,64,136936,1,0,0:0:0:0:
296,276,137108,1,8,0:0:0:0:
372,228,137281,1,0,0:0:0:0:
192,148,137453,1,0,0:0:0:0:
108,304,137625,1,0,0:0:0:0:
56,232,137798,2,0,P|48:184|52:128,1,90,8|0,0:0|0:0,0:0:0:0:
209,60,138143,6,0,P|205:105|192:148,1,90
192,148,138401,1,0,0:0:0:0:
192,148,138488,1,8,0:0:0:0:
120,96,138660,1,0,0:0:0:0:
312,64,138832,1,0,0:0:0:0:
388,216,139005,1,0,0:0:0:0:
316,160,139177,1,8,0:0:0:0:
312,172,139263,1,0,0:0:0:0:
308,184,139350,1,0,0:0:0:0:
304,196,139436,1,0,0:0:0:0:
300,208,139522,6,0,P|308:256|308:304,1,90,2|0,0:2|0:0,0:0:0:0:
308,312,139781,2,0,B|216:300|216:300|144:320,1,135,2|0,0:2|0:0,0:0:0:0:
136,64,140212,2,0,P|159:106|188:144,1,90,2|0,0:2|0:0,0:0:0:0:
194,150,140470,2,0,B|259:83|259:83|328:55,1,135,2|0,0:2|0:0,0:0:0:0:
456,124,140901,5,2,0:2:0:0:
368,144,141074,1,0,0:2:0:0:
368,144,141160,2,0,P|384:216|332:264,1,135,2|2,0:2|0:2,0:0:0:0:
124,232,141591,2,0,P|108:304|160:352,1,135,2|2,0:2|0:2,0:0:0:0:
188,360,141936,1,2,0:2:0:0:
188,360,142108,1,2,0:2:0:0:
272,240,142281,6,0,P|260:192|224:160,1,90,2|0,0:2|0:0,0:0:0:0:
192,148,142539,2,0,L|228:8,1,135,2|0,0:2|0:0,0:0:0:0:
400,100,142970,2,0,P|412:148|448:180,1,90,2|0,0:2|0:0,0:0:0:0:
480,192,143229,2,0,L|444:332,1,135,2|2,0:2|0:2,0:0:0:0:
256,280,143660,5,2,0:2:0:0:
324,220,143832,1,2,0:2:0:0:
344,344,144005,1,2,0:2:0:0:
100,300,144177,1,2,0:2:0:0:
256,88,144350,1,2,0:2:0:0:
256,88,144694,1,2,0:2:0:0:
256,88,145039,6,0,P|188:108|64:88,1,180,4|8,0:0|0:0,0:0:0:0:
81,95,145556,2,0,L|92:188,1,90
148,252,145901,1,0,0:0:0:0:
312,200,146074,1,8,0:0:0:0:
256,88,146246,1,0,0:0:0:0:
244,260,146419,6,0,L|256:352,1,90
264,360,146677,1,0,0:0:0:0:
272,372,146763,1,8,0:0:0:0:
399,181,146936,2,0,P|354:185|312:200,1,90
148,252,147281,5,0,0:0:0:0:
40,172,147453,1,8,0:0:0:0:
200,184,147625,1,0,0:0:0:0:
340,96,147798,2,0,P|388:80|428:80,1,90
427,79,148056,1,0,0:0:0:0:
427,79,148143,1,8,0:0:0:0:
202,320,148315,2,0,P|168:291|148:252,1,90
208,168,148660,1,0,0:0:0:0:
344,180,148832,1,8,0:0:0:0:
256,88,149005,1,0,0:0:0:0:
84,192,149177,6,0,L|100:332,1,135
99,326,149522,1,8,0:0:0:0:
256,88,149694,2,0,L|248:236,1,135
248,222,150039,1,0,0:0:0:0:
392,40,150212,1,8,0:0:0:0:
396,68,150298,1,0,0:0:0:0:
400,96,150384,1,0,0:0:0:0:
404,124,150470,1,0,0:0:0:0:
408,152,150556,6,0,L|392:256,1,90,4|0,0:0|0:0,0:0:0:0:
394,240,150815,1,0,0:0:0:0:
394,240,150901,1,8,0:0:0:0:
222,305,151074,2,0,P|226:261|248:222,1,90
312,288,151419,1,0,0:0:0:0:
224,304,151591,2,0,P|160:288|56:328,1,180,8|0,0:0|0:0,0:0:0:0:
28,244,152108,5,0,0:0:0:0:
28,244,152194,1,0,0:0:0:0:
28,244,152281,1,8,0:0:0:0:
180,144,152453,2,0,P|148:104|100:92,1,90
96,180,152798,1,0,0:0:0:0:
232,64,152970,1,8,0:0:0:0:
32,52,153143,1,0,0:0:0:0:
180,144,153315,6,0,L|184:288,1,135
212,316,153660,1,8,0:0:0:0:
428,228,153832,2,0,L|320:216,1,90
356,308,154177,1,0,0:0:0:0:
440,136,154350,1,8,0:0:0:0:
428,228,154522,1,0,0:0:0:0:
180,144,154694,6,0,P|156:184|160:232,1,90
332,240,155039,2,0,P|356:200|352:152,1,90,8|0,0:0|0:0,0:0:0:0:
208,268,155384,2,0,P|248:292|296:288,1,90
304,116,155729,1,8,0:0:0:0:
304,116,155901,1,0,0:0:0:0:
68,40,156074,6,0,L|56:244,1,180,4|8,0:0|0:0,0:0:0:0:
116,288,156591,1,0,0:0:0:0:
208,268,156763,1,0,0:0:0:0:
304,116,156936,1,8,0:0:0:0:
304,116,157108,1,8,0:0:0:0:
288,204,157281,1,0,0:0:0:0:
288,204,157367,1,0,0:0:0:0:
288,204,157453,5,0,0:0:0:0:
264,32,157625,1,0,0:0:0:0:
212,128,157798,1,8,0:0:0:0:
396,152,157970,1,0,0:0:0:0:
372,48,158143,1,0,0:0:0:0:
304,116,158315,1,8,0:0:0:0:
304,116,158488,1,8,0:0:0:0:
368,312,158660,1,0,0:0:0:0:
368,312,158746,1,0,0:0:0:0:
368,312,158832,5,4,0:0:0:0:
208,232,159005,1,0,0:0:0:0:
396,152,159177,1,8,0:0:0:0:
324,208,159350,1,0,0:0:0:0:
160,140,159522,1,0,0:0:0:0:
116,316,159694,1,8,0:0:0:0:
116,316,159867,1,8,0:0:0:0:
28,160,160039,1,0,0:0:0:0:
28,160,160212,6,0,L|32:56,1,90,2|0,0:2|0:2,0:0:0:0:
64,36,160470,2,0,P|120:60|204:48,1,135,2|2,0:2|0:2,0:0:0:0:
420,40,160901,2,0,P|360:64|332:92,1,90,2|0,0:2|0:0,0:0:0:0:
448,256,161246,1,8,0:0:0:0:
444,232,161332,1,2,0:2:0:0:
440,208,161419,1,2,0:2:0:0:
436,184,161505,1,2,0:2:0:0:
432,160,161591,5,4,0:0:0:0:
332,200,161763,1,0,0:0:0:0:
372,300,161936,1,8,0:0:0:0:
256,96,162108,1,0,0:0:0:0:
160,148,162281,2,0,P|104:160|16:152,2,135
256,96,162970,5,0,0:0:0:0:
160,44,163143,1,0,0:0:0:0:
16,240,163315,1,8,0:0:0:0:
16,240,163401,1,0,0:0:0:0:
16,240,163488,1,0,0:0:0:0:
160,148,163660,2,0,P|196:184|256:260,2,135,4|0|0,0:0|0:0|0:0,0:0:0:0:
160,148,164263,1,0,0:0:0:0:
160,148,164350,5,0,0:0:0:0:
256,96,164522,1,0,0:0:0:0:
64,96,164694,1,8,0:0:0:0:
384,136,164867,1,0,0:0:0:0:
40,200,165039,2,0,P|32:280|32:340,2,135,4|0|0,0:0|0:0|0:0,0:0:0:0:
40,200,165643,1,0,0:0:0:0:
40,200,165729,5,0,0:0:0:0:
200,276,165901,1,0,0:0:0:0:
256,96,166074,1,8,0:0:0:0:
144,180,166246,1,0,0:0:0:0:
376,200,166419,2,0,P|420:180|460:148,1,90
496,144,166677,2,0,P|448:224|468:276,1,135
412,52,167108,1,4,0:0:0:0:
412,52,167453,5,8,0:0:0:0:
236,72,167625,2,0,P|224:128|232:172,1,90
252,248,167970,1,0,0:0:0:0:
92,152,168143,1,8,0:0:0:0:
236,72,168315,1,0,0:0:0:0:
164,212,168488,6,0,P|152:260|148:320,1,90
148,300,168746,1,0,0:0:0:0:
148,300,168832,1,8,0:0:0:0:
368,212,169005,2,0,P|360:140|340:104,1,90
272,168,169350,1,0,0:0:0:0:
428,80,169522,1,8,0:0:0:0:
404,304,169694,1,0,0:0:0:0:
272,168,169867,6,0,P|216:164|172:176,1,90
183,171,170125,1,0,0:0:0:0:
183,171,170212,1,8,0:0:0:0:
264,80,170384,2,0,P|320:96|356:124,1,90
356,204,170729,1,0,0:0:0:0:
183,171,170901,1,8,0:0:0:0:
264,80,171074,1,0,0:0:0:0:
264,284,171246,6,0,P|200:320|128:304,1,135
104,288,171591,1,8,0:0:0:0:
264,80,171763,2,0,B|296:83|327:101|327:101|345:144|332:189,1,135
330,212,172108,1,0,0:0:0:0:
184,172,172281,1,8,0:0:0:0:
180,148,172367,1,0,0:0:0:0:
176,124,172453,1,0,0:0:0:0:
172,100,172539,1,0,0:0:0:0:
168,76,172625,6,0,L|76:64,1,90
78,64,172884,1,0,0:0:0:0:
78,64,172970,1,8,0:0:0:0:
97,276,173143,2,0,P|142:272|184:256,1,90
260,208,173488,1,0,0:0:0:0:
400,152,173660,1,8,0:0:0:0:
444,232,173832,1,0,0:0:0:0:
248,124,174005,6,0,P|200:128|152:144,1,90
160,140,174263,1,0,0:0:0:0:
160,140,174350,1,8,0:0:0:0:
240,344,174522,2,0,P|272:296|284:248,1,90
192,276,174867,1,0,0:0:0:0:
248,124,175039,1,8,0:0:0:0:
324,308,175212,1,0,0:0:0:0:
160,140,175384,6,0,P|112:144|48:152,1,90
70,148,175643,1,0,0:0:0:0:
70,148,175729,1,8,0:0:0:0:
284,224,175901,2,0,P|340:204|368:172,1,90
344,96,176246,1,0,0:0:0:0:
180,48,176419,1,8,0:0:0:0:
216,288,176591,1,0,0:0:0:0:
368,204,176763,6,0,P|416:204|476:220,1,90
144,348,177108,2,0,P|128:300|132:244,1,90,8|0,0:0|0:0,0:0:0:0:
352,116,177453,2,0,P|368:164|364:220,1,90
180,48,177798,1,8,0:0:0:0:
180,48,177970,1,0,0:0:0:0:
256,192,200211,12,0,209177,2:0:0:0:
56,192,209867,6,0,L|56:240|56:276,2,67.5,0|0|0,2:0|2:0|2:0,2:0:0:0:
156,108,210729,5,0,0:0:0:0:
236,112,210901,1,0,0:0:0:0:
192,180,211074,1,0,0:0:0:0:
156,108,211246,2,0,L|164:36,1,67.5,0|0,1:0|0:0,0:0:0:0:
156,108,212108,5,0,0:0:0:0:
192,180,212281,1,0,0:0:0:0:
184,260,212453,1,0,0:0:0:0:
148,332,212625,2,0,P|204:320|232:320,1,67.5,0|0,1:0|0:0,0:0:0:0:
420,304,213488,5,0,0:0:0:0:
340,300,213660,1,0,0:0:0:0:
268,268,213832,1,0,0:0:0:0:
208,212,214005,2,0,P|196:168|196:136,1,67.5,0|0,1:0|0:0,0:0:0:0:
348,88,214867,6,0,L|404:80,2,45,0|0|0,0:0|0:0|0:0,0:0:0:0:
208,216,215384,2,0,P|252:228|304:232,1,90,0|0,1:0|0:0,0:0:0:0:
228,88,215901,2,0,P|183:92|139:104,1,90
72,148,216419,1,0,0:0:0:0:
44,224,216591,1,0,0:0:0:0:
48,304,216763,2,0,P|104:312|128:312,1,67.5,0|0,1:0|0:0,0:0:0:0:
408,232,218143,6,0,P|368:236|328:248,1,67.5,0|0,1:0|0:0,0:0:0:0:
408,232,219005,5,0,0:0:0:0:
384,156,219177,1,0,0:0:0:0:
312,296,219350,1,0,0:0:0:0:
220,148,219522,2,0,L|232:72,1,67.5,0|0,1:0|0:0,0:0:0:0:
220,148,220384,5,0,0:0:0:0:
220,148,220556,1,0,0:0:0:0:
88,276,220729,1,0,0:0:0:0:
32,220,220901,2,0,L|40:164,1,45,2|0,1:2|0:0,0:0:0:0:
128,80,221246,2,0,L|136:136,1,45,2|0,1:2|0:0,0:0:0:0:
208,304,221591,2,0,L|216:248,1,45,2|0,1:2|0:0,0:0:0:0:
360,136,221936,1,2,1:2:0:0:
424,288,222108,1,2,1:2:0:0:
424,288,222281,6,0,P|376:300|320:304,1,90,4|0,0:0|0:0,0:0:0:0:
184,144,222625,2,0,P|228:152|276:176,1,90,8|0,0:0|0:0,0:0:0:0:
268,171,222884,1,0,0:0:0:0:
268,171,222970,1,0,0:0:0:0:
252,252,223143,1,0,0:0:0:0:
360,136,223315,1,8,0:0:0:0:
424,200,223488,1,0,0:0:0:0:
252,252,223660,5,0,0:0:0:0:
268,172,223832,1,0,0:0:0:0:
380,328,224005,1,8,0:0:0:0:
144,256,224177,1,0,0:0:0:0:
424,200,224350,1,0,0:0:0:0:
360,136,224522,2,2,P|360:76|364:36,2,90,2|2|2,0:2|0:2|0:2,0:2:0:0:
336,224,225039,5,4,0:0:0:0:
144,156,225212,1,0,0:0:0:0:
144,156,225298,1,0,0:0:0:0:
144,156,225384,1,8,0:0:0:0:
224,112,225556,1,0,0:0:0:0:
288,312,225729,1,0,0:0:0:0:
440,280,225901,1,0,0:0:0:0:
244,196,226074,1,8,0:0:0:0:
196,336,226246,1,0,0:0:0:0:
40,216,226419,6,0,P|32:168|32:116,1,90
278,113,226763,2,0,P|264:156|244:196,1,90,8|0,0:0|0:0,0:0:0:0:
176,104,227108,1,0,0:0:0:0:
320,32,227281,1,0,0:0:0:0:
352,192,227453,1,8,0:0:0:0:
348,204,227539,1,0,0:0:0:0:
344,216,227625,1,0,0:0:0:0:
340,228,227712,1,0,0:0:0:0:
336,240,227798,6,0,P|284:256|232:256,1,90,4|0,0:0|0:0,0:0:0:0:
160,244,228143,1,8,0:0:0:0:
128,160,228315,1,0,0:0:0:0:
364,100,228488,2,0,P|359:144|354:189,1,90
168,332,228832,2,0,L|163:287|158:242,1,90,8|0,0:0|0:0,0:0:0:0:
236,196,229177,5,0,0:0:0:0:
44,208,229350,2,0,P|56:264|72:308,1,90,0|8,0:0|0:0,0:0:0:0:
340,176,229694,1,0,0:0:0:0:
236,200,229867,2,0,P|232:152|235:111,1,90
464,208,230212,2,0,P|468:256|465:297,1,90,8|0,0:0|0:0,0:0:0:0:
388,340,230556,5,0,0:0:0:0:
341,177,230729,1,0,0:0:0:0:
344,192,230815,1,0,0:0:0:0:
348,204,230901,1,8,0:0:0:0:
424,252,231074,1,0,0:0:0:0:
304,284,231246,2,0,L|208:276,2,90,0|0|8,0:0|0:0|0:0,0:0:0:0:
304,284,231763,1,0,0:0:0:0:
424,252,231936,5,0,0:0:0:0:
280,360,232108,1,0,0:0:0:0:
252,180,232281,1,0,0:0:0:0:
400,344,232453,1,0,0:0:0:0:
352,64,232625,1,0,0:0:0:0:
352,64,232970,1,0,0:0:0:0:
352,64,233315,6,0,P|288:72|236:68,1,90,4|0,0:0|0:0,0:0:0:0:
262,71,233574,1,0,0:0:0:0:
262,71,233660,1,8,0:0:0:0:
188,120,233832,1,0,0:0:0:0:
260,176,234005,1,0,0:0:0:0:
88,64,234177,1,0,0:0:0:0:
168,244,234350,1,8,0:0:0:0:
384,144,234522,1,0,0:0:0:0:
328,332,234694,6,0,P|280:348|232:352,1,90
152,332,235039,1,8,0:0:0:0:
168,244,235212,1,0,0:0:0:0:
16,336,235384,1,0,0:0:0:0:
276,260,235556,2,0,L|268:160,2,90,0|8|0,0:0|0:0|0:0,0:0:0:0:
364,240,236074,5,0,0:0:0:0:
180,152,236246,1,0,0:0:0:0:
184,140,236332,1,0,0:0:0:0:
188,128,236419,1,8,0:0:0:0:
264,76,236591,1,0,0:0:0:0:
328,140,236763,1,0,0:0:0:0:
176,40,236936,1,0,0:0:0:0:
356,52,237108,1,8,0:0:0:0:
256,208,237281,1,0,0:0:0:0:
96,128,237453,6,0,P|48:120|4:120,1,90
256,208,237798,2,0,P|304:204|356:192,2,90,8|0|0,0:0|0:0|0:0,0:0:0:0:
188,148,238315,1,0,0:0:0:0:
344,284,238488,1,0,0:0:0:0:
336,300,238574,1,0,0:0:0:0:
328,316,238660,1,0,0:0:0:0:
320,332,238746,1,0,0:0:0:0:
312,348,238832,6,0,P|252:352|208:352,1,90,4|0,0:0|0:0,0:0:0:0:
140,316,239177,1,8,0:0:0:0:
16,196,239350,1,0,0:0:0:0:
92,148,239522,2,0,P|104:196|88:244,1,90
4,72,239867,2,0,P|52:44|112:52,1,90,8|0,0:0|0:0,0:0:0:0:
256,192,240212,1,0,0:0:0:0:
228,108,240384,5,0,0:0:0:0:
436,104,240556,1,8,0:0:0:0:
280,28,240729,1,0,0:0:0:0:
348,124,240901,2,0,L|356:228,1,90
164,260,241246,2,0,L|156:156,1,90,8|0,0:0|0:0,0:0:0:0:
256,192,241591,5,0,0:0:0:0:
252,280,241763,1,0,0:0:0:0:
252,280,241850,1,0,0:0:0:0:
252,280,241936,1,8,0:0:0:0:
164,260,242108,1,0,0:0:0:0:
360,184,242281,2,0,P|432:172|504:172,2,135
372,272,242970,5,0,0:0:0:0:
144,156,243143,1,0,0:0:0:0:
312,92,243315,1,8,0:0:0:0:
52,100,243488,1,0,0:0:0:0:
256,192,243660,1,0,0:0:0:0:
256,192,244005,1,0,0:0:0:0:
208,32,244350,6,0,P|188:84|180:152,1,90,4|0,0:0|0:0,0:0:0:0:
181,117,244608,1,0,0:0:0:0:
181,117,244694,1,8,0:0:0:0:
444,232,244867,2,0,P|408:204|332:176,1,90
280,164,245212,1,0,0:0:0:0:
128,260,245384,1,8,0:0:0:0:
296,324,245556,1,0,0:0:0:0:
444,232,245729,6,0,P|440:176|428:128,1,90
432,143,245988,1,0,0:0:0:0:
432,143,246074,1,8,0:0:0:0:
136,128,246246,2,0,P|164:84|212:64,1,90
228,148,246591,1,0,0:0:0:0:
36,120,246763,1,8,0:0:0:0:
108,24,246936,1,0,0:0:0:0:
156,228,247108,6,0,L|164:328,1,90
163,317,247367,1,0,0:0:0:0:
163,317,247453,1,8,0:0:0:0:
336,96,247625,2,0,L|332:220,1,90
332,276,247970,1,0,0:0:0:0:
244,252,248143,1,8,0:0:0:0:
428,188,248315,1,0,0:0:0:0:
248,88,248488,6,0,P|196:88|116:136,1,135
92,160,248832,1,8,0:0:0:0:
244,252,249005,2,0,P|216:188|224:108,1,135
248,88,249350,1,0,0:0:0:0:
428,188,249522,1,8,0:0:0:0:
416,232,249608,1,0,0:0:0:0:
376,248,249694,1,0,0:0:0:0:
336,228,249781,1,0,0:0:0:0:
320,188,249867,6,0,P|320:140|328:88,1,90
325,98,250125,1,0,0:0:0:0:
325,98,250212,1,8,0:0:0:0:
120,44,250384,2,0,P|120:100|140:176,1,135
160,216,250729,1,0,0:0:0:0:
252,116,250901,1,8,0:0:0:0:
48,256,251074,1,0,0:0:0:0:
104,136,251246,5,0,0:0:0:0:
136,308,251419,1,0,0:0:0:0:
220,280,251591,1,8,0:0:0:0:
248,196,251763,2,0,P|296:168|384:152,1,135
420,152,252108,1,0,0:0:0:0:
420,152,252281,1,8,0:0:0:0:
336,60,252453,1,0,0:0:0:0:
420,260,252625,6,0,P|376:280|324:280,1,90
334,281,252884,1,0,0:0:0:0:
334,281,252970,1,8,0:0:0:0:
124,212,253143,2,0,P|80:260|80:332,1,135
120,340,253488,2,0,P|168:332|208:336,2,90,0|8|0,0:0|0:0|0:0,0:0:0:0:
36,300,254005,6,0,P|32:244|56:200,1,90
344,164,254350,2,0,P|344:212|316:248,1,90,8|0,0:0|0:0,0:0:0:0:
168,220,254694,2,0,P|168:172|196:136,1,90
476,84,255039,2,0,P|480:140|456:184,1,90,8|8,0:0|0:0,0:0:0:0:
344,164,255384,5,4,0:0:0:0:
320,56,255556,1,0,0:0:0:0:
308,292,255729,1,8,0:0:0:0:
344,164,255901,1,0,0:0:0:0:
344,164,256246,1,0,0:0:0:0:
260,192,256419,1,8,0:0:0:0:
368,336,256591,1,0,0:0:0:0:
440,172,256763,5,0,0:0:0:0:
336,252,256936,1,0,0:0:0:0:
208,96,257108,1,8,0:0:0:0:
104,244,257281,1,0,0:0:0:0:
260,192,257453,1,0,0:0:0:0:
172,172,257625,2,0,P|128:128|124:88,2,90,0|8|0,0:0|0:0|0:0,0:0:0:0:
296,112,258143,5,0,0:0:0:0:
192,260,258315,1,0,0:0:0:0:
192,260,258401,1,0,0:0:0:0:
192,260,258488,1,8,0:0:0:0:
88,88,258660,1,0,0:0:0:0:
260,192,258832,1,0,0:0:0:0:
172,172,259005,1,0,0:0:0:0:
392,120,259177,1,8,0:0:0:0:
260,192,259350,6,0,L|248:144,2,45
364,292,259694,1,0,0:0:0:0:
452,180,259867,1,8,0:0:0:0:
348,80,260039,1,0,0:0:0:0:
260,192,260212,1,0,0:0:0:0:
352,184,260384,1,0,0:0:0:0:
196,272,260556,1,8,0:0:0:0:
168,268,260643,1,0,0:0:0:0:
140,264,260729,1,0,0:0:0:0:
112,260,260815,1,0,0:0:0:0:
84,256,260901,6,0,P|52:192|80:112,1,135
92,72,261246,2,0,P|136:88|184:84,1,90,8|0,0:0|0:0,0:0:0:0:
308,48,261591,2,0,P|280:96|292:144,1,90
288,220,261850,2,0,P|356:164|348:92,1,135
308,48,262281,5,0,0:0:0:0:
240,128,262453,1,0,0:0:0:0:
440,40,262625,1,8,0:0:0:0:
416,220,262798,1,0,0:0:0:0:
348,172,262970,2,0,P|332:244|356:284,1,90
372,340,263229,2,0,P|264:296|220:320,1,135
256,192,263660,12,0,266074,0:0:0:0:
376,200,266419,6,0,L|392:100,2,90,4|0|0,0:0|0:0|0:0,0:0:0:0:
308,260,267281,2,2,L|252:268,1,45
204,124,267625,2,2,L|260:116,1,45
228,204,267970,5,0,0:0:0:0:
140,184,268143,1,0,0:0:0:0:
120,96,268315,1,0,0:0:0:0:
188,40,268488,1,0,0:0:0:0:
204,124,268660,2,2,L|196:188,2,45
272,68,269177,5,4,0:0:0:0:
120,96,269350,1,0,0:0:0:0:
152,272,269522,1,8,0:0:0:0:
224,200,269694,1,0,0:0:0:0:
48,168,269867,1,0,0:0:0:0:
204,120,270039,1,0,0:0:0:0:
288,280,270212,2,0,P|340:284|384:264,1,90,8|0,0:0|0:0,0:0:0:0:
374,270,270470,1,0,0:0:0:0:
374,270,270556,5,0,0:0:0:0:
448,220,270729,1,0,0:0:0:0:
396,144,270901,1,8,0:0:0:0:
352,360,271074,1,0,0:0:0:0:
456,328,271246,1,0,0:0:0:0:
320,192,271419,1,0,0:0:0:0:
288,196,271505,1,0,0:0:0:0:
256,200,271591,1,8,0:0:0:0:
224,204,271677,1,0,0:0:0:0:
192,208,271763,1,0,0:0:0:0:
160,212,271850,1,0,0:0:0:0:
128,216,271936,6,0,P|100:264|92:328,1,90,2|0,0:2|0:0,0:0:0:0:
88,364,272194,2,0,P|144:328|216:328,1,135,2|0,0:2|0:0,0:0:0:0:
444,244,272625,2,0,L|356:276,1,90,2|0,0:2|0:0,0:0:0:0:
292,292,272884,2,0,P|344:208|332:152,1,135,2|0,0:2|0:0,0:0:0:0:
68,140,273315,6,0,L|156:108,1,90,2|0,0:2|0:0,0:0:0:0:
220,92,273574,2,0,P|168:176|180:232,1,135,2|0,0:2|0:0,0:0:0:0:
376,304,274005,2,0,P|356:232|276:216,1,135,2|0,0:2|0:0,0:0:0:0:
292,296,274350,1,8,0:0:0:0:
356,136,274522,1,8,0:0:0:0:
212,240,274694,6,0,P|148:276|124:280,1,90,4|0,0:0|0:0,0:0:0:0:
44,288,274953,2,0,L|36:144,1,135,2|0,0:2|0:0,0:0:0:0:
388,152,275384,2,0,P|324:116|300:112,1,90,2|0,0:2|0:0,0:0:0:0:
220,104,275643,2,0,L|212:248,1,135,2|0,0:2|0:0,0:0:0:0:
304,224,276074,5,2,0:2:0:0:
120,172,276246,1,2,0:2:0:0:
316,112,276419,1,10,0:2:0:0:
152,36,276591,1,2,0:2:0:0:
440,32,276763,1,2,0:2:0:0:
440,32,277108,1,8,0:0:0:0:
440,32,277453,6,0,L|428:220,1,180,4|8,0:0|0:0,0:0:0:0:
428,211,277970,2,0,P|372:208|328:216,1,90
252,232,278315,1,0,0:0:0:0:
112,344,278488,1,8,0:0:0:0:
224,316,278660,1,0,0:0:0:0:
108,176,278832,6,0,L|120:80,1,90
128,76,279091,1,0,0:0:0:0:
136,64,279177,1,8,0:0:0:0:
317,175,279350,2,0,P|291:212|252:232,1,90
248,88,279694,1,0,0:0:0:0:
384,76,279867,1,8,0:0:0:0:
428,204,280039,1,0,0:0:0:0:
312,276,280212,6,0,P|260:280|204:268,1,90
222,273,280470,1,0,0:0:0:0:
222,273,280556,1,8,0:0:0:0:
76,108,280729,2,0,P|128:136|152:160,1,90
116,288,281074,1,0,0:0:0:0:
48,200,281246,1,8,0:0:0:0:
180,352,281419,1,0,0:0:0:0:
284,204,281591,6,0,P|272:152|260:68,1,135
296,24,281936,1,8,0:0:0:0:
428,280,282108,2,0,P|384:296|280:308,1,135
248,276,282453,1,0,0:0:0:0:
464,184,282625,1,8,0:0:0:0:
468,168,282712,1,0,0:0:0:0:
472,152,282798,1,0,0:0:0:0:
476,136,282884,1,0,0:0:0:0:
480,120,282970,6,0,P|456:64|444:8,1,90
448,35,283229,1,0,0:0:0:0:
448,35,283315,1,8,0:0:0:0:
336,196,283488,2,0,L|340:300,1,90
248,276,283832,1,0,0:0:0:0:
428,252,284005,1,8,0:0:0:0:
236,192,284177,1,0,0:0:0:0:
164,244,284350,6,0,P|112:256|68:252,1,90
32,176,284694,1,8,0:0:0:0:
248,276,284867,2,0,P|304:244|308:160,1,135
304,136,285212,1,0,0:0:0:0:
236,192,285384,1,8,0:0:0:0:
416,176,285556,1,0,0:0:0:0:
108,100,285729,6,0,L|120:264,1,135
152,268,286074,1,8,0:0:0:0:
304,136,286246,2,0,L|196:128,1,90
240,236,286591,1,0,0:0:0:0:
356,60,286763,1,8,0:0:0:0:
400,320,286936,1,0,0:0:0:0:
352,244,287108,6,0,P|344:192|360:152,1,90
464,48,287453,2,0,P|472:100|456:140,1,90,8|0,0:0|0:0,0:0:0:0:
256,208,287798,2,0,P|204:216|132:184,1,90
60,64,288143,1,8,0:0:0:0:
60,64,288315,1,8,0:0:0:0:
132,272,288488,5,4,0:0:0:0:
132,272,288832,1,8,0:0:0:0:
160,188,289005,1,0,0:0:0:0:
248,324,289177,1,0,0:0:0:0:
384,236,289350,1,8,0:0:0:0:
384,236,289522,1,8,0:0:0:0:
320,164,289694,1,0,0:0:0:0:
320,164,289781,1,0,0:0:0:0:
320,164,289867,5,0,0:0:0:0:
364,320,290039,1,0,0:0:0:0:
464,192,290212,1,8,0:0:0:0:
300,248,290384,1,0,0:0:0:0:
464,280,290556,1,0,0:0:0:0:
384,236,290729,1,8,0:0:0:0:
384,236,290901,1,8,0:0:0:0:
272,332,291074,1,0,0:0:0:0:
272,332,291160,1,0,0:0:0:0:
272,332,291246,5,0,0:0:0:0:
108,320,291419,1,0,0:0:0:0:
256,304,291591,1,8,0:0:0:0:
112,232,291763,1,0,0:0:0:0:
272,208,291936,2,0,B|324:228|324:228|368:220,2,90,0|8|8,0:0|0:0|0:0,0:0:0:0:
244,122,292453,1,0,0:0:0:0:
168,24,292625,6,0,P|143:63|148:112,1,90,2|0,0:2|0:0,0:0:0:0:
145,105,292884,1,2,0:2:0:0:
145,105,292970,1,8,0:0:0:0:
324,52,293142,1,2,0:2:0:0:
324,52,293315,2,0,B|340:104|287:166|332:232,1,180,2|8,0:2|0:0,0:0:0:0:
340,240,293746,1,0,0:0:0:0:
352,252,293832,1,0,0:0:0:0:
364,264,293919,1,0,0:0:0:0:
376,276,294005,5,4,0:0:0:0:
428,204,294177,1,0,0:0:0:0:
272,296,294350,1,8,0:0:0:0:
332,136,294522,1,0,0:0:0:0:
456,344,294694,2,0,P|388:356|308:356,2,135,0|0|0,0:0|0:0|0:0,0:0:0:0:
456,344,295298,1,0,0:0:0:0:
456,344,295384,5,0,0:0:0:0:
332,216,295556,1,0,0:0:0:0:
188,324,295729,1,8,0:0:0:0:
144,336,295815,1,0,0:0:0:0:
100,320,295901,1,0,0:0:0:0:
140,200,296074,2,0,P|140:144|136:60,2,135,0|0|0,0:0|0:0|0:0,0:0:0:0:
140,200,296677,1,0,0:0:0:0:
140,200,296763,5,0,0:0:0:0:
64,152,296936,1,0,0:0:0:0:
220,64,297108,1,8,0:0:0:0:
296,228,297281,1,0,0:0:0:0:
112,72,297453,1,0,0:0:0:0:
112,72,297712,1,0,0:0:0:0:
112,72,297970,1,0,0:0:0:0:
112,72,298056,1,0,0:0:0:0:
112,72,298143,5,0,0:0:0:0:
40,236,298315,1,0,0:0:0:0:
196,328,298488,1,8,0:0:0:0:
264,160,298660,1,0,0:0:0:0:
112,72,298832,6,0,P|80:112|96:180,1,90
96,240,299091,2,0,P|152:216|244:248,1,135
376,324,299522,5,4,0:0:0:0:
376,324,299867,1,8,0:0:0:0:
376,324,300039,2,0,P|364:268|372:224,1,90
456,260,300384,1,0,0:0:0:0:
240,212,300556,1,8,0:0:0:0:
404,139,300729,1,0,0:0:0:0:
300,284,300901,6,0,P|252:296|192:300,1,90
212,300,301160,1,0,0:0:0:0:
212,300,301246,1,8,0:0:0:0:
220,124,301419,2,0,P|228:52|248:16,1,90
284,200,301763,1,0,0:0:0:0:
108,168,301936,1,8,0:0:0:0:
304,112,302108,1,0,0:0:0:0:
136,268,302281,6,0,P|80:264|36:276,1,90
47,271,302539,1,0,0:0:0:0:
47,271,302625,1,8,0:0:0:0:
288,344,302798,2,0,P|344:328|380:300,1,90
356,204,303143,1,0,0:0:0:0:
200,116,303315,1,8,0:0:0:0:
200,116,303488,1,0,0:0:0:0:
216,296,303660,6,0,P|152:332|80:316,1,135
93,323,304005,1,8,0:0:0:0:
76,136,304177,2,0,P|140:100|212:116,1,135
199,109,304522,1,0,0:0:0:0:
312,232,304694,1,8,0:0:0:0:
316,256,304781,1,0,0:0:0:0:
320,280,304867,1,0,0:0:0:0:
324,304,304953,1,0,0:0:0:0:
328,328,305039,6,0,L|420:340,1,90
417,339,305298,1,0,0:0:0:0:
417,339,305384,1,8,0:0:0:0:
508,188,305556,2,0,P|463:192|421:208,1,90
480,276,305901,1,0,0:0:0:0:
364,140,306074,1,8,0:0:0:0:
288,188,306246,1,0,0:0:0:0:
216,132,306419,6,0,P|168:136|124:232,1,135
120,202,306763,1,8,0:0:0:0:
364,140,306936,2,0,P|396:92|408:44,1,90
316,56,307281,1,0,0:0:0:0:
212,204,307453,1,8,0:0:0:0:
392,224,307625,1,0,0:0:0:0:
248,116,307798,6,0,P|200:120|136:128,1,90
158,124,308056,1,0,0:0:0:0:
158,124,308143,1,8,0:0:0:0:
108,316,308315,2,0,P|52:296|24:264,1,90
200,216,308660,1,0,0:0:0:0:
180,48,308832,1,8,0:0:0:0:
84,80,309005,1,0,0:0:0:0:
280,48,309177,6,0,P|328:48|388:64,1,90
196,212,309522,2,0,P|180:164|184:108,1,90,8|0,0:0|0:0,0:0:0:0:
380,232,309867,2,0,P|396:280|392:336,1,90
476,140,310212,1,8,0:0:0:0:
476,140,310384,1,0,0:0:0:0:
284,148,310556,1,4,0:0:0:0:
