osu file format v14

[General]
AudioFilename: audio.mp3
AudioLeadIn: 0
PreviewTime: 1942
Countdown: 0
SampleSet: None
StackLeniency: 0.7
Mode: 0
LetterboxInBreaks: 0
WidescreenStoryboard: 1

[Editor]
Bookmarks: 1689
DistanceSpacing: 1
BeatDivisor: 4
GridSize: 8
TimelineZoom: 3.399999

[Metadata]
Title:PADORU PADORU
TitleUnicode:パドルパドル
Artist:Nero Claudius (CV: Tange Sakura)
ArtistUnicode:ネロ・クラウディウス (CV:丹下桜)
Creator:Azunyan-
Version:Azu's EX
Source:きかせて!! ブロッサム先生 メリクリ編
Tags:Xexyz azunyan- natsumi Type Moon Ace Omake Theater- Let Me Hear!! Blossom-sensei merry christmas
BeatmapID:1866983
BeatmapSetID:891491

[Difficulty]
HPDrainRate:1
CircleSize:5
OverallDifficulty:10
ApproachRate:10
SliderMultiplier:1.7
SliderTickRate:1

[Events]
//Background and Video events
0,0,"23f.png",0,0
//Break Periods
//Storyboard Layer 0 (Background)
//Storyboard Layer 1 (Fail)
//Storyboard Layer 2 (Pass)
//Storyboard Layer 3 (Foreground)
//Storyboard Sound Samples

[TimingPoints]
1184,337.078651685393,4,2,0,50,1,0
1942,300,4,2,0,50,1,0
2542,-50,4,2,0,50,0,0
8148,-25,4,2,0,50,0,0
8900,337.078651685393,4,2,0,50,1,0
10458,-25,4,2,0,50,0,0

[Colours]
Combo1 : 0,255,64
Combo2 : 255,0,0

[HitObjects]
256,192,1184,5,2,0:0:0:0:
256,192,1352,5,2,0:0:0:0:
256,192,1436,1,2,0:0:0:0:
256,192,1521,1,2,0:0:0:0:
256,192,1689,5,2,0:0:0:0:
256,192,1857,1,2,0:0:0:0:
256,192,1941,1,2,0:0:0:0:
256,192,2026,1,2,0:0:0:0:
256,192,2242,5,2,0:0:0:0:
256,192,2392,1,2,0:0:0:0:
256,192,2467,1,2,0:0:0:0:
256,192,2542,1,2,0:0:0:0:
212,113,2692,1,2,0:0:0:0:
212,113,2767,1,2,0:0:0:0:
212,113,2842,1,2,0:0:0:0:
403,68,2992,5,2,0:0:0:0:
403,68,3067,1,2,0:0:0:0:
403,68,3142,1,2,0:0:0:0:
360,274,3292,5,2,0:0:0:0:
360,274,3367,1,2,0:0:0:0:
360,274,3442,1,2,0:0:0:0:
81,316,3592,5,2,0:0:0:0:
81,316,3667,1,2,0:0:0:0:
81,316,3742,1,2,0:0:0:0:
177,32,3892,5,2,0:0:0:0:
202,27,3967,1,2,0:0:0:0:
228,30,4042,1,2,0:0:0:0:
252,40,4117,1,2,0:0:0:0:
271,57,4192,1,2,0:0:0:0:
285,80,4267,1,2,0:0:0:0:
291,105,4342,1,2,0:0:0:0:
289,131,4417,1,2,0:0:0:0:
279,155,4492,1,2,0:0:0:0:
263,175,4567,1,2,0:0:0:0:
241,190,4642,1,2,0:0:0:0:
216,197,4717,1,2,0:0:0:0:
190,196,4792,1,2,0:0:0:0:
59,50,4942,5,2,0:0:0:0:
59,50,5017,1,2,0:0:0:0:
59,50,5092,1,2,0:0:0:0:
241,190,5242,5,2,0:0:0:0:
241,190,5317,1,2,0:0:0:0:
241,190,5392,1,2,0:0:0:0:
117,353,5542,5,2,0:0:0:0:
117,353,5617,1,2,0:0:0:0:
117,353,5692,1,2,0:0:0:0:
446,60,5842,5,2,0:0:0:0:
446,60,5917,1,2,0:0:0:0:
446,60,5992,1,2,0:0:0:0:
370,334,6142,5,2,0:0:0:0:
370,334,6217,1,2,0:0:0:0:
370,334,6292,1,2,0:0:0:0:
256,192,6367,12,2,6517,0:0:0:0:
184,72,6592,5,2,0:0:0:0:
184,72,6667,1,2,0:0:0:0:
184,72,6742,1,2,0:0:0:0:
512,178,6892,5,2,0:0:0:0:
512,178,6967,1,2,0:0:0:0:
512,178,7042,1,2,0:0:0:0:
135,345,7192,5,2,0:0:0:0:
135,345,7267,1,2,0:0:0:0:
135,345,7342,1,2,0:0:0:0:
503,35,7492,5,2,0:0:0:0:
503,35,7567,1,2,0:0:0:0:
503,35,7642,1,2,0:0:0:0:
10,72,7792,5,2,0:0:0:0:
10,72,7867,1,2,0:0:0:0:
10,72,7942,1,2,0:0:0:0:
314,283,8092,5,2,0:0:0:0:
314,283,8167,1,2,0:0:0:0:
314,283,8242,1,2,0:0:0:0:
361,241,8317,1,2,0:0:0:0:
383,182,8392,1,2,0:0:0:0:
373,120,8467,1,2,0:0:0:0:
335,70,8542,1,2,0:0:0:0:
277,45,8617,1,2,0:0:0:0:
214,52,8692,1,2,0:0:0:0:
162,88,8767,1,2,0:0:0:0:
134,144,8842,1,2,0:0:0:0:
184,353,8900,5,2,0:0:0:0:
184,353,8984,1,2,0:0:0:0:
184,353,9068,1,2,0:0:0:0:
489,39,9237,5,2,0:0:0:0:
489,39,9321,1,2,0:0:0:0:
489,39,9405,1,2,0:0:0:0:
18,21,9574,5,2,0:0:0:0:
18,21,9658,1,2,0:0:0:0:
18,21,9742,1,2,0:0:0:0:
505,375,9911,5,2,0:0:0:0:
505,375,9995,1,2,0:0:0:0:
505,375,10079,1,2,0:0:0:0:
20,370,10248,5,2,0:0:0:0:
20,370,10332,1,2,0:0:0:0:
20,370,10416,1,2,0:0:0:0:
142,28,10501,6,0,P|208:253|407:0,2,680,2|2|2,0:0|0:0|0:0,0:0:0:0:
