osu file format v14

[General]
AudioFilename: audio.mp3
AudioLeadIn: 0
PreviewTime: 0
Countdown: 1
SampleSet: Normal
StackLeniency: 0.2
Mode: 0
LetterboxInBreaks: 0
WidescreenStoryboard: 0

[Editor]
DistanceSpacing: 1.9
BeatDivisor: 6
GridSize: 32
TimelineZoom: 1

[Metadata]
Title:nerkinshops
TitleUnicode:nerkinshops
Artist:Nerkin
ArtistUnicode:Nerkin
Creator:I_Rax_I
Version:Polniy dostup
Source:
Tags:russian minecraft rax i_rax_i meme nerkin
BeatmapID:2037542
BeatmapSetID:973270

[Difficulty]
HPDrainRate:4
CircleSize:5
OverallDifficulty:8
ApproachRate:8
SliderMultiplier:1.4
SliderTickRate:1

[Events]
//Background and Video events
0,0,"bg.png",0,0
//Break Periods
//Storyboard Layer 0 (Background)
//Storyboard Layer 1 (Fail)
//Storyboard Layer 2 (Pass)
//Storyboard Layer 3 (Foreground)
//Storyboard Sound Samples

[TimingPoints]
699,-100,4,1,0,10,0,0
1175,483.870967741935,4,1,0,100,1,0
1175,-100,4,1,0,10,0,0
1416,-100,4,1,0,5,0,0
1497,-66.6666666666667,4,1,0,10,0,0
1739,-66.6666666666667,4,1,0,5,0,0
1820,-50,4,1,0,5,0,0
2876,-43.4782608695652,4,1,0,10,0,0
5045,-100,4,1,0,10,0,0
5287,-100,4,1,0,5,0,0
5368,-66.6666666666667,4,1,0,10,0,0
5610,-66.6666666666667,4,1,0,5,0,0
5691,-50,4,1,0,10,0,0
5933,-50,4,1,0,5,0,0
6013,-40,4,1,0,10,0,0
8916,-100,4,1,0,10,0,0
9158,-100,4,1,0,5,0,0
9239,-66.6666666666667,4,1,0,10,0,0
9481,-66.6666666666667,4,1,0,5,0,0
9562,-50,4,1,0,10,0,0
9804,-50,4,1,0,5,0,0
10691,-43.4782608695652,4,1,0,10,0,0
16658,-66.6666666666667,4,1,0,10,0,0
16900,-66.6666666666667,4,1,0,5,0,0
16981,-50,4,1,0,10,0,0
17223,-50,4,1,0,5,0,0
17304,-40,4,1,0,10,0,0
17545,-40,4,1,0,5,0,0
18433,-43.4782608695652,4,1,0,10,0,0
20529,-66.6666666666667,4,1,0,10,0,0
20771,-66.6666666666667,4,1,0,5,0,0
20852,-50,4,1,0,10,0,0
21094,-50,4,1,0,5,0,0
21174,-40,4,1,0,10,0,0
21416,-40,4,1,0,5,0,0
24400,-66.6666666666667,4,1,0,10,0,0
24642,-66.6666666666667,4,1,0,5,0,0
24723,-50,4,1,0,10,0,0
24965,-50,4,1,0,5,0,0
25045,-40,4,1,0,10,0,0
25287,-40,4,1,0,5,0,0

[HitObjects]
423,218,691,5,0,0:0:0:0:
268,62,1175,6,0,P|229:75|203:115,1,70
212,59,1497,6,0,P|177:80|155:167,1,105.000004005432
157,68,1820,6,0,P|122:89|102:183,1,140
147,258,2142,1,0,0:0:0:0:
417,40,2626,5,0,0:0:0:0:
417,40,2949,2,0,L|389:228,2,161.000003070831
187,26,4078,5,0,0:0:0:0:
136,293,4562,5,0,0:0:0:0:
415,35,5045,6,0,P|411:75|406:118,1,70
322,118,5368,6,0,P|327:158|335:242,1,105.000004005432
435,200,5691,6,0,P|432:240|416:360,1,140
313,343,6013,6,0,B|114:343|114:343|105:327|105:327|105:280|105:280|115:262|115:262|187:262|211:262|211:262,1,350
469,111,6820,5,0,0:0:0:0:
20,57,6981,1,0,0:0:0:0:
297,324,7304,5,0,0:0:0:0:
11,300,7949,5,0,0:0:0:0:
501,231,8433,5,0,0:0:0:0:
81,50,8916,6,0,L|163:50,1,70
305,144,9239,6,0,L|174:144,1,105.000004005432
81,242,9562,6,0,L|237:242,1,140
298,242,9884,1,0,0:0:0:0:
402,348,10368,5,0,0:0:0:0:
402,348,10691,2,0,L|215:310,2,161.000003070831
107,332,11820,6,0,B|120:293|84:261|84:261|111:223|111:223|146:164|82:106|82:106|132:44,1,322.000006141663
210,43,12787,5,0,0:0:0:0:
234,342,13110,1,0,0:0:0:0:
506,68,13755,6,0,B|466:101|446:80|446:80|384:30|325:83|325:83|261:28|211:93|211:93|200:96,1,322.000006141663
16,267,14723,5,0,0:0:0:0:
417,250,15045,1,0,0:0:0:0:
58,46,15691,5,0,0:0:0:0:
339,274,16174,1,0,0:0:0:0:
46,297,16497,5,0,0:0:0:0:
46,297,16658,2,0,B|12:245|12:245|51:188,1,105.000004005432
186,63,16981,6,0,B|178:138|178:138|269:125,1,140
414,217,17304,6,0,B|446:299|446:299|322:303,1,175
263,282,17626,1,0,0:0:0:0:
45,55,18110,5,0,0:0:0:0:
45,55,18433,2,0,L|231:20,2,161.000003070831
403,193,19400,5,0,0:0:0:0:
403,193,19481,1,0,0:0:0:0:
403,193,19562,1,0,0:0:0:0:
32,303,20045,5,0,0:0:0:0:
30,67,20529,6,0,P|71:38|110:77,1,105.000004005432
200,277,20852,6,0,P|245:318|294:247,1,140
443,134,21174,6,0,P|447:61|341:61,1,175
177,185,21497,2,0,B|91:164|33:237|33:237|-67:192|0:100|20:100|21:101|47:113|47:113|14:101|12:99|7:98,1,350
355,21,22304,5,0,0:0:0:0:
434,354,22465,1,0,0:0:0:0:
2,160,22787,5,0,0:0:0:0:
308,133,23433,5,0,0:0:0:0:
2,383,23916,1,0,0:0:0:0:
301,19,24239,5,0,0:0:0:0:
301,19,24400,2,0,L|276:148,1,105.000004005432
93,298,24723,6,0,L|55:140,1,140
413,332,25045,6,0,L|483:132,1,175
504,64,25368,1,0,0:0:0:0:
90,82,25852,5,0,0:0:0:0:
52,290,26174,5,0,0:0:0:0:
483,318,26336,1,0,0:0:0:0:
365,90,26658,5,0,0:0:0:0:
